osu file format v14

[General]
AudioFilename: MEGALOMANIA.mp3
AudioLeadIn: 0
PreviewTime: -1
Countdown: 1
SampleSet: Soft
StackLeniency: 0.7
Mode: 0
LetterboxInBreaks: 1
WidescreenStoryboard: 1

[Editor]
DistanceSpacing: 0.8
BeatDivisor: 4
GridSize: 16
TimelineZoom: 2.899999

[Metadata]
Title:Burst Stream Practice Maps 2
TitleUnicode:Burst Stream Practice Maps 2
Artist:Various Artists
ArtistUnicode:Various Artists
Creator:nooblet
Version:270 BPM 32 notes
Source:
Tags:
BeatmapID:1022620
BeatmapSetID:478861

[Difficulty]
HPDrainRate:0
CircleSize:4
OverallDifficulty:10
ApproachRate:10
SliderMultiplier:1.4
SliderTickRate:1

[Events]
//Background and Video events
//Break Periods
2,89024,91987
2,121024,123987
2,153024,166654
2,209913,212876
//Storyboard Layer 0 (Background)
//Storyboard Layer 1 (Fail)
//Storyboard Layer 2 (Pass)
//Storyboard Layer 3 (Foreground)
//Storyboard Sound Samples

[TimingPoints]
2660,222.222222222222,4,2,0,100,1,0

[HitObjects]
128,64,16882,5,2,0:0:0:0:
144,64,16937,1,0,0:0:0:0:
160,64,16993,1,0,0:0:0:0:
176,64,17048,1,0,0:0:0:0:
192,64,17104,1,2,0:0:0:0:
208,64,17159,1,0,0:0:0:0:
224,64,17215,1,0,0:0:0:0:
240,64,17271,1,0,0:0:0:0:
256,64,17326,1,2,0:0:0:0:
272,64,17382,1,0,0:0:0:0:
288,64,17437,1,0,0:0:0:0:
304,64,17493,1,0,0:0:0:0:
320,64,17548,1,2,0:0:0:0:
336,64,17604,1,0,0:0:0:0:
352,64,17659,1,0,0:0:0:0:
368,64,17715,1,0,0:0:0:0:
384,64,17771,5,2,0:0:0:0:
384,80,17826,1,0,0:0:0:0:
384,96,17882,1,0,0:0:0:0:
384,112,17937,1,0,0:0:0:0:
384,128,17993,1,2,0:0:0:0:
384,144,18048,1,0,0:0:0:0:
384,160,18104,1,0,0:0:0:0:
384,176,18160,1,0,0:0:0:0:
384,192,18215,1,2,0:0:0:0:
384,208,18271,1,0,0:0:0:0:
384,224,18326,1,0,0:0:0:0:
384,240,18382,1,0,0:0:0:0:
384,256,18437,1,2,0:0:0:0:
384,272,18493,1,0,0:0:0:0:
384,288,18548,1,0,0:0:0:0:
384,304,18604,1,0,0:0:0:0:
384,320,18659,6,0,L|336:320,3,35,2|0|0|0,0:0|0:0|0:0|0:0,0:0:0:0:
320,320,18882,2,0,L|272:320,3,35,2|0|0|0,0:0|0:0|0:0|0:0,0:0:0:0:
256,320,19104,2,0,L|208:320,3,35,2|0|0|0,0:0|0:0|0:0|0:0,0:0:0:0:
192,320,19326,2,0,L|144:320,3,35,2|0|0|0,0:0|0:0|0:0|0:0,0:0:0:0:
128,320,19548,6,0,L|128:272,3,35,2|0|0|0,0:0|0:0|0:0|0:0,0:0:0:0:
128,256,19771,2,0,L|128:208,3,35,2|0|0|0,0:0|0:0|0:0|0:0,0:0:0:0:
128,192,19993,2,0,L|128:144,3,35,2|0|0|0,0:0|0:0|0:0|0:0,0:0:0:0:
128,128,20215,2,0,L|128:80,3,35,2|0|0|0,0:0|0:0|0:0|0:0,0:0:0:0:
128,64,20437,5,2,0:0:0:0:
144,64,20492,1,0,0:0:0:0:
160,64,20548,1,0,0:0:0:0:
176,64,20603,1,0,0:0:0:0:
192,64,20659,1,2,0:0:0:0:
208,64,20714,1,0,0:0:0:0:
224,64,20770,1,0,0:0:0:0:
240,64,20826,1,0,0:0:0:0:
256,64,20881,1,2,0:0:0:0:
272,64,20937,1,0,0:0:0:0:
288,64,20992,1,0,0:0:0:0:
304,64,21048,1,0,0:0:0:0:
320,64,21103,1,2,0:0:0:0:
336,64,21159,1,0,0:0:0:0:
352,64,21214,1,0,0:0:0:0:
368,64,21270,1,0,0:0:0:0:
384,64,21326,5,2,0:0:0:0:
384,80,21381,1,0,0:0:0:0:
384,96,21437,1,0,0:0:0:0:
384,112,21492,1,0,0:0:0:0:
384,128,21548,1,2,0:0:0:0:
384,144,21603,1,0,0:0:0:0:
384,160,21659,1,0,0:0:0:0:
384,176,21715,1,0,0:0:0:0:
384,192,21770,1,2,0:0:0:0:
384,208,21826,1,0,0:0:0:0:
384,224,21881,1,0,0:0:0:0:
384,240,21937,1,0,0:0:0:0:
384,256,21992,1,2,0:0:0:0:
384,272,22048,1,0,0:0:0:0:
384,288,22103,1,0,0:0:0:0:
384,304,22159,1,0,0:0:0:0:
384,320,22214,6,0,L|336:320,3,35,2|0|0|0,0:0|0:0|0:0|0:0,0:0:0:0:
320,320,22437,2,0,L|272:320,3,35,2|0|0|0,0:0|0:0|0:0|0:0,0:0:0:0:
256,320,22659,2,0,L|208:320,3,35,2|0|0|0,0:0|0:0|0:0|0:0,0:0:0:0:
192,320,22881,2,0,L|144:320,3,35,2|0|0|0,0:0|0:0|0:0|0:0,0:0:0:0:
128,320,23103,6,0,L|128:272,3,35,2|0|0|0,0:0|0:0|0:0|0:0,0:0:0:0:
128,256,23326,2,0,L|128:208,3,35,2|0|0|0,0:0|0:0|0:0|0:0,0:0:0:0:
128,192,23548,2,0,L|128:144,3,35,2|0|0|0,0:0|0:0|0:0|0:0,0:0:0:0:
128,128,23770,2,0,L|128:80,3,35,2|0|0|0,0:0|0:0|0:0|0:0,0:0:0:0:
128,64,23993,5,2,0:0:0:0:
144,64,24048,1,0,0:0:0:0:
160,64,24104,1,0,0:0:0:0:
176,64,24159,1,0,0:0:0:0:
192,64,24215,1,2,0:0:0:0:
208,64,24270,1,0,0:0:0:0:
224,64,24326,1,0,0:0:0:0:
240,64,24382,1,0,0:0:0:0:
256,64,24437,1,2,0:0:0:0:
272,64,24493,1,0,0:0:0:0:
288,64,24548,1,0,0:0:0:0:
304,64,24604,1,0,0:0:0:0:
320,64,24659,1,2,0:0:0:0:
336,64,24715,1,0,0:0:0:0:
352,64,24770,1,0,0:0:0:0:
368,64,24826,1,0,0:0:0:0:
384,64,24882,5,2,0:0:0:0:
384,80,24937,1,0,0:0:0:0:
384,96,24993,1,0,0:0:0:0:
384,112,25048,1,0,0:0:0:0:
384,128,25104,1,2,0:0:0:0:
384,144,25159,1,0,0:0:0:0:
384,160,25215,1,0,0:0:0:0:
384,176,25271,1,0,0:0:0:0:
384,192,25326,1,2,0:0:0:0:
384,208,25382,1,0,0:0:0:0:
384,224,25437,1,0,0:0:0:0:
384,240,25493,1,0,0:0:0:0:
384,256,25548,1,2,0:0:0:0:
384,272,25604,1,0,0:0:0:0:
384,288,25659,1,0,0:0:0:0:
384,304,25715,1,0,0:0:0:0:
384,320,25770,6,0,L|336:320,3,35,2|0|0|0,0:0|0:0|0:0|0:0,0:0:0:0:
320,320,25993,2,0,L|272:320,3,35,2|0|0|0,0:0|0:0|0:0|0:0,0:0:0:0:
256,320,26215,2,0,L|208:320,3,35,2|0|0|0,0:0|0:0|0:0|0:0,0:0:0:0:
192,320,26437,2,0,L|144:320,3,35,2|0|0|0,0:0|0:0|0:0|0:0,0:0:0:0:
128,320,26659,6,0,L|128:272,3,35,2|0|0|0,0:0|0:0|0:0|0:0,0:0:0:0:
128,256,26882,2,0,L|128:208,3,35,2|0|0|0,0:0|0:0|0:0|0:0,0:0:0:0:
128,192,27104,2,0,L|128:144,3,35,2|0|0|0,0:0|0:0|0:0|0:0,0:0:0:0:
128,128,27326,2,0,L|128:80,3,35,2|0|0|0,0:0|0:0|0:0|0:0,0:0:0:0:
128,64,27548,5,2,0:0:0:0:
144,64,27603,1,0,0:0:0:0:
160,64,27659,1,0,0:0:0:0:
176,64,27714,1,0,0:0:0:0:
192,64,27770,1,2,0:0:0:0:
208,64,27825,1,0,0:0:0:0:
224,64,27881,1,0,0:0:0:0:
240,64,27937,1,0,0:0:0:0:
256,64,27992,1,2,0:0:0:0:
272,64,28048,1,0,0:0:0:0:
288,64,28103,1,0,0:0:0:0:
304,64,28159,1,0,0:0:0:0:
320,64,28214,1,2,0:0:0:0:
336,64,28270,1,0,0:0:0:0:
352,64,28325,1,0,0:0:0:0:
368,64,28381,1,0,0:0:0:0:
384,64,28437,5,2,0:0:0:0:
384,80,28492,1,0,0:0:0:0:
384,96,28548,1,0,0:0:0:0:
384,112,28603,1,0,0:0:0:0:
384,128,28659,1,2,0:0:0:0:
384,144,28714,1,0,0:0:0:0:
384,160,28770,1,0,0:0:0:0:
384,176,28826,1,0,0:0:0:0:
384,192,28881,1,2,0:0:0:0:
384,208,28937,1,0,0:0:0:0:
384,224,28992,1,0,0:0:0:0:
384,240,29048,1,0,0:0:0:0:
384,256,29103,1,2,0:0:0:0:
384,272,29159,1,0,0:0:0:0:
384,288,29214,1,0,0:0:0:0:
384,304,29270,1,0,0:0:0:0:
384,320,29325,6,0,L|336:320,3,35,2|0|0|0,0:0|0:0|0:0|0:0,0:0:0:0:
320,320,29548,2,0,L|272:320,3,35,2|0|0|0,0:0|0:0|0:0|0:0,0:0:0:0:
256,320,29770,2,0,L|208:320,3,35,2|0|0|0,0:0|0:0|0:0|0:0,0:0:0:0:
192,320,29992,2,0,L|144:320,3,35,2|0|0|0,0:0|0:0|0:0|0:0,0:0:0:0:
128,320,30214,6,0,L|128:272,3,35,2|0|0|0,0:0|0:0|0:0|0:0,0:0:0:0:
128,256,30437,2,0,L|128:208,3,35,2|0|0|0,0:0|0:0|0:0|0:0,0:0:0:0:
128,192,30659,2,0,L|128:144,3,35,2|0|0|0,0:0|0:0|0:0|0:0,0:0:0:0:
128,128,30881,2,0,L|128:80,3,35,2|0|0|0,0:0|0:0|0:0|0:0,0:0:0:0:
128,64,31104,5,2,0:0:0:0:
144,64,31159,1,0,0:0:0:0:
160,64,31215,1,0,0:0:0:0:
176,64,31270,1,0,0:0:0:0:
192,64,31326,1,2,0:0:0:0:
208,64,31381,1,0,0:0:0:0:
224,64,31437,1,0,0:0:0:0:
240,64,31493,1,0,0:0:0:0:
256,64,31548,1,2,0:0:0:0:
272,64,31604,1,0,0:0:0:0:
288,64,31659,1,0,0:0:0:0:
304,64,31715,1,0,0:0:0:0:
320,64,31770,1,2,0:0:0:0:
336,64,31826,1,0,0:0:0:0:
352,64,31881,1,0,0:0:0:0:
368,64,31937,1,0,0:0:0:0:
384,64,31993,5,2,0:0:0:0:
384,80,32048,1,0,0:0:0:0:
384,96,32104,1,0,0:0:0:0:
384,112,32159,1,0,0:0:0:0:
384,128,32215,1,2,0:0:0:0:
384,144,32270,1,0,0:0:0:0:
384,160,32326,1,0,0:0:0:0:
384,176,32382,1,0,0:0:0:0:
384,192,32437,1,2,0:0:0:0:
384,208,32493,1,0,0:0:0:0:
384,224,32548,1,0,0:0:0:0:
384,240,32604,1,0,0:0:0:0:
384,256,32659,1,2,0:0:0:0:
384,272,32715,1,0,0:0:0:0:
384,288,32770,1,0,0:0:0:0:
384,304,32826,1,0,0:0:0:0:
384,320,32881,6,0,L|336:320,3,35,2|0|0|0,0:0|0:0|0:0|0:0,0:0:0:0:
320,320,33104,2,0,L|272:320,3,35,2|0|0|0,0:0|0:0|0:0|0:0,0:0:0:0:
256,320,33326,2,0,L|208:320,3,35,2|0|0|0,0:0|0:0|0:0|0:0,0:0:0:0:
192,320,33548,2,0,L|144:320,3,35,2|0|0|0,0:0|0:0|0:0|0:0,0:0:0:0:
128,320,33770,6,0,L|128:272,3,35,2|0|0|0,0:0|0:0|0:0|0:0,0:0:0:0:
128,256,33993,2,0,L|128:208,3,35,2|0|0|0,0:0|0:0|0:0|0:0,0:0:0:0:
128,192,34215,2,0,L|128:144,3,35,2|0|0|0,0:0|0:0|0:0|0:0,0:0:0:0:
128,128,34437,2,0,L|128:80,3,35,2|0|0|0,0:0|0:0|0:0|0:0,0:0:0:0:
128,64,34659,5,2,0:0:0:0:
144,64,34714,1,0,0:0:0:0:
160,64,34770,1,0,0:0:0:0:
176,64,34825,1,0,0:0:0:0:
192,64,34881,1,2,0:0:0:0:
208,64,34936,1,0,0:0:0:0:
224,64,34992,1,0,0:0:0:0:
240,64,35048,1,0,0:0:0:0:
256,64,35103,1,2,0:0:0:0:
272,64,35159,1,0,0:0:0:0:
288,64,35214,1,0,0:0:0:0:
304,64,35270,1,0,0:0:0:0:
320,64,35325,1,2,0:0:0:0:
336,64,35381,1,0,0:0:0:0:
352,64,35436,1,0,0:0:0:0:
368,64,35492,1,0,0:0:0:0:
384,64,35548,5,2,0:0:0:0:
384,80,35603,1,0,0:0:0:0:
384,96,35659,1,0,0:0:0:0:
384,112,35714,1,0,0:0:0:0:
384,128,35770,1,2,0:0:0:0:
384,144,35825,1,0,0:0:0:0:
384,160,35881,1,0,0:0:0:0:
384,176,35937,1,0,0:0:0:0:
384,192,35992,1,2,0:0:0:0:
384,208,36048,1,0,0:0:0:0:
384,224,36103,1,0,0:0:0:0:
384,240,36159,1,0,0:0:0:0:
384,256,36214,1,2,0:0:0:0:
384,272,36270,1,0,0:0:0:0:
384,288,36325,1,0,0:0:0:0:
384,304,36381,1,0,0:0:0:0:
384,320,36436,6,0,L|336:320,3,35,2|0|0|0,0:0|0:0|0:0|0:0,0:0:0:0:
320,320,36659,2,0,L|272:320,3,35,2|0|0|0,0:0|0:0|0:0|0:0,0:0:0:0:
256,320,36881,2,0,L|208:320,3,35,2|0|0|0,0:0|0:0|0:0|0:0,0:0:0:0:
192,320,37103,2,0,L|144:320,3,35,2|0|0|0,0:0|0:0|0:0|0:0,0:0:0:0:
128,320,37325,6,0,L|128:272,3,35,2|0|0|0,0:0|0:0|0:0|0:0,0:0:0:0:
128,256,37548,2,0,L|128:208,3,35,2|0|0|0,0:0|0:0|0:0|0:0,0:0:0:0:
128,192,37770,2,0,L|128:144,3,35,2|0|0|0,0:0|0:0|0:0|0:0,0:0:0:0:
128,128,37992,2,0,L|128:80,3,35,2|0|0|0,0:0|0:0|0:0|0:0,0:0:0:0:
128,64,38215,5,2,0:0:0:0:
144,64,38270,1,0,0:0:0:0:
160,64,38326,1,0,0:0:0:0:
176,64,38381,1,0,0:0:0:0:
192,64,38437,1,2,0:0:0:0:
208,64,38492,1,0,0:0:0:0:
224,64,38548,1,0,0:0:0:0:
240,64,38604,1,0,0:0:0:0:
256,64,38659,1,2,0:0:0:0:
272,64,38715,1,0,0:0:0:0:
288,64,38770,1,0,0:0:0:0:
304,64,38826,1,0,0:0:0:0:
320,64,38881,1,2,0:0:0:0:
336,64,38937,1,0,0:0:0:0:
352,64,38992,1,0,0:0:0:0:
368,64,39048,1,0,0:0:0:0:
384,64,39104,5,2,0:0:0:0:
384,80,39159,1,0,0:0:0:0:
384,96,39215,1,0,0:0:0:0:
384,112,39270,1,0,0:0:0:0:
384,128,39326,1,2,0:0:0:0:
384,144,39381,1,0,0:0:0:0:
384,160,39437,1,0,0:0:0:0:
384,176,39493,1,0,0:0:0:0:
384,192,39548,1,2,0:0:0:0:
384,208,39604,1,0,0:0:0:0:
384,224,39659,1,0,0:0:0:0:
384,240,39715,1,0,0:0:0:0:
384,256,39770,1,2,0:0:0:0:
384,272,39826,1,0,0:0:0:0:
384,288,39881,1,0,0:0:0:0:
384,304,39937,1,0,0:0:0:0:
384,320,39992,6,0,L|336:320,3,35,2|0|0|0,0:0|0:0|0:0|0:0,0:0:0:0:
320,320,40215,2,0,L|272:320,3,35,2|0|0|0,0:0|0:0|0:0|0:0,0:0:0:0:
256,320,40437,2,0,L|208:320,3,35,2|0|0|0,0:0|0:0|0:0|0:0,0:0:0:0:
192,320,40659,2,0,L|144:320,3,35,2|0|0|0,0:0|0:0|0:0|0:0,0:0:0:0:
128,320,40881,6,0,L|128:272,3,35,2|0|0|0,0:0|0:0|0:0|0:0,0:0:0:0:
128,256,41104,2,0,L|128:208,3,35,2|0|0|0,0:0|0:0|0:0|0:0,0:0:0:0:
128,192,41326,2,0,L|128:144,3,35,2|0|0|0,0:0|0:0|0:0|0:0,0:0:0:0:
128,128,41548,2,0,L|128:80,3,35,2|0|0|0,0:0|0:0|0:0|0:0,0:0:0:0:
128,64,41770,5,2,0:0:0:0:
144,64,41825,1,0,0:0:0:0:
160,64,41881,1,0,0:0:0:0:
176,64,41936,1,0,0:0:0:0:
192,64,41992,1,2,0:0:0:0:
208,64,42047,1,0,0:0:0:0:
224,64,42103,1,0,0:0:0:0:
240,64,42159,1,0,0:0:0:0:
256,64,42214,1,2,0:0:0:0:
272,64,42270,1,0,0:0:0:0:
288,64,42325,1,0,0:0:0:0:
304,64,42381,1,0,0:0:0:0:
320,64,42436,1,2,0:0:0:0:
336,64,42492,1,0,0:0:0:0:
352,64,42547,1,0,0:0:0:0:
368,64,42603,1,0,0:0:0:0:
384,64,42659,5,2,0:0:0:0:
384,80,42714,1,0,0:0:0:0:
384,96,42770,1,0,0:0:0:0:
384,112,42825,1,0,0:0:0:0:
384,128,42881,1,2,0:0:0:0:
384,144,42936,1,0,0:0:0:0:
384,160,42992,1,0,0:0:0:0:
384,176,43048,1,0,0:0:0:0:
384,192,43103,1,2,0:0:0:0:
384,208,43159,1,0,0:0:0:0:
384,224,43214,1,0,0:0:0:0:
384,240,43270,1,0,0:0:0:0:
384,256,43325,1,2,0:0:0:0:
384,272,43381,1,0,0:0:0:0:
384,288,43436,1,0,0:0:0:0:
384,304,43492,1,0,0:0:0:0:
384,320,43547,6,0,L|336:320,3,35,2|0|0|0,0:0|0:0|0:0|0:0,0:0:0:0:
320,320,43770,2,0,L|272:320,3,35,2|0|0|0,0:0|0:0|0:0|0:0,0:0:0:0:
256,320,43992,2,0,L|208:320,3,35,2|0|0|0,0:0|0:0|0:0|0:0,0:0:0:0:
192,320,44214,2,0,L|144:320,3,35,2|0|0|0,0:0|0:0|0:0|0:0,0:0:0:0:
128,320,44436,6,0,L|128:272,3,35,2|0|0|0,0:0|0:0|0:0|0:0,0:0:0:0:
128,256,44659,2,0,L|128:208,3,35,2|0|0|0,0:0|0:0|0:0|0:0,0:0:0:0:
128,192,44881,2,0,L|128:144,3,35,2|0|0|0,0:0|0:0|0:0|0:0,0:0:0:0:
128,128,45103,2,0,L|128:80,3,35,2|0|0|0,0:0|0:0|0:0|0:0,0:0:0:0:
128,64,46215,5,2,0:0:0:0:
144,64,46270,1,0,0:0:0:0:
160,64,46326,1,0,0:0:0:0:
176,64,46381,1,0,0:0:0:0:
192,64,46437,1,2,0:0:0:0:
208,64,46492,1,0,0:0:0:0:
224,64,46548,1,0,0:0:0:0:
240,64,46604,1,0,0:0:0:0:
256,64,46659,1,2,0:0:0:0:
272,64,46715,1,0,0:0:0:0:
288,64,46770,1,0,0:0:0:0:
304,64,46826,1,0,0:0:0:0:
320,64,46881,1,2,0:0:0:0:
336,64,46937,1,0,0:0:0:0:
352,64,46992,1,0,0:0:0:0:
368,64,47048,1,0,0:0:0:0:
384,64,47104,5,2,0:0:0:0:
384,80,47159,1,0,0:0:0:0:
384,96,47215,1,0,0:0:0:0:
384,112,47270,1,0,0:0:0:0:
384,128,47326,1,2,0:0:0:0:
384,144,47381,1,0,0:0:0:0:
384,160,47437,1,0,0:0:0:0:
384,176,47493,1,0,0:0:0:0:
384,192,47548,1,2,0:0:0:0:
384,208,47604,1,0,0:0:0:0:
384,224,47659,1,0,0:0:0:0:
384,240,47715,1,0,0:0:0:0:
384,256,47770,1,2,0:0:0:0:
384,272,47826,1,0,0:0:0:0:
384,288,47881,1,0,0:0:0:0:
384,304,47937,1,0,0:0:0:0:
384,320,47992,6,0,L|336:320,3,35,2|0|0|0,0:0|0:0|0:0|0:0,0:0:0:0:
320,320,48215,2,0,L|272:320,3,35,2|0|0|0,0:0|0:0|0:0|0:0,0:0:0:0:
256,320,48437,2,0,L|208:320,3,35,2|0|0|0,0:0|0:0|0:0|0:0,0:0:0:0:
192,320,48659,2,0,L|144:320,3,35,2|0|0|0,0:0|0:0|0:0|0:0,0:0:0:0:
128,320,48881,6,0,L|128:272,3,35,2|0|0|0,0:0|0:0|0:0|0:0,0:0:0:0:
128,256,49104,2,0,L|128:208,3,35,2|0|0|0,0:0|0:0|0:0|0:0,0:0:0:0:
128,192,49326,2,0,L|128:144,3,35,2|0|0|0,0:0|0:0|0:0|0:0,0:0:0:0:
128,128,49548,2,0,L|128:80,3,35,2|0|0|0,0:0|0:0|0:0|0:0,0:0:0:0:
128,64,49770,5,2,0:0:0:0:
144,64,49825,1,0,0:0:0:0:
160,64,49881,1,0,0:0:0:0:
176,64,49936,1,0,0:0:0:0:
192,64,49992,1,2,0:0:0:0:
208,64,50047,1,0,0:0:0:0:
224,64,50103,1,0,0:0:0:0:
240,64,50159,1,0,0:0:0:0:
256,64,50214,1,2,0:0:0:0:
272,64,50270,1,0,0:0:0:0:
288,64,50325,1,0,0:0:0:0:
304,64,50381,1,0,0:0:0:0:
320,64,50436,1,2,0:0:0:0:
336,64,50492,1,0,0:0:0:0:
352,64,50547,1,0,0:0:0:0:
368,64,50603,1,0,0:0:0:0:
384,64,50659,5,2,0:0:0:0:
384,80,50714,1,0,0:0:0:0:
384,96,50770,1,0,0:0:0:0:
384,112,50825,1,0,0:0:0:0:
384,128,50881,1,2,0:0:0:0:
384,144,50936,1,0,0:0:0:0:
384,160,50992,1,0,0:0:0:0:
384,176,51048,1,0,0:0:0:0:
384,192,51103,1,2,0:0:0:0:
384,208,51159,1,0,0:0:0:0:
384,224,51214,1,0,0:0:0:0:
384,240,51270,1,0,0:0:0:0:
384,256,51325,1,2,0:0:0:0:
384,272,51381,1,0,0:0:0:0:
384,288,51436,1,0,0:0:0:0:
384,304,51492,1,0,0:0:0:0:
384,320,51547,6,0,L|336:320,3,35,2|0|0|0,0:0|0:0|0:0|0:0,0:0:0:0:
320,320,51770,2,0,L|272:320,3,35,2|0|0|0,0:0|0:0|0:0|0:0,0:0:0:0:
256,320,51992,2,0,L|208:320,3,35,2|0|0|0,0:0|0:0|0:0|0:0,0:0:0:0:
192,320,52214,2,0,L|144:320,3,35,2|0|0|0,0:0|0:0|0:0|0:0,0:0:0:0:
128,320,52436,6,0,L|128:272,3,35,2|0|0|0,0:0|0:0|0:0|0:0,0:0:0:0:
128,256,52659,2,0,L|128:208,3,35,2|0|0|0,0:0|0:0|0:0|0:0,0:0:0:0:
128,192,52881,2,0,L|128:144,3,35,2|0|0|0,0:0|0:0|0:0|0:0,0:0:0:0:
128,128,53103,2,0,L|128:80,3,35,2|0|0|0,0:0|0:0|0:0|0:0,0:0:0:0:
128,64,53326,5,2,0:0:0:0:
144,64,53381,1,0,0:0:0:0:
160,64,53437,1,0,0:0:0:0:
176,64,53492,1,0,0:0:0:0:
192,64,53548,1,2,0:0:0:0:
208,64,53603,1,0,0:0:0:0:
224,64,53659,1,0,0:0:0:0:
240,64,53715,1,0,0:0:0:0:
256,64,53770,1,2,0:0:0:0:
272,64,53826,1,0,0:0:0:0:
288,64,53881,1,0,0:0:0:0:
304,64,53937,1,0,0:0:0:0:
320,64,53992,1,2,0:0:0:0:
336,64,54048,1,0,0:0:0:0:
352,64,54103,1,0,0:0:0:0:
368,64,54159,1,0,0:0:0:0:
384,64,54215,5,2,0:0:0:0:
384,80,54270,1,0,0:0:0:0:
384,96,54326,1,0,0:0:0:0:
384,112,54381,1,0,0:0:0:0:
384,128,54437,1,2,0:0:0:0:
384,144,54492,1,0,0:0:0:0:
384,160,54548,1,0,0:0:0:0:
384,176,54604,1,0,0:0:0:0:
384,192,54659,1,2,0:0:0:0:
384,208,54715,1,0,0:0:0:0:
384,224,54770,1,0,0:0:0:0:
384,240,54826,1,0,0:0:0:0:
384,256,54881,1,2,0:0:0:0:
384,272,54937,1,0,0:0:0:0:
384,288,54992,1,0,0:0:0:0:
384,304,55048,1,0,0:0:0:0:
384,320,55103,6,0,L|336:320,3,35,2|0|0|0,0:0|0:0|0:0|0:0,0:0:0:0:
320,320,55326,2,0,L|272:320,3,35,2|0|0|0,0:0|0:0|0:0|0:0,0:0:0:0:
256,320,55548,2,0,L|208:320,3,35,2|0|0|0,0:0|0:0|0:0|0:0,0:0:0:0:
192,320,55770,2,0,L|144:320,3,35,2|0|0|0,0:0|0:0|0:0|0:0,0:0:0:0:
128,320,55992,6,0,L|128:272,3,35,2|0|0|0,0:0|0:0|0:0|0:0,0:0:0:0:
128,256,56215,2,0,L|128:208,3,35,2|0|0|0,0:0|0:0|0:0|0:0,0:0:0:0:
128,192,56437,2,0,L|128:144,3,35,2|0|0|0,0:0|0:0|0:0|0:0,0:0:0:0:
128,128,56659,2,0,L|128:80,3,35,2|0|0|0,0:0|0:0|0:0|0:0,0:0:0:0:
128,64,56881,5,2,0:0:0:0:
144,64,56936,1,0,0:0:0:0:
160,64,56992,1,0,0:0:0:0:
176,64,57047,1,0,0:0:0:0:
192,64,57103,1,2,0:0:0:0:
208,64,57158,1,0,0:0:0:0:
224,64,57214,1,0,0:0:0:0:
240,64,57270,1,0,0:0:0:0:
256,64,57325,1,2,0:0:0:0:
272,64,57381,1,0,0:0:0:0:
288,64,57436,1,0,0:0:0:0:
304,64,57492,1,0,0:0:0:0:
320,64,57547,1,2,0:0:0:0:
336,64,57603,1,0,0:0:0:0:
352,64,57658,1,0,0:0:0:0:
368,64,57714,1,0,0:0:0:0:
384,64,57770,5,2,0:0:0:0:
384,80,57825,1,0,0:0:0:0:
384,96,57881,1,0,0:0:0:0:
384,112,57936,1,0,0:0:0:0:
384,128,57992,1,2,0:0:0:0:
384,144,58047,1,0,0:0:0:0:
384,160,58103,1,0,0:0:0:0:
384,176,58159,1,0,0:0:0:0:
384,192,58214,1,2,0:0:0:0:
384,208,58270,1,0,0:0:0:0:
384,224,58325,1,0,0:0:0:0:
384,240,58381,1,0,0:0:0:0:
384,256,58436,1,2,0:0:0:0:
384,272,58492,1,0,0:0:0:0:
384,288,58547,1,0,0:0:0:0:
384,304,58603,1,0,0:0:0:0:
384,320,58658,6,0,L|336:320,3,35,2|0|0|0,0:0|0:0|0:0|0:0,0:0:0:0:
320,320,58881,2,0,L|272:320,3,35,2|0|0|0,0:0|0:0|0:0|0:0,0:0:0:0:
256,320,59103,2,0,L|208:320,3,35,2|0|0|0,0:0|0:0|0:0|0:0,0:0:0:0:
192,320,59325,2,0,L|144:320,3,35,2|0|0|0,0:0|0:0|0:0|0:0,0:0:0:0:
128,320,59547,6,0,L|128:272,3,35,2|0|0|0,0:0|0:0|0:0|0:0,0:0:0:0:
128,256,59770,2,0,L|128:208,3,35,2|0|0|0,0:0|0:0|0:0|0:0,0:0:0:0:
128,192,59992,2,0,L|128:144,3,35,2|0|0|0,0:0|0:0|0:0|0:0,0:0:0:0:
128,128,60214,2,0,L|128:80,3,35,2|0|0|0,0:0|0:0|0:0|0:0,0:0:0:0:
128,64,60437,5,2,0:0:0:0:
144,64,60492,1,0,0:0:0:0:
160,64,60548,1,0,0:0:0:0:
176,64,60603,1,0,0:0:0:0:
192,64,60659,1,2,0:0:0:0:
208,64,60714,1,0,0:0:0:0:
224,64,60770,1,0,0:0:0:0:
240,64,60826,1,0,0:0:0:0:
256,64,60881,1,2,0:0:0:0:
272,64,60937,1,0,0:0:0:0:
288,64,60992,1,0,0:0:0:0:
304,64,61048,1,0,0:0:0:0:
320,64,61103,1,2,0:0:0:0:
336,64,61159,1,0,0:0:0:0:
352,64,61214,1,0,0:0:0:0:
368,64,61270,1,0,0:0:0:0:
384,64,61326,5,2,0:0:0:0:
384,80,61381,1,0,0:0:0:0:
384,96,61437,1,0,0:0:0:0:
384,112,61492,1,0,0:0:0:0:
384,128,61548,1,2,0:0:0:0:
384,144,61603,1,0,0:0:0:0:
384,160,61659,1,0,0:0:0:0:
384,176,61715,1,0,0:0:0:0:
384,192,61770,1,2,0:0:0:0:
384,208,61826,1,0,0:0:0:0:
384,224,61881,1,0,0:0:0:0:
384,240,61937,1,0,0:0:0:0:
384,256,61992,1,2,0:0:0:0:
384,272,62048,1,0,0:0:0:0:
384,288,62103,1,0,0:0:0:0:
384,304,62159,1,0,0:0:0:0:
384,320,62214,6,0,L|336:320,3,35,2|0|0|0,0:0|0:0|0:0|0:0,0:0:0:0:
320,320,62437,2,0,L|272:320,3,35,2|0|0|0,0:0|0:0|0:0|0:0,0:0:0:0:
256,320,62659,2,0,L|208:320,3,35,2|0|0|0,0:0|0:0|0:0|0:0,0:0:0:0:
192,320,62881,2,0,L|144:320,3,35,2|0|0|0,0:0|0:0|0:0|0:0,0:0:0:0:
128,320,63103,6,0,L|128:272,3,35,2|0|0|0,0:0|0:0|0:0|0:0,0:0:0:0:
128,256,63326,2,0,L|128:208,3,35,2|0|0|0,0:0|0:0|0:0|0:0,0:0:0:0:
128,192,63548,2,0,L|128:144,3,35,2|0|0|0,0:0|0:0|0:0|0:0,0:0:0:0:
128,128,63770,2,0,L|128:80,3,35,2|0|0|0,0:0|0:0|0:0|0:0,0:0:0:0:
128,64,63992,5,2,0:0:0:0:
144,64,64047,1,0,0:0:0:0:
160,64,64103,1,0,0:0:0:0:
176,64,64158,1,0,0:0:0:0:
192,64,64214,1,2,0:0:0:0:
208,64,64269,1,0,0:0:0:0:
224,64,64325,1,0,0:0:0:0:
240,64,64381,1,0,0:0:0:0:
256,64,64436,1,2,0:0:0:0:
272,64,64492,1,0,0:0:0:0:
288,64,64547,1,0,0:0:0:0:
304,64,64603,1,0,0:0:0:0:
320,64,64658,1,2,0:0:0:0:
336,64,64714,1,0,0:0:0:0:
352,64,64769,1,0,0:0:0:0:
368,64,64825,1,0,0:0:0:0:
384,64,64881,5,2,0:0:0:0:
384,80,64936,1,0,0:0:0:0:
384,96,64992,1,0,0:0:0:0:
384,112,65047,1,0,0:0:0:0:
384,128,65103,1,2,0:0:0:0:
384,144,65158,1,0,0:0:0:0:
384,160,65214,1,0,0:0:0:0:
384,176,65270,1,0,0:0:0:0:
384,192,65325,1,2,0:0:0:0:
384,208,65381,1,0,0:0:0:0:
384,224,65436,1,0,0:0:0:0:
384,240,65492,1,0,0:0:0:0:
384,256,65547,1,2,0:0:0:0:
384,272,65603,1,0,0:0:0:0:
384,288,65658,1,0,0:0:0:0:
384,304,65714,1,0,0:0:0:0:
384,320,65769,6,0,L|336:320,3,35,2|0|0|0,0:0|0:0|0:0|0:0,0:0:0:0:
320,320,65992,2,0,L|272:320,3,35,2|0|0|0,0:0|0:0|0:0|0:0,0:0:0:0:
256,320,66214,2,0,L|208:320,3,35,2|0|0|0,0:0|0:0|0:0|0:0,0:0:0:0:
192,320,66436,2,0,L|144:320,3,35,2|0|0|0,0:0|0:0|0:0|0:0,0:0:0:0:
128,320,66658,6,0,L|128:272,3,35,2|0|0|0,0:0|0:0|0:0|0:0,0:0:0:0:
128,256,66881,2,0,L|128:208,3,35,2|0|0|0,0:0|0:0|0:0|0:0,0:0:0:0:
128,192,67103,2,0,L|128:144,3,35,2|0|0|0,0:0|0:0|0:0|0:0,0:0:0:0:
128,128,67325,2,0,L|128:80,3,35,2|0|0|0,0:0|0:0|0:0|0:0,0:0:0:0:
128,64,67548,5,2,0:0:0:0:
144,64,67603,1,0,0:0:0:0:
160,64,67659,1,0,0:0:0:0:
176,64,67714,1,0,0:0:0:0:
192,64,67770,1,2,0:0:0:0:
208,64,67825,1,0,0:0:0:0:
224,64,67881,1,0,0:0:0:0:
240,64,67937,1,0,0:0:0:0:
256,64,67992,1,2,0:0:0:0:
272,64,68048,1,0,0:0:0:0:
288,64,68103,1,0,0:0:0:0:
304,64,68159,1,0,0:0:0:0:
320,64,68214,1,2,0:0:0:0:
336,64,68270,1,0,0:0:0:0:
352,64,68325,1,0,0:0:0:0:
368,64,68381,1,0,0:0:0:0:
384,64,68437,5,2,0:0:0:0:
384,80,68492,1,0,0:0:0:0:
384,96,68548,1,0,0:0:0:0:
384,112,68603,1,0,0:0:0:0:
384,128,68659,1,2,0:0:0:0:
384,144,68714,1,0,0:0:0:0:
384,160,68770,1,0,0:0:0:0:
384,176,68826,1,0,0:0:0:0:
384,192,68881,1,2,0:0:0:0:
384,208,68937,1,0,0:0:0:0:
384,224,68992,1,0,0:0:0:0:
384,240,69048,1,0,0:0:0:0:
384,256,69103,1,2,0:0:0:0:
384,272,69159,1,0,0:0:0:0:
384,288,69214,1,0,0:0:0:0:
384,304,69270,1,0,0:0:0:0:
384,320,69325,6,0,L|336:320,3,35,2|0|0|0,0:0|0:0|0:0|0:0,0:0:0:0:
320,320,69548,2,0,L|272:320,3,35,2|0|0|0,0:0|0:0|0:0|0:0,0:0:0:0:
256,320,69770,2,0,L|208:320,3,35,2|0|0|0,0:0|0:0|0:0|0:0,0:0:0:0:
192,320,69992,2,0,L|144:320,3,35,2|0|0|0,0:0|0:0|0:0|0:0,0:0:0:0:
128,320,70214,6,0,L|128:272,3,35,2|0|0|0,0:0|0:0|0:0|0:0,0:0:0:0:
128,256,70437,2,0,L|128:208,3,35,2|0|0|0,0:0|0:0|0:0|0:0,0:0:0:0:
128,192,70659,2,0,L|128:144,3,35,2|0|0|0,0:0|0:0|0:0|0:0,0:0:0:0:
128,128,70881,2,0,L|128:80,3,35,2|0|0|0,0:0|0:0|0:0|0:0,0:0:0:0:
128,64,71103,5,2,0:0:0:0:
144,64,71158,1,0,0:0:0:0:
160,64,71214,1,0,0:0:0:0:
176,64,71269,1,0,0:0:0:0:
192,64,71325,1,2,0:0:0:0:
208,64,71380,1,0,0:0:0:0:
224,64,71436,1,0,0:0:0:0:
240,64,71492,1,0,0:0:0:0:
256,64,71547,1,2,0:0:0:0:
272,64,71603,1,0,0:0:0:0:
288,64,71658,1,0,0:0:0:0:
304,64,71714,1,0,0:0:0:0:
320,64,71769,1,2,0:0:0:0:
336,64,71825,1,0,0:0:0:0:
352,64,71880,1,0,0:0:0:0:
368,64,71936,1,0,0:0:0:0:
384,64,71992,5,2,0:0:0:0:
384,80,72047,1,0,0:0:0:0:
384,96,72103,1,0,0:0:0:0:
384,112,72158,1,0,0:0:0:0:
384,128,72214,1,2,0:0:0:0:
384,144,72269,1,0,0:0:0:0:
384,160,72325,1,0,0:0:0:0:
384,176,72381,1,0,0:0:0:0:
384,192,72436,1,2,0:0:0:0:
384,208,72492,1,0,0:0:0:0:
384,224,72547,1,0,0:0:0:0:
384,240,72603,1,0,0:0:0:0:
384,256,72658,1,2,0:0:0:0:
384,272,72714,1,0,0:0:0:0:
384,288,72769,1,0,0:0:0:0:
384,304,72825,1,0,0:0:0:0:
384,320,72880,6,0,L|336:320,3,35,2|0|0|0,0:0|0:0|0:0|0:0,0:0:0:0:
320,320,73103,2,0,L|272:320,3,35,2|0|0|0,0:0|0:0|0:0|0:0,0:0:0:0:
256,320,73325,2,0,L|208:320,3,35,2|0|0|0,0:0|0:0|0:0|0:0,0:0:0:0:
192,320,73547,2,0,L|144:320,3,35,2|0|0|0,0:0|0:0|0:0|0:0,0:0:0:0:
128,320,73769,6,0,L|128:272,3,35,2|0|0|0,0:0|0:0|0:0|0:0,0:0:0:0:
128,256,73992,2,0,L|128:208,3,35,2|0|0|0,0:0|0:0|0:0|0:0,0:0:0:0:
128,192,74214,2,0,L|128:144,3,35,2|0|0|0,0:0|0:0|0:0|0:0,0:0:0:0:
128,128,74436,2,0,L|128:80,3,35,2|0|0|0,0:0|0:0|0:0|0:0,0:0:0:0:
128,64,74659,5,2,0:0:0:0:
144,64,74714,1,0,0:0:0:0:
160,64,74770,1,0,0:0:0:0:
176,64,74825,1,0,0:0:0:0:
192,64,74881,1,2,0:0:0:0:
208,64,74936,1,0,0:0:0:0:
224,64,74992,1,0,0:0:0:0:
240,64,75048,1,0,0:0:0:0:
256,64,75103,1,2,0:0:0:0:
272,64,75159,1,0,0:0:0:0:
288,64,75214,1,0,0:0:0:0:
304,64,75270,1,0,0:0:0:0:
320,64,75325,1,2,0:0:0:0:
336,64,75381,1,0,0:0:0:0:
352,64,75436,1,0,0:0:0:0:
368,64,75492,1,0,0:0:0:0:
384,64,75548,5,2,0:0:0:0:
384,80,75603,1,0,0:0:0:0:
384,96,75659,1,0,0:0:0:0:
384,112,75714,1,0,0:0:0:0:
384,128,75770,1,2,0:0:0:0:
384,144,75825,1,0,0:0:0:0:
384,160,75881,1,0,0:0:0:0:
384,176,75937,1,0,0:0:0:0:
384,192,75992,1,2,0:0:0:0:
384,208,76048,1,0,0:0:0:0:
384,224,76103,1,0,0:0:0:0:
384,240,76159,1,0,0:0:0:0:
384,256,76214,1,2,0:0:0:0:
384,272,76270,1,0,0:0:0:0:
384,288,76325,1,0,0:0:0:0:
384,304,76381,1,0,0:0:0:0:
384,320,76436,6,0,L|336:320,3,35,2|0|0|0,0:0|0:0|0:0|0:0,0:0:0:0:
320,320,76659,2,0,L|272:320,3,35,2|0|0|0,0:0|0:0|0:0|0:0,0:0:0:0:
256,320,76881,2,0,L|208:320,3,35,2|0|0|0,0:0|0:0|0:0|0:0,0:0:0:0:
192,320,77103,2,0,L|144:320,3,35,2|0|0|0,0:0|0:0|0:0|0:0,0:0:0:0:
128,320,77325,6,0,L|128:272,3,35,2|0|0|0,0:0|0:0|0:0|0:0,0:0:0:0:
128,256,77548,2,0,L|128:208,3,35,2|0|0|0,0:0|0:0|0:0|0:0,0:0:0:0:
128,192,77770,2,0,L|128:144,3,35,2|0|0|0,0:0|0:0|0:0|0:0,0:0:0:0:
128,128,77992,2,0,L|128:80,3,35,2|0|0|0,0:0|0:0|0:0|0:0,0:0:0:0:
128,64,78214,5,2,0:0:0:0:
144,64,78269,1,0,0:0:0:0:
160,64,78325,1,0,0:0:0:0:
176,64,78380,1,0,0:0:0:0:
192,64,78436,1,2,0:0:0:0:
208,64,78491,1,0,0:0:0:0:
224,64,78547,1,0,0:0:0:0:
240,64,78603,1,0,0:0:0:0:
256,64,78658,1,2,0:0:0:0:
272,64,78714,1,0,0:0:0:0:
288,64,78769,1,0,0:0:0:0:
304,64,78825,1,0,0:0:0:0:
320,64,78880,1,2,0:0:0:0:
336,64,78936,1,0,0:0:0:0:
352,64,78991,1,0,0:0:0:0:
368,64,79047,1,0,0:0:0:0:
384,64,79103,5,2,0:0:0:0:
384,80,79158,1,0,0:0:0:0:
384,96,79214,1,0,0:0:0:0:
384,112,79269,1,0,0:0:0:0:
384,128,79325,1,2,0:0:0:0:
384,144,79380,1,0,0:0:0:0:
384,160,79436,1,0,0:0:0:0:
384,176,79492,1,0,0:0:0:0:
384,192,79547,1,2,0:0:0:0:
384,208,79603,1,0,0:0:0:0:
384,224,79658,1,0,0:0:0:0:
384,240,79714,1,0,0:0:0:0:
384,256,79769,1,2,0:0:0:0:
384,272,79825,1,0,0:0:0:0:
384,288,79880,1,0,0:0:0:0:
384,304,79936,1,0,0:0:0:0:
384,320,79991,6,0,L|336:320,3,35,2|0|0|0,0:0|0:0|0:0|0:0,0:0:0:0:
320,320,80214,2,0,L|272:320,3,35,2|0|0|0,0:0|0:0|0:0|0:0,0:0:0:0:
256,320,80436,2,0,L|208:320,3,35,2|0|0|0,0:0|0:0|0:0|0:0,0:0:0:0:
192,320,80658,2,0,L|144:320,3,35,2|0|0|0,0:0|0:0|0:0|0:0,0:0:0:0:
128,320,80880,6,0,L|128:272,3,35,2|0|0|0,0:0|0:0|0:0|0:0,0:0:0:0:
128,256,81103,2,0,L|128:208,3,35,2|0|0|0,0:0|0:0|0:0|0:0,0:0:0:0:
128,192,81325,2,0,L|128:144,3,35,2|0|0|0,0:0|0:0|0:0|0:0,0:0:0:0:
128,128,81547,2,0,L|128:80,3,35,2|0|0|0,0:0|0:0|0:0|0:0,0:0:0:0:
128,64,81770,5,2,0:0:0:0:
144,64,81825,1,0,0:0:0:0:
160,64,81881,1,0,0:0:0:0:
176,64,81936,1,0,0:0:0:0:
192,64,81992,1,2,0:0:0:0:
208,64,82047,1,0,0:0:0:0:
224,64,82103,1,0,0:0:0:0:
240,64,82159,1,0,0:0:0:0:
256,64,82214,1,2,0:0:0:0:
272,64,82270,1,0,0:0:0:0:
288,64,82325,1,0,0:0:0:0:
304,64,82381,1,0,0:0:0:0:
320,64,82436,1,2,0:0:0:0:
336,64,82492,1,0,0:0:0:0:
352,64,82547,1,0,0:0:0:0:
368,64,82603,1,0,0:0:0:0:
384,64,82659,5,2,0:0:0:0:
384,80,82714,1,0,0:0:0:0:
384,96,82770,1,0,0:0:0:0:
384,112,82825,1,0,0:0:0:0:
384,128,82881,1,2,0:0:0:0:
384,144,82936,1,0,0:0:0:0:
384,160,82992,1,0,0:0:0:0:
384,176,83048,1,0,0:0:0:0:
384,192,83103,1,2,0:0:0:0:
384,208,83159,1,0,0:0:0:0:
384,224,83214,1,0,0:0:0:0:
384,240,83270,1,0,0:0:0:0:
384,256,83325,1,2,0:0:0:0:
384,272,83381,1,0,0:0:0:0:
384,288,83436,1,0,0:0:0:0:
384,304,83492,1,0,0:0:0:0:
384,320,83547,6,0,L|336:320,3,35,2|0|0|0,0:0|0:0|0:0|0:0,0:0:0:0:
320,320,83770,2,0,L|272:320,3,35,2|0|0|0,0:0|0:0|0:0|0:0,0:0:0:0:
256,320,83992,2,0,L|208:320,3,35,2|0|0|0,0:0|0:0|0:0|0:0,0:0:0:0:
192,320,84214,2,0,L|144:320,3,35,2|0|0|0,0:0|0:0|0:0|0:0,0:0:0:0:
128,320,84436,6,0,L|128:272,3,35,2|0|0|0,0:0|0:0|0:0|0:0,0:0:0:0:
128,256,84659,2,0,L|128:208,3,35,2|0|0|0,0:0|0:0|0:0|0:0,0:0:0:0:
128,192,84881,2,0,L|128:144,3,35,2|0|0|0,0:0|0:0|0:0|0:0,0:0:0:0:
128,128,85103,2,0,L|128:80,3,35,2|0|0|0,0:0|0:0|0:0|0:0,0:0:0:0:
128,64,85325,5,2,0:0:0:0:
144,64,85380,1,0,0:0:0:0:
160,64,85436,1,0,0:0:0:0:
176,64,85491,1,0,0:0:0:0:
192,64,85547,1,2,0:0:0:0:
208,64,85602,1,0,0:0:0:0:
224,64,85658,1,0,0:0:0:0:
240,64,85714,1,0,0:0:0:0:
256,64,85769,1,2,0:0:0:0:
272,64,85825,1,0,0:0:0:0:
288,64,85880,1,0,0:0:0:0:
304,64,85936,1,0,0:0:0:0:
320,64,85991,1,2,0:0:0:0:
336,64,86047,1,0,0:0:0:0:
352,64,86102,1,0,0:0:0:0:
368,64,86158,1,0,0:0:0:0:
384,64,86214,5,2,0:0:0:0:
384,80,86269,1,0,0:0:0:0:
384,96,86325,1,0,0:0:0:0:
384,112,86380,1,0,0:0:0:0:
384,128,86436,1,2,0:0:0:0:
384,144,86491,1,0,0:0:0:0:
384,160,86547,1,0,0:0:0:0:
384,176,86603,1,0,0:0:0:0:
384,192,86658,1,2,0:0:0:0:
384,208,86714,1,0,0:0:0:0:
384,224,86769,1,0,0:0:0:0:
384,240,86825,1,0,0:0:0:0:
384,256,86880,1,2,0:0:0:0:
384,272,86936,1,0,0:0:0:0:
384,288,86991,1,0,0:0:0:0:
384,304,87047,1,0,0:0:0:0:
384,320,87102,6,0,L|336:320,3,35,2|0|0|0,0:0|0:0|0:0|0:0,0:0:0:0:
320,320,87325,2,0,L|272:320,3,35,2|0|0|0,0:0|0:0|0:0|0:0,0:0:0:0:
256,320,87547,2,0,L|208:320,3,35,2|0|0|0,0:0|0:0|0:0|0:0,0:0:0:0:
192,320,87769,2,0,L|144:320,3,35,2|0|0|0,0:0|0:0|0:0|0:0,0:0:0:0:
128,320,87991,6,0,L|128:272,3,35,2|0|0|0,0:0|0:0|0:0|0:0,0:0:0:0:
128,256,88214,2,0,L|128:208,3,35,2|0|0|0,0:0|0:0|0:0|0:0,0:0:0:0:
128,192,88436,2,0,L|128:144,3,35,2|0|0|0,0:0|0:0|0:0|0:0,0:0:0:0:
128,128,88658,2,0,L|128:80,3,35,2|0|0|0,0:0|0:0|0:0|0:0,0:0:0:0:
128,64,92437,5,2,0:0:0:0:
144,64,92492,1,0,0:0:0:0:
160,64,92548,1,0,0:0:0:0:
176,64,92603,1,0,0:0:0:0:
192,64,92659,1,2,0:0:0:0:
208,64,92714,1,0,0:0:0:0:
224,64,92770,1,0,0:0:0:0:
240,64,92826,1,0,0:0:0:0:
256,64,92881,1,2,0:0:0:0:
272,64,92937,1,0,0:0:0:0:
288,64,92992,1,0,0:0:0:0:
304,64,93048,1,0,0:0:0:0:
320,64,93103,1,2,0:0:0:0:
336,64,93159,1,0,0:0:0:0:
352,64,93214,1,0,0:0:0:0:
368,64,93270,1,0,0:0:0:0:
384,64,93326,5,2,0:0:0:0:
384,80,93381,1,0,0:0:0:0:
384,96,93437,1,0,0:0:0:0:
384,112,93492,1,0,0:0:0:0:
384,128,93548,1,2,0:0:0:0:
384,144,93603,1,0,0:0:0:0:
384,160,93659,1,0,0:0:0:0:
384,176,93715,1,0,0:0:0:0:
384,192,93770,1,2,0:0:0:0:
384,208,93826,1,0,0:0:0:0:
384,224,93881,1,0,0:0:0:0:
384,240,93937,1,0,0:0:0:0:
384,256,93992,1,2,0:0:0:0:
384,272,94048,1,0,0:0:0:0:
384,288,94103,1,0,0:0:0:0:
384,304,94159,1,0,0:0:0:0:
384,320,94214,6,0,L|336:320,3,35,2|0|0|0,0:0|0:0|0:0|0:0,0:0:0:0:
320,320,94437,2,0,L|272:320,3,35,2|0|0|0,0:0|0:0|0:0|0:0,0:0:0:0:
256,320,94659,2,0,L|208:320,3,35,2|0|0|0,0:0|0:0|0:0|0:0,0:0:0:0:
192,320,94881,2,0,L|144:320,3,35,2|0|0|0,0:0|0:0|0:0|0:0,0:0:0:0:
128,320,95103,6,0,L|128:272,3,35,2|0|0|0,0:0|0:0|0:0|0:0,0:0:0:0:
128,256,95326,2,0,L|128:208,3,35,2|0|0|0,0:0|0:0|0:0|0:0,0:0:0:0:
128,192,95548,2,0,L|128:144,3,35,2|0|0|0,0:0|0:0|0:0|0:0,0:0:0:0:
128,128,95770,2,0,L|128:80,3,35,2|0|0|0,0:0|0:0|0:0|0:0,0:0:0:0:
128,64,95992,5,2,0:0:0:0:
144,64,96047,1,0,0:0:0:0:
160,64,96103,1,0,0:0:0:0:
176,64,96158,1,0,0:0:0:0:
192,64,96214,1,2,0:0:0:0:
208,64,96269,1,0,0:0:0:0:
224,64,96325,1,0,0:0:0:0:
240,64,96381,1,0,0:0:0:0:
256,64,96436,1,2,0:0:0:0:
272,64,96492,1,0,0:0:0:0:
288,64,96547,1,0,0:0:0:0:
304,64,96603,1,0,0:0:0:0:
320,64,96658,1,2,0:0:0:0:
336,64,96714,1,0,0:0:0:0:
352,64,96769,1,0,0:0:0:0:
368,64,96825,1,0,0:0:0:0:
384,64,96881,5,2,0:0:0:0:
384,80,96936,1,0,0:0:0:0:
384,96,96992,1,0,0:0:0:0:
384,112,97047,1,0,0:0:0:0:
384,128,97103,1,2,0:0:0:0:
384,144,97158,1,0,0:0:0:0:
384,160,97214,1,0,0:0:0:0:
384,176,97270,1,0,0:0:0:0:
384,192,97325,1,2,0:0:0:0:
384,208,97381,1,0,0:0:0:0:
384,224,97436,1,0,0:0:0:0:
384,240,97492,1,0,0:0:0:0:
384,256,97547,1,2,0:0:0:0:
384,272,97603,1,0,0:0:0:0:
384,288,97658,1,0,0:0:0:0:
384,304,97714,1,0,0:0:0:0:
384,320,97769,6,0,L|336:320,3,35,2|0|0|0,0:0|0:0|0:0|0:0,0:0:0:0:
320,320,97992,2,0,L|272:320,3,35,2|0|0|0,0:0|0:0|0:0|0:0,0:0:0:0:
256,320,98214,2,0,L|208:320,3,35,2|0|0|0,0:0|0:0|0:0|0:0,0:0:0:0:
192,320,98436,2,0,L|144:320,3,35,2|0|0|0,0:0|0:0|0:0|0:0,0:0:0:0:
128,320,98658,6,0,L|128:272,3,35,2|0|0|0,0:0|0:0|0:0|0:0,0:0:0:0:
128,256,98881,2,0,L|128:208,3,35,2|0|0|0,0:0|0:0|0:0|0:0,0:0:0:0:
128,192,99103,2,0,L|128:144,3,35,2|0|0|0,0:0|0:0|0:0|0:0,0:0:0:0:
128,128,99325,2,0,L|128:80,3,35,2|0|0|0,0:0|0:0|0:0|0:0,0:0:0:0:
128,64,99548,5,2,0:0:0:0:
144,64,99603,1,0,0:0:0:0:
160,64,99659,1,0,0:0:0:0:
176,64,99714,1,0,0:0:0:0:
192,64,99770,1,2,0:0:0:0:
208,64,99825,1,0,0:0:0:0:
224,64,99881,1,0,0:0:0:0:
240,64,99937,1,0,0:0:0:0:
256,64,99992,1,2,0:0:0:0:
272,64,100048,1,0,0:0:0:0:
288,64,100103,1,0,0:0:0:0:
304,64,100159,1,0,0:0:0:0:
320,64,100214,1,2,0:0:0:0:
336,64,100270,1,0,0:0:0:0:
352,64,100325,1,0,0:0:0:0:
368,64,100381,1,0,0:0:0:0:
384,64,100437,5,2,0:0:0:0:
384,80,100492,1,0,0:0:0:0:
384,96,100548,1,0,0:0:0:0:
384,112,100603,1,0,0:0:0:0:
384,128,100659,1,2,0:0:0:0:
384,144,100714,1,0,0:0:0:0:
384,160,100770,1,0,0:0:0:0:
384,176,100826,1,0,0:0:0:0:
384,192,100881,1,2,0:0:0:0:
384,208,100937,1,0,0:0:0:0:
384,224,100992,1,0,0:0:0:0:
384,240,101048,1,0,0:0:0:0:
384,256,101103,1,2,0:0:0:0:
384,272,101159,1,0,0:0:0:0:
384,288,101214,1,0,0:0:0:0:
384,304,101270,1,0,0:0:0:0:
384,320,101325,6,0,L|336:320,3,35,2|0|0|0,0:0|0:0|0:0|0:0,0:0:0:0:
320,320,101548,2,0,L|272:320,3,35,2|0|0|0,0:0|0:0|0:0|0:0,0:0:0:0:
256,320,101770,2,0,L|208:320,3,35,2|0|0|0,0:0|0:0|0:0|0:0,0:0:0:0:
192,320,101992,2,0,L|144:320,3,35,2|0|0|0,0:0|0:0|0:0|0:0,0:0:0:0:
128,320,102214,6,0,L|128:272,3,35,2|0|0|0,0:0|0:0|0:0|0:0,0:0:0:0:
128,256,102437,2,0,L|128:208,3,35,2|0|0|0,0:0|0:0|0:0|0:0,0:0:0:0:
128,192,102659,2,0,L|128:144,3,35,2|0|0|0,0:0|0:0|0:0|0:0,0:0:0:0:
128,128,102881,2,0,L|128:80,3,35,2|0|0|0,0:0|0:0|0:0|0:0,0:0:0:0:
128,64,103103,5,2,0:0:0:0:
144,64,103158,1,0,0:0:0:0:
160,64,103214,1,0,0:0:0:0:
176,64,103269,1,0,0:0:0:0:
192,64,103325,1,2,0:0:0:0:
208,64,103380,1,0,0:0:0:0:
224,64,103436,1,0,0:0:0:0:
240,64,103492,1,0,0:0:0:0:
256,64,103547,1,2,0:0:0:0:
272,64,103603,1,0,0:0:0:0:
288,64,103658,1,0,0:0:0:0:
304,64,103714,1,0,0:0:0:0:
320,64,103769,1,2,0:0:0:0:
336,64,103825,1,0,0:0:0:0:
352,64,103880,1,0,0:0:0:0:
368,64,103936,1,0,0:0:0:0:
384,64,103992,5,2,0:0:0:0:
384,80,104047,1,0,0:0:0:0:
384,96,104103,1,0,0:0:0:0:
384,112,104158,1,0,0:0:0:0:
384,128,104214,1,2,0:0:0:0:
384,144,104269,1,0,0:0:0:0:
384,160,104325,1,0,0:0:0:0:
384,176,104381,1,0,0:0:0:0:
384,192,104436,1,2,0:0:0:0:
384,208,104492,1,0,0:0:0:0:
384,224,104547,1,0,0:0:0:0:
384,240,104603,1,0,0:0:0:0:
384,256,104658,1,2,0:0:0:0:
384,272,104714,1,0,0:0:0:0:
384,288,104769,1,0,0:0:0:0:
384,304,104825,1,0,0:0:0:0:
384,320,104880,6,0,L|336:320,3,35,2|0|0|0,0:0|0:0|0:0|0:0,0:0:0:0:
320,320,105103,2,0,L|272:320,3,35,2|0|0|0,0:0|0:0|0:0|0:0,0:0:0:0:
256,320,105325,2,0,L|208:320,3,35,2|0|0|0,0:0|0:0|0:0|0:0,0:0:0:0:
192,320,105547,2,0,L|144:320,3,35,2|0|0|0,0:0|0:0|0:0|0:0,0:0:0:0:
128,320,105769,6,0,L|128:272,3,35,2|0|0|0,0:0|0:0|0:0|0:0,0:0:0:0:
128,256,105992,2,0,L|128:208,3,35,2|0|0|0,0:0|0:0|0:0|0:0,0:0:0:0:
128,192,106214,2,0,L|128:144,3,35,2|0|0|0,0:0|0:0|0:0|0:0,0:0:0:0:
128,128,106436,2,0,L|128:80,3,35,2|0|0|0,0:0|0:0|0:0|0:0,0:0:0:0:
128,64,106659,5,2,0:0:0:0:
144,64,106714,1,0,0:0:0:0:
160,64,106770,1,0,0:0:0:0:
176,64,106825,1,0,0:0:0:0:
192,64,106881,1,2,0:0:0:0:
208,64,106936,1,0,0:0:0:0:
224,64,106992,1,0,0:0:0:0:
240,64,107048,1,0,0:0:0:0:
256,64,107103,1,2,0:0:0:0:
272,64,107159,1,0,0:0:0:0:
288,64,107214,1,0,0:0:0:0:
304,64,107270,1,0,0:0:0:0:
320,64,107325,1,2,0:0:0:0:
336,64,107381,1,0,0:0:0:0:
352,64,107436,1,0,0:0:0:0:
368,64,107492,1,0,0:0:0:0:
384,64,107548,5,2,0:0:0:0:
384,80,107603,1,0,0:0:0:0:
384,96,107659,1,0,0:0:0:0:
384,112,107714,1,0,0:0:0:0:
384,128,107770,1,2,0:0:0:0:
384,144,107825,1,0,0:0:0:0:
384,160,107881,1,0,0:0:0:0:
384,176,107937,1,0,0:0:0:0:
384,192,107992,1,2,0:0:0:0:
384,208,108048,1,0,0:0:0:0:
384,224,108103,1,0,0:0:0:0:
384,240,108159,1,0,0:0:0:0:
384,256,108214,1,2,0:0:0:0:
384,272,108270,1,0,0:0:0:0:
384,288,108325,1,0,0:0:0:0:
384,304,108381,1,0,0:0:0:0:
384,320,108436,6,0,L|336:320,3,35,2|0|0|0,0:0|0:0|0:0|0:0,0:0:0:0:
320,320,108659,2,0,L|272:320,3,35,2|0|0|0,0:0|0:0|0:0|0:0,0:0:0:0:
256,320,108881,2,0,L|208:320,3,35,2|0|0|0,0:0|0:0|0:0|0:0,0:0:0:0:
192,320,109103,2,0,L|144:320,3,35,2|0|0|0,0:0|0:0|0:0|0:0,0:0:0:0:
128,320,109325,6,0,L|128:272,3,35,2|0|0|0,0:0|0:0|0:0|0:0,0:0:0:0:
128,256,109548,2,0,L|128:208,3,35,2|0|0|0,0:0|0:0|0:0|0:0,0:0:0:0:
128,192,109770,2,0,L|128:144,3,35,2|0|0|0,0:0|0:0|0:0|0:0,0:0:0:0:
128,128,109992,2,0,L|128:80,3,35,2|0|0|0,0:0|0:0|0:0|0:0,0:0:0:0:
128,64,110214,5,2,0:0:0:0:
144,64,110269,1,0,0:0:0:0:
160,64,110325,1,0,0:0:0:0:
176,64,110380,1,0,0:0:0:0:
192,64,110436,1,2,0:0:0:0:
208,64,110491,1,0,0:0:0:0:
224,64,110547,1,0,0:0:0:0:
240,64,110603,1,0,0:0:0:0:
256,64,110658,1,2,0:0:0:0:
272,64,110714,1,0,0:0:0:0:
288,64,110769,1,0,0:0:0:0:
304,64,110825,1,0,0:0:0:0:
320,64,110880,1,2,0:0:0:0:
336,64,110936,1,0,0:0:0:0:
352,64,110991,1,0,0:0:0:0:
368,64,111047,1,0,0:0:0:0:
384,64,111103,5,2,0:0:0:0:
384,80,111158,1,0,0:0:0:0:
384,96,111214,1,0,0:0:0:0:
384,112,111269,1,0,0:0:0:0:
384,128,111325,1,2,0:0:0:0:
384,144,111380,1,0,0:0:0:0:
384,160,111436,1,0,0:0:0:0:
384,176,111492,1,0,0:0:0:0:
384,192,111547,1,2,0:0:0:0:
384,208,111603,1,0,0:0:0:0:
384,224,111658,1,0,0:0:0:0:
384,240,111714,1,0,0:0:0:0:
384,256,111769,1,2,0:0:0:0:
384,272,111825,1,0,0:0:0:0:
384,288,111880,1,0,0:0:0:0:
384,304,111936,1,0,0:0:0:0:
384,320,111991,6,0,L|336:320,3,35,2|0|0|0,0:0|0:0|0:0|0:0,0:0:0:0:
320,320,112214,2,0,L|272:320,3,35,2|0|0|0,0:0|0:0|0:0|0:0,0:0:0:0:
256,320,112436,2,0,L|208:320,3,35,2|0|0|0,0:0|0:0|0:0|0:0,0:0:0:0:
192,320,112658,2,0,L|144:320,3,35,2|0|0|0,0:0|0:0|0:0|0:0,0:0:0:0:
128,320,112880,6,0,L|128:272,3,35,2|0|0|0,0:0|0:0|0:0|0:0,0:0:0:0:
128,256,113103,2,0,L|128:208,3,35,2|0|0|0,0:0|0:0|0:0|0:0,0:0:0:0:
128,192,113325,2,0,L|128:144,3,35,2|0|0|0,0:0|0:0|0:0|0:0,0:0:0:0:
128,128,113547,2,0,L|128:80,3,35,2|0|0|0,0:0|0:0|0:0|0:0,0:0:0:0:
128,64,113770,5,2,0:0:0:0:
144,64,113825,1,0,0:0:0:0:
160,64,113881,1,0,0:0:0:0:
176,64,113936,1,0,0:0:0:0:
192,64,113992,1,2,0:0:0:0:
208,64,114047,1,0,0:0:0:0:
224,64,114103,1,0,0:0:0:0:
240,64,114159,1,0,0:0:0:0:
256,64,114214,1,2,0:0:0:0:
272,64,114270,1,0,0:0:0:0:
288,64,114325,1,0,0:0:0:0:
304,64,114381,1,0,0:0:0:0:
320,64,114436,1,2,0:0:0:0:
336,64,114492,1,0,0:0:0:0:
352,64,114547,1,0,0:0:0:0:
368,64,114603,1,0,0:0:0:0:
384,64,114659,5,2,0:0:0:0:
384,80,114714,1,0,0:0:0:0:
384,96,114770,1,0,0:0:0:0:
384,112,114825,1,0,0:0:0:0:
384,128,114881,1,2,0:0:0:0:
384,144,114936,1,0,0:0:0:0:
384,160,114992,1,0,0:0:0:0:
384,176,115048,1,0,0:0:0:0:
384,192,115103,1,2,0:0:0:0:
384,208,115159,1,0,0:0:0:0:
384,224,115214,1,0,0:0:0:0:
384,240,115270,1,0,0:0:0:0:
384,256,115325,1,2,0:0:0:0:
384,272,115381,1,0,0:0:0:0:
384,288,115436,1,0,0:0:0:0:
384,304,115492,1,0,0:0:0:0:
384,320,115547,6,0,L|336:320,3,35,2|0|0|0,0:0|0:0|0:0|0:0,0:0:0:0:
320,320,115770,2,0,L|272:320,3,35,2|0|0|0,0:0|0:0|0:0|0:0,0:0:0:0:
256,320,115992,2,0,L|208:320,3,35,2|0|0|0,0:0|0:0|0:0|0:0,0:0:0:0:
192,320,116214,2,0,L|144:320,3,35,2|0|0|0,0:0|0:0|0:0|0:0,0:0:0:0:
128,320,116436,6,0,L|128:272,3,35,2|0|0|0,0:0|0:0|0:0|0:0,0:0:0:0:
128,256,116659,2,0,L|128:208,3,35,2|0|0|0,0:0|0:0|0:0|0:0,0:0:0:0:
128,192,116881,2,0,L|128:144,3,35,2|0|0|0,0:0|0:0|0:0|0:0,0:0:0:0:
128,128,117103,2,0,L|128:80,3,35,2|0|0|0,0:0|0:0|0:0|0:0,0:0:0:0:
128,64,117325,5,2,0:0:0:0:
144,64,117380,1,0,0:0:0:0:
160,64,117436,1,0,0:0:0:0:
176,64,117491,1,0,0:0:0:0:
192,64,117547,1,2,0:0:0:0:
208,64,117602,1,0,0:0:0:0:
224,64,117658,1,0,0:0:0:0:
240,64,117714,1,0,0:0:0:0:
256,64,117769,1,2,0:0:0:0:
272,64,117825,1,0,0:0:0:0:
288,64,117880,1,0,0:0:0:0:
304,64,117936,1,0,0:0:0:0:
320,64,117991,1,2,0:0:0:0:
336,64,118047,1,0,0:0:0:0:
352,64,118102,1,0,0:0:0:0:
368,64,118158,1,0,0:0:0:0:
384,64,118214,5,2,0:0:0:0:
384,80,118269,1,0,0:0:0:0:
384,96,118325,1,0,0:0:0:0:
384,112,118380,1,0,0:0:0:0:
384,128,118436,1,2,0:0:0:0:
384,144,118491,1,0,0:0:0:0:
384,160,118547,1,0,0:0:0:0:
384,176,118603,1,0,0:0:0:0:
384,192,118658,1,2,0:0:0:0:
384,208,118714,1,0,0:0:0:0:
384,224,118769,1,0,0:0:0:0:
384,240,118825,1,0,0:0:0:0:
384,256,118880,1,2,0:0:0:0:
384,272,118936,1,0,0:0:0:0:
384,288,118991,1,0,0:0:0:0:
384,304,119047,1,0,0:0:0:0:
384,320,119102,6,0,L|336:320,3,35,2|0|0|0,0:0|0:0|0:0|0:0,0:0:0:0:
320,320,119325,2,0,L|272:320,3,35,2|0|0|0,0:0|0:0|0:0|0:0,0:0:0:0:
256,320,119547,2,0,L|208:320,3,35,2|0|0|0,0:0|0:0|0:0|0:0,0:0:0:0:
192,320,119769,2,0,L|144:320,3,35,2|0|0|0,0:0|0:0|0:0|0:0,0:0:0:0:
128,320,119991,6,0,L|128:272,3,35,2|0|0|0,0:0|0:0|0:0|0:0,0:0:0:0:
128,256,120214,2,0,L|128:208,3,35,2|0|0|0,0:0|0:0|0:0|0:0,0:0:0:0:
128,192,120436,2,0,L|128:144,3,35,2|0|0|0,0:0|0:0|0:0|0:0,0:0:0:0:
128,128,120658,2,0,L|128:80,3,35,2|0|0|0,0:0|0:0|0:0|0:0,0:0:0:0:
128,64,124437,5,2,0:0:0:0:
144,64,124492,1,0,0:0:0:0:
160,64,124548,1,0,0:0:0:0:
176,64,124603,1,0,0:0:0:0:
192,64,124659,1,2,0:0:0:0:
208,64,124714,1,0,0:0:0:0:
224,64,124770,1,0,0:0:0:0:
240,64,124826,1,0,0:0:0:0:
256,64,124881,1,2,0:0:0:0:
272,64,124937,1,0,0:0:0:0:
288,64,124992,1,0,0:0:0:0:
304,64,125048,1,0,0:0:0:0:
320,64,125103,1,2,0:0:0:0:
336,64,125159,1,0,0:0:0:0:
352,64,125214,1,0,0:0:0:0:
368,64,125270,1,0,0:0:0:0:
384,64,125326,5,2,0:0:0:0:
384,80,125381,1,0,0:0:0:0:
384,96,125437,1,0,0:0:0:0:
384,112,125492,1,0,0:0:0:0:
384,128,125548,1,2,0:0:0:0:
384,144,125603,1,0,0:0:0:0:
384,160,125659,1,0,0:0:0:0:
384,176,125715,1,0,0:0:0:0:
384,192,125770,1,2,0:0:0:0:
384,208,125826,1,0,0:0:0:0:
384,224,125881,1,0,0:0:0:0:
384,240,125937,1,0,0:0:0:0:
384,256,125992,1,2,0:0:0:0:
384,272,126048,1,0,0:0:0:0:
384,288,126103,1,0,0:0:0:0:
384,304,126159,1,0,0:0:0:0:
384,320,126214,6,0,L|336:320,3,35,2|0|0|0,0:0|0:0|0:0|0:0,0:0:0:0:
320,320,126437,2,0,L|272:320,3,35,2|0|0|0,0:0|0:0|0:0|0:0,0:0:0:0:
256,320,126659,2,0,L|208:320,3,35,2|0|0|0,0:0|0:0|0:0|0:0,0:0:0:0:
192,320,126881,2,0,L|144:320,3,35,2|0|0|0,0:0|0:0|0:0|0:0,0:0:0:0:
128,320,127103,6,0,L|128:272,3,35,2|0|0|0,0:0|0:0|0:0|0:0,0:0:0:0:
128,256,127326,2,0,L|128:208,3,35,2|0|0|0,0:0|0:0|0:0|0:0,0:0:0:0:
128,192,127548,2,0,L|128:144,3,35,2|0|0|0,0:0|0:0|0:0|0:0,0:0:0:0:
128,128,127770,2,0,L|128:80,3,35,2|0|0|0,0:0|0:0|0:0|0:0,0:0:0:0:
128,64,127992,5,2,0:0:0:0:
144,64,128047,1,0,0:0:0:0:
160,64,128103,1,0,0:0:0:0:
176,64,128158,1,0,0:0:0:0:
192,64,128214,1,2,0:0:0:0:
208,64,128269,1,0,0:0:0:0:
224,64,128325,1,0,0:0:0:0:
240,64,128381,1,0,0:0:0:0:
256,64,128436,1,2,0:0:0:0:
272,64,128492,1,0,0:0:0:0:
288,64,128547,1,0,0:0:0:0:
304,64,128603,1,0,0:0:0:0:
320,64,128658,1,2,0:0:0:0:
336,64,128714,1,0,0:0:0:0:
352,64,128769,1,0,0:0:0:0:
368,64,128825,1,0,0:0:0:0:
384,64,128881,5,2,0:0:0:0:
384,80,128936,1,0,0:0:0:0:
384,96,128992,1,0,0:0:0:0:
384,112,129047,1,0,0:0:0:0:
384,128,129103,1,2,0:0:0:0:
384,144,129158,1,0,0:0:0:0:
384,160,129214,1,0,0:0:0:0:
384,176,129270,1,0,0:0:0:0:
384,192,129325,1,2,0:0:0:0:
384,208,129381,1,0,0:0:0:0:
384,224,129436,1,0,0:0:0:0:
384,240,129492,1,0,0:0:0:0:
384,256,129547,1,2,0:0:0:0:
384,272,129603,1,0,0:0:0:0:
384,288,129658,1,0,0:0:0:0:
384,304,129714,1,0,0:0:0:0:
384,320,129769,6,0,L|336:320,3,35,2|0|0|0,0:0|0:0|0:0|0:0,0:0:0:0:
320,320,129992,2,0,L|272:320,3,35,2|0|0|0,0:0|0:0|0:0|0:0,0:0:0:0:
256,320,130214,2,0,L|208:320,3,35,2|0|0|0,0:0|0:0|0:0|0:0,0:0:0:0:
192,320,130436,2,0,L|144:320,3,35,2|0|0|0,0:0|0:0|0:0|0:0,0:0:0:0:
128,320,130658,6,0,L|128:272,3,35,2|0|0|0,0:0|0:0|0:0|0:0,0:0:0:0:
128,256,130881,2,0,L|128:208,3,35,2|0|0|0,0:0|0:0|0:0|0:0,0:0:0:0:
128,192,131103,2,0,L|128:144,3,35,2|0|0|0,0:0|0:0|0:0|0:0,0:0:0:0:
128,128,131325,2,0,L|128:80,3,35,2|0|0|0,0:0|0:0|0:0|0:0,0:0:0:0:
128,64,131548,5,2,0:0:0:0:
144,64,131603,1,0,0:0:0:0:
160,64,131659,1,0,0:0:0:0:
176,64,131714,1,0,0:0:0:0:
192,64,131770,1,2,0:0:0:0:
208,64,131825,1,0,0:0:0:0:
224,64,131881,1,0,0:0:0:0:
240,64,131937,1,0,0:0:0:0:
256,64,131992,1,2,0:0:0:0:
272,64,132048,1,0,0:0:0:0:
288,64,132103,1,0,0:0:0:0:
304,64,132159,1,0,0:0:0:0:
320,64,132214,1,2,0:0:0:0:
336,64,132270,1,0,0:0:0:0:
352,64,132325,1,0,0:0:0:0:
368,64,132381,1,0,0:0:0:0:
384,64,132437,5,2,0:0:0:0:
384,80,132492,1,0,0:0:0:0:
384,96,132548,1,0,0:0:0:0:
384,112,132603,1,0,0:0:0:0:
384,128,132659,1,2,0:0:0:0:
384,144,132714,1,0,0:0:0:0:
384,160,132770,1,0,0:0:0:0:
384,176,132826,1,0,0:0:0:0:
384,192,132881,1,2,0:0:0:0:
384,208,132937,1,0,0:0:0:0:
384,224,132992,1,0,0:0:0:0:
384,240,133048,1,0,0:0:0:0:
384,256,133103,1,2,0:0:0:0:
384,272,133159,1,0,0:0:0:0:
384,288,133214,1,0,0:0:0:0:
384,304,133270,1,0,0:0:0:0:
384,320,133325,6,0,L|336:320,3,35,2|0|0|0,0:0|0:0|0:0|0:0,0:0:0:0:
320,320,133548,2,0,L|272:320,3,35,2|0|0|0,0:0|0:0|0:0|0:0,0:0:0:0:
256,320,133770,2,0,L|208:320,3,35,2|0|0|0,0:0|0:0|0:0|0:0,0:0:0:0:
192,320,133992,2,0,L|144:320,3,35,2|0|0|0,0:0|0:0|0:0|0:0,0:0:0:0:
128,320,134214,6,0,L|128:272,3,35,2|0|0|0,0:0|0:0|0:0|0:0,0:0:0:0:
128,256,134437,2,0,L|128:208,3,35,2|0|0|0,0:0|0:0|0:0|0:0,0:0:0:0:
128,192,134659,2,0,L|128:144,3,35,2|0|0|0,0:0|0:0|0:0|0:0,0:0:0:0:
128,128,134881,2,0,L|128:80,3,35,2|0|0|0,0:0|0:0|0:0|0:0,0:0:0:0:
128,64,135103,5,2,0:0:0:0:
144,64,135158,1,0,0:0:0:0:
160,64,135214,1,0,0:0:0:0:
176,64,135269,1,0,0:0:0:0:
192,64,135325,1,2,0:0:0:0:
208,64,135380,1,0,0:0:0:0:
224,64,135436,1,0,0:0:0:0:
240,64,135492,1,0,0:0:0:0:
256,64,135547,1,2,0:0:0:0:
272,64,135603,1,0,0:0:0:0:
288,64,135658,1,0,0:0:0:0:
304,64,135714,1,0,0:0:0:0:
320,64,135769,1,2,0:0:0:0:
336,64,135825,1,0,0:0:0:0:
352,64,135880,1,0,0:0:0:0:
368,64,135936,1,0,0:0:0:0:
384,64,135992,5,2,0:0:0:0:
384,80,136047,1,0,0:0:0:0:
384,96,136103,1,0,0:0:0:0:
384,112,136158,1,0,0:0:0:0:
384,128,136214,1,2,0:0:0:0:
384,144,136269,1,0,0:0:0:0:
384,160,136325,1,0,0:0:0:0:
384,176,136381,1,0,0:0:0:0:
384,192,136436,1,2,0:0:0:0:
384,208,136492,1,0,0:0:0:0:
384,224,136547,1,0,0:0:0:0:
384,240,136603,1,0,0:0:0:0:
384,256,136658,1,2,0:0:0:0:
384,272,136714,1,0,0:0:0:0:
384,288,136769,1,0,0:0:0:0:
384,304,136825,1,0,0:0:0:0:
384,320,136880,6,0,L|336:320,3,35,2|0|0|0,0:0|0:0|0:0|0:0,0:0:0:0:
320,320,137103,2,0,L|272:320,3,35,2|0|0|0,0:0|0:0|0:0|0:0,0:0:0:0:
256,320,137325,2,0,L|208:320,3,35,2|0|0|0,0:0|0:0|0:0|0:0,0:0:0:0:
192,320,137547,2,0,L|144:320,3,35,2|0|0|0,0:0|0:0|0:0|0:0,0:0:0:0:
128,320,137769,6,0,L|128:272,3,35,2|0|0|0,0:0|0:0|0:0|0:0,0:0:0:0:
128,256,137992,2,0,L|128:208,3,35,2|0|0|0,0:0|0:0|0:0|0:0,0:0:0:0:
128,192,138214,2,0,L|128:144,3,35,2|0|0|0,0:0|0:0|0:0|0:0,0:0:0:0:
128,128,138436,2,0,L|128:80,3,35,2|0|0|0,0:0|0:0|0:0|0:0,0:0:0:0:
128,64,138659,5,2,0:0:0:0:
144,64,138714,1,0,0:0:0:0:
160,64,138770,1,0,0:0:0:0:
176,64,138825,1,0,0:0:0:0:
192,64,138881,1,2,0:0:0:0:
208,64,138936,1,0,0:0:0:0:
224,64,138992,1,0,0:0:0:0:
240,64,139048,1,0,0:0:0:0:
256,64,139103,1,2,0:0:0:0:
272,64,139159,1,0,0:0:0:0:
288,64,139214,1,0,0:0:0:0:
304,64,139270,1,0,0:0:0:0:
320,64,139325,1,2,0:0:0:0:
336,64,139381,1,0,0:0:0:0:
352,64,139436,1,0,0:0:0:0:
368,64,139492,1,0,0:0:0:0:
384,64,139548,5,2,0:0:0:0:
384,80,139603,1,0,0:0:0:0:
384,96,139659,1,0,0:0:0:0:
384,112,139714,1,0,0:0:0:0:
384,128,139770,1,2,0:0:0:0:
384,144,139825,1,0,0:0:0:0:
384,160,139881,1,0,0:0:0:0:
384,176,139937,1,0,0:0:0:0:
384,192,139992,1,2,0:0:0:0:
384,208,140048,1,0,0:0:0:0:
384,224,140103,1,0,0:0:0:0:
384,240,140159,1,0,0:0:0:0:
384,256,140214,1,2,0:0:0:0:
384,272,140270,1,0,0:0:0:0:
384,288,140325,1,0,0:0:0:0:
384,304,140381,1,0,0:0:0:0:
384,320,140436,6,0,L|336:320,3,35,2|0|0|0,0:0|0:0|0:0|0:0,0:0:0:0:
320,320,140659,2,0,L|272:320,3,35,2|0|0|0,0:0|0:0|0:0|0:0,0:0:0:0:
256,320,140881,2,0,L|208:320,3,35,2|0|0|0,0:0|0:0|0:0|0:0,0:0:0:0:
192,320,141103,2,0,L|144:320,3,35,2|0|0|0,0:0|0:0|0:0|0:0,0:0:0:0:
128,320,141325,6,0,L|128:272,3,35,2|0|0|0,0:0|0:0|0:0|0:0,0:0:0:0:
128,256,141548,2,0,L|128:208,3,35,2|0|0|0,0:0|0:0|0:0|0:0,0:0:0:0:
128,192,141770,2,0,L|128:144,3,35,2|0|0|0,0:0|0:0|0:0|0:0,0:0:0:0:
128,128,141992,2,0,L|128:80,3,35,2|0|0|0,0:0|0:0|0:0|0:0,0:0:0:0:
128,64,142214,5,2,0:0:0:0:
144,64,142269,1,0,0:0:0:0:
160,64,142325,1,0,0:0:0:0:
176,64,142380,1,0,0:0:0:0:
192,64,142436,1,2,0:0:0:0:
208,64,142491,1,0,0:0:0:0:
224,64,142547,1,0,0:0:0:0:
240,64,142603,1,0,0:0:0:0:
256,64,142658,1,2,0:0:0:0:
272,64,142714,1,0,0:0:0:0:
288,64,142769,1,0,0:0:0:0:
304,64,142825,1,0,0:0:0:0:
320,64,142880,1,2,0:0:0:0:
336,64,142936,1,0,0:0:0:0:
352,64,142991,1,0,0:0:0:0:
368,64,143047,1,0,0:0:0:0:
384,64,143103,5,2,0:0:0:0:
384,80,143158,1,0,0:0:0:0:
384,96,143214,1,0,0:0:0:0:
384,112,143269,1,0,0:0:0:0:
384,128,143325,1,2,0:0:0:0:
384,144,143380,1,0,0:0:0:0:
384,160,143436,1,0,0:0:0:0:
384,176,143492,1,0,0:0:0:0:
384,192,143547,1,2,0:0:0:0:
384,208,143603,1,0,0:0:0:0:
384,224,143658,1,0,0:0:0:0:
384,240,143714,1,0,0:0:0:0:
384,256,143769,1,2,0:0:0:0:
384,272,143825,1,0,0:0:0:0:
384,288,143880,1,0,0:0:0:0:
384,304,143936,1,0,0:0:0:0:
384,320,143991,6,0,L|336:320,3,35,2|0|0|0,0:0|0:0|0:0|0:0,0:0:0:0:
320,320,144214,2,0,L|272:320,3,35,2|0|0|0,0:0|0:0|0:0|0:0,0:0:0:0:
256,320,144436,2,0,L|208:320,3,35,2|0|0|0,0:0|0:0|0:0|0:0,0:0:0:0:
192,320,144658,2,0,L|144:320,3,35,2|0|0|0,0:0|0:0|0:0|0:0,0:0:0:0:
128,320,144880,6,0,L|128:272,3,35,2|0|0|0,0:0|0:0|0:0|0:0,0:0:0:0:
128,256,145103,2,0,L|128:208,3,35,2|0|0|0,0:0|0:0|0:0|0:0,0:0:0:0:
128,192,145325,2,0,L|128:144,3,35,2|0|0|0,0:0|0:0|0:0|0:0,0:0:0:0:
128,128,145547,2,0,L|128:80,3,35,2|0|0|0,0:0|0:0|0:0|0:0,0:0:0:0:
128,64,145770,5,2,0:0:0:0:
144,64,145825,1,0,0:0:0:0:
160,64,145881,1,0,0:0:0:0:
176,64,145936,1,0,0:0:0:0:
192,64,145992,1,2,0:0:0:0:
208,64,146047,1,0,0:0:0:0:
224,64,146103,1,0,0:0:0:0:
240,64,146159,1,0,0:0:0:0:
256,64,146214,1,2,0:0:0:0:
272,64,146270,1,0,0:0:0:0:
288,64,146325,1,0,0:0:0:0:
304,64,146381,1,0,0:0:0:0:
320,64,146436,1,2,0:0:0:0:
336,64,146492,1,0,0:0:0:0:
352,64,146547,1,0,0:0:0:0:
368,64,146603,1,0,0:0:0:0:
384,64,146659,5,2,0:0:0:0:
384,80,146714,1,0,0:0:0:0:
384,96,146770,1,0,0:0:0:0:
384,112,146825,1,0,0:0:0:0:
384,128,146881,1,2,0:0:0:0:
384,144,146936,1,0,0:0:0:0:
384,160,146992,1,0,0:0:0:0:
384,176,147048,1,0,0:0:0:0:
384,192,147103,1,2,0:0:0:0:
384,208,147159,1,0,0:0:0:0:
384,224,147214,1,0,0:0:0:0:
384,240,147270,1,0,0:0:0:0:
384,256,147325,1,2,0:0:0:0:
384,272,147381,1,0,0:0:0:0:
384,288,147436,1,0,0:0:0:0:
384,304,147492,1,0,0:0:0:0:
384,320,147547,6,0,L|336:320,3,35,2|0|0|0,0:0|0:0|0:0|0:0,0:0:0:0:
320,320,147770,2,0,L|272:320,3,35,2|0|0|0,0:0|0:0|0:0|0:0,0:0:0:0:
256,320,147992,2,0,L|208:320,3,35,2|0|0|0,0:0|0:0|0:0|0:0,0:0:0:0:
192,320,148214,2,0,L|144:320,3,35,2|0|0|0,0:0|0:0|0:0|0:0,0:0:0:0:
128,320,148436,6,0,L|128:272,3,35,2|0|0|0,0:0|0:0|0:0|0:0,0:0:0:0:
128,256,148659,2,0,L|128:208,3,35,2|0|0|0,0:0|0:0|0:0|0:0,0:0:0:0:
128,192,148881,2,0,L|128:144,3,35,2|0|0|0,0:0|0:0|0:0|0:0,0:0:0:0:
128,128,149103,2,0,L|128:80,3,35,2|0|0|0,0:0|0:0|0:0|0:0,0:0:0:0:
128,64,149325,5,2,0:0:0:0:
144,64,149380,1,0,0:0:0:0:
160,64,149436,1,0,0:0:0:0:
176,64,149491,1,0,0:0:0:0:
192,64,149547,1,2,0:0:0:0:
208,64,149602,1,0,0:0:0:0:
224,64,149658,1,0,0:0:0:0:
240,64,149714,1,0,0:0:0:0:
256,64,149769,1,2,0:0:0:0:
272,64,149825,1,0,0:0:0:0:
288,64,149880,1,0,0:0:0:0:
304,64,149936,1,0,0:0:0:0:
320,64,149991,1,2,0:0:0:0:
336,64,150047,1,0,0:0:0:0:
352,64,150102,1,0,0:0:0:0:
368,64,150158,1,0,0:0:0:0:
384,64,150214,5,2,0:0:0:0:
384,80,150269,1,0,0:0:0:0:
384,96,150325,1,0,0:0:0:0:
384,112,150380,1,0,0:0:0:0:
384,128,150436,1,2,0:0:0:0:
384,144,150491,1,0,0:0:0:0:
384,160,150547,1,0,0:0:0:0:
384,176,150603,1,0,0:0:0:0:
384,192,150658,1,2,0:0:0:0:
384,208,150714,1,0,0:0:0:0:
384,224,150769,1,0,0:0:0:0:
384,240,150825,1,0,0:0:0:0:
384,256,150880,1,2,0:0:0:0:
384,272,150936,1,0,0:0:0:0:
384,288,150991,1,0,0:0:0:0:
384,304,151047,1,0,0:0:0:0:
384,320,151102,6,0,L|336:320,3,35,2|0|0|0,0:0|0:0|0:0|0:0,0:0:0:0:
320,320,151325,2,0,L|272:320,3,35,2|0|0|0,0:0|0:0|0:0|0:0,0:0:0:0:
256,320,151547,2,0,L|208:320,3,35,2|0|0|0,0:0|0:0|0:0|0:0,0:0:0:0:
192,320,151769,2,0,L|144:320,3,35,2|0|0|0,0:0|0:0|0:0|0:0,0:0:0:0:
128,320,151991,6,0,L|128:272,3,35,2|0|0|0,0:0|0:0|0:0|0:0,0:0:0:0:
128,256,152214,2,0,L|128:208,3,35,2|0|0|0,0:0|0:0|0:0|0:0,0:0:0:0:
128,192,152436,2,0,L|128:144,3,35,2|0|0|0,0:0|0:0|0:0|0:0,0:0:0:0:
128,128,152658,2,0,L|128:80,3,35,2|0|0|0,0:0|0:0|0:0|0:0,0:0:0:0:
128,64,167104,5,2,0:0:0:0:
144,64,167159,1,0,0:0:0:0:
160,64,167215,1,0,0:0:0:0:
176,64,167270,1,0,0:0:0:0:
192,64,167326,1,2,0:0:0:0:
208,64,167381,1,0,0:0:0:0:
224,64,167437,1,0,0:0:0:0:
240,64,167493,1,0,0:0:0:0:
256,64,167548,1,2,0:0:0:0:
272,64,167604,1,0,0:0:0:0:
288,64,167659,1,0,0:0:0:0:
304,64,167715,1,0,0:0:0:0:
320,64,167770,1,2,0:0:0:0:
336,64,167826,1,0,0:0:0:0:
352,64,167881,1,0,0:0:0:0:
368,64,167937,1,0,0:0:0:0:
384,64,167993,5,2,0:0:0:0:
384,80,168048,1,0,0:0:0:0:
384,96,168104,1,0,0:0:0:0:
384,112,168159,1,0,0:0:0:0:
384,128,168215,1,2,0:0:0:0:
384,144,168270,1,0,0:0:0:0:
384,160,168326,1,0,0:0:0:0:
384,176,168382,1,0,0:0:0:0:
384,192,168437,1,2,0:0:0:0:
384,208,168493,1,0,0:0:0:0:
384,224,168548,1,0,0:0:0:0:
384,240,168604,1,0,0:0:0:0:
384,256,168659,1,2,0:0:0:0:
384,272,168715,1,0,0:0:0:0:
384,288,168770,1,0,0:0:0:0:
384,304,168826,1,0,0:0:0:0:
384,320,168881,6,0,L|336:320,3,35,2|0|0|0,0:0|0:0|0:0|0:0,0:0:0:0:
320,320,169104,2,0,L|272:320,3,35,2|0|0|0,0:0|0:0|0:0|0:0,0:0:0:0:
256,320,169326,2,0,L|208:320,3,35,2|0|0|0,0:0|0:0|0:0|0:0,0:0:0:0:
192,320,169548,2,0,L|144:320,3,35,2|0|0|0,0:0|0:0|0:0|0:0,0:0:0:0:
128,320,169770,6,0,L|128:272,3,35,2|0|0|0,0:0|0:0|0:0|0:0,0:0:0:0:
128,256,169993,2,0,L|128:208,3,35,2|0|0|0,0:0|0:0|0:0|0:0,0:0:0:0:
128,192,170215,2,0,L|128:144,3,35,2|0|0|0,0:0|0:0|0:0|0:0,0:0:0:0:
128,128,170437,2,0,L|128:80,3,35,2|0|0|0,0:0|0:0|0:0|0:0,0:0:0:0:
128,64,170659,5,2,0:0:0:0:
144,64,170714,1,0,0:0:0:0:
160,64,170770,1,0,0:0:0:0:
176,64,170825,1,0,0:0:0:0:
192,64,170881,1,2,0:0:0:0:
208,64,170936,1,0,0:0:0:0:
224,64,170992,1,0,0:0:0:0:
240,64,171048,1,0,0:0:0:0:
256,64,171103,1,2,0:0:0:0:
272,64,171159,1,0,0:0:0:0:
288,64,171214,1,0,0:0:0:0:
304,64,171270,1,0,0:0:0:0:
320,64,171325,1,2,0:0:0:0:
336,64,171381,1,0,0:0:0:0:
352,64,171436,1,0,0:0:0:0:
368,64,171492,1,0,0:0:0:0:
384,64,171548,5,2,0:0:0:0:
384,80,171603,1,0,0:0:0:0:
384,96,171659,1,0,0:0:0:0:
384,112,171714,1,0,0:0:0:0:
384,128,171770,1,2,0:0:0:0:
384,144,171825,1,0,0:0:0:0:
384,160,171881,1,0,0:0:0:0:
384,176,171937,1,0,0:0:0:0:
384,192,171992,1,2,0:0:0:0:
384,208,172048,1,0,0:0:0:0:
384,224,172103,1,0,0:0:0:0:
384,240,172159,1,0,0:0:0:0:
384,256,172214,1,2,0:0:0:0:
384,272,172270,1,0,0:0:0:0:
384,288,172325,1,0,0:0:0:0:
384,304,172381,1,0,0:0:0:0:
384,320,172436,6,0,L|336:320,3,35,2|0|0|0,0:0|0:0|0:0|0:0,0:0:0:0:
320,320,172659,2,0,L|272:320,3,35,2|0|0|0,0:0|0:0|0:0|0:0,0:0:0:0:
256,320,172881,2,0,L|208:320,3,35,2|0|0|0,0:0|0:0|0:0|0:0,0:0:0:0:
192,320,173103,2,0,L|144:320,3,35,2|0|0|0,0:0|0:0|0:0|0:0,0:0:0:0:
128,320,173325,6,0,L|128:272,3,35,2|0|0|0,0:0|0:0|0:0|0:0,0:0:0:0:
128,256,173548,2,0,L|128:208,3,35,2|0|0|0,0:0|0:0|0:0|0:0,0:0:0:0:
128,192,173770,2,0,L|128:144,3,35,2|0|0|0,0:0|0:0|0:0|0:0,0:0:0:0:
128,128,173992,2,0,L|128:80,3,35,2|0|0|0,0:0|0:0|0:0|0:0,0:0:0:0:
128,64,174215,5,2,0:0:0:0:
144,64,174270,1,0,0:0:0:0:
160,64,174326,1,0,0:0:0:0:
176,64,174381,1,0,0:0:0:0:
192,64,174437,1,2,0:0:0:0:
208,64,174492,1,0,0:0:0:0:
224,64,174548,1,0,0:0:0:0:
240,64,174604,1,0,0:0:0:0:
256,64,174659,1,2,0:0:0:0:
272,64,174715,1,0,0:0:0:0:
288,64,174770,1,0,0:0:0:0:
304,64,174826,1,0,0:0:0:0:
320,64,174881,1,2,0:0:0:0:
336,64,174937,1,0,0:0:0:0:
352,64,174992,1,0,0:0:0:0:
368,64,175048,1,0,0:0:0:0:
384,64,175104,5,2,0:0:0:0:
384,80,175159,1,0,0:0:0:0:
384,96,175215,1,0,0:0:0:0:
384,112,175270,1,0,0:0:0:0:
384,128,175326,1,2,0:0:0:0:
384,144,175381,1,0,0:0:0:0:
384,160,175437,1,0,0:0:0:0:
384,176,175493,1,0,0:0:0:0:
384,192,175548,1,2,0:0:0:0:
384,208,175604,1,0,0:0:0:0:
384,224,175659,1,0,0:0:0:0:
384,240,175715,1,0,0:0:0:0:
384,256,175770,1,2,0:0:0:0:
384,272,175826,1,0,0:0:0:0:
384,288,175881,1,0,0:0:0:0:
384,304,175937,1,0,0:0:0:0:
384,320,175992,6,0,L|336:320,3,35,2|0|0|0,0:0|0:0|0:0|0:0,0:0:0:0:
320,320,176215,2,0,L|272:320,3,35,2|0|0|0,0:0|0:0|0:0|0:0,0:0:0:0:
256,320,176437,2,0,L|208:320,3,35,2|0|0|0,0:0|0:0|0:0|0:0,0:0:0:0:
192,320,176659,2,0,L|144:320,3,35,2|0|0|0,0:0|0:0|0:0|0:0,0:0:0:0:
128,320,176881,6,0,L|128:272,3,35,2|0|0|0,0:0|0:0|0:0|0:0,0:0:0:0:
128,256,177104,2,0,L|128:208,3,35,2|0|0|0,0:0|0:0|0:0|0:0,0:0:0:0:
128,192,177326,2,0,L|128:144,3,35,2|0|0|0,0:0|0:0|0:0|0:0,0:0:0:0:
128,128,177548,2,0,L|128:80,3,35,2|0|0|0,0:0|0:0|0:0|0:0,0:0:0:0:
128,64,177770,5,2,0:0:0:0:
144,64,177825,1,0,0:0:0:0:
160,64,177881,1,0,0:0:0:0:
176,64,177936,1,0,0:0:0:0:
192,64,177992,1,2,0:0:0:0:
208,64,178047,1,0,0:0:0:0:
224,64,178103,1,0,0:0:0:0:
240,64,178159,1,0,0:0:0:0:
256,64,178214,1,2,0:0:0:0:
272,64,178270,1,0,0:0:0:0:
288,64,178325,1,0,0:0:0:0:
304,64,178381,1,0,0:0:0:0:
320,64,178436,1,2,0:0:0:0:
336,64,178492,1,0,0:0:0:0:
352,64,178547,1,0,0:0:0:0:
368,64,178603,1,0,0:0:0:0:
384,64,178659,5,2,0:0:0:0:
384,80,178714,1,0,0:0:0:0:
384,96,178770,1,0,0:0:0:0:
384,112,178825,1,0,0:0:0:0:
384,128,178881,1,2,0:0:0:0:
384,144,178936,1,0,0:0:0:0:
384,160,178992,1,0,0:0:0:0:
384,176,179048,1,0,0:0:0:0:
384,192,179103,1,2,0:0:0:0:
384,208,179159,1,0,0:0:0:0:
384,224,179214,1,0,0:0:0:0:
384,240,179270,1,0,0:0:0:0:
384,256,179325,1,2,0:0:0:0:
384,272,179381,1,0,0:0:0:0:
384,288,179436,1,0,0:0:0:0:
384,304,179492,1,0,0:0:0:0:
384,320,179547,6,0,L|336:320,3,35,2|0|0|0,0:0|0:0|0:0|0:0,0:0:0:0:
320,320,179770,2,0,L|272:320,3,35,2|0|0|0,0:0|0:0|0:0|0:0,0:0:0:0:
256,320,179992,2,0,L|208:320,3,35,2|0|0|0,0:0|0:0|0:0|0:0,0:0:0:0:
192,320,180214,2,0,L|144:320,3,35,2|0|0|0,0:0|0:0|0:0|0:0,0:0:0:0:
128,320,180436,6,0,L|128:272,3,35,2|0|0|0,0:0|0:0|0:0|0:0,0:0:0:0:
128,256,180659,2,0,L|128:208,3,35,2|0|0|0,0:0|0:0|0:0|0:0,0:0:0:0:
128,192,180881,2,0,L|128:144,3,35,2|0|0|0,0:0|0:0|0:0|0:0,0:0:0:0:
128,128,181103,2,0,L|128:80,3,35,2|0|0|0,0:0|0:0|0:0|0:0,0:0:0:0:
128,64,181326,5,2,0:0:0:0:
144,64,181381,1,0,0:0:0:0:
160,64,181437,1,0,0:0:0:0:
176,64,181492,1,0,0:0:0:0:
192,64,181548,1,2,0:0:0:0:
208,64,181603,1,0,0:0:0:0:
224,64,181659,1,0,0:0:0:0:
240,64,181715,1,0,0:0:0:0:
256,64,181770,1,2,0:0:0:0:
272,64,181826,1,0,0:0:0:0:
288,64,181881,1,0,0:0:0:0:
304,64,181937,1,0,0:0:0:0:
320,64,181992,1,2,0:0:0:0:
336,64,182048,1,0,0:0:0:0:
352,64,182103,1,0,0:0:0:0:
368,64,182159,1,0,0:0:0:0:
384,64,182215,5,2,0:0:0:0:
384,80,182270,1,0,0:0:0:0:
384,96,182326,1,0,0:0:0:0:
384,112,182381,1,0,0:0:0:0:
384,128,182437,1,2,0:0:0:0:
384,144,182492,1,0,0:0:0:0:
384,160,182548,1,0,0:0:0:0:
384,176,182604,1,0,0:0:0:0:
384,192,182659,1,2,0:0:0:0:
384,208,182715,1,0,0:0:0:0:
384,224,182770,1,0,0:0:0:0:
384,240,182826,1,0,0:0:0:0:
384,256,182881,1,2,0:0:0:0:
384,272,182937,1,0,0:0:0:0:
384,288,182992,1,0,0:0:0:0:
384,304,183048,1,0,0:0:0:0:
384,320,183103,6,0,L|336:320,3,35,2|0|0|0,0:0|0:0|0:0|0:0,0:0:0:0:
320,320,183326,2,0,L|272:320,3,35,2|0|0|0,0:0|0:0|0:0|0:0,0:0:0:0:
256,320,183548,2,0,L|208:320,3,35,2|0|0|0,0:0|0:0|0:0|0:0,0:0:0:0:
192,320,183770,2,0,L|144:320,3,35,2|0|0|0,0:0|0:0|0:0|0:0,0:0:0:0:
128,320,183992,6,0,L|128:272,3,35,2|0|0|0,0:0|0:0|0:0|0:0,0:0:0:0:
128,256,184215,2,0,L|128:208,3,35,2|0|0|0,0:0|0:0|0:0|0:0,0:0:0:0:
128,192,184437,2,0,L|128:144,3,35,2|0|0|0,0:0|0:0|0:0|0:0,0:0:0:0:
128,128,184659,2,0,L|128:80,3,35,2|0|0|0,0:0|0:0|0:0|0:0,0:0:0:0:
128,64,184881,5,2,0:0:0:0:
144,64,184936,1,0,0:0:0:0:
160,64,184992,1,0,0:0:0:0:
176,64,185047,1,0,0:0:0:0:
192,64,185103,1,2,0:0:0:0:
208,64,185158,1,0,0:0:0:0:
224,64,185214,1,0,0:0:0:0:
240,64,185270,1,0,0:0:0:0:
256,64,185325,1,2,0:0:0:0:
272,64,185381,1,0,0:0:0:0:
288,64,185436,1,0,0:0:0:0:
304,64,185492,1,0,0:0:0:0:
320,64,185547,1,2,0:0:0:0:
336,64,185603,1,0,0:0:0:0:
352,64,185658,1,0,0:0:0:0:
368,64,185714,1,0,0:0:0:0:
384,64,185770,5,2,0:0:0:0:
384,80,185825,1,0,0:0:0:0:
384,96,185881,1,0,0:0:0:0:
384,112,185936,1,0,0:0:0:0:
384,128,185992,1,2,0:0:0:0:
384,144,186047,1,0,0:0:0:0:
384,160,186103,1,0,0:0:0:0:
384,176,186159,1,0,0:0:0:0:
384,192,186214,1,2,0:0:0:0:
384,208,186270,1,0,0:0:0:0:
384,224,186325,1,0,0:0:0:0:
384,240,186381,1,0,0:0:0:0:
384,256,186436,1,2,0:0:0:0:
384,272,186492,1,0,0:0:0:0:
384,288,186547,1,0,0:0:0:0:
384,304,186603,1,0,0:0:0:0:
384,320,186658,6,0,L|336:320,3,35,2|0|0|0,0:0|0:0|0:0|0:0,0:0:0:0:
320,320,186881,2,0,L|272:320,3,35,2|0|0|0,0:0|0:0|0:0|0:0,0:0:0:0:
256,320,187103,2,0,L|208:320,3,35,2|0|0|0,0:0|0:0|0:0|0:0,0:0:0:0:
192,320,187325,2,0,L|144:320,3,35,2|0|0|0,0:0|0:0|0:0|0:0,0:0:0:0:
128,320,187547,6,0,L|128:272,3,35,2|0|0|0,0:0|0:0|0:0|0:0,0:0:0:0:
128,256,187770,2,0,L|128:208,3,35,2|0|0|0,0:0|0:0|0:0|0:0,0:0:0:0:
128,192,187992,2,0,L|128:144,3,35,2|0|0|0,0:0|0:0|0:0|0:0,0:0:0:0:
128,128,188214,2,0,L|128:80,3,35,2|0|0|0,0:0|0:0|0:0|0:0,0:0:0:0:
128,64,188437,5,2,0:0:0:0:
144,64,188492,1,0,0:0:0:0:
160,64,188548,1,0,0:0:0:0:
176,64,188603,1,0,0:0:0:0:
192,64,188659,1,2,0:0:0:0:
208,64,188714,1,0,0:0:0:0:
224,64,188770,1,0,0:0:0:0:
240,64,188826,1,0,0:0:0:0:
256,64,188881,1,2,0:0:0:0:
272,64,188937,1,0,0:0:0:0:
288,64,188992,1,0,0:0:0:0:
304,64,189048,1,0,0:0:0:0:
320,64,189103,1,2,0:0:0:0:
336,64,189159,1,0,0:0:0:0:
352,64,189214,1,0,0:0:0:0:
368,64,189270,1,0,0:0:0:0:
384,64,189326,5,2,0:0:0:0:
384,80,189381,1,0,0:0:0:0:
384,96,189437,1,0,0:0:0:0:
384,112,189492,1,0,0:0:0:0:
384,128,189548,1,2,0:0:0:0:
384,144,189603,1,0,0:0:0:0:
384,160,189659,1,0,0:0:0:0:
384,176,189715,1,0,0:0:0:0:
384,192,189770,1,2,0:0:0:0:
384,208,189826,1,0,0:0:0:0:
384,224,189881,1,0,0:0:0:0:
384,240,189937,1,0,0:0:0:0:
384,256,189992,1,2,0:0:0:0:
384,272,190048,1,0,0:0:0:0:
384,288,190103,1,0,0:0:0:0:
384,304,190159,1,0,0:0:0:0:
384,320,190214,6,0,L|336:320,3,35,2|0|0|0,0:0|0:0|0:0|0:0,0:0:0:0:
320,320,190437,2,0,L|272:320,3,35,2|0|0|0,0:0|0:0|0:0|0:0,0:0:0:0:
256,320,190659,2,0,L|208:320,3,35,2|0|0|0,0:0|0:0|0:0|0:0,0:0:0:0:
192,320,190881,2,0,L|144:320,3,35,2|0|0|0,0:0|0:0|0:0|0:0,0:0:0:0:
128,320,191103,6,0,L|128:272,3,35,2|0|0|0,0:0|0:0|0:0|0:0,0:0:0:0:
128,256,191326,2,0,L|128:208,3,35,2|0|0|0,0:0|0:0|0:0|0:0,0:0:0:0:
128,192,191548,2,0,L|128:144,3,35,2|0|0|0,0:0|0:0|0:0|0:0,0:0:0:0:
128,128,191770,2,0,L|128:80,3,35,2|0|0|0,0:0|0:0|0:0|0:0,0:0:0:0:
128,64,191992,5,2,0:0:0:0:
144,64,192047,1,0,0:0:0:0:
160,64,192103,1,0,0:0:0:0:
176,64,192158,1,0,0:0:0:0:
192,64,192214,1,2,0:0:0:0:
208,64,192269,1,0,0:0:0:0:
224,64,192325,1,0,0:0:0:0:
240,64,192381,1,0,0:0:0:0:
256,64,192436,1,2,0:0:0:0:
272,64,192492,1,0,0:0:0:0:
288,64,192547,1,0,0:0:0:0:
304,64,192603,1,0,0:0:0:0:
320,64,192658,1,2,0:0:0:0:
336,64,192714,1,0,0:0:0:0:
352,64,192769,1,0,0:0:0:0:
368,64,192825,1,0,0:0:0:0:
384,64,192881,5,2,0:0:0:0:
384,80,192936,1,0,0:0:0:0:
384,96,192992,1,0,0:0:0:0:
384,112,193047,1,0,0:0:0:0:
384,128,193103,1,2,0:0:0:0:
384,144,193158,1,0,0:0:0:0:
384,160,193214,1,0,0:0:0:0:
384,176,193270,1,0,0:0:0:0:
384,192,193325,1,2,0:0:0:0:
384,208,193381,1,0,0:0:0:0:
384,224,193436,1,0,0:0:0:0:
384,240,193492,1,0,0:0:0:0:
384,256,193547,1,2,0:0:0:0:
384,272,193603,1,0,0:0:0:0:
384,288,193658,1,0,0:0:0:0:
384,304,193714,1,0,0:0:0:0:
384,320,193769,6,0,L|336:320,3,35,2|0|0|0,0:0|0:0|0:0|0:0,0:0:0:0:
320,320,193992,2,0,L|272:320,3,35,2|0|0|0,0:0|0:0|0:0|0:0,0:0:0:0:
256,320,194214,2,0,L|208:320,3,35,2|0|0|0,0:0|0:0|0:0|0:0,0:0:0:0:
192,320,194436,2,0,L|144:320,3,35,2|0|0|0,0:0|0:0|0:0|0:0,0:0:0:0:
128,320,194658,6,0,L|128:272,3,35,2|0|0|0,0:0|0:0|0:0|0:0,0:0:0:0:
128,256,194881,2,0,L|128:208,3,35,2|0|0|0,0:0|0:0|0:0|0:0,0:0:0:0:
128,192,195103,2,0,L|128:144,3,35,2|0|0|0,0:0|0:0|0:0|0:0,0:0:0:0:
128,128,195325,2,0,L|128:80,3,35,2|0|0|0,0:0|0:0|0:0|0:0,0:0:0:0:
128,64,195548,5,2,0:0:0:0:
144,64,195603,1,0,0:0:0:0:
160,64,195659,1,0,0:0:0:0:
176,64,195714,1,0,0:0:0:0:
192,64,195770,1,2,0:0:0:0:
208,64,195825,1,0,0:0:0:0:
224,64,195881,1,0,0:0:0:0:
240,64,195937,1,0,0:0:0:0:
256,64,195992,1,2,0:0:0:0:
272,64,196048,1,0,0:0:0:0:
288,64,196103,1,0,0:0:0:0:
304,64,196159,1,0,0:0:0:0:
320,64,196214,1,2,0:0:0:0:
336,64,196270,1,0,0:0:0:0:
352,64,196325,1,0,0:0:0:0:
368,64,196381,1,0,0:0:0:0:
384,64,196437,5,2,0:0:0:0:
384,80,196492,1,0,0:0:0:0:
384,96,196548,1,0,0:0:0:0:
384,112,196603,1,0,0:0:0:0:
384,128,196659,1,2,0:0:0:0:
384,144,196714,1,0,0:0:0:0:
384,160,196770,1,0,0:0:0:0:
384,176,196826,1,0,0:0:0:0:
384,192,196881,1,2,0:0:0:0:
384,208,196937,1,0,0:0:0:0:
384,224,196992,1,0,0:0:0:0:
384,240,197048,1,0,0:0:0:0:
384,256,197103,1,2,0:0:0:0:
384,272,197159,1,0,0:0:0:0:
384,288,197214,1,0,0:0:0:0:
384,304,197270,1,0,0:0:0:0:
384,320,197325,6,0,L|336:320,3,35,2|0|0|0,0:0|0:0|0:0|0:0,0:0:0:0:
320,320,197548,2,0,L|272:320,3,35,2|0|0|0,0:0|0:0|0:0|0:0,0:0:0:0:
256,320,197770,2,0,L|208:320,3,35,2|0|0|0,0:0|0:0|0:0|0:0,0:0:0:0:
192,320,197992,2,0,L|144:320,3,35,2|0|0|0,0:0|0:0|0:0|0:0,0:0:0:0:
128,320,198214,6,0,L|128:272,3,35,2|0|0|0,0:0|0:0|0:0|0:0,0:0:0:0:
128,256,198437,2,0,L|128:208,3,35,2|0|0|0,0:0|0:0|0:0|0:0,0:0:0:0:
128,192,198659,2,0,L|128:144,3,35,2|0|0|0,0:0|0:0|0:0|0:0,0:0:0:0:
128,128,198881,2,0,L|128:80,3,35,2|0|0|0,0:0|0:0|0:0|0:0,0:0:0:0:
128,64,199103,5,2,0:0:0:0:
144,64,199158,1,0,0:0:0:0:
160,64,199214,1,0,0:0:0:0:
176,64,199269,1,0,0:0:0:0:
192,64,199325,1,2,0:0:0:0:
208,64,199380,1,0,0:0:0:0:
224,64,199436,1,0,0:0:0:0:
240,64,199492,1,0,0:0:0:0:
256,64,199547,1,2,0:0:0:0:
272,64,199603,1,0,0:0:0:0:
288,64,199658,1,0,0:0:0:0:
304,64,199714,1,0,0:0:0:0:
320,64,199769,1,2,0:0:0:0:
336,64,199825,1,0,0:0:0:0:
352,64,199880,1,0,0:0:0:0:
368,64,199936,1,0,0:0:0:0:
384,64,199992,5,2,0:0:0:0:
384,80,200047,1,0,0:0:0:0:
384,96,200103,1,0,0:0:0:0:
384,112,200158,1,0,0:0:0:0:
384,128,200214,1,2,0:0:0:0:
384,144,200269,1,0,0:0:0:0:
384,160,200325,1,0,0:0:0:0:
384,176,200381,1,0,0:0:0:0:
384,192,200436,1,2,0:0:0:0:
384,208,200492,1,0,0:0:0:0:
384,224,200547,1,0,0:0:0:0:
384,240,200603,1,0,0:0:0:0:
384,256,200658,1,2,0:0:0:0:
384,272,200714,1,0,0:0:0:0:
384,288,200769,1,0,0:0:0:0:
384,304,200825,1,0,0:0:0:0:
384,320,200880,6,0,L|336:320,3,35,2|0|0|0,0:0|0:0|0:0|0:0,0:0:0:0:
320,320,201103,2,0,L|272:320,3,35,2|0|0|0,0:0|0:0|0:0|0:0,0:0:0:0:
256,320,201325,2,0,L|208:320,3,35,2|0|0|0,0:0|0:0|0:0|0:0,0:0:0:0:
192,320,201547,2,0,L|144:320,3,35,2|0|0|0,0:0|0:0|0:0|0:0,0:0:0:0:
128,320,201769,6,0,L|128:272,3,35,2|0|0|0,0:0|0:0|0:0|0:0,0:0:0:0:
128,256,201992,2,0,L|128:208,3,35,2|0|0|0,0:0|0:0|0:0|0:0,0:0:0:0:
128,192,202214,2,0,L|128:144,3,35,2|0|0|0,0:0|0:0|0:0|0:0,0:0:0:0:
128,128,202436,2,0,L|128:80,3,35,2|0|0|0,0:0|0:0|0:0|0:0,0:0:0:0:
128,64,202659,5,2,0:0:0:0:
144,64,202714,1,0,0:0:0:0:
160,64,202770,1,0,0:0:0:0:
176,64,202825,1,0,0:0:0:0:
192,64,202881,1,2,0:0:0:0:
208,64,202936,1,0,0:0:0:0:
224,64,202992,1,0,0:0:0:0:
240,64,203048,1,0,0:0:0:0:
256,64,203103,1,2,0:0:0:0:
272,64,203159,1,0,0:0:0:0:
288,64,203214,1,0,0:0:0:0:
304,64,203270,1,0,0:0:0:0:
320,64,203325,1,2,0:0:0:0:
336,64,203381,1,0,0:0:0:0:
352,64,203436,1,0,0:0:0:0:
368,64,203492,1,0,0:0:0:0:
384,64,203548,5,2,0:0:0:0:
384,80,203603,1,0,0:0:0:0:
384,96,203659,1,0,0:0:0:0:
384,112,203714,1,0,0:0:0:0:
384,128,203770,1,2,0:0:0:0:
384,144,203825,1,0,0:0:0:0:
384,160,203881,1,0,0:0:0:0:
384,176,203937,1,0,0:0:0:0:
384,192,203992,1,2,0:0:0:0:
384,208,204048,1,0,0:0:0:0:
384,224,204103,1,0,0:0:0:0:
384,240,204159,1,0,0:0:0:0:
384,256,204214,1,2,0:0:0:0:
384,272,204270,1,0,0:0:0:0:
384,288,204325,1,0,0:0:0:0:
384,304,204381,1,0,0:0:0:0:
384,320,204436,6,0,L|336:320,3,35,2|0|0|0,0:0|0:0|0:0|0:0,0:0:0:0:
320,320,204659,2,0,L|272:320,3,35,2|0|0|0,0:0|0:0|0:0|0:0,0:0:0:0:
256,320,204881,2,0,L|208:320,3,35,2|0|0|0,0:0|0:0|0:0|0:0,0:0:0:0:
192,320,205103,2,0,L|144:320,3,35,2|0|0|0,0:0|0:0|0:0|0:0,0:0:0:0:
128,320,205325,6,0,L|128:272,3,35,2|0|0|0,0:0|0:0|0:0|0:0,0:0:0:0:
128,256,205548,2,0,L|128:208,3,35,2|0|0|0,0:0|0:0|0:0|0:0,0:0:0:0:
128,192,205770,2,0,L|128:144,3,35,2|0|0|0,0:0|0:0|0:0|0:0,0:0:0:0:
128,128,205992,2,0,L|128:80,3,35,2|0|0|0,0:0|0:0|0:0|0:0,0:0:0:0:
128,64,206214,5,2,0:0:0:0:
144,64,206269,1,0,0:0:0:0:
160,64,206325,1,0,0:0:0:0:
176,64,206380,1,0,0:0:0:0:
192,64,206436,1,2,0:0:0:0:
208,64,206491,1,0,0:0:0:0:
224,64,206547,1,0,0:0:0:0:
240,64,206603,1,0,0:0:0:0:
256,64,206658,1,2,0:0:0:0:
272,64,206714,1,0,0:0:0:0:
288,64,206769,1,0,0:0:0:0:
304,64,206825,1,0,0:0:0:0:
320,64,206880,1,2,0:0:0:0:
336,64,206936,1,0,0:0:0:0:
352,64,206991,1,0,0:0:0:0:
368,64,207047,1,0,0:0:0:0:
384,64,207103,5,2,0:0:0:0:
384,80,207158,1,0,0:0:0:0:
384,96,207214,1,0,0:0:0:0:
384,112,207269,1,0,0:0:0:0:
384,128,207325,1,2,0:0:0:0:
384,144,207380,1,0,0:0:0:0:
384,160,207436,1,0,0:0:0:0:
384,176,207492,1,0,0:0:0:0:
384,192,207547,1,2,0:0:0:0:
384,208,207603,1,0,0:0:0:0:
384,224,207658,1,0,0:0:0:0:
384,240,207714,1,0,0:0:0:0:
384,256,207769,1,2,0:0:0:0:
384,272,207825,1,0,0:0:0:0:
384,288,207880,1,0,0:0:0:0:
384,304,207936,1,0,0:0:0:0:
384,320,207991,6,0,L|336:320,3,35,2|0|0|0,0:0|0:0|0:0|0:0,0:0:0:0:
320,320,208214,2,0,L|272:320,3,35,2|0|0|0,0:0|0:0|0:0|0:0,0:0:0:0:
256,320,208436,2,0,L|208:320,3,35,2|0|0|0,0:0|0:0|0:0|0:0,0:0:0:0:
192,320,208658,2,0,L|144:320,3,35,2|0|0|0,0:0|0:0|0:0|0:0,0:0:0:0:
128,320,208880,6,0,L|128:272,3,35,2|0|0|0,0:0|0:0|0:0|0:0,0:0:0:0:
128,256,209103,2,0,L|128:208,3,35,2|0|0|0,0:0|0:0|0:0|0:0,0:0:0:0:
128,192,209325,2,0,L|128:144,3,35,2|0|0|0,0:0|0:0|0:0|0:0,0:0:0:0:
128,128,209547,2,0,L|128:80,3,35,2|0|0|0,0:0|0:0|0:0|0:0,0:0:0:0:
128,64,213326,5,2,0:0:0:0:
144,64,213381,1,0,0:0:0:0:
160,64,213437,1,0,0:0:0:0:
176,64,213492,1,0,0:0:0:0:
192,64,213548,1,2,0:0:0:0:
208,64,213603,1,0,0:0:0:0:
224,64,213659,1,0,0:0:0:0:
240,64,213715,1,0,0:0:0:0:
256,64,213770,1,2,0:0:0:0:
272,64,213826,1,0,0:0:0:0:
288,64,213881,1,0,0:0:0:0:
304,64,213937,1,0,0:0:0:0:
320,64,213992,1,2,0:0:0:0:
336,64,214048,1,0,0:0:0:0:
352,64,214103,1,0,0:0:0:0:
368,64,214159,1,0,0:0:0:0:
384,64,214215,5,2,0:0:0:0:
384,80,214270,1,0,0:0:0:0:
384,96,214326,1,0,0:0:0:0:
384,112,214381,1,0,0:0:0:0:
384,128,214437,1,2,0:0:0:0:
384,144,214492,1,0,0:0:0:0:
384,160,214548,1,0,0:0:0:0:
384,176,214604,1,0,0:0:0:0:
384,192,214659,1,2,0:0:0:0:
384,208,214715,1,0,0:0:0:0:
384,224,214770,1,0,0:0:0:0:
384,240,214826,1,0,0:0:0:0:
384,256,214881,1,2,0:0:0:0:
384,272,214937,1,0,0:0:0:0:
384,288,214992,1,0,0:0:0:0:
384,304,215048,1,0,0:0:0:0:
384,320,215103,6,0,L|336:320,3,35,2|0|0|0,0:0|0:0|0:0|0:0,0:0:0:0:
320,320,215326,2,0,L|272:320,3,35,2|0|0|0,0:0|0:0|0:0|0:0,0:0:0:0:
256,320,215548,2,0,L|208:320,3,35,2|0|0|0,0:0|0:0|0:0|0:0,0:0:0:0:
192,320,215770,2,0,L|144:320,3,35,2|0|0|0,0:0|0:0|0:0|0:0,0:0:0:0:
128,320,215992,6,0,L|128:272,3,35,2|0|0|0,0:0|0:0|0:0|0:0,0:0:0:0:
128,256,216215,2,0,L|128:208,3,35,2|0|0|0,0:0|0:0|0:0|0:0,0:0:0:0:
128,192,216437,2,0,L|128:144,3,35,2|0|0|0,0:0|0:0|0:0|0:0,0:0:0:0:
128,128,216659,2,0,L|128:80,3,35,2|0|0|0,0:0|0:0|0:0|0:0,0:0:0:0:
128,64,216881,5,2,0:0:0:0:
144,64,216936,1,0,0:0:0:0:
160,64,216992,1,0,0:0:0:0:
176,64,217047,1,0,0:0:0:0:
192,64,217103,1,2,0:0:0:0:
208,64,217158,1,0,0:0:0:0:
224,64,217214,1,0,0:0:0:0:
240,64,217270,1,0,0:0:0:0:
256,64,217325,1,2,0:0:0:0:
272,64,217381,1,0,0:0:0:0:
288,64,217436,1,0,0:0:0:0:
304,64,217492,1,0,0:0:0:0:
320,64,217547,1,2,0:0:0:0:
336,64,217603,1,0,0:0:0:0:
352,64,217658,1,0,0:0:0:0:
368,64,217714,1,0,0:0:0:0:
384,64,217770,5,2,0:0:0:0:
384,80,217825,1,0,0:0:0:0:
384,96,217881,1,0,0:0:0:0:
384,112,217936,1,0,0:0:0:0:
384,128,217992,1,2,0:0:0:0:
384,144,218047,1,0,0:0:0:0:
384,160,218103,1,0,0:0:0:0:
384,176,218159,1,0,0:0:0:0:
384,192,218214,1,2,0:0:0:0:
384,208,218270,1,0,0:0:0:0:
384,224,218325,1,0,0:0:0:0:
384,240,218381,1,0,0:0:0:0:
384,256,218436,1,2,0:0:0:0:
384,272,218492,1,0,0:0:0:0:
384,288,218547,1,0,0:0:0:0:
384,304,218603,1,0,0:0:0:0:
384,320,218658,6,0,L|336:320,3,35,2|0|0|0,0:0|0:0|0:0|0:0,0:0:0:0:
320,320,218881,2,0,L|272:320,3,35,2|0|0|0,0:0|0:0|0:0|0:0,0:0:0:0:
256,320,219103,2,0,L|208:320,3,35,2|0|0|0,0:0|0:0|0:0|0:0,0:0:0:0:
192,320,219325,2,0,L|144:320,3,35,2|0|0|0,0:0|0:0|0:0|0:0,0:0:0:0:
128,320,219547,6,0,L|128:272,3,35,2|0|0|0,0:0|0:0|0:0|0:0,0:0:0:0:
128,256,219770,2,0,L|128:208,3,35,2|0|0|0,0:0|0:0|0:0|0:0,0:0:0:0:
128,192,219992,2,0,L|128:144,3,35,2|0|0|0,0:0|0:0|0:0|0:0,0:0:0:0:
128,128,220214,2,0,L|128:80,3,35,2|0|0|0,0:0|0:0|0:0|0:0,0:0:0:0:
128,64,220437,5,2,0:0:0:0:
144,64,220492,1,0,0:0:0:0:
160,64,220548,1,0,0:0:0:0:
176,64,220603,1,0,0:0:0:0:
192,64,220659,1,2,0:0:0:0:
208,64,220714,1,0,0:0:0:0:
224,64,220770,1,0,0:0:0:0:
240,64,220826,1,0,0:0:0:0:
256,64,220881,1,2,0:0:0:0:
272,64,220937,1,0,0:0:0:0:
288,64,220992,1,0,0:0:0:0:
304,64,221048,1,0,0:0:0:0:
320,64,221103,1,2,0:0:0:0:
336,64,221159,1,0,0:0:0:0:
352,64,221214,1,0,0:0:0:0:
368,64,221270,1,0,0:0:0:0:
384,64,221326,5,2,0:0:0:0:
384,80,221381,1,0,0:0:0:0:
384,96,221437,1,0,0:0:0:0:
384,112,221492,1,0,0:0:0:0:
384,128,221548,1,2,0:0:0:0:
384,144,221603,1,0,0:0:0:0:
384,160,221659,1,0,0:0:0:0:
384,176,221715,1,0,0:0:0:0:
384,192,221770,1,2,0:0:0:0:
384,208,221826,1,0,0:0:0:0:
384,224,221881,1,0,0:0:0:0:
384,240,221937,1,0,0:0:0:0:
384,256,221992,1,2,0:0:0:0:
384,272,222048,1,0,0:0:0:0:
384,288,222103,1,0,0:0:0:0:
384,304,222159,1,0,0:0:0:0:
384,320,222214,6,0,L|336:320,3,35,2|0|0|0,0:0|0:0|0:0|0:0,0:0:0:0:
320,320,222437,2,0,L|272:320,3,35,2|0|0|0,0:0|0:0|0:0|0:0,0:0:0:0:
256,320,222659,2,0,L|208:320,3,35,2|0|0|0,0:0|0:0|0:0|0:0,0:0:0:0:
192,320,222881,2,0,L|144:320,3,35,2|0|0|0,0:0|0:0|0:0|0:0,0:0:0:0:
128,320,223103,6,0,L|128:272,3,35,2|0|0|0,0:0|0:0|0:0|0:0,0:0:0:0:
128,256,223326,2,0,L|128:208,3,35,2|0|0|0,0:0|0:0|0:0|0:0,0:0:0:0:
128,192,223548,2,0,L|128:144,3,35,2|0|0|0,0:0|0:0|0:0|0:0,0:0:0:0:
128,128,223770,2,0,L|128:80,3,35,2|0|0|0,0:0|0:0|0:0|0:0,0:0:0:0:
128,64,223992,5,2,0:0:0:0:
144,64,224047,1,0,0:0:0:0:
160,64,224103,1,0,0:0:0:0:
176,64,224158,1,0,0:0:0:0:
192,64,224214,1,2,0:0:0:0:
208,64,224269,1,0,0:0:0:0:
224,64,224325,1,0,0:0:0:0:
240,64,224381,1,0,0:0:0:0:
256,64,224436,1,2,0:0:0:0:
272,64,224492,1,0,0:0:0:0:
288,64,224547,1,0,0:0:0:0:
304,64,224603,1,0,0:0:0:0:
320,64,224658,1,2,0:0:0:0:
336,64,224714,1,0,0:0:0:0:
352,64,224769,1,0,0:0:0:0:
368,64,224825,1,0,0:0:0:0:
384,64,224881,5,2,0:0:0:0:
384,80,224936,1,0,0:0:0:0:
384,96,224992,1,0,0:0:0:0:
384,112,225047,1,0,0:0:0:0:
384,128,225103,1,2,0:0:0:0:
384,144,225158,1,0,0:0:0:0:
384,160,225214,1,0,0:0:0:0:
384,176,225270,1,0,0:0:0:0:
384,192,225325,1,2,0:0:0:0:
384,208,225381,1,0,0:0:0:0:
384,224,225436,1,0,0:0:0:0:
384,240,225492,1,0,0:0:0:0:
384,256,225547,1,2,0:0:0:0:
384,272,225603,1,0,0:0:0:0:
384,288,225658,1,0,0:0:0:0:
384,304,225714,1,0,0:0:0:0:
384,320,225769,6,0,L|336:320,3,35,2|0|0|0,0:0|0:0|0:0|0:0,0:0:0:0:
320,320,225992,2,0,L|272:320,3,35,2|0|0|0,0:0|0:0|0:0|0:0,0:0:0:0:
256,320,226214,2,0,L|208:320,3,35,2|0|0|0,0:0|0:0|0:0|0:0,0:0:0:0:
192,320,226436,2,0,L|144:320,3,35,2|0|0|0,0:0|0:0|0:0|0:0,0:0:0:0:
128,320,226658,6,0,L|128:272,3,35,2|0|0|0,0:0|0:0|0:0|0:0,0:0:0:0:
128,256,226881,2,0,L|128:208,3,35,2|0|0|0,0:0|0:0|0:0|0:0,0:0:0:0:
128,192,227103,2,0,L|128:144,3,35,2|0|0|0,0:0|0:0|0:0|0:0,0:0:0:0:
128,128,227325,2,0,L|128:80,3,35,2|0|0|0,0:0|0:0|0:0|0:0,0:0:0:0:
128,64,227548,5,2,0:0:0:0:
144,64,227603,1,0,0:0:0:0:
160,64,227659,1,0,0:0:0:0:
176,64,227714,1,0,0:0:0:0:
192,64,227770,1,2,0:0:0:0:
208,64,227825,1,0,0:0:0:0:
224,64,227881,1,0,0:0:0:0:
240,64,227937,1,0,0:0:0:0:
256,64,227992,1,2,0:0:0:0:
272,64,228048,1,0,0:0:0:0:
288,64,228103,1,0,0:0:0:0:
304,64,228159,1,0,0:0:0:0:
320,64,228214,1,2,0:0:0:0:
336,64,228270,1,0,0:0:0:0:
352,64,228325,1,0,0:0:0:0:
368,64,228381,1,0,0:0:0:0:
384,64,228437,5,2,0:0:0:0:
384,80,228492,1,0,0:0:0:0:
384,96,228548,1,0,0:0:0:0:
384,112,228603,1,0,0:0:0:0:
384,128,228659,1,2,0:0:0:0:
384,144,228714,1,0,0:0:0:0:
384,160,228770,1,0,0:0:0:0:
384,176,228826,1,0,0:0:0:0:
384,192,228881,1,2,0:0:0:0:
384,208,228937,1,0,0:0:0:0:
384,224,228992,1,0,0:0:0:0:
384,240,229048,1,0,0:0:0:0:
384,256,229103,1,2,0:0:0:0:
384,272,229159,1,0,0:0:0:0:
384,288,229214,1,0,0:0:0:0:
384,304,229270,1,0,0:0:0:0:
384,320,229325,6,0,L|336:320,3,35,2|0|0|0,0:0|0:0|0:0|0:0,0:0:0:0:
320,320,229548,2,0,L|272:320,3,35,2|0|0|0,0:0|0:0|0:0|0:0,0:0:0:0:
256,320,229770,2,0,L|208:320,3,35,2|0|0|0,0:0|0:0|0:0|0:0,0:0:0:0:
192,320,229992,2,0,L|144:320,3,35,2|0|0|0,0:0|0:0|0:0|0:0,0:0:0:0:
128,320,230214,6,0,L|128:272,3,35,2|0|0|0,0:0|0:0|0:0|0:0,0:0:0:0:
128,256,230437,2,0,L|128:208,3,35,2|0|0|0,0:0|0:0|0:0|0:0,0:0:0:0:
128,192,230659,2,0,L|128:144,3,35,2|0|0|0,0:0|0:0|0:0|0:0,0:0:0:0:
128,128,230881,2,0,L|128:80,3,35,2|0|0|0,0:0|0:0|0:0|0:0,0:0:0:0:
128,64,231103,5,2,0:0:0:0:
144,64,231158,1,0,0:0:0:0:
160,64,231214,1,0,0:0:0:0:
176,64,231269,1,0,0:0:0:0:
192,64,231325,1,2,0:0:0:0:
208,64,231380,1,0,0:0:0:0:
224,64,231436,1,0,0:0:0:0:
240,64,231492,1,0,0:0:0:0:
256,64,231547,1,2,0:0:0:0:
272,64,231603,1,0,0:0:0:0:
288,64,231658,1,0,0:0:0:0:
304,64,231714,1,0,0:0:0:0:
320,64,231769,1,2,0:0:0:0:
336,64,231825,1,0,0:0:0:0:
352,64,231880,1,0,0:0:0:0:
368,64,231936,1,0,0:0:0:0:
384,64,231992,5,2,0:0:0:0:
384,80,232047,1,0,0:0:0:0:
384,96,232103,1,0,0:0:0:0:
384,112,232158,1,0,0:0:0:0:
384,128,232214,1,2,0:0:0:0:
384,144,232269,1,0,0:0:0:0:
384,160,232325,1,0,0:0:0:0:
384,176,232381,1,0,0:0:0:0:
384,192,232436,1,2,0:0:0:0:
384,208,232492,1,0,0:0:0:0:
384,224,232547,1,0,0:0:0:0:
384,240,232603,1,0,0:0:0:0:
384,256,232658,1,2,0:0:0:0:
384,272,232714,1,0,0:0:0:0:
384,288,232769,1,0,0:0:0:0:
384,304,232825,1,0,0:0:0:0:
384,320,232880,6,0,L|336:320,3,35,2|0|0|0,0:0|0:0|0:0|0:0,0:0:0:0:
320,320,233103,2,0,L|272:320,3,35,2|0|0|0,0:0|0:0|0:0|0:0,0:0:0:0:
256,320,233325,2,0,L|208:320,3,35,2|0|0|0,0:0|0:0|0:0|0:0,0:0:0:0:
192,320,233547,2,0,L|144:320,3,35,2|0|0|0,0:0|0:0|0:0|0:0,0:0:0:0:
128,320,233769,6,0,L|128:272,3,35,2|0|0|0,0:0|0:0|0:0|0:0,0:0:0:0:
128,256,233992,2,0,L|128:208,3,35,2|0|0|0,0:0|0:0|0:0|0:0,0:0:0:0:
128,192,234214,2,0,L|128:144,3,35,2|0|0|0,0:0|0:0|0:0|0:0,0:0:0:0:
128,128,234436,2,0,L|128:80,3,35,2|0|0|0,0:0|0:0|0:0|0:0,0:0:0:0:
128,64,234659,5,2,0:0:0:0:
144,64,234714,1,0,0:0:0:0:
160,64,234770,1,0,0:0:0:0:
176,64,234825,1,0,0:0:0:0:
192,64,234881,1,2,0:0:0:0:
208,64,234936,1,0,0:0:0:0:
224,64,234992,1,0,0:0:0:0:
240,64,235048,1,0,0:0:0:0:
256,64,235103,1,2,0:0:0:0:
272,64,235159,1,0,0:0:0:0:
288,64,235214,1,0,0:0:0:0:
304,64,235270,1,0,0:0:0:0:
320,64,235325,1,2,0:0:0:0:
336,64,235381,1,0,0:0:0:0:
352,64,235436,1,0,0:0:0:0:
368,64,235492,1,0,0:0:0:0:
384,64,235548,5,2,0:0:0:0:
384,80,235603,1,0,0:0:0:0:
384,96,235659,1,0,0:0:0:0:
384,112,235714,1,0,0:0:0:0:
384,128,235770,1,2,0:0:0:0:
384,144,235825,1,0,0:0:0:0:
384,160,235881,1,0,0:0:0:0:
384,176,235937,1,0,0:0:0:0:
384,192,235992,1,2,0:0:0:0:
384,208,236048,1,0,0:0:0:0:
384,224,236103,1,0,0:0:0:0:
384,240,236159,1,0,0:0:0:0:
384,256,236214,1,2,0:0:0:0:
384,272,236270,1,0,0:0:0:0:
384,288,236325,1,0,0:0:0:0:
384,304,236381,1,0,0:0:0:0:
384,320,236436,6,0,L|336:320,3,35,2|0|0|0,0:0|0:0|0:0|0:0,0:0:0:0:
320,320,236659,2,0,L|272:320,3,35,2|0|0|0,0:0|0:0|0:0|0:0,0:0:0:0:
256,320,236881,2,0,L|208:320,3,35,2|0|0|0,0:0|0:0|0:0|0:0,0:0:0:0:
192,320,237103,2,0,L|144:320,3,35,2|0|0|0,0:0|0:0|0:0|0:0,0:0:0:0:
128,320,237325,6,0,L|128:272,3,35,2|0|0|0,0:0|0:0|0:0|0:0,0:0:0:0:
128,256,237548,2,0,L|128:208,3,35,2|0|0|0,0:0|0:0|0:0|0:0,0:0:0:0:
128,192,237770,2,0,L|128:144,3,35,2|0|0|0,0:0|0:0|0:0|0:0,0:0:0:0:
128,128,237992,2,0,L|128:80,3,35,2|0|0|0,0:0|0:0|0:0|0:0,0:0:0:0:
128,64,238214,5,2,0:0:0:0:
144,64,238269,1,0,0:0:0:0:
160,64,238325,1,0,0:0:0:0:
176,64,238380,1,0,0:0:0:0:
192,64,238436,1,2,0:0:0:0:
208,64,238491,1,0,0:0:0:0:
224,64,238547,1,0,0:0:0:0:
240,64,238603,1,0,0:0:0:0:
256,64,238658,1,2,0:0:0:0:
272,64,238714,1,0,0:0:0:0:
288,64,238769,1,0,0:0:0:0:
304,64,238825,1,0,0:0:0:0:
320,64,238880,1,2,0:0:0:0:
336,64,238936,1,0,0:0:0:0:
352,64,238991,1,0,0:0:0:0:
368,64,239047,1,0,0:0:0:0:
384,64,239103,5,2,0:0:0:0:
384,80,239158,1,0,0:0:0:0:
384,96,239214,1,0,0:0:0:0:
384,112,239269,1,0,0:0:0:0:
384,128,239325,1,2,0:0:0:0:
384,144,239380,1,0,0:0:0:0:
384,160,239436,1,0,0:0:0:0:
384,176,239492,1,0,0:0:0:0:
384,192,239547,1,2,0:0:0:0:
384,208,239603,1,0,0:0:0:0:
384,224,239658,1,0,0:0:0:0:
384,240,239714,1,0,0:0:0:0:
384,256,239769,1,2,0:0:0:0:
384,272,239825,1,0,0:0:0:0:
384,288,239880,1,0,0:0:0:0:
384,304,239936,1,0,0:0:0:0:
384,320,239991,6,0,L|336:320,3,35,2|0|0|0,0:0|0:0|0:0|0:0,0:0:0:0:
320,320,240214,2,0,L|272:320,3,35,2|0|0|0,0:0|0:0|0:0|0:0,0:0:0:0:
256,320,240436,2,0,L|208:320,3,35,2|0|0|0,0:0|0:0|0:0|0:0,0:0:0:0:
192,320,240658,2,0,L|144:320,3,35,2|0|0|0,0:0|0:0|0:0|0:0,0:0:0:0:
128,320,240880,6,0,L|128:272,3,35,2|0|0|0,0:0|0:0|0:0|0:0,0:0:0:0:
128,256,241103,2,0,L|128:208,3,35,2|0|0|0,0:0|0:0|0:0|0:0,0:0:0:0:
128,192,241325,2,0,L|128:144,3,35,2|0|0|0,0:0|0:0|0:0|0:0,0:0:0:0:
128,128,241547,2,0,L|128:80,3,35,2|0|0|0,0:0|0:0|0:0|0:0,0:0:0:0:
128,64,241771,5,2,0:0:0:0:
144,64,241826,1,0,0:0:0:0:
160,64,241882,1,0,0:0:0:0:
176,64,241937,1,0,0:0:0:0:
192,64,241993,1,2,0:0:0:0:
208,64,242048,1,0,0:0:0:0:
224,64,242104,1,0,0:0:0:0:
240,64,242160,1,0,0:0:0:0:
256,64,242215,1,2,0:0:0:0:
272,64,242271,1,0,0:0:0:0:
288,64,242326,1,0,0:0:0:0:
304,64,242382,1,0,0:0:0:0:
320,64,242437,1,2,0:0:0:0:
336,64,242493,1,0,0:0:0:0:
352,64,242548,1,0,0:0:0:0:
368,64,242604,1,0,0:0:0:0:
384,64,242660,5,2,0:0:0:0:
384,80,242715,1,0,0:0:0:0:
384,96,242771,1,0,0:0:0:0:
384,112,242826,1,0,0:0:0:0:
384,128,242882,1,2,0:0:0:0:
384,144,242937,1,0,0:0:0:0:
384,160,242993,1,0,0:0:0:0:
384,176,243049,1,0,0:0:0:0:
384,192,243104,1,2,0:0:0:0:
384,208,243160,1,0,0:0:0:0:
384,224,243215,1,0,0:0:0:0:
384,240,243271,1,0,0:0:0:0:
384,256,243326,1,2,0:0:0:0:
384,272,243382,1,0,0:0:0:0:
384,288,243437,1,0,0:0:0:0:
384,304,243493,1,0,0:0:0:0:
384,320,243548,6,0,L|336:320,3,35,2|0|0|0,0:0|0:0|0:0|0:0,0:0:0:0:
320,320,243771,2,0,L|272:320,3,35,2|0|0|0,0:0|0:0|0:0|0:0,0:0:0:0:
256,320,243993,2,0,L|208:320,3,35,2|0|0|0,0:0|0:0|0:0|0:0,0:0:0:0:
192,320,244215,2,0,L|144:320,3,35,2|0|0|0,0:0|0:0|0:0|0:0,0:0:0:0:
128,320,244437,6,0,L|128:272,3,35,2|0|0|0,0:0|0:0|0:0|0:0,0:0:0:0:
128,256,244660,2,0,L|128:208,3,35,2|0|0|0,0:0|0:0|0:0|0:0,0:0:0:0:
128,192,244882,2,0,L|128:144,3,35,2|0|0|0,0:0|0:0|0:0|0:0,0:0:0:0:
128,128,245104,2,0,L|128:80,3,35,2|0|0|0,0:0|0:0|0:0|0:0,0:0:0:0:
128,64,245326,5,2,0:0:0:0:
144,64,245381,1,0,0:0:0:0:
160,64,245437,1,0,0:0:0:0:
176,64,245492,1,0,0:0:0:0:
192,64,245548,1,2,0:0:0:0:
208,64,245603,1,0,0:0:0:0:
224,64,245659,1,0,0:0:0:0:
240,64,245715,1,0,0:0:0:0:
256,64,245770,1,2,0:0:0:0:
272,64,245826,1,0,0:0:0:0:
288,64,245881,1,0,0:0:0:0:
304,64,245937,1,0,0:0:0:0:
320,64,245992,1,2,0:0:0:0:
336,64,246048,1,0,0:0:0:0:
352,64,246103,1,0,0:0:0:0:
368,64,246159,1,0,0:0:0:0:
384,64,246215,5,2,0:0:0:0:
384,80,246270,1,0,0:0:0:0:
384,96,246326,1,0,0:0:0:0:
384,112,246381,1,0,0:0:0:0:
384,128,246437,1,2,0:0:0:0:
384,144,246492,1,0,0:0:0:0:
384,160,246548,1,0,0:0:0:0:
384,176,246604,1,0,0:0:0:0:
384,192,246659,1,2,0:0:0:0:
384,208,246715,1,0,0:0:0:0:
384,224,246770,1,0,0:0:0:0:
384,240,246826,1,0,0:0:0:0:
384,256,246881,1,2,0:0:0:0:
384,272,246937,1,0,0:0:0:0:
384,288,246992,1,0,0:0:0:0:
384,304,247048,1,0,0:0:0:0:
384,320,247103,6,0,L|336:320,3,35,2|0|0|0,0:0|0:0|0:0|0:0,0:0:0:0:
320,320,247326,2,0,L|272:320,3,35,2|0|0|0,0:0|0:0|0:0|0:0,0:0:0:0:
256,320,247548,2,0,L|208:320,3,35,2|0|0|0,0:0|0:0|0:0|0:0,0:0:0:0:
192,320,247770,2,0,L|144:320,3,35,2|0|0|0,0:0|0:0|0:0|0:0,0:0:0:0:
128,320,247992,6,0,L|128:272,3,35,2|0|0|0,0:0|0:0|0:0|0:0,0:0:0:0:
128,256,248215,2,0,L|128:208,3,35,2|0|0|0,0:0|0:0|0:0|0:0,0:0:0:0:
128,192,248437,2,0,L|128:144,3,35,2|0|0|0,0:0|0:0|0:0|0:0,0:0:0:0:
128,128,248659,2,0,L|128:80,3,35,2|0|0|0,0:0|0:0|0:0|0:0,0:0:0:0:
128,64,248882,5,2,0:0:0:0:
144,64,248937,1,0,0:0:0:0:
160,64,248993,1,0,0:0:0:0:
176,64,249048,1,0,0:0:0:0:
192,64,249104,1,2,0:0:0:0:
208,64,249159,1,0,0:0:0:0:
224,64,249215,1,0,0:0:0:0:
240,64,249271,1,0,0:0:0:0:
256,64,249326,1,2,0:0:0:0:
272,64,249382,1,0,0:0:0:0:
288,64,249437,1,0,0:0:0:0:
304,64,249493,1,0,0:0:0:0:
320,64,249548,1,2,0:0:0:0:
336,64,249604,1,0,0:0:0:0:
352,64,249659,1,0,0:0:0:0:
368,64,249715,1,0,0:0:0:0:
384,64,249771,5,2,0:0:0:0:
384,80,249826,1,0,0:0:0:0:
384,96,249882,1,0,0:0:0:0:
384,112,249937,1,0,0:0:0:0:
384,128,249993,1,2,0:0:0:0:
384,144,250048,1,0,0:0:0:0:
384,160,250104,1,0,0:0:0:0:
384,176,250160,1,0,0:0:0:0:
384,192,250215,1,2,0:0:0:0:
384,208,250271,1,0,0:0:0:0:
384,224,250326,1,0,0:0:0:0:
384,240,250382,1,0,0:0:0:0:
384,256,250437,1,2,0:0:0:0:
384,272,250493,1,0,0:0:0:0:
384,288,250548,1,0,0:0:0:0:
384,304,250604,1,0,0:0:0:0:
384,320,250659,6,0,L|336:320,3,35,2|0|0|0,0:0|0:0|0:0|0:0,0:0:0:0:
320,320,250882,2,0,L|272:320,3,35,2|0|0|0,0:0|0:0|0:0|0:0,0:0:0:0:
256,320,251104,2,0,L|208:320,3,35,2|0|0|0,0:0|0:0|0:0|0:0,0:0:0:0:
192,320,251326,2,0,L|144:320,3,35,2|0|0|0,0:0|0:0|0:0|0:0,0:0:0:0:
128,320,251548,6,0,L|128:272,3,35,2|0|0|0,0:0|0:0|0:0|0:0,0:0:0:0:
128,256,251771,2,0,L|128:208,3,35,2|0|0|0,0:0|0:0|0:0|0:0,0:0:0:0:
128,192,251993,2,0,L|128:144,3,35,2|0|0|0,0:0|0:0|0:0|0:0,0:0:0:0:
128,128,252215,2,0,L|128:80,3,35,2|0|0|0,0:0|0:0|0:0|0:0,0:0:0:0:
128,64,252437,5,2,0:0:0:0:
144,64,252492,1,0,0:0:0:0:
160,64,252548,1,0,0:0:0:0:
176,64,252603,1,0,0:0:0:0:
192,64,252659,1,2,0:0:0:0:
208,64,252714,1,0,0:0:0:0:
224,64,252770,1,0,0:0:0:0:
240,64,252826,1,0,0:0:0:0:
256,64,252881,1,2,0:0:0:0:
272,64,252937,1,0,0:0:0:0:
288,64,252992,1,0,0:0:0:0:
304,64,253048,1,0,0:0:0:0:
320,64,253103,1,2,0:0:0:0:
336,64,253159,1,0,0:0:0:0:
352,64,253214,1,0,0:0:0:0:
368,64,253270,1,0,0:0:0:0:
384,64,253326,5,2,0:0:0:0:
384,80,253381,1,0,0:0:0:0:
384,96,253437,1,0,0:0:0:0:
384,112,253492,1,0,0:0:0:0:
384,128,253548,1,2,0:0:0:0:
384,144,253603,1,0,0:0:0:0:
384,160,253659,1,0,0:0:0:0:
384,176,253715,1,0,0:0:0:0:
384,192,253770,1,2,0:0:0:0:
384,208,253826,1,0,0:0:0:0:
384,224,253881,1,0,0:0:0:0:
384,240,253937,1,0,0:0:0:0:
384,256,253992,1,2,0:0:0:0:
384,272,254048,1,0,0:0:0:0:
384,288,254103,1,0,0:0:0:0:
384,304,254159,1,0,0:0:0:0:
384,320,254214,6,0,L|336:320,3,35,2|0|0|0,0:0|0:0|0:0|0:0,0:0:0:0:
320,320,254437,2,0,L|272:320,3,35,2|0|0|0,0:0|0:0|0:0|0:0,0:0:0:0:
256,320,254659,2,0,L|208:320,3,35,2|0|0|0,0:0|0:0|0:0|0:0,0:0:0:0:
192,320,254881,2,0,L|144:320,3,35,2|0|0|0,0:0|0:0|0:0|0:0,0:0:0:0:
128,320,255103,6,0,L|128:272,3,35,2|0|0|0,0:0|0:0|0:0|0:0,0:0:0:0:
128,256,255326,2,0,L|128:208,3,35,2|0|0|0,0:0|0:0|0:0|0:0,0:0:0:0:
128,192,255548,2,0,L|128:144,3,35,2|0|0|0,0:0|0:0|0:0|0:0,0:0:0:0:
128,128,255770,2,0,L|128:80,3,35,2|0|0|0,0:0|0:0|0:0|0:0,0:0:0:0:
128,64,255993,5,2,0:0:0:0:
144,64,256048,1,0,0:0:0:0:
160,64,256104,1,0,0:0:0:0:
176,64,256159,1,0,0:0:0:0:
192,64,256215,1,2,0:0:0:0:
208,64,256270,1,0,0:0:0:0:
224,64,256326,1,0,0:0:0:0:
240,64,256382,1,0,0:0:0:0:
256,64,256437,1,2,0:0:0:0:
272,64,256493,1,0,0:0:0:0:
288,64,256548,1,0,0:0:0:0:
304,64,256604,1,0,0:0:0:0:
320,64,256659,1,2,0:0:0:0:
336,64,256715,1,0,0:0:0:0:
352,64,256770,1,0,0:0:0:0:
368,64,256826,1,0,0:0:0:0:
384,64,256882,5,2,0:0:0:0:
384,80,256937,1,0,0:0:0:0:
384,96,256993,1,0,0:0:0:0:
384,112,257048,1,0,0:0:0:0:
384,128,257104,1,2,0:0:0:0:
384,144,257159,1,0,0:0:0:0:
384,160,257215,1,0,0:0:0:0:
384,176,257271,1,0,0:0:0:0:
384,192,257326,1,2,0:0:0:0:
384,208,257382,1,0,0:0:0:0:
384,224,257437,1,0,0:0:0:0:
384,240,257493,1,0,0:0:0:0:
384,256,257548,1,2,0:0:0:0:
384,272,257604,1,0,0:0:0:0:
384,288,257659,1,0,0:0:0:0:
384,304,257715,1,0,0:0:0:0:
384,320,257770,6,0,L|336:320,3,35,2|0|0|0,0:0|0:0|0:0|0:0,0:0:0:0:
320,320,257993,2,0,L|272:320,3,35,2|0|0|0,0:0|0:0|0:0|0:0,0:0:0:0:
256,320,258215,2,0,L|208:320,3,35,2|0|0|0,0:0|0:0|0:0|0:0,0:0:0:0:
192,320,258437,2,0,L|144:320,3,35,2|0|0|0,0:0|0:0|0:0|0:0,0:0:0:0:
128,320,258659,6,0,L|128:272,3,35,2|0|0|0,0:0|0:0|0:0|0:0,0:0:0:0:
128,256,258882,2,0,L|128:208,3,35,2|0|0|0,0:0|0:0|0:0|0:0,0:0:0:0:
128,192,259104,2,0,L|128:144,3,35,2|0|0|0,0:0|0:0|0:0|0:0,0:0:0:0:
128,128,259326,2,0,L|128:80,3,35,2|0|0|0,0:0|0:0|0:0|0:0,0:0:0:0:
128,64,259548,5,2,0:0:0:0:
144,64,259603,1,0,0:0:0:0:
160,64,259659,1,0,0:0:0:0:
176,64,259714,1,0,0:0:0:0:
192,64,259770,1,2,0:0:0:0:
208,64,259825,1,0,0:0:0:0:
224,64,259881,1,0,0:0:0:0:
240,64,259937,1,0,0:0:0:0:
256,64,259992,1,2,0:0:0:0:
272,64,260048,1,0,0:0:0:0:
288,64,260103,1,0,0:0:0:0:
304,64,260159,1,0,0:0:0:0:
320,64,260214,1,2,0:0:0:0:
336,64,260270,1,0,0:0:0:0:
352,64,260325,1,0,0:0:0:0:
368,64,260381,1,0,0:0:0:0:
384,64,260437,5,2,0:0:0:0:
384,80,260492,1,0,0:0:0:0:
384,96,260548,1,0,0:0:0:0:
384,112,260603,1,0,0:0:0:0:
384,128,260659,1,2,0:0:0:0:
384,144,260714,1,0,0:0:0:0:
384,160,260770,1,0,0:0:0:0:
384,176,260826,1,0,0:0:0:0:
384,192,260881,1,2,0:0:0:0:
384,208,260937,1,0,0:0:0:0:
384,224,260992,1,0,0:0:0:0:
384,240,261048,1,0,0:0:0:0:
384,256,261103,1,2,0:0:0:0:
384,272,261159,1,0,0:0:0:0:
384,288,261214,1,0,0:0:0:0:
384,304,261270,1,0,0:0:0:0:
384,320,261325,6,0,L|336:320,3,35,2|0|0|0,0:0|0:0|0:0|0:0,0:0:0:0:
320,320,261548,2,0,L|272:320,3,35,2|0|0|0,0:0|0:0|0:0|0:0,0:0:0:0:
256,320,261770,2,0,L|208:320,3,35,2|0|0|0,0:0|0:0|0:0|0:0,0:0:0:0:
192,320,261992,2,0,L|144:320,3,35,2|0|0|0,0:0|0:0|0:0|0:0,0:0:0:0:
128,320,262214,6,0,L|128:272,3,35,2|0|0|0,0:0|0:0|0:0|0:0,0:0:0:0:
128,256,262437,2,0,L|128:208,3,35,2|0|0|0,0:0|0:0|0:0|0:0,0:0:0:0:
128,192,262659,2,0,L|128:144,3,35,2|0|0|0,0:0|0:0|0:0|0:0,0:0:0:0:
128,128,262881,2,0,L|128:80,3,35,2|0|0|0,0:0|0:0|0:0|0:0,0:0:0:0:
128,64,263104,5,2,0:0:0:0:
144,64,263159,1,0,0:0:0:0:
160,64,263215,1,0,0:0:0:0:
176,64,263270,1,0,0:0:0:0:
192,64,263326,1,2,0:0:0:0:
208,64,263381,1,0,0:0:0:0:
224,64,263437,1,0,0:0:0:0:
240,64,263493,1,0,0:0:0:0:
256,64,263548,1,2,0:0:0:0:
272,64,263604,1,0,0:0:0:0:
288,64,263659,1,0,0:0:0:0:
304,64,263715,1,0,0:0:0:0:
320,64,263770,1,2,0:0:0:0:
336,64,263826,1,0,0:0:0:0:
352,64,263881,1,0,0:0:0:0:
368,64,263937,1,0,0:0:0:0:
384,64,263993,5,2,0:0:0:0:
384,80,264048,1,0,0:0:0:0:
384,96,264104,1,0,0:0:0:0:
384,112,264159,1,0,0:0:0:0:
384,128,264215,1,2,0:0:0:0:
384,144,264270,1,0,0:0:0:0:
384,160,264326,1,0,0:0:0:0:
384,176,264382,1,0,0:0:0:0:
384,192,264437,1,2,0:0:0:0:
384,208,264493,1,0,0:0:0:0:
384,224,264548,1,0,0:0:0:0:
384,240,264604,1,0,0:0:0:0:
384,256,264659,1,2,0:0:0:0:
384,272,264715,1,0,0:0:0:0:
384,288,264770,1,0,0:0:0:0:
384,304,264826,1,0,0:0:0:0:
384,320,264881,6,0,L|336:320,3,35,2|0|0|0,0:0|0:0|0:0|0:0,0:0:0:0:
320,320,265104,2,0,L|272:320,3,35,2|0|0|0,0:0|0:0|0:0|0:0,0:0:0:0:
256,320,265326,2,0,L|208:320,3,35,2|0|0|0,0:0|0:0|0:0|0:0,0:0:0:0:
192,320,265548,2,0,L|144:320,3,35,2|0|0|0,0:0|0:0|0:0|0:0,0:0:0:0:
128,320,265770,6,0,L|128:272,3,35,2|0|0|0,0:0|0:0|0:0|0:0,0:0:0:0:
128,256,265993,2,0,L|128:208,3,35,2|0|0|0,0:0|0:0|0:0|0:0,0:0:0:0:
128,192,266215,2,0,L|128:144,3,35,2|0|0|0,0:0|0:0|0:0|0:0,0:0:0:0:
128,128,266437,2,0,L|128:80,3,35,2|0|0|0,0:0|0:0|0:0|0:0,0:0:0:0:
128,64,266659,5,2,0:0:0:0:
144,64,266714,1,0,0:0:0:0:
160,64,266770,1,0,0:0:0:0:
176,64,266825,1,0,0:0:0:0:
192,64,266881,1,2,0:0:0:0:
208,64,266936,1,0,0:0:0:0:
224,64,266992,1,0,0:0:0:0:
240,64,267048,1,0,0:0:0:0:
256,64,267103,1,2,0:0:0:0:
272,64,267159,1,0,0:0:0:0:
288,64,267214,1,0,0:0:0:0:
304,64,267270,1,0,0:0:0:0:
320,64,267325,1,2,0:0:0:0:
336,64,267381,1,0,0:0:0:0:
352,64,267436,1,0,0:0:0:0:
368,64,267492,1,0,0:0:0:0:
384,64,267548,5,2,0:0:0:0:
384,80,267603,1,0,0:0:0:0:
384,96,267659,1,0,0:0:0:0:
384,112,267714,1,0,0:0:0:0:
384,128,267770,1,2,0:0:0:0:
384,144,267825,1,0,0:0:0:0:
384,160,267881,1,0,0:0:0:0:
384,176,267937,1,0,0:0:0:0:
384,192,267992,1,2,0:0:0:0:
384,208,268048,1,0,0:0:0:0:
384,224,268103,1,0,0:0:0:0:
384,240,268159,1,0,0:0:0:0:
384,256,268214,1,2,0:0:0:0:
384,272,268270,1,0,0:0:0:0:
384,288,268325,1,0,0:0:0:0:
384,304,268381,1,0,0:0:0:0:
384,320,268436,6,0,L|336:320,3,35,2|0|0|0,0:0|0:0|0:0|0:0,0:0:0:0:
320,320,268659,2,0,L|272:320,3,35,2|0|0|0,0:0|0:0|0:0|0:0,0:0:0:0:
256,320,268881,2,0,L|208:320,3,35,2|0|0|0,0:0|0:0|0:0|0:0,0:0:0:0:
192,320,269103,2,0,L|144:320,3,35,2|0|0|0,0:0|0:0|0:0|0:0,0:0:0:0:
128,320,269325,6,0,L|128:272,3,35,2|0|0|0,0:0|0:0|0:0|0:0,0:0:0:0:
128,256,269548,2,0,L|128:208,3,35,2|0|0|0,0:0|0:0|0:0|0:0,0:0:0:0:
128,192,269770,2,0,L|128:144,3,35,2|0|0|0,0:0|0:0|0:0|0:0,0:0:0:0:
128,128,269992,2,0,L|128:80,3,35,2|0|0|0,0:0|0:0|0:0|0:0,0:0:0:0:
