osu file format v14

[General]
AudioFilename: MEGALOMANIA.mp3
AudioLeadIn: 0
PreviewTime: -1
Countdown: 1
SampleSet: None
StackLeniency: 0.7
Mode: 0
LetterboxInBreaks: 1
WidescreenStoryboard: 1

[Editor]
Bookmarks: 45326,88882,120882,152882,209771
DistanceSpacing: 0.8
BeatDivisor: 4
GridSize: 16
TimelineZoom: 2.899999

[Metadata]
Title:Burst Stream Practice Maps 2
TitleUnicode:Burst Stream Practice Maps 2
Artist:Various Artists
ArtistUnicode:Various Artists
Creator:nooblet
Version:270 BPM 16 notes
Source:
Tags:
BeatmapID:1022619
BeatmapSetID:478861

[Difficulty]
HPDrainRate:0
CircleSize:4
OverallDifficulty:10
ApproachRate:10
SliderMultiplier:1.4
SliderTickRate:1

[Events]
//Background and Video events
//Break Periods
2,89024,91987
2,121024,123987
2,153024,166654
2,209913,212876
//Storyboard Layer 0 (Background)
//Storyboard Layer 1 (Fail)
//Storyboard Layer 2 (Pass)
//Storyboard Layer 3 (Foreground)
//Storyboard Sound Samples

[TimingPoints]
2660,222.222222222222,4,2,0,100,1,0

[HitObjects]
128,64,16882,5,2,0:0:0:0:
144,64,16937,1,0,0:0:0:0:
160,64,16993,1,0,0:0:0:0:
176,64,17048,1,0,0:0:0:0:
192,64,17104,1,2,0:0:0:0:
208,64,17159,1,0,0:0:0:0:
224,64,17215,1,0,0:0:0:0:
240,64,17271,1,0,0:0:0:0:
256,64,17326,1,2,0:0:0:0:
272,64,17382,1,0,0:0:0:0:
288,64,17437,1,0,0:0:0:0:
304,64,17493,1,0,0:0:0:0:
320,64,17548,1,2,0:0:0:0:
336,64,17604,1,0,0:0:0:0:
352,64,17659,1,0,0:0:0:0:
368,64,17715,1,0,0:0:0:0:
384,64,17771,6,0,L|384:112,3,35,2|0|0|0,0:0|0:0|0:0|0:0,0:0:0:0:
384,128,17994,2,0,L|384:176,3,35,2|0|0|0,0:0|0:0|0:0|0:0,0:0:0:0:
384,192,18216,2,0,L|384:240,3,35,2|0|0|0,0:0|0:0|0:0|0:0,0:0:0:0:
384,256,18438,2,0,L|384:304,3,35,2|0|0|0,0:0|0:0|0:0|0:0,0:0:0:0:
384,320,18659,5,2,0:0:0:0:
368,320,18714,1,0,0:0:0:0:
352,320,18770,1,0,0:0:0:0:
336,320,18825,1,0,0:0:0:0:
320,320,18881,1,2,0:0:0:0:
304,320,18936,1,0,0:0:0:0:
288,320,18992,1,0,0:0:0:0:
272,320,19048,1,0,0:0:0:0:
256,320,19103,1,2,0:0:0:0:
240,320,19159,1,0,0:0:0:0:
224,320,19214,1,0,0:0:0:0:
208,320,19270,1,0,0:0:0:0:
192,320,19325,1,2,0:0:0:0:
176,320,19381,1,0,0:0:0:0:
160,320,19436,1,0,0:0:0:0:
144,320,19492,1,0,0:0:0:0:
128,320,19548,6,0,L|128:272,3,35,2|0|0|0,0:0|0:0|0:0|0:0,0:0:0:0:
128,256,19771,2,0,L|128:208,3,35,2|0|0|0,0:0|0:0|0:0|0:0,0:0:0:0:
128,192,19993,2,0,L|128:144,3,35,2|0|0|0,0:0|0:0|0:0|0:0,0:0:0:0:
128,128,20215,2,0,L|128:80,3,35,2|0|0|0,0:0|0:0|0:0|0:0,0:0:0:0:
128,64,20437,5,2,0:0:0:0:
144,64,20492,1,0,0:0:0:0:
160,64,20548,1,0,0:0:0:0:
176,64,20603,1,0,0:0:0:0:
192,64,20659,1,2,0:0:0:0:
208,64,20714,1,0,0:0:0:0:
224,64,20770,1,0,0:0:0:0:
240,64,20826,1,0,0:0:0:0:
256,64,20881,1,2,0:0:0:0:
272,64,20937,1,0,0:0:0:0:
288,64,20992,1,0,0:0:0:0:
304,64,21048,1,0,0:0:0:0:
320,64,21103,1,2,0:0:0:0:
336,64,21159,1,0,0:0:0:0:
352,64,21214,1,0,0:0:0:0:
368,64,21270,1,0,0:0:0:0:
384,64,21326,6,0,L|384:112,3,35,2|0|0|0,0:0|0:0|0:0|0:0,0:0:0:0:
384,128,21549,2,0,L|384:176,3,35,2|0|0|0,0:0|0:0|0:0|0:0,0:0:0:0:
384,192,21771,2,0,L|384:240,3,35,2|0|0|0,0:0|0:0|0:0|0:0,0:0:0:0:
384,256,21993,2,0,L|384:304,3,35,2|0|0|0,0:0|0:0|0:0|0:0,0:0:0:0:
384,320,22214,5,2,0:0:0:0:
368,320,22269,1,0,0:0:0:0:
352,320,22325,1,0,0:0:0:0:
336,320,22380,1,0,0:0:0:0:
320,320,22436,1,2,0:0:0:0:
304,320,22491,1,0,0:0:0:0:
288,320,22547,1,0,0:0:0:0:
272,320,22603,1,0,0:0:0:0:
256,320,22658,1,2,0:0:0:0:
240,320,22714,1,0,0:0:0:0:
224,320,22769,1,0,0:0:0:0:
208,320,22825,1,0,0:0:0:0:
192,320,22880,1,2,0:0:0:0:
176,320,22936,1,0,0:0:0:0:
160,320,22991,1,0,0:0:0:0:
144,320,23047,1,0,0:0:0:0:
128,320,23103,6,0,L|128:272,3,35,2|0|0|0,0:0|0:0|0:0|0:0,0:0:0:0:
128,256,23326,2,0,L|128:208,3,35,2|0|0|0,0:0|0:0|0:0|0:0,0:0:0:0:
128,192,23548,2,0,L|128:144,3,35,2|0|0|0,0:0|0:0|0:0|0:0,0:0:0:0:
128,128,23770,2,0,L|128:80,3,35,2|0|0|0,0:0|0:0|0:0|0:0,0:0:0:0:
128,64,23993,5,2,0:0:0:0:
144,64,24048,1,0,0:0:0:0:
160,64,24104,1,0,0:0:0:0:
176,64,24159,1,0,0:0:0:0:
192,64,24215,1,2,0:0:0:0:
208,64,24270,1,0,0:0:0:0:
224,64,24326,1,0,0:0:0:0:
240,64,24382,1,0,0:0:0:0:
256,64,24437,1,2,0:0:0:0:
272,64,24493,1,0,0:0:0:0:
288,64,24548,1,0,0:0:0:0:
304,64,24604,1,0,0:0:0:0:
320,64,24659,1,2,0:0:0:0:
336,64,24715,1,0,0:0:0:0:
352,64,24770,1,0,0:0:0:0:
368,64,24826,1,0,0:0:0:0:
384,64,24882,6,0,L|384:112,3,35,2|0|0|0,0:0|0:0|0:0|0:0,0:0:0:0:
384,128,25105,2,0,L|384:176,3,35,2|0|0|0,0:0|0:0|0:0|0:0,0:0:0:0:
384,192,25327,2,0,L|384:240,3,35,2|0|0|0,0:0|0:0|0:0|0:0,0:0:0:0:
384,256,25549,2,0,L|384:304,3,35,2|0|0|0,0:0|0:0|0:0|0:0,0:0:0:0:
384,320,25770,5,2,0:0:0:0:
368,320,25825,1,0,0:0:0:0:
352,320,25881,1,0,0:0:0:0:
336,320,25936,1,0,0:0:0:0:
320,320,25992,1,2,0:0:0:0:
304,320,26047,1,0,0:0:0:0:
288,320,26103,1,0,0:0:0:0:
272,320,26159,1,0,0:0:0:0:
256,320,26214,1,2,0:0:0:0:
240,320,26270,1,0,0:0:0:0:
224,320,26325,1,0,0:0:0:0:
208,320,26381,1,0,0:0:0:0:
192,320,26436,1,2,0:0:0:0:
176,320,26492,1,0,0:0:0:0:
160,320,26547,1,0,0:0:0:0:
144,320,26603,1,0,0:0:0:0:
128,320,26659,6,0,L|128:272,3,35,2|0|0|0,0:0|0:0|0:0|0:0,0:0:0:0:
128,256,26882,2,0,L|128:208,3,35,2|0|0|0,0:0|0:0|0:0|0:0,0:0:0:0:
128,192,27104,2,0,L|128:144,3,35,2|0|0|0,0:0|0:0|0:0|0:0,0:0:0:0:
128,128,27326,2,0,L|128:80,3,35,2|0|0|0,0:0|0:0|0:0|0:0,0:0:0:0:
128,64,27548,5,2,0:0:0:0:
144,64,27603,1,0,0:0:0:0:
160,64,27659,1,0,0:0:0:0:
176,64,27714,1,0,0:0:0:0:
192,64,27770,1,2,0:0:0:0:
208,64,27825,1,0,0:0:0:0:
224,64,27881,1,0,0:0:0:0:
240,64,27937,1,0,0:0:0:0:
256,64,27992,1,2,0:0:0:0:
272,64,28048,1,0,0:0:0:0:
288,64,28103,1,0,0:0:0:0:
304,64,28159,1,0,0:0:0:0:
320,64,28214,1,2,0:0:0:0:
336,64,28270,1,0,0:0:0:0:
352,64,28325,1,0,0:0:0:0:
368,64,28381,1,0,0:0:0:0:
384,64,28437,6,0,L|384:112,3,35,2|0|0|0,0:0|0:0|0:0|0:0,0:0:0:0:
384,128,28660,2,0,L|384:176,3,35,2|0|0|0,0:0|0:0|0:0|0:0,0:0:0:0:
384,192,28882,2,0,L|384:240,3,35,2|0|0|0,0:0|0:0|0:0|0:0,0:0:0:0:
384,256,29104,2,0,L|384:304,3,35,2|0|0|0,0:0|0:0|0:0|0:0,0:0:0:0:
384,320,29325,5,2,0:0:0:0:
368,320,29380,1,0,0:0:0:0:
352,320,29436,1,0,0:0:0:0:
336,320,29491,1,0,0:0:0:0:
320,320,29547,1,2,0:0:0:0:
304,320,29602,1,0,0:0:0:0:
288,320,29658,1,0,0:0:0:0:
272,320,29714,1,0,0:0:0:0:
256,320,29769,1,2,0:0:0:0:
240,320,29825,1,0,0:0:0:0:
224,320,29880,1,0,0:0:0:0:
208,320,29936,1,0,0:0:0:0:
192,320,29991,1,2,0:0:0:0:
176,320,30047,1,0,0:0:0:0:
160,320,30102,1,0,0:0:0:0:
144,320,30158,1,0,0:0:0:0:
128,320,30214,6,0,L|128:272,3,35,2|0|0|0,0:0|0:0|0:0|0:0,0:0:0:0:
128,256,30437,2,0,L|128:208,3,35,2|0|0|0,0:0|0:0|0:0|0:0,0:0:0:0:
128,192,30659,2,0,L|128:144,3,35,2|0|0|0,0:0|0:0|0:0|0:0,0:0:0:0:
128,128,30881,2,0,L|128:80,3,35,2|0|0|0,0:0|0:0|0:0|0:0,0:0:0:0:
128,64,31104,5,2,0:0:0:0:
144,64,31159,1,0,0:0:0:0:
160,64,31215,1,0,0:0:0:0:
176,64,31270,1,0,0:0:0:0:
192,64,31326,1,2,0:0:0:0:
208,64,31381,1,0,0:0:0:0:
224,64,31437,1,0,0:0:0:0:
240,64,31493,1,0,0:0:0:0:
256,64,31548,1,2,0:0:0:0:
272,64,31604,1,0,0:0:0:0:
288,64,31659,1,0,0:0:0:0:
304,64,31715,1,0,0:0:0:0:
320,64,31770,1,2,0:0:0:0:
336,64,31826,1,0,0:0:0:0:
352,64,31881,1,0,0:0:0:0:
368,64,31937,1,0,0:0:0:0:
384,64,31993,6,0,L|384:112,3,35,2|0|0|0,0:0|0:0|0:0|0:0,0:0:0:0:
384,128,32216,2,0,L|384:176,3,35,2|0|0|0,0:0|0:0|0:0|0:0,0:0:0:0:
384,192,32438,2,0,L|384:240,3,35,2|0|0|0,0:0|0:0|0:0|0:0,0:0:0:0:
384,256,32660,2,0,L|384:304,3,35,2|0|0|0,0:0|0:0|0:0|0:0,0:0:0:0:
384,320,32881,5,2,0:0:0:0:
368,320,32936,1,0,0:0:0:0:
352,320,32992,1,0,0:0:0:0:
336,320,33047,1,0,0:0:0:0:
320,320,33103,1,2,0:0:0:0:
304,320,33158,1,0,0:0:0:0:
288,320,33214,1,0,0:0:0:0:
272,320,33270,1,0,0:0:0:0:
256,320,33325,1,2,0:0:0:0:
240,320,33381,1,0,0:0:0:0:
224,320,33436,1,0,0:0:0:0:
208,320,33492,1,0,0:0:0:0:
192,320,33547,1,2,0:0:0:0:
176,320,33603,1,0,0:0:0:0:
160,320,33658,1,0,0:0:0:0:
144,320,33714,1,0,0:0:0:0:
128,320,33770,6,0,L|128:272,3,35,2|0|0|0,0:0|0:0|0:0|0:0,0:0:0:0:
128,256,33993,2,0,L|128:208,3,35,2|0|0|0,0:0|0:0|0:0|0:0,0:0:0:0:
128,192,34215,2,0,L|128:144,3,35,2|0|0|0,0:0|0:0|0:0|0:0,0:0:0:0:
128,128,34437,2,0,L|128:80,3,35,2|0|0|0,0:0|0:0|0:0|0:0,0:0:0:0:
128,64,34659,5,2,0:0:0:0:
144,64,34714,1,0,0:0:0:0:
160,64,34770,1,0,0:0:0:0:
176,64,34825,1,0,0:0:0:0:
192,64,34881,1,2,0:0:0:0:
208,64,34936,1,0,0:0:0:0:
224,64,34992,1,0,0:0:0:0:
240,64,35048,1,0,0:0:0:0:
256,64,35103,1,2,0:0:0:0:
272,64,35159,1,0,0:0:0:0:
288,64,35214,1,0,0:0:0:0:
304,64,35270,1,0,0:0:0:0:
320,64,35325,1,2,0:0:0:0:
336,64,35381,1,0,0:0:0:0:
352,64,35436,1,0,0:0:0:0:
368,64,35492,1,0,0:0:0:0:
384,64,35548,6,0,L|384:112,3,35,2|0|0|0,0:0|0:0|0:0|0:0,0:0:0:0:
384,128,35771,2,0,L|384:176,3,35,2|0|0|0,0:0|0:0|0:0|0:0,0:0:0:0:
384,192,35993,2,0,L|384:240,3,35,2|0|0|0,0:0|0:0|0:0|0:0,0:0:0:0:
384,256,36215,2,0,L|384:304,3,35,2|0|0|0,0:0|0:0|0:0|0:0,0:0:0:0:
384,320,36436,5,2,0:0:0:0:
368,320,36491,1,0,0:0:0:0:
352,320,36547,1,0,0:0:0:0:
336,320,36602,1,0,0:0:0:0:
320,320,36658,1,2,0:0:0:0:
304,320,36713,1,0,0:0:0:0:
288,320,36769,1,0,0:0:0:0:
272,320,36825,1,0,0:0:0:0:
256,320,36880,1,2,0:0:0:0:
240,320,36936,1,0,0:0:0:0:
224,320,36991,1,0,0:0:0:0:
208,320,37047,1,0,0:0:0:0:
192,320,37102,1,2,0:0:0:0:
176,320,37158,1,0,0:0:0:0:
160,320,37213,1,0,0:0:0:0:
144,320,37269,1,0,0:0:0:0:
128,320,37325,6,0,L|128:272,3,35,2|0|0|0,0:0|0:0|0:0|0:0,0:0:0:0:
128,256,37548,2,0,L|128:208,3,35,2|0|0|0,0:0|0:0|0:0|0:0,0:0:0:0:
128,192,37770,2,0,L|128:144,3,35,2|0|0|0,0:0|0:0|0:0|0:0,0:0:0:0:
128,128,37992,2,0,L|128:80,3,35,2|0|0|0,0:0|0:0|0:0|0:0,0:0:0:0:
128,64,38215,5,2,0:0:0:0:
144,64,38270,1,0,0:0:0:0:
160,64,38326,1,0,0:0:0:0:
176,64,38381,1,0,0:0:0:0:
192,64,38437,1,2,0:0:0:0:
208,64,38492,1,0,0:0:0:0:
224,64,38548,1,0,0:0:0:0:
240,64,38604,1,0,0:0:0:0:
256,64,38659,1,2,0:0:0:0:
272,64,38715,1,0,0:0:0:0:
288,64,38770,1,0,0:0:0:0:
304,64,38826,1,0,0:0:0:0:
320,64,38881,1,2,0:0:0:0:
336,64,38937,1,0,0:0:0:0:
352,64,38992,1,0,0:0:0:0:
368,64,39048,1,0,0:0:0:0:
384,64,39104,6,0,L|384:112,3,35,2|0|0|0,0:0|0:0|0:0|0:0,0:0:0:0:
384,128,39327,2,0,L|384:176,3,35,2|0|0|0,0:0|0:0|0:0|0:0,0:0:0:0:
384,192,39549,2,0,L|384:240,3,35,2|0|0|0,0:0|0:0|0:0|0:0,0:0:0:0:
384,256,39771,2,0,L|384:304,3,35,2|0|0|0,0:0|0:0|0:0|0:0,0:0:0:0:
384,320,39992,5,2,0:0:0:0:
368,320,40047,1,0,0:0:0:0:
352,320,40103,1,0,0:0:0:0:
336,320,40158,1,0,0:0:0:0:
320,320,40214,1,2,0:0:0:0:
304,320,40269,1,0,0:0:0:0:
288,320,40325,1,0,0:0:0:0:
272,320,40381,1,0,0:0:0:0:
256,320,40436,1,2,0:0:0:0:
240,320,40492,1,0,0:0:0:0:
224,320,40547,1,0,0:0:0:0:
208,320,40603,1,0,0:0:0:0:
192,320,40658,1,2,0:0:0:0:
176,320,40714,1,0,0:0:0:0:
160,320,40769,1,0,0:0:0:0:
144,320,40825,1,0,0:0:0:0:
128,320,40881,6,0,L|128:272,3,35,2|0|0|0,0:0|0:0|0:0|0:0,0:0:0:0:
128,256,41104,2,0,L|128:208,3,35,2|0|0|0,0:0|0:0|0:0|0:0,0:0:0:0:
128,192,41326,2,0,L|128:144,3,35,2|0|0|0,0:0|0:0|0:0|0:0,0:0:0:0:
128,128,41548,2,0,L|128:80,3,35,2|0|0|0,0:0|0:0|0:0|0:0,0:0:0:0:
128,64,41770,5,2,0:0:0:0:
144,64,41825,1,0,0:0:0:0:
160,64,41881,1,0,0:0:0:0:
176,64,41936,1,0,0:0:0:0:
192,64,41992,1,2,0:0:0:0:
208,64,42047,1,0,0:0:0:0:
224,64,42103,1,0,0:0:0:0:
240,64,42159,1,0,0:0:0:0:
256,64,42214,1,2,0:0:0:0:
272,64,42270,1,0,0:0:0:0:
288,64,42325,1,0,0:0:0:0:
304,64,42381,1,0,0:0:0:0:
320,64,42436,1,2,0:0:0:0:
336,64,42492,1,0,0:0:0:0:
352,64,42547,1,0,0:0:0:0:
368,64,42603,1,0,0:0:0:0:
384,64,42659,6,0,L|384:112,3,35,2|0|0|0,0:0|0:0|0:0|0:0,0:0:0:0:
384,128,42882,2,0,L|384:176,3,35,2|0|0|0,0:0|0:0|0:0|0:0,0:0:0:0:
384,192,43104,2,0,L|384:240,3,35,2|0|0|0,0:0|0:0|0:0|0:0,0:0:0:0:
384,256,43326,2,0,L|384:304,3,35,2|0|0|0,0:0|0:0|0:0|0:0,0:0:0:0:
384,320,43547,5,2,0:0:0:0:
368,320,43602,1,0,0:0:0:0:
352,320,43658,1,0,0:0:0:0:
336,320,43713,1,0,0:0:0:0:
320,320,43769,1,2,0:0:0:0:
304,320,43824,1,0,0:0:0:0:
288,320,43880,1,0,0:0:0:0:
272,320,43936,1,0,0:0:0:0:
256,320,43991,1,2,0:0:0:0:
240,320,44047,1,0,0:0:0:0:
224,320,44102,1,0,0:0:0:0:
208,320,44158,1,0,0:0:0:0:
192,320,44213,1,2,0:0:0:0:
176,320,44269,1,0,0:0:0:0:
160,320,44324,1,0,0:0:0:0:
144,320,44380,1,0,0:0:0:0:
128,320,44436,6,0,L|128:272,3,35,2|0|0|0,0:0|0:0|0:0|0:0,0:0:0:0:
128,256,44659,2,0,L|128:208,3,35,2|0|0|0,0:0|0:0|0:0|0:0,0:0:0:0:
128,192,44881,2,0,L|128:144,3,35,2|0|0|0,0:0|0:0|0:0|0:0,0:0:0:0:
128,128,45103,2,0,L|128:80,3,35,2|0|0|0,0:0|0:0|0:0|0:0,0:0:0:0:
128,64,46215,5,2,0:0:0:0:
144,64,46270,1,0,0:0:0:0:
160,64,46326,1,0,0:0:0:0:
176,64,46381,1,0,0:0:0:0:
192,64,46437,1,2,0:0:0:0:
208,64,46492,1,0,0:0:0:0:
224,64,46548,1,0,0:0:0:0:
240,64,46604,1,0,0:0:0:0:
256,64,46659,1,2,0:0:0:0:
272,64,46715,1,0,0:0:0:0:
288,64,46770,1,0,0:0:0:0:
304,64,46826,1,0,0:0:0:0:
320,64,46881,1,2,0:0:0:0:
336,64,46937,1,0,0:0:0:0:
352,64,46992,1,0,0:0:0:0:
368,64,47048,1,0,0:0:0:0:
384,64,47104,6,0,L|384:112,3,35,2|0|0|0,0:0|0:0|0:0|0:0,0:0:0:0:
384,128,47327,2,0,L|384:176,3,35,2|0|0|0,0:0|0:0|0:0|0:0,0:0:0:0:
384,192,47549,2,0,L|384:240,3,35,2|0|0|0,0:0|0:0|0:0|0:0,0:0:0:0:
384,256,47771,2,0,L|384:304,3,35,2|0|0|0,0:0|0:0|0:0|0:0,0:0:0:0:
384,320,47992,5,2,0:0:0:0:
368,320,48047,1,0,0:0:0:0:
352,320,48103,1,0,0:0:0:0:
336,320,48158,1,0,0:0:0:0:
320,320,48214,1,2,0:0:0:0:
304,320,48269,1,0,0:0:0:0:
288,320,48325,1,0,0:0:0:0:
272,320,48381,1,0,0:0:0:0:
256,320,48436,1,2,0:0:0:0:
240,320,48492,1,0,0:0:0:0:
224,320,48547,1,0,0:0:0:0:
208,320,48603,1,0,0:0:0:0:
192,320,48658,1,2,0:0:0:0:
176,320,48714,1,0,0:0:0:0:
160,320,48769,1,0,0:0:0:0:
144,320,48825,1,0,0:0:0:0:
128,320,48881,6,0,L|128:272,3,35,2|0|0|0,0:0|0:0|0:0|0:0,0:0:0:0:
128,256,49104,2,0,L|128:208,3,35,2|0|0|0,0:0|0:0|0:0|0:0,0:0:0:0:
128,192,49326,2,0,L|128:144,3,35,2|0|0|0,0:0|0:0|0:0|0:0,0:0:0:0:
128,128,49548,2,0,L|128:80,3,35,2|0|0|0,0:0|0:0|0:0|0:0,0:0:0:0:
128,64,49770,5,2,0:0:0:0:
144,64,49825,1,0,0:0:0:0:
160,64,49881,1,0,0:0:0:0:
176,64,49936,1,0,0:0:0:0:
192,64,49992,1,2,0:0:0:0:
208,64,50047,1,0,0:0:0:0:
224,64,50103,1,0,0:0:0:0:
240,64,50159,1,0,0:0:0:0:
256,64,50214,1,2,0:0:0:0:
272,64,50270,1,0,0:0:0:0:
288,64,50325,1,0,0:0:0:0:
304,64,50381,1,0,0:0:0:0:
320,64,50436,1,2,0:0:0:0:
336,64,50492,1,0,0:0:0:0:
352,64,50547,1,0,0:0:0:0:
368,64,50603,1,0,0:0:0:0:
384,64,50659,6,0,L|384:112,3,35,2|0|0|0,0:0|0:0|0:0|0:0,0:0:0:0:
384,128,50882,2,0,L|384:176,3,35,2|0|0|0,0:0|0:0|0:0|0:0,0:0:0:0:
384,192,51104,2,0,L|384:240,3,35,2|0|0|0,0:0|0:0|0:0|0:0,0:0:0:0:
384,256,51326,2,0,L|384:304,3,35,2|0|0|0,0:0|0:0|0:0|0:0,0:0:0:0:
384,320,51547,5,2,0:0:0:0:
368,320,51602,1,0,0:0:0:0:
352,320,51658,1,0,0:0:0:0:
336,320,51713,1,0,0:0:0:0:
320,320,51769,1,2,0:0:0:0:
304,320,51824,1,0,0:0:0:0:
288,320,51880,1,0,0:0:0:0:
272,320,51936,1,0,0:0:0:0:
256,320,51991,1,2,0:0:0:0:
240,320,52047,1,0,0:0:0:0:
224,320,52102,1,0,0:0:0:0:
208,320,52158,1,0,0:0:0:0:
192,320,52213,1,2,0:0:0:0:
176,320,52269,1,0,0:0:0:0:
160,320,52324,1,0,0:0:0:0:
144,320,52380,1,0,0:0:0:0:
128,320,52436,6,0,L|128:272,3,35,2|0|0|0,0:0|0:0|0:0|0:0,0:0:0:0:
128,256,52659,2,0,L|128:208,3,35,2|0|0|0,0:0|0:0|0:0|0:0,0:0:0:0:
128,192,52881,2,0,L|128:144,3,35,2|0|0|0,0:0|0:0|0:0|0:0,0:0:0:0:
128,128,53103,2,0,L|128:80,3,35,2|0|0|0,0:0|0:0|0:0|0:0,0:0:0:0:
128,64,53326,5,2,0:0:0:0:
144,64,53381,1,0,0:0:0:0:
160,64,53437,1,0,0:0:0:0:
176,64,53492,1,0,0:0:0:0:
192,64,53548,1,2,0:0:0:0:
208,64,53603,1,0,0:0:0:0:
224,64,53659,1,0,0:0:0:0:
240,64,53715,1,0,0:0:0:0:
256,64,53770,1,2,0:0:0:0:
272,64,53826,1,0,0:0:0:0:
288,64,53881,1,0,0:0:0:0:
304,64,53937,1,0,0:0:0:0:
320,64,53992,1,2,0:0:0:0:
336,64,54048,1,0,0:0:0:0:
352,64,54103,1,0,0:0:0:0:
368,64,54159,1,0,0:0:0:0:
384,64,54215,6,0,L|384:112,3,35,2|0|0|0,0:0|0:0|0:0|0:0,0:0:0:0:
384,128,54438,2,0,L|384:176,3,35,2|0|0|0,0:0|0:0|0:0|0:0,0:0:0:0:
384,192,54660,2,0,L|384:240,3,35,2|0|0|0,0:0|0:0|0:0|0:0,0:0:0:0:
384,256,54882,2,0,L|384:304,3,35,2|0|0|0,0:0|0:0|0:0|0:0,0:0:0:0:
384,320,55103,5,2,0:0:0:0:
368,320,55158,1,0,0:0:0:0:
352,320,55214,1,0,0:0:0:0:
336,320,55269,1,0,0:0:0:0:
320,320,55325,1,2,0:0:0:0:
304,320,55380,1,0,0:0:0:0:
288,320,55436,1,0,0:0:0:0:
272,320,55492,1,0,0:0:0:0:
256,320,55547,1,2,0:0:0:0:
240,320,55603,1,0,0:0:0:0:
224,320,55658,1,0,0:0:0:0:
208,320,55714,1,0,0:0:0:0:
192,320,55769,1,2,0:0:0:0:
176,320,55825,1,0,0:0:0:0:
160,320,55880,1,0,0:0:0:0:
144,320,55936,1,0,0:0:0:0:
128,320,55992,6,0,L|128:272,3,35,2|0|0|0,0:0|0:0|0:0|0:0,0:0:0:0:
128,256,56215,2,0,L|128:208,3,35,2|0|0|0,0:0|0:0|0:0|0:0,0:0:0:0:
128,192,56437,2,0,L|128:144,3,35,2|0|0|0,0:0|0:0|0:0|0:0,0:0:0:0:
128,128,56659,2,0,L|128:80,3,35,2|0|0|0,0:0|0:0|0:0|0:0,0:0:0:0:
128,64,56881,5,2,0:0:0:0:
144,64,56936,1,0,0:0:0:0:
160,64,56992,1,0,0:0:0:0:
176,64,57047,1,0,0:0:0:0:
192,64,57103,1,2,0:0:0:0:
208,64,57158,1,0,0:0:0:0:
224,64,57214,1,0,0:0:0:0:
240,64,57270,1,0,0:0:0:0:
256,64,57325,1,2,0:0:0:0:
272,64,57381,1,0,0:0:0:0:
288,64,57436,1,0,0:0:0:0:
304,64,57492,1,0,0:0:0:0:
320,64,57547,1,2,0:0:0:0:
336,64,57603,1,0,0:0:0:0:
352,64,57658,1,0,0:0:0:0:
368,64,57714,1,0,0:0:0:0:
384,64,57770,6,0,L|384:112,3,35,2|0|0|0,0:0|0:0|0:0|0:0,0:0:0:0:
384,128,57993,2,0,L|384:176,3,35,2|0|0|0,0:0|0:0|0:0|0:0,0:0:0:0:
384,192,58215,2,0,L|384:240,3,35,2|0|0|0,0:0|0:0|0:0|0:0,0:0:0:0:
384,256,58437,2,0,L|384:304,3,35,2|0|0|0,0:0|0:0|0:0|0:0,0:0:0:0:
384,320,58658,5,2,0:0:0:0:
368,320,58713,1,0,0:0:0:0:
352,320,58769,1,0,0:0:0:0:
336,320,58824,1,0,0:0:0:0:
320,320,58880,1,2,0:0:0:0:
304,320,58935,1,0,0:0:0:0:
288,320,58991,1,0,0:0:0:0:
272,320,59047,1,0,0:0:0:0:
256,320,59102,1,2,0:0:0:0:
240,320,59158,1,0,0:0:0:0:
224,320,59213,1,0,0:0:0:0:
208,320,59269,1,0,0:0:0:0:
192,320,59324,1,2,0:0:0:0:
176,320,59380,1,0,0:0:0:0:
160,320,59435,1,0,0:0:0:0:
144,320,59491,1,0,0:0:0:0:
128,320,59547,6,0,L|128:272,3,35,2|0|0|0,0:0|0:0|0:0|0:0,0:0:0:0:
128,256,59770,2,0,L|128:208,3,35,2|0|0|0,0:0|0:0|0:0|0:0,0:0:0:0:
128,192,59992,2,0,L|128:144,3,35,2|0|0|0,0:0|0:0|0:0|0:0,0:0:0:0:
128,128,60214,2,0,L|128:80,3,35,2|0|0|0,0:0|0:0|0:0|0:0,0:0:0:0:
128,64,60437,5,2,0:0:0:0:
144,64,60492,1,0,0:0:0:0:
160,64,60548,1,0,0:0:0:0:
176,64,60603,1,0,0:0:0:0:
192,64,60659,1,2,0:0:0:0:
208,64,60714,1,0,0:0:0:0:
224,64,60770,1,0,0:0:0:0:
240,64,60826,1,0,0:0:0:0:
256,64,60881,1,2,0:0:0:0:
272,64,60937,1,0,0:0:0:0:
288,64,60992,1,0,0:0:0:0:
304,64,61048,1,0,0:0:0:0:
320,64,61103,1,2,0:0:0:0:
336,64,61159,1,0,0:0:0:0:
352,64,61214,1,0,0:0:0:0:
368,64,61270,1,0,0:0:0:0:
384,64,61326,6,0,L|384:112,3,35,2|0|0|0,0:0|0:0|0:0|0:0,0:0:0:0:
384,128,61549,2,0,L|384:176,3,35,2|0|0|0,0:0|0:0|0:0|0:0,0:0:0:0:
384,192,61771,2,0,L|384:240,3,35,2|0|0|0,0:0|0:0|0:0|0:0,0:0:0:0:
384,256,61993,2,0,L|384:304,3,35,2|0|0|0,0:0|0:0|0:0|0:0,0:0:0:0:
384,320,62214,5,2,0:0:0:0:
368,320,62269,1,0,0:0:0:0:
352,320,62325,1,0,0:0:0:0:
336,320,62380,1,0,0:0:0:0:
320,320,62436,1,2,0:0:0:0:
304,320,62491,1,0,0:0:0:0:
288,320,62547,1,0,0:0:0:0:
272,320,62603,1,0,0:0:0:0:
256,320,62658,1,2,0:0:0:0:
240,320,62714,1,0,0:0:0:0:
224,320,62769,1,0,0:0:0:0:
208,320,62825,1,0,0:0:0:0:
192,320,62880,1,2,0:0:0:0:
176,320,62936,1,0,0:0:0:0:
160,320,62991,1,0,0:0:0:0:
144,320,63047,1,0,0:0:0:0:
128,320,63103,6,0,L|128:272,3,35,2|0|0|0,0:0|0:0|0:0|0:0,0:0:0:0:
128,256,63326,2,0,L|128:208,3,35,2|0|0|0,0:0|0:0|0:0|0:0,0:0:0:0:
128,192,63548,2,0,L|128:144,3,35,2|0|0|0,0:0|0:0|0:0|0:0,0:0:0:0:
128,128,63770,2,0,L|128:80,3,35,2|0|0|0,0:0|0:0|0:0|0:0,0:0:0:0:
128,64,63992,5,2,0:0:0:0:
144,64,64047,1,0,0:0:0:0:
160,64,64103,1,0,0:0:0:0:
176,64,64158,1,0,0:0:0:0:
192,64,64214,1,2,0:0:0:0:
208,64,64269,1,0,0:0:0:0:
224,64,64325,1,0,0:0:0:0:
240,64,64381,1,0,0:0:0:0:
256,64,64436,1,2,0:0:0:0:
272,64,64492,1,0,0:0:0:0:
288,64,64547,1,0,0:0:0:0:
304,64,64603,1,0,0:0:0:0:
320,64,64658,1,2,0:0:0:0:
336,64,64714,1,0,0:0:0:0:
352,64,64769,1,0,0:0:0:0:
368,64,64825,1,0,0:0:0:0:
384,64,64881,6,0,L|384:112,3,35,2|0|0|0,0:0|0:0|0:0|0:0,0:0:0:0:
384,128,65104,2,0,L|384:176,3,35,2|0|0|0,0:0|0:0|0:0|0:0,0:0:0:0:
384,192,65326,2,0,L|384:240,3,35,2|0|0|0,0:0|0:0|0:0|0:0,0:0:0:0:
384,256,65548,2,0,L|384:304,3,35,2|0|0|0,0:0|0:0|0:0|0:0,0:0:0:0:
384,320,65769,5,2,0:0:0:0:
368,320,65824,1,0,0:0:0:0:
352,320,65880,1,0,0:0:0:0:
336,320,65935,1,0,0:0:0:0:
320,320,65991,1,2,0:0:0:0:
304,320,66046,1,0,0:0:0:0:
288,320,66102,1,0,0:0:0:0:
272,320,66158,1,0,0:0:0:0:
256,320,66213,1,2,0:0:0:0:
240,320,66269,1,0,0:0:0:0:
224,320,66324,1,0,0:0:0:0:
208,320,66380,1,0,0:0:0:0:
192,320,66435,1,2,0:0:0:0:
176,320,66491,1,0,0:0:0:0:
160,320,66546,1,0,0:0:0:0:
144,320,66602,1,0,0:0:0:0:
128,320,66658,6,0,L|128:272,3,35,2|0|0|0,0:0|0:0|0:0|0:0,0:0:0:0:
128,256,66881,2,0,L|128:208,3,35,2|0|0|0,0:0|0:0|0:0|0:0,0:0:0:0:
128,192,67103,2,0,L|128:144,3,35,2|0|0|0,0:0|0:0|0:0|0:0,0:0:0:0:
128,128,67325,2,0,L|128:80,3,35,2|0|0|0,0:0|0:0|0:0|0:0,0:0:0:0:
128,64,67548,5,2,0:0:0:0:
144,64,67603,1,0,0:0:0:0:
160,64,67659,1,0,0:0:0:0:
176,64,67714,1,0,0:0:0:0:
192,64,67770,1,2,0:0:0:0:
208,64,67825,1,0,0:0:0:0:
224,64,67881,1,0,0:0:0:0:
240,64,67937,1,0,0:0:0:0:
256,64,67992,1,2,0:0:0:0:
272,64,68048,1,0,0:0:0:0:
288,64,68103,1,0,0:0:0:0:
304,64,68159,1,0,0:0:0:0:
320,64,68214,1,2,0:0:0:0:
336,64,68270,1,0,0:0:0:0:
352,64,68325,1,0,0:0:0:0:
368,64,68381,1,0,0:0:0:0:
384,64,68437,6,0,L|384:112,3,35,2|0|0|0,0:0|0:0|0:0|0:0,0:0:0:0:
384,128,68660,2,0,L|384:176,3,35,2|0|0|0,0:0|0:0|0:0|0:0,0:0:0:0:
384,192,68882,2,0,L|384:240,3,35,2|0|0|0,0:0|0:0|0:0|0:0,0:0:0:0:
384,256,69104,2,0,L|384:304,3,35,2|0|0|0,0:0|0:0|0:0|0:0,0:0:0:0:
384,320,69325,5,2,0:0:0:0:
368,320,69380,1,0,0:0:0:0:
352,320,69436,1,0,0:0:0:0:
336,320,69491,1,0,0:0:0:0:
320,320,69547,1,2,0:0:0:0:
304,320,69602,1,0,0:0:0:0:
288,320,69658,1,0,0:0:0:0:
272,320,69714,1,0,0:0:0:0:
256,320,69769,1,2,0:0:0:0:
240,320,69825,1,0,0:0:0:0:
224,320,69880,1,0,0:0:0:0:
208,320,69936,1,0,0:0:0:0:
192,320,69991,1,2,0:0:0:0:
176,320,70047,1,0,0:0:0:0:
160,320,70102,1,0,0:0:0:0:
144,320,70158,1,0,0:0:0:0:
128,320,70214,6,0,L|128:272,3,35,2|0|0|0,0:0|0:0|0:0|0:0,0:0:0:0:
128,256,70437,2,0,L|128:208,3,35,2|0|0|0,0:0|0:0|0:0|0:0,0:0:0:0:
128,192,70659,2,0,L|128:144,3,35,2|0|0|0,0:0|0:0|0:0|0:0,0:0:0:0:
128,128,70881,2,0,L|128:80,3,35,2|0|0|0,0:0|0:0|0:0|0:0,0:0:0:0:
128,64,71103,5,2,0:0:0:0:
144,64,71158,1,0,0:0:0:0:
160,64,71214,1,0,0:0:0:0:
176,64,71269,1,0,0:0:0:0:
192,64,71325,1,2,0:0:0:0:
208,64,71380,1,0,0:0:0:0:
224,64,71436,1,0,0:0:0:0:
240,64,71492,1,0,0:0:0:0:
256,64,71547,1,2,0:0:0:0:
272,64,71603,1,0,0:0:0:0:
288,64,71658,1,0,0:0:0:0:
304,64,71714,1,0,0:0:0:0:
320,64,71769,1,2,0:0:0:0:
336,64,71825,1,0,0:0:0:0:
352,64,71880,1,0,0:0:0:0:
368,64,71936,1,0,0:0:0:0:
384,64,71992,6,0,L|384:112,3,35,2|0|0|0,0:0|0:0|0:0|0:0,0:0:0:0:
384,128,72215,2,0,L|384:176,3,35,2|0|0|0,0:0|0:0|0:0|0:0,0:0:0:0:
384,192,72437,2,0,L|384:240,3,35,2|0|0|0,0:0|0:0|0:0|0:0,0:0:0:0:
384,256,72659,2,0,L|384:304,3,35,2|0|0|0,0:0|0:0|0:0|0:0,0:0:0:0:
384,320,72880,5,2,0:0:0:0:
368,320,72935,1,0,0:0:0:0:
352,320,72991,1,0,0:0:0:0:
336,320,73046,1,0,0:0:0:0:
320,320,73102,1,2,0:0:0:0:
304,320,73157,1,0,0:0:0:0:
288,320,73213,1,0,0:0:0:0:
272,320,73269,1,0,0:0:0:0:
256,320,73324,1,2,0:0:0:0:
240,320,73380,1,0,0:0:0:0:
224,320,73435,1,0,0:0:0:0:
208,320,73491,1,0,0:0:0:0:
192,320,73546,1,2,0:0:0:0:
176,320,73602,1,0,0:0:0:0:
160,320,73657,1,0,0:0:0:0:
144,320,73713,1,0,0:0:0:0:
128,320,73769,6,0,L|128:272,3,35,2|0|0|0,0:0|0:0|0:0|0:0,0:0:0:0:
128,256,73992,2,0,L|128:208,3,35,2|0|0|0,0:0|0:0|0:0|0:0,0:0:0:0:
128,192,74214,2,0,L|128:144,3,35,2|0|0|0,0:0|0:0|0:0|0:0,0:0:0:0:
128,128,74436,2,0,L|128:80,3,35,2|0|0|0,0:0|0:0|0:0|0:0,0:0:0:0:
128,64,74659,5,2,0:0:0:0:
144,64,74714,1,0,0:0:0:0:
160,64,74770,1,0,0:0:0:0:
176,64,74825,1,0,0:0:0:0:
192,64,74881,1,2,0:0:0:0:
208,64,74936,1,0,0:0:0:0:
224,64,74992,1,0,0:0:0:0:
240,64,75048,1,0,0:0:0:0:
256,64,75103,1,2,0:0:0:0:
272,64,75159,1,0,0:0:0:0:
288,64,75214,1,0,0:0:0:0:
304,64,75270,1,0,0:0:0:0:
320,64,75325,1,2,0:0:0:0:
336,64,75381,1,0,0:0:0:0:
352,64,75436,1,0,0:0:0:0:
368,64,75492,1,0,0:0:0:0:
384,64,75548,6,0,L|384:112,3,35,2|0|0|0,0:0|0:0|0:0|0:0,0:0:0:0:
384,128,75771,2,0,L|384:176,3,35,2|0|0|0,0:0|0:0|0:0|0:0,0:0:0:0:
384,192,75993,2,0,L|384:240,3,35,2|0|0|0,0:0|0:0|0:0|0:0,0:0:0:0:
384,256,76215,2,0,L|384:304,3,35,2|0|0|0,0:0|0:0|0:0|0:0,0:0:0:0:
384,320,76436,5,2,0:0:0:0:
368,320,76491,1,0,0:0:0:0:
352,320,76547,1,0,0:0:0:0:
336,320,76602,1,0,0:0:0:0:
320,320,76658,1,2,0:0:0:0:
304,320,76713,1,0,0:0:0:0:
288,320,76769,1,0,0:0:0:0:
272,320,76825,1,0,0:0:0:0:
256,320,76880,1,2,0:0:0:0:
240,320,76936,1,0,0:0:0:0:
224,320,76991,1,0,0:0:0:0:
208,320,77047,1,0,0:0:0:0:
192,320,77102,1,2,0:0:0:0:
176,320,77158,1,0,0:0:0:0:
160,320,77213,1,0,0:0:0:0:
144,320,77269,1,0,0:0:0:0:
128,320,77325,6,0,L|128:272,3,35,2|0|0|0,0:0|0:0|0:0|0:0,0:0:0:0:
128,256,77548,2,0,L|128:208,3,35,2|0|0|0,0:0|0:0|0:0|0:0,0:0:0:0:
128,192,77770,2,0,L|128:144,3,35,2|0|0|0,0:0|0:0|0:0|0:0,0:0:0:0:
128,128,77992,2,0,L|128:80,3,35,2|0|0|0,0:0|0:0|0:0|0:0,0:0:0:0:
128,64,78214,5,2,0:0:0:0:
144,64,78269,1,0,0:0:0:0:
160,64,78325,1,0,0:0:0:0:
176,64,78380,1,0,0:0:0:0:
192,64,78436,1,2,0:0:0:0:
208,64,78491,1,0,0:0:0:0:
224,64,78547,1,0,0:0:0:0:
240,64,78603,1,0,0:0:0:0:
256,64,78658,1,2,0:0:0:0:
272,64,78714,1,0,0:0:0:0:
288,64,78769,1,0,0:0:0:0:
304,64,78825,1,0,0:0:0:0:
320,64,78880,1,2,0:0:0:0:
336,64,78936,1,0,0:0:0:0:
352,64,78991,1,0,0:0:0:0:
368,64,79047,1,0,0:0:0:0:
384,64,79103,6,0,L|384:112,3,35,2|0|0|0,0:0|0:0|0:0|0:0,0:0:0:0:
384,128,79326,2,0,L|384:176,3,35,2|0|0|0,0:0|0:0|0:0|0:0,0:0:0:0:
384,192,79548,2,0,L|384:240,3,35,2|0|0|0,0:0|0:0|0:0|0:0,0:0:0:0:
384,256,79770,2,0,L|384:304,3,35,2|0|0|0,0:0|0:0|0:0|0:0,0:0:0:0:
384,320,79991,5,2,0:0:0:0:
368,320,80046,1,0,0:0:0:0:
352,320,80102,1,0,0:0:0:0:
336,320,80157,1,0,0:0:0:0:
320,320,80213,1,2,0:0:0:0:
304,320,80268,1,0,0:0:0:0:
288,320,80324,1,0,0:0:0:0:
272,320,80380,1,0,0:0:0:0:
256,320,80435,1,2,0:0:0:0:
240,320,80491,1,0,0:0:0:0:
224,320,80546,1,0,0:0:0:0:
208,320,80602,1,0,0:0:0:0:
192,320,80657,1,2,0:0:0:0:
176,320,80713,1,0,0:0:0:0:
160,320,80768,1,0,0:0:0:0:
144,320,80824,1,0,0:0:0:0:
128,320,80880,6,0,L|128:272,3,35,2|0|0|0,0:0|0:0|0:0|0:0,0:0:0:0:
128,256,81103,2,0,L|128:208,3,35,2|0|0|0,0:0|0:0|0:0|0:0,0:0:0:0:
128,192,81325,2,0,L|128:144,3,35,2|0|0|0,0:0|0:0|0:0|0:0,0:0:0:0:
128,128,81547,2,0,L|128:80,3,35,2|0|0|0,0:0|0:0|0:0|0:0,0:0:0:0:
128,64,81770,5,2,0:0:0:0:
144,64,81825,1,0,0:0:0:0:
160,64,81881,1,0,0:0:0:0:
176,64,81936,1,0,0:0:0:0:
192,64,81992,1,2,0:0:0:0:
208,64,82047,1,0,0:0:0:0:
224,64,82103,1,0,0:0:0:0:
240,64,82159,1,0,0:0:0:0:
256,64,82214,1,2,0:0:0:0:
272,64,82270,1,0,0:0:0:0:
288,64,82325,1,0,0:0:0:0:
304,64,82381,1,0,0:0:0:0:
320,64,82436,1,2,0:0:0:0:
336,64,82492,1,0,0:0:0:0:
352,64,82547,1,0,0:0:0:0:
368,64,82603,1,0,0:0:0:0:
384,64,82659,6,0,L|384:112,3,35,2|0|0|0,0:0|0:0|0:0|0:0,0:0:0:0:
384,128,82882,2,0,L|384:176,3,35,2|0|0|0,0:0|0:0|0:0|0:0,0:0:0:0:
384,192,83104,2,0,L|384:240,3,35,2|0|0|0,0:0|0:0|0:0|0:0,0:0:0:0:
384,256,83326,2,0,L|384:304,3,35,2|0|0|0,0:0|0:0|0:0|0:0,0:0:0:0:
384,320,83547,5,2,0:0:0:0:
368,320,83602,1,0,0:0:0:0:
352,320,83658,1,0,0:0:0:0:
336,320,83713,1,0,0:0:0:0:
320,320,83769,1,2,0:0:0:0:
304,320,83824,1,0,0:0:0:0:
288,320,83880,1,0,0:0:0:0:
272,320,83936,1,0,0:0:0:0:
256,320,83991,1,2,0:0:0:0:
240,320,84047,1,0,0:0:0:0:
224,320,84102,1,0,0:0:0:0:
208,320,84158,1,0,0:0:0:0:
192,320,84213,1,2,0:0:0:0:
176,320,84269,1,0,0:0:0:0:
160,320,84324,1,0,0:0:0:0:
144,320,84380,1,0,0:0:0:0:
128,320,84436,6,0,L|128:272,3,35,2|0|0|0,0:0|0:0|0:0|0:0,0:0:0:0:
128,256,84659,2,0,L|128:208,3,35,2|0|0|0,0:0|0:0|0:0|0:0,0:0:0:0:
128,192,84881,2,0,L|128:144,3,35,2|0|0|0,0:0|0:0|0:0|0:0,0:0:0:0:
128,128,85103,2,0,L|128:80,3,35,2|0|0|0,0:0|0:0|0:0|0:0,0:0:0:0:
128,64,85325,5,2,0:0:0:0:
144,64,85380,1,0,0:0:0:0:
160,64,85436,1,0,0:0:0:0:
176,64,85491,1,0,0:0:0:0:
192,64,85547,1,2,0:0:0:0:
208,64,85602,1,0,0:0:0:0:
224,64,85658,1,0,0:0:0:0:
240,64,85714,1,0,0:0:0:0:
256,64,85769,1,2,0:0:0:0:
272,64,85825,1,0,0:0:0:0:
288,64,85880,1,0,0:0:0:0:
304,64,85936,1,0,0:0:0:0:
320,64,85991,1,2,0:0:0:0:
336,64,86047,1,0,0:0:0:0:
352,64,86102,1,0,0:0:0:0:
368,64,86158,1,0,0:0:0:0:
384,64,86214,6,0,L|384:112,3,35,2|0|0|0,0:0|0:0|0:0|0:0,0:0:0:0:
384,128,86437,2,0,L|384:176,3,35,2|0|0|0,0:0|0:0|0:0|0:0,0:0:0:0:
384,192,86659,2,0,L|384:240,3,35,2|0|0|0,0:0|0:0|0:0|0:0,0:0:0:0:
384,256,86881,2,0,L|384:304,3,35,2|0|0|0,0:0|0:0|0:0|0:0,0:0:0:0:
384,320,87102,5,2,0:0:0:0:
368,320,87157,1,0,0:0:0:0:
352,320,87213,1,0,0:0:0:0:
336,320,87268,1,0,0:0:0:0:
320,320,87324,1,2,0:0:0:0:
304,320,87379,1,0,0:0:0:0:
288,320,87435,1,0,0:0:0:0:
272,320,87491,1,0,0:0:0:0:
256,320,87546,1,2,0:0:0:0:
240,320,87602,1,0,0:0:0:0:
224,320,87657,1,0,0:0:0:0:
208,320,87713,1,0,0:0:0:0:
192,320,87768,1,2,0:0:0:0:
176,320,87824,1,0,0:0:0:0:
160,320,87879,1,0,0:0:0:0:
144,320,87935,1,0,0:0:0:0:
128,320,87991,6,0,L|128:272,3,35,2|0|0|0,0:0|0:0|0:0|0:0,0:0:0:0:
128,256,88214,2,0,L|128:208,3,35,2|0|0|0,0:0|0:0|0:0|0:0,0:0:0:0:
128,192,88436,2,0,L|128:144,3,35,2|0|0|0,0:0|0:0|0:0|0:0,0:0:0:0:
128,128,88658,2,0,L|128:80,3,35,2|0|0|0,0:0|0:0|0:0|0:0,0:0:0:0:
128,64,92437,5,2,0:0:0:0:
144,64,92492,1,0,0:0:0:0:
160,64,92548,1,0,0:0:0:0:
176,64,92603,1,0,0:0:0:0:
192,64,92659,1,2,0:0:0:0:
208,64,92714,1,0,0:0:0:0:
224,64,92770,1,0,0:0:0:0:
240,64,92826,1,0,0:0:0:0:
256,64,92881,1,2,0:0:0:0:
272,64,92937,1,0,0:0:0:0:
288,64,92992,1,0,0:0:0:0:
304,64,93048,1,0,0:0:0:0:
320,64,93103,1,2,0:0:0:0:
336,64,93159,1,0,0:0:0:0:
352,64,93214,1,0,0:0:0:0:
368,64,93270,1,0,0:0:0:0:
384,64,93326,6,0,L|384:112,3,35,2|0|0|0,0:0|0:0|0:0|0:0,0:0:0:0:
384,128,93549,2,0,L|384:176,3,35,2|0|0|0,0:0|0:0|0:0|0:0,0:0:0:0:
384,192,93771,2,0,L|384:240,3,35,2|0|0|0,0:0|0:0|0:0|0:0,0:0:0:0:
384,256,93993,2,0,L|384:304,3,35,2|0|0|0,0:0|0:0|0:0|0:0,0:0:0:0:
384,320,94214,5,2,0:0:0:0:
368,320,94269,1,0,0:0:0:0:
352,320,94325,1,0,0:0:0:0:
336,320,94380,1,0,0:0:0:0:
320,320,94436,1,2,0:0:0:0:
304,320,94491,1,0,0:0:0:0:
288,320,94547,1,0,0:0:0:0:
272,320,94603,1,0,0:0:0:0:
256,320,94658,1,2,0:0:0:0:
240,320,94714,1,0,0:0:0:0:
224,320,94769,1,0,0:0:0:0:
208,320,94825,1,0,0:0:0:0:
192,320,94880,1,2,0:0:0:0:
176,320,94936,1,0,0:0:0:0:
160,320,94991,1,0,0:0:0:0:
144,320,95047,1,0,0:0:0:0:
128,320,95103,6,0,L|128:272,3,35,2|0|0|0,0:0|0:0|0:0|0:0,0:0:0:0:
128,256,95326,2,0,L|128:208,3,35,2|0|0|0,0:0|0:0|0:0|0:0,0:0:0:0:
128,192,95548,2,0,L|128:144,3,35,2|0|0|0,0:0|0:0|0:0|0:0,0:0:0:0:
128,128,95770,2,0,L|128:80,3,35,2|0|0|0,0:0|0:0|0:0|0:0,0:0:0:0:
128,64,95992,5,2,0:0:0:0:
144,64,96047,1,0,0:0:0:0:
160,64,96103,1,0,0:0:0:0:
176,64,96158,1,0,0:0:0:0:
192,64,96214,1,2,0:0:0:0:
208,64,96269,1,0,0:0:0:0:
224,64,96325,1,0,0:0:0:0:
240,64,96381,1,0,0:0:0:0:
256,64,96436,1,2,0:0:0:0:
272,64,96492,1,0,0:0:0:0:
288,64,96547,1,0,0:0:0:0:
304,64,96603,1,0,0:0:0:0:
320,64,96658,1,2,0:0:0:0:
336,64,96714,1,0,0:0:0:0:
352,64,96769,1,0,0:0:0:0:
368,64,96825,1,0,0:0:0:0:
384,64,96881,6,0,L|384:112,3,35,2|0|0|0,0:0|0:0|0:0|0:0,0:0:0:0:
384,128,97104,2,0,L|384:176,3,35,2|0|0|0,0:0|0:0|0:0|0:0,0:0:0:0:
384,192,97326,2,0,L|384:240,3,35,2|0|0|0,0:0|0:0|0:0|0:0,0:0:0:0:
384,256,97548,2,0,L|384:304,3,35,2|0|0|0,0:0|0:0|0:0|0:0,0:0:0:0:
384,320,97769,5,2,0:0:0:0:
368,320,97824,1,0,0:0:0:0:
352,320,97880,1,0,0:0:0:0:
336,320,97935,1,0,0:0:0:0:
320,320,97991,1,2,0:0:0:0:
304,320,98046,1,0,0:0:0:0:
288,320,98102,1,0,0:0:0:0:
272,320,98158,1,0,0:0:0:0:
256,320,98213,1,2,0:0:0:0:
240,320,98269,1,0,0:0:0:0:
224,320,98324,1,0,0:0:0:0:
208,320,98380,1,0,0:0:0:0:
192,320,98435,1,2,0:0:0:0:
176,320,98491,1,0,0:0:0:0:
160,320,98546,1,0,0:0:0:0:
144,320,98602,1,0,0:0:0:0:
128,320,98658,6,0,L|128:272,3,35,2|0|0|0,0:0|0:0|0:0|0:0,0:0:0:0:
128,256,98881,2,0,L|128:208,3,35,2|0|0|0,0:0|0:0|0:0|0:0,0:0:0:0:
128,192,99103,2,0,L|128:144,3,35,2|0|0|0,0:0|0:0|0:0|0:0,0:0:0:0:
128,128,99325,2,0,L|128:80,3,35,2|0|0|0,0:0|0:0|0:0|0:0,0:0:0:0:
128,64,99548,5,2,0:0:0:0:
144,64,99603,1,0,0:0:0:0:
160,64,99659,1,0,0:0:0:0:
176,64,99714,1,0,0:0:0:0:
192,64,99770,1,2,0:0:0:0:
208,64,99825,1,0,0:0:0:0:
224,64,99881,1,0,0:0:0:0:
240,64,99937,1,0,0:0:0:0:
256,64,99992,1,2,0:0:0:0:
272,64,100048,1,0,0:0:0:0:
288,64,100103,1,0,0:0:0:0:
304,64,100159,1,0,0:0:0:0:
320,64,100214,1,2,0:0:0:0:
336,64,100270,1,0,0:0:0:0:
352,64,100325,1,0,0:0:0:0:
368,64,100381,1,0,0:0:0:0:
384,64,100437,6,0,L|384:112,3,35,2|0|0|0,0:0|0:0|0:0|0:0,0:0:0:0:
384,128,100660,2,0,L|384:176,3,35,2|0|0|0,0:0|0:0|0:0|0:0,0:0:0:0:
384,192,100882,2,0,L|384:240,3,35,2|0|0|0,0:0|0:0|0:0|0:0,0:0:0:0:
384,256,101104,2,0,L|384:304,3,35,2|0|0|0,0:0|0:0|0:0|0:0,0:0:0:0:
384,320,101325,5,2,0:0:0:0:
368,320,101380,1,0,0:0:0:0:
352,320,101436,1,0,0:0:0:0:
336,320,101491,1,0,0:0:0:0:
320,320,101547,1,2,0:0:0:0:
304,320,101602,1,0,0:0:0:0:
288,320,101658,1,0,0:0:0:0:
272,320,101714,1,0,0:0:0:0:
256,320,101769,1,2,0:0:0:0:
240,320,101825,1,0,0:0:0:0:
224,320,101880,1,0,0:0:0:0:
208,320,101936,1,0,0:0:0:0:
192,320,101991,1,2,0:0:0:0:
176,320,102047,1,0,0:0:0:0:
160,320,102102,1,0,0:0:0:0:
144,320,102158,1,0,0:0:0:0:
128,320,102214,6,0,L|128:272,3,35,2|0|0|0,0:0|0:0|0:0|0:0,0:0:0:0:
128,256,102437,2,0,L|128:208,3,35,2|0|0|0,0:0|0:0|0:0|0:0,0:0:0:0:
128,192,102659,2,0,L|128:144,3,35,2|0|0|0,0:0|0:0|0:0|0:0,0:0:0:0:
128,128,102881,2,0,L|128:80,3,35,2|0|0|0,0:0|0:0|0:0|0:0,0:0:0:0:
128,64,103103,5,2,0:0:0:0:
144,64,103158,1,0,0:0:0:0:
160,64,103214,1,0,0:0:0:0:
176,64,103269,1,0,0:0:0:0:
192,64,103325,1,2,0:0:0:0:
208,64,103380,1,0,0:0:0:0:
224,64,103436,1,0,0:0:0:0:
240,64,103492,1,0,0:0:0:0:
256,64,103547,1,2,0:0:0:0:
272,64,103603,1,0,0:0:0:0:
288,64,103658,1,0,0:0:0:0:
304,64,103714,1,0,0:0:0:0:
320,64,103769,1,2,0:0:0:0:
336,64,103825,1,0,0:0:0:0:
352,64,103880,1,0,0:0:0:0:
368,64,103936,1,0,0:0:0:0:
384,64,103992,6,0,L|384:112,3,35,2|0|0|0,0:0|0:0|0:0|0:0,0:0:0:0:
384,128,104215,2,0,L|384:176,3,35,2|0|0|0,0:0|0:0|0:0|0:0,0:0:0:0:
384,192,104437,2,0,L|384:240,3,35,2|0|0|0,0:0|0:0|0:0|0:0,0:0:0:0:
384,256,104659,2,0,L|384:304,3,35,2|0|0|0,0:0|0:0|0:0|0:0,0:0:0:0:
384,320,104880,5,2,0:0:0:0:
368,320,104935,1,0,0:0:0:0:
352,320,104991,1,0,0:0:0:0:
336,320,105046,1,0,0:0:0:0:
320,320,105102,1,2,0:0:0:0:
304,320,105157,1,0,0:0:0:0:
288,320,105213,1,0,0:0:0:0:
272,320,105269,1,0,0:0:0:0:
256,320,105324,1,2,0:0:0:0:
240,320,105380,1,0,0:0:0:0:
224,320,105435,1,0,0:0:0:0:
208,320,105491,1,0,0:0:0:0:
192,320,105546,1,2,0:0:0:0:
176,320,105602,1,0,0:0:0:0:
160,320,105657,1,0,0:0:0:0:
144,320,105713,1,0,0:0:0:0:
128,320,105769,6,0,L|128:272,3,35,2|0|0|0,0:0|0:0|0:0|0:0,0:0:0:0:
128,256,105992,2,0,L|128:208,3,35,2|0|0|0,0:0|0:0|0:0|0:0,0:0:0:0:
128,192,106214,2,0,L|128:144,3,35,2|0|0|0,0:0|0:0|0:0|0:0,0:0:0:0:
128,128,106436,2,0,L|128:80,3,35,2|0|0|0,0:0|0:0|0:0|0:0,0:0:0:0:
128,64,106659,5,2,0:0:0:0:
144,64,106714,1,0,0:0:0:0:
160,64,106770,1,0,0:0:0:0:
176,64,106825,1,0,0:0:0:0:
192,64,106881,1,2,0:0:0:0:
208,64,106936,1,0,0:0:0:0:
224,64,106992,1,0,0:0:0:0:
240,64,107048,1,0,0:0:0:0:
256,64,107103,1,2,0:0:0:0:
272,64,107159,1,0,0:0:0:0:
288,64,107214,1,0,0:0:0:0:
304,64,107270,1,0,0:0:0:0:
320,64,107325,1,2,0:0:0:0:
336,64,107381,1,0,0:0:0:0:
352,64,107436,1,0,0:0:0:0:
368,64,107492,1,0,0:0:0:0:
384,64,107548,6,0,L|384:112,3,35,2|0|0|0,0:0|0:0|0:0|0:0,0:0:0:0:
384,128,107771,2,0,L|384:176,3,35,2|0|0|0,0:0|0:0|0:0|0:0,0:0:0:0:
384,192,107993,2,0,L|384:240,3,35,2|0|0|0,0:0|0:0|0:0|0:0,0:0:0:0:
384,256,108215,2,0,L|384:304,3,35,2|0|0|0,0:0|0:0|0:0|0:0,0:0:0:0:
384,320,108436,5,2,0:0:0:0:
368,320,108491,1,0,0:0:0:0:
352,320,108547,1,0,0:0:0:0:
336,320,108602,1,0,0:0:0:0:
320,320,108658,1,2,0:0:0:0:
304,320,108713,1,0,0:0:0:0:
288,320,108769,1,0,0:0:0:0:
272,320,108825,1,0,0:0:0:0:
256,320,108880,1,2,0:0:0:0:
240,320,108936,1,0,0:0:0:0:
224,320,108991,1,0,0:0:0:0:
208,320,109047,1,0,0:0:0:0:
192,320,109102,1,2,0:0:0:0:
176,320,109158,1,0,0:0:0:0:
160,320,109213,1,0,0:0:0:0:
144,320,109269,1,0,0:0:0:0:
128,320,109325,6,0,L|128:272,3,35,2|0|0|0,0:0|0:0|0:0|0:0,0:0:0:0:
128,256,109548,2,0,L|128:208,3,35,2|0|0|0,0:0|0:0|0:0|0:0,0:0:0:0:
128,192,109770,2,0,L|128:144,3,35,2|0|0|0,0:0|0:0|0:0|0:0,0:0:0:0:
128,128,109992,2,0,L|128:80,3,35,2|0|0|0,0:0|0:0|0:0|0:0,0:0:0:0:
128,64,110214,5,2,0:0:0:0:
144,64,110269,1,0,0:0:0:0:
160,64,110325,1,0,0:0:0:0:
176,64,110380,1,0,0:0:0:0:
192,64,110436,1,2,0:0:0:0:
208,64,110491,1,0,0:0:0:0:
224,64,110547,1,0,0:0:0:0:
240,64,110603,1,0,0:0:0:0:
256,64,110658,1,2,0:0:0:0:
272,64,110714,1,0,0:0:0:0:
288,64,110769,1,0,0:0:0:0:
304,64,110825,1,0,0:0:0:0:
320,64,110880,1,2,0:0:0:0:
336,64,110936,1,0,0:0:0:0:
352,64,110991,1,0,0:0:0:0:
368,64,111047,1,0,0:0:0:0:
384,64,111103,6,0,L|384:112,3,35,2|0|0|0,0:0|0:0|0:0|0:0,0:0:0:0:
384,128,111326,2,0,L|384:176,3,35,2|0|0|0,0:0|0:0|0:0|0:0,0:0:0:0:
384,192,111548,2,0,L|384:240,3,35,2|0|0|0,0:0|0:0|0:0|0:0,0:0:0:0:
384,256,111770,2,0,L|384:304,3,35,2|0|0|0,0:0|0:0|0:0|0:0,0:0:0:0:
384,320,111991,5,2,0:0:0:0:
368,320,112046,1,0,0:0:0:0:
352,320,112102,1,0,0:0:0:0:
336,320,112157,1,0,0:0:0:0:
320,320,112213,1,2,0:0:0:0:
304,320,112268,1,0,0:0:0:0:
288,320,112324,1,0,0:0:0:0:
272,320,112380,1,0,0:0:0:0:
256,320,112435,1,2,0:0:0:0:
240,320,112491,1,0,0:0:0:0:
224,320,112546,1,0,0:0:0:0:
208,320,112602,1,0,0:0:0:0:
192,320,112657,1,2,0:0:0:0:
176,320,112713,1,0,0:0:0:0:
160,320,112768,1,0,0:0:0:0:
144,320,112824,1,0,0:0:0:0:
128,320,112880,6,0,L|128:272,3,35,2|0|0|0,0:0|0:0|0:0|0:0,0:0:0:0:
128,256,113103,2,0,L|128:208,3,35,2|0|0|0,0:0|0:0|0:0|0:0,0:0:0:0:
128,192,113325,2,0,L|128:144,3,35,2|0|0|0,0:0|0:0|0:0|0:0,0:0:0:0:
128,128,113547,2,0,L|128:80,3,35,2|0|0|0,0:0|0:0|0:0|0:0,0:0:0:0:
128,64,113770,5,2,0:0:0:0:
144,64,113825,1,0,0:0:0:0:
160,64,113881,1,0,0:0:0:0:
176,64,113936,1,0,0:0:0:0:
192,64,113992,1,2,0:0:0:0:
208,64,114047,1,0,0:0:0:0:
224,64,114103,1,0,0:0:0:0:
240,64,114159,1,0,0:0:0:0:
256,64,114214,1,2,0:0:0:0:
272,64,114270,1,0,0:0:0:0:
288,64,114325,1,0,0:0:0:0:
304,64,114381,1,0,0:0:0:0:
320,64,114436,1,2,0:0:0:0:
336,64,114492,1,0,0:0:0:0:
352,64,114547,1,0,0:0:0:0:
368,64,114603,1,0,0:0:0:0:
384,64,114659,6,0,L|384:112,3,35,2|0|0|0,0:0|0:0|0:0|0:0,0:0:0:0:
384,128,114882,2,0,L|384:176,3,35,2|0|0|0,0:0|0:0|0:0|0:0,0:0:0:0:
384,192,115104,2,0,L|384:240,3,35,2|0|0|0,0:0|0:0|0:0|0:0,0:0:0:0:
384,256,115326,2,0,L|384:304,3,35,2|0|0|0,0:0|0:0|0:0|0:0,0:0:0:0:
384,320,115547,5,2,0:0:0:0:
368,320,115602,1,0,0:0:0:0:
352,320,115658,1,0,0:0:0:0:
336,320,115713,1,0,0:0:0:0:
320,320,115769,1,2,0:0:0:0:
304,320,115824,1,0,0:0:0:0:
288,320,115880,1,0,0:0:0:0:
272,320,115936,1,0,0:0:0:0:
256,320,115991,1,2,0:0:0:0:
240,320,116047,1,0,0:0:0:0:
224,320,116102,1,0,0:0:0:0:
208,320,116158,1,0,0:0:0:0:
192,320,116213,1,2,0:0:0:0:
176,320,116269,1,0,0:0:0:0:
160,320,116324,1,0,0:0:0:0:
144,320,116380,1,0,0:0:0:0:
128,320,116436,6,0,L|128:272,3,35,2|0|0|0,0:0|0:0|0:0|0:0,0:0:0:0:
128,256,116659,2,0,L|128:208,3,35,2|0|0|0,0:0|0:0|0:0|0:0,0:0:0:0:
128,192,116881,2,0,L|128:144,3,35,2|0|0|0,0:0|0:0|0:0|0:0,0:0:0:0:
128,128,117103,2,0,L|128:80,3,35,2|0|0|0,0:0|0:0|0:0|0:0,0:0:0:0:
128,64,117325,5,2,0:0:0:0:
144,64,117380,1,0,0:0:0:0:
160,64,117436,1,0,0:0:0:0:
176,64,117491,1,0,0:0:0:0:
192,64,117547,1,2,0:0:0:0:
208,64,117602,1,0,0:0:0:0:
224,64,117658,1,0,0:0:0:0:
240,64,117714,1,0,0:0:0:0:
256,64,117769,1,2,0:0:0:0:
272,64,117825,1,0,0:0:0:0:
288,64,117880,1,0,0:0:0:0:
304,64,117936,1,0,0:0:0:0:
320,64,117991,1,2,0:0:0:0:
336,64,118047,1,0,0:0:0:0:
352,64,118102,1,0,0:0:0:0:
368,64,118158,1,0,0:0:0:0:
384,64,118214,6,0,L|384:112,3,35,2|0|0|0,0:0|0:0|0:0|0:0,0:0:0:0:
384,128,118437,2,0,L|384:176,3,35,2|0|0|0,0:0|0:0|0:0|0:0,0:0:0:0:
384,192,118659,2,0,L|384:240,3,35,2|0|0|0,0:0|0:0|0:0|0:0,0:0:0:0:
384,256,118881,2,0,L|384:304,3,35,2|0|0|0,0:0|0:0|0:0|0:0,0:0:0:0:
384,320,119102,5,2,0:0:0:0:
368,320,119157,1,0,0:0:0:0:
352,320,119213,1,0,0:0:0:0:
336,320,119268,1,0,0:0:0:0:
320,320,119324,1,2,0:0:0:0:
304,320,119379,1,0,0:0:0:0:
288,320,119435,1,0,0:0:0:0:
272,320,119491,1,0,0:0:0:0:
256,320,119546,1,2,0:0:0:0:
240,320,119602,1,0,0:0:0:0:
224,320,119657,1,0,0:0:0:0:
208,320,119713,1,0,0:0:0:0:
192,320,119768,1,2,0:0:0:0:
176,320,119824,1,0,0:0:0:0:
160,320,119879,1,0,0:0:0:0:
144,320,119935,1,0,0:0:0:0:
128,320,119991,6,0,L|128:272,3,35,2|0|0|0,0:0|0:0|0:0|0:0,0:0:0:0:
128,256,120214,2,0,L|128:208,3,35,2|0|0|0,0:0|0:0|0:0|0:0,0:0:0:0:
128,192,120436,2,0,L|128:144,3,35,2|0|0|0,0:0|0:0|0:0|0:0,0:0:0:0:
128,128,120658,2,0,L|128:80,3,35,2|0|0|0,0:0|0:0|0:0|0:0,0:0:0:0:
128,64,124437,5,2,0:0:0:0:
144,64,124492,1,0,0:0:0:0:
160,64,124548,1,0,0:0:0:0:
176,64,124603,1,0,0:0:0:0:
192,64,124659,1,2,0:0:0:0:
208,64,124714,1,0,0:0:0:0:
224,64,124770,1,0,0:0:0:0:
240,64,124826,1,0,0:0:0:0:
256,64,124881,1,2,0:0:0:0:
272,64,124937,1,0,0:0:0:0:
288,64,124992,1,0,0:0:0:0:
304,64,125048,1,0,0:0:0:0:
320,64,125103,1,2,0:0:0:0:
336,64,125159,1,0,0:0:0:0:
352,64,125214,1,0,0:0:0:0:
368,64,125270,1,0,0:0:0:0:
384,64,125326,6,0,L|384:112,3,35,2|0|0|0,0:0|0:0|0:0|0:0,0:0:0:0:
384,128,125549,2,0,L|384:176,3,35,2|0|0|0,0:0|0:0|0:0|0:0,0:0:0:0:
384,192,125771,2,0,L|384:240,3,35,2|0|0|0,0:0|0:0|0:0|0:0,0:0:0:0:
384,256,125993,2,0,L|384:304,3,35,2|0|0|0,0:0|0:0|0:0|0:0,0:0:0:0:
384,320,126214,5,2,0:0:0:0:
368,320,126269,1,0,0:0:0:0:
352,320,126325,1,0,0:0:0:0:
336,320,126380,1,0,0:0:0:0:
320,320,126436,1,2,0:0:0:0:
304,320,126491,1,0,0:0:0:0:
288,320,126547,1,0,0:0:0:0:
272,320,126603,1,0,0:0:0:0:
256,320,126658,1,2,0:0:0:0:
240,320,126714,1,0,0:0:0:0:
224,320,126769,1,0,0:0:0:0:
208,320,126825,1,0,0:0:0:0:
192,320,126880,1,2,0:0:0:0:
176,320,126936,1,0,0:0:0:0:
160,320,126991,1,0,0:0:0:0:
144,320,127047,1,0,0:0:0:0:
128,320,127103,6,0,L|128:272,3,35,2|0|0|0,0:0|0:0|0:0|0:0,0:0:0:0:
128,256,127326,2,0,L|128:208,3,35,2|0|0|0,0:0|0:0|0:0|0:0,0:0:0:0:
128,192,127548,2,0,L|128:144,3,35,2|0|0|0,0:0|0:0|0:0|0:0,0:0:0:0:
128,128,127770,2,0,L|128:80,3,35,2|0|0|0,0:0|0:0|0:0|0:0,0:0:0:0:
128,64,127992,5,2,0:0:0:0:
144,64,128047,1,0,0:0:0:0:
160,64,128103,1,0,0:0:0:0:
176,64,128158,1,0,0:0:0:0:
192,64,128214,1,2,0:0:0:0:
208,64,128269,1,0,0:0:0:0:
224,64,128325,1,0,0:0:0:0:
240,64,128381,1,0,0:0:0:0:
256,64,128436,1,2,0:0:0:0:
272,64,128492,1,0,0:0:0:0:
288,64,128547,1,0,0:0:0:0:
304,64,128603,1,0,0:0:0:0:
320,64,128658,1,2,0:0:0:0:
336,64,128714,1,0,0:0:0:0:
352,64,128769,1,0,0:0:0:0:
368,64,128825,1,0,0:0:0:0:
384,64,128881,6,0,L|384:112,3,35,2|0|0|0,0:0|0:0|0:0|0:0,0:0:0:0:
384,128,129104,2,0,L|384:176,3,35,2|0|0|0,0:0|0:0|0:0|0:0,0:0:0:0:
384,192,129326,2,0,L|384:240,3,35,2|0|0|0,0:0|0:0|0:0|0:0,0:0:0:0:
384,256,129548,2,0,L|384:304,3,35,2|0|0|0,0:0|0:0|0:0|0:0,0:0:0:0:
384,320,129769,5,2,0:0:0:0:
368,320,129824,1,0,0:0:0:0:
352,320,129880,1,0,0:0:0:0:
336,320,129935,1,0,0:0:0:0:
320,320,129991,1,2,0:0:0:0:
304,320,130046,1,0,0:0:0:0:
288,320,130102,1,0,0:0:0:0:
272,320,130158,1,0,0:0:0:0:
256,320,130213,1,2,0:0:0:0:
240,320,130269,1,0,0:0:0:0:
224,320,130324,1,0,0:0:0:0:
208,320,130380,1,0,0:0:0:0:
192,320,130435,1,2,0:0:0:0:
176,320,130491,1,0,0:0:0:0:
160,320,130546,1,0,0:0:0:0:
144,320,130602,1,0,0:0:0:0:
128,320,130658,6,0,L|128:272,3,35,2|0|0|0,0:0|0:0|0:0|0:0,0:0:0:0:
128,256,130881,2,0,L|128:208,3,35,2|0|0|0,0:0|0:0|0:0|0:0,0:0:0:0:
128,192,131103,2,0,L|128:144,3,35,2|0|0|0,0:0|0:0|0:0|0:0,0:0:0:0:
128,128,131325,2,0,L|128:80,3,35,2|0|0|0,0:0|0:0|0:0|0:0,0:0:0:0:
128,64,131548,5,2,0:0:0:0:
144,64,131603,1,0,0:0:0:0:
160,64,131659,1,0,0:0:0:0:
176,64,131714,1,0,0:0:0:0:
192,64,131770,1,2,0:0:0:0:
208,64,131825,1,0,0:0:0:0:
224,64,131881,1,0,0:0:0:0:
240,64,131937,1,0,0:0:0:0:
256,64,131992,1,2,0:0:0:0:
272,64,132048,1,0,0:0:0:0:
288,64,132103,1,0,0:0:0:0:
304,64,132159,1,0,0:0:0:0:
320,64,132214,1,2,0:0:0:0:
336,64,132270,1,0,0:0:0:0:
352,64,132325,1,0,0:0:0:0:
368,64,132381,1,0,0:0:0:0:
384,64,132437,6,0,L|384:112,3,35,2|0|0|0,0:0|0:0|0:0|0:0,0:0:0:0:
384,128,132660,2,0,L|384:176,3,35,2|0|0|0,0:0|0:0|0:0|0:0,0:0:0:0:
384,192,132882,2,0,L|384:240,3,35,2|0|0|0,0:0|0:0|0:0|0:0,0:0:0:0:
384,256,133104,2,0,L|384:304,3,35,2|0|0|0,0:0|0:0|0:0|0:0,0:0:0:0:
384,320,133325,5,2,0:0:0:0:
368,320,133380,1,0,0:0:0:0:
352,320,133436,1,0,0:0:0:0:
336,320,133491,1,0,0:0:0:0:
320,320,133547,1,2,0:0:0:0:
304,320,133602,1,0,0:0:0:0:
288,320,133658,1,0,0:0:0:0:
272,320,133714,1,0,0:0:0:0:
256,320,133769,1,2,0:0:0:0:
240,320,133825,1,0,0:0:0:0:
224,320,133880,1,0,0:0:0:0:
208,320,133936,1,0,0:0:0:0:
192,320,133991,1,2,0:0:0:0:
176,320,134047,1,0,0:0:0:0:
160,320,134102,1,0,0:0:0:0:
144,320,134158,1,0,0:0:0:0:
128,320,134214,6,0,L|128:272,3,35,2|0|0|0,0:0|0:0|0:0|0:0,0:0:0:0:
128,256,134437,2,0,L|128:208,3,35,2|0|0|0,0:0|0:0|0:0|0:0,0:0:0:0:
128,192,134659,2,0,L|128:144,3,35,2|0|0|0,0:0|0:0|0:0|0:0,0:0:0:0:
128,128,134881,2,0,L|128:80,3,35,2|0|0|0,0:0|0:0|0:0|0:0,0:0:0:0:
128,64,135103,5,2,0:0:0:0:
144,64,135158,1,0,0:0:0:0:
160,64,135214,1,0,0:0:0:0:
176,64,135269,1,0,0:0:0:0:
192,64,135325,1,2,0:0:0:0:
208,64,135380,1,0,0:0:0:0:
224,64,135436,1,0,0:0:0:0:
240,64,135492,1,0,0:0:0:0:
256,64,135547,1,2,0:0:0:0:
272,64,135603,1,0,0:0:0:0:
288,64,135658,1,0,0:0:0:0:
304,64,135714,1,0,0:0:0:0:
320,64,135769,1,2,0:0:0:0:
336,64,135825,1,0,0:0:0:0:
352,64,135880,1,0,0:0:0:0:
368,64,135936,1,0,0:0:0:0:
384,64,135992,6,0,L|384:112,3,35,2|0|0|0,0:0|0:0|0:0|0:0,0:0:0:0:
384,128,136215,2,0,L|384:176,3,35,2|0|0|0,0:0|0:0|0:0|0:0,0:0:0:0:
384,192,136437,2,0,L|384:240,3,35,2|0|0|0,0:0|0:0|0:0|0:0,0:0:0:0:
384,256,136659,2,0,L|384:304,3,35,2|0|0|0,0:0|0:0|0:0|0:0,0:0:0:0:
384,320,136880,5,2,0:0:0:0:
368,320,136935,1,0,0:0:0:0:
352,320,136991,1,0,0:0:0:0:
336,320,137046,1,0,0:0:0:0:
320,320,137102,1,2,0:0:0:0:
304,320,137157,1,0,0:0:0:0:
288,320,137213,1,0,0:0:0:0:
272,320,137269,1,0,0:0:0:0:
256,320,137324,1,2,0:0:0:0:
240,320,137380,1,0,0:0:0:0:
224,320,137435,1,0,0:0:0:0:
208,320,137491,1,0,0:0:0:0:
192,320,137546,1,2,0:0:0:0:
176,320,137602,1,0,0:0:0:0:
160,320,137657,1,0,0:0:0:0:
144,320,137713,1,0,0:0:0:0:
128,320,137769,6,0,L|128:272,3,35,2|0|0|0,0:0|0:0|0:0|0:0,0:0:0:0:
128,256,137992,2,0,L|128:208,3,35,2|0|0|0,0:0|0:0|0:0|0:0,0:0:0:0:
128,192,138214,2,0,L|128:144,3,35,2|0|0|0,0:0|0:0|0:0|0:0,0:0:0:0:
128,128,138436,2,0,L|128:80,3,35,2|0|0|0,0:0|0:0|0:0|0:0,0:0:0:0:
128,64,138659,5,2,0:0:0:0:
144,64,138714,1,0,0:0:0:0:
160,64,138770,1,0,0:0:0:0:
176,64,138825,1,0,0:0:0:0:
192,64,138881,1,2,0:0:0:0:
208,64,138936,1,0,0:0:0:0:
224,64,138992,1,0,0:0:0:0:
240,64,139048,1,0,0:0:0:0:
256,64,139103,1,2,0:0:0:0:
272,64,139159,1,0,0:0:0:0:
288,64,139214,1,0,0:0:0:0:
304,64,139270,1,0,0:0:0:0:
320,64,139325,1,2,0:0:0:0:
336,64,139381,1,0,0:0:0:0:
352,64,139436,1,0,0:0:0:0:
368,64,139492,1,0,0:0:0:0:
384,64,139548,6,0,L|384:112,3,35,2|0|0|0,0:0|0:0|0:0|0:0,0:0:0:0:
384,128,139771,2,0,L|384:176,3,35,2|0|0|0,0:0|0:0|0:0|0:0,0:0:0:0:
384,192,139993,2,0,L|384:240,3,35,2|0|0|0,0:0|0:0|0:0|0:0,0:0:0:0:
384,256,140215,2,0,L|384:304,3,35,2|0|0|0,0:0|0:0|0:0|0:0,0:0:0:0:
384,320,140436,5,2,0:0:0:0:
368,320,140491,1,0,0:0:0:0:
352,320,140547,1,0,0:0:0:0:
336,320,140602,1,0,0:0:0:0:
320,320,140658,1,2,0:0:0:0:
304,320,140713,1,0,0:0:0:0:
288,320,140769,1,0,0:0:0:0:
272,320,140825,1,0,0:0:0:0:
256,320,140880,1,2,0:0:0:0:
240,320,140936,1,0,0:0:0:0:
224,320,140991,1,0,0:0:0:0:
208,320,141047,1,0,0:0:0:0:
192,320,141102,1,2,0:0:0:0:
176,320,141158,1,0,0:0:0:0:
160,320,141213,1,0,0:0:0:0:
144,320,141269,1,0,0:0:0:0:
128,320,141325,6,0,L|128:272,3,35,2|0|0|0,0:0|0:0|0:0|0:0,0:0:0:0:
128,256,141548,2,0,L|128:208,3,35,2|0|0|0,0:0|0:0|0:0|0:0,0:0:0:0:
128,192,141770,2,0,L|128:144,3,35,2|0|0|0,0:0|0:0|0:0|0:0,0:0:0:0:
128,128,141992,2,0,L|128:80,3,35,2|0|0|0,0:0|0:0|0:0|0:0,0:0:0:0:
128,64,142214,5,2,0:0:0:0:
144,64,142269,1,0,0:0:0:0:
160,64,142325,1,0,0:0:0:0:
176,64,142380,1,0,0:0:0:0:
192,64,142436,1,2,0:0:0:0:
208,64,142491,1,0,0:0:0:0:
224,64,142547,1,0,0:0:0:0:
240,64,142603,1,0,0:0:0:0:
256,64,142658,1,2,0:0:0:0:
272,64,142714,1,0,0:0:0:0:
288,64,142769,1,0,0:0:0:0:
304,64,142825,1,0,0:0:0:0:
320,64,142880,1,2,0:0:0:0:
336,64,142936,1,0,0:0:0:0:
352,64,142991,1,0,0:0:0:0:
368,64,143047,1,0,0:0:0:0:
384,64,143103,6,0,L|384:112,3,35,2|0|0|0,0:0|0:0|0:0|0:0,0:0:0:0:
384,128,143326,2,0,L|384:176,3,35,2|0|0|0,0:0|0:0|0:0|0:0,0:0:0:0:
384,192,143548,2,0,L|384:240,3,35,2|0|0|0,0:0|0:0|0:0|0:0,0:0:0:0:
384,256,143770,2,0,L|384:304,3,35,2|0|0|0,0:0|0:0|0:0|0:0,0:0:0:0:
384,320,143991,5,2,0:0:0:0:
368,320,144046,1,0,0:0:0:0:
352,320,144102,1,0,0:0:0:0:
336,320,144157,1,0,0:0:0:0:
320,320,144213,1,2,0:0:0:0:
304,320,144268,1,0,0:0:0:0:
288,320,144324,1,0,0:0:0:0:
272,320,144380,1,0,0:0:0:0:
256,320,144435,1,2,0:0:0:0:
240,320,144491,1,0,0:0:0:0:
224,320,144546,1,0,0:0:0:0:
208,320,144602,1,0,0:0:0:0:
192,320,144657,1,2,0:0:0:0:
176,320,144713,1,0,0:0:0:0:
160,320,144768,1,0,0:0:0:0:
144,320,144824,1,0,0:0:0:0:
128,320,144880,6,0,L|128:272,3,35,2|0|0|0,0:0|0:0|0:0|0:0,0:0:0:0:
128,256,145103,2,0,L|128:208,3,35,2|0|0|0,0:0|0:0|0:0|0:0,0:0:0:0:
128,192,145325,2,0,L|128:144,3,35,2|0|0|0,0:0|0:0|0:0|0:0,0:0:0:0:
128,128,145547,2,0,L|128:80,3,35,2|0|0|0,0:0|0:0|0:0|0:0,0:0:0:0:
128,64,145770,5,2,0:0:0:0:
144,64,145825,1,0,0:0:0:0:
160,64,145881,1,0,0:0:0:0:
176,64,145936,1,0,0:0:0:0:
192,64,145992,1,2,0:0:0:0:
208,64,146047,1,0,0:0:0:0:
224,64,146103,1,0,0:0:0:0:
240,64,146159,1,0,0:0:0:0:
256,64,146214,1,2,0:0:0:0:
272,64,146270,1,0,0:0:0:0:
288,64,146325,1,0,0:0:0:0:
304,64,146381,1,0,0:0:0:0:
320,64,146436,1,2,0:0:0:0:
336,64,146492,1,0,0:0:0:0:
352,64,146547,1,0,0:0:0:0:
368,64,146603,1,0,0:0:0:0:
384,64,146659,6,0,L|384:112,3,35,2|0|0|0,0:0|0:0|0:0|0:0,0:0:0:0:
384,128,146882,2,0,L|384:176,3,35,2|0|0|0,0:0|0:0|0:0|0:0,0:0:0:0:
384,192,147104,2,0,L|384:240,3,35,2|0|0|0,0:0|0:0|0:0|0:0,0:0:0:0:
384,256,147326,2,0,L|384:304,3,35,2|0|0|0,0:0|0:0|0:0|0:0,0:0:0:0:
384,320,147547,5,2,0:0:0:0:
368,320,147602,1,0,0:0:0:0:
352,320,147658,1,0,0:0:0:0:
336,320,147713,1,0,0:0:0:0:
320,320,147769,1,2,0:0:0:0:
304,320,147824,1,0,0:0:0:0:
288,320,147880,1,0,0:0:0:0:
272,320,147936,1,0,0:0:0:0:
256,320,147991,1,2,0:0:0:0:
240,320,148047,1,0,0:0:0:0:
224,320,148102,1,0,0:0:0:0:
208,320,148158,1,0,0:0:0:0:
192,320,148213,1,2,0:0:0:0:
176,320,148269,1,0,0:0:0:0:
160,320,148324,1,0,0:0:0:0:
144,320,148380,1,0,0:0:0:0:
128,320,148436,6,0,L|128:272,3,35,2|0|0|0,0:0|0:0|0:0|0:0,0:0:0:0:
128,256,148659,2,0,L|128:208,3,35,2|0|0|0,0:0|0:0|0:0|0:0,0:0:0:0:
128,192,148881,2,0,L|128:144,3,35,2|0|0|0,0:0|0:0|0:0|0:0,0:0:0:0:
128,128,149103,2,0,L|128:80,3,35,2|0|0|0,0:0|0:0|0:0|0:0,0:0:0:0:
128,64,149325,5,2,0:0:0:0:
144,64,149380,1,0,0:0:0:0:
160,64,149436,1,0,0:0:0:0:
176,64,149491,1,0,0:0:0:0:
192,64,149547,1,2,0:0:0:0:
208,64,149602,1,0,0:0:0:0:
224,64,149658,1,0,0:0:0:0:
240,64,149714,1,0,0:0:0:0:
256,64,149769,1,2,0:0:0:0:
272,64,149825,1,0,0:0:0:0:
288,64,149880,1,0,0:0:0:0:
304,64,149936,1,0,0:0:0:0:
320,64,149991,1,2,0:0:0:0:
336,64,150047,1,0,0:0:0:0:
352,64,150102,1,0,0:0:0:0:
368,64,150158,1,0,0:0:0:0:
384,64,150214,6,0,L|384:112,3,35,2|0|0|0,0:0|0:0|0:0|0:0,0:0:0:0:
384,128,150437,2,0,L|384:176,3,35,2|0|0|0,0:0|0:0|0:0|0:0,0:0:0:0:
384,192,150659,2,0,L|384:240,3,35,2|0|0|0,0:0|0:0|0:0|0:0,0:0:0:0:
384,256,150881,2,0,L|384:304,3,35,2|0|0|0,0:0|0:0|0:0|0:0,0:0:0:0:
384,320,151102,5,2,0:0:0:0:
368,320,151157,1,0,0:0:0:0:
352,320,151213,1,0,0:0:0:0:
336,320,151268,1,0,0:0:0:0:
320,320,151324,1,2,0:0:0:0:
304,320,151379,1,0,0:0:0:0:
288,320,151435,1,0,0:0:0:0:
272,320,151491,1,0,0:0:0:0:
256,320,151546,1,2,0:0:0:0:
240,320,151602,1,0,0:0:0:0:
224,320,151657,1,0,0:0:0:0:
208,320,151713,1,0,0:0:0:0:
192,320,151768,1,2,0:0:0:0:
176,320,151824,1,0,0:0:0:0:
160,320,151879,1,0,0:0:0:0:
144,320,151935,1,0,0:0:0:0:
128,320,151991,6,0,L|128:272,3,35,2|0|0|0,0:0|0:0|0:0|0:0,0:0:0:0:
128,256,152214,2,0,L|128:208,3,35,2|0|0|0,0:0|0:0|0:0|0:0,0:0:0:0:
128,192,152436,2,0,L|128:144,3,35,2|0|0|0,0:0|0:0|0:0|0:0,0:0:0:0:
128,128,152658,2,0,L|128:80,3,35,2|0|0|0,0:0|0:0|0:0|0:0,0:0:0:0:
128,64,167104,5,2,0:0:0:0:
144,64,167159,1,0,0:0:0:0:
160,64,167215,1,0,0:0:0:0:
176,64,167270,1,0,0:0:0:0:
192,64,167326,1,2,0:0:0:0:
208,64,167381,1,0,0:0:0:0:
224,64,167437,1,0,0:0:0:0:
240,64,167493,1,0,0:0:0:0:
256,64,167548,1,2,0:0:0:0:
272,64,167604,1,0,0:0:0:0:
288,64,167659,1,0,0:0:0:0:
304,64,167715,1,0,0:0:0:0:
320,64,167770,1,2,0:0:0:0:
336,64,167826,1,0,0:0:0:0:
352,64,167881,1,0,0:0:0:0:
368,64,167937,1,0,0:0:0:0:
384,64,167993,6,0,L|384:112,3,35,2|0|0|0,0:0|0:0|0:0|0:0,0:0:0:0:
384,128,168216,2,0,L|384:176,3,35,2|0|0|0,0:0|0:0|0:0|0:0,0:0:0:0:
384,192,168438,2,0,L|384:240,3,35,2|0|0|0,0:0|0:0|0:0|0:0,0:0:0:0:
384,256,168660,2,0,L|384:304,3,35,2|0|0|0,0:0|0:0|0:0|0:0,0:0:0:0:
384,320,168881,5,2,0:0:0:0:
368,320,168936,1,0,0:0:0:0:
352,320,168992,1,0,0:0:0:0:
336,320,169047,1,0,0:0:0:0:
320,320,169103,1,2,0:0:0:0:
304,320,169158,1,0,0:0:0:0:
288,320,169214,1,0,0:0:0:0:
272,320,169270,1,0,0:0:0:0:
256,320,169325,1,2,0:0:0:0:
240,320,169381,1,0,0:0:0:0:
224,320,169436,1,0,0:0:0:0:
208,320,169492,1,0,0:0:0:0:
192,320,169547,1,2,0:0:0:0:
176,320,169603,1,0,0:0:0:0:
160,320,169658,1,0,0:0:0:0:
144,320,169714,1,0,0:0:0:0:
128,320,169770,6,0,L|128:272,3,35,2|0|0|0,0:0|0:0|0:0|0:0,0:0:0:0:
128,256,169993,2,0,L|128:208,3,35,2|0|0|0,0:0|0:0|0:0|0:0,0:0:0:0:
128,192,170215,2,0,L|128:144,3,35,2|0|0|0,0:0|0:0|0:0|0:0,0:0:0:0:
128,128,170437,2,0,L|128:80,3,35,2|0|0|0,0:0|0:0|0:0|0:0,0:0:0:0:
128,64,170659,5,2,0:0:0:0:
144,64,170714,1,0,0:0:0:0:
160,64,170770,1,0,0:0:0:0:
176,64,170825,1,0,0:0:0:0:
192,64,170881,1,2,0:0:0:0:
208,64,170936,1,0,0:0:0:0:
224,64,170992,1,0,0:0:0:0:
240,64,171048,1,0,0:0:0:0:
256,64,171103,1,2,0:0:0:0:
272,64,171159,1,0,0:0:0:0:
288,64,171214,1,0,0:0:0:0:
304,64,171270,1,0,0:0:0:0:
320,64,171325,1,2,0:0:0:0:
336,64,171381,1,0,0:0:0:0:
352,64,171436,1,0,0:0:0:0:
368,64,171492,1,0,0:0:0:0:
384,64,171548,6,0,L|384:112,3,35,2|0|0|0,0:0|0:0|0:0|0:0,0:0:0:0:
384,128,171771,2,0,L|384:176,3,35,2|0|0|0,0:0|0:0|0:0|0:0,0:0:0:0:
384,192,171993,2,0,L|384:240,3,35,2|0|0|0,0:0|0:0|0:0|0:0,0:0:0:0:
384,256,172215,2,0,L|384:304,3,35,2|0|0|0,0:0|0:0|0:0|0:0,0:0:0:0:
384,320,172436,5,2,0:0:0:0:
368,320,172491,1,0,0:0:0:0:
352,320,172547,1,0,0:0:0:0:
336,320,172602,1,0,0:0:0:0:
320,320,172658,1,2,0:0:0:0:
304,320,172713,1,0,0:0:0:0:
288,320,172769,1,0,0:0:0:0:
272,320,172825,1,0,0:0:0:0:
256,320,172880,1,2,0:0:0:0:
240,320,172936,1,0,0:0:0:0:
224,320,172991,1,0,0:0:0:0:
208,320,173047,1,0,0:0:0:0:
192,320,173102,1,2,0:0:0:0:
176,320,173158,1,0,0:0:0:0:
160,320,173213,1,0,0:0:0:0:
144,320,173269,1,0,0:0:0:0:
128,320,173325,6,0,L|128:272,3,35,2|0|0|0,0:0|0:0|0:0|0:0,0:0:0:0:
128,256,173548,2,0,L|128:208,3,35,2|0|0|0,0:0|0:0|0:0|0:0,0:0:0:0:
128,192,173770,2,0,L|128:144,3,35,2|0|0|0,0:0|0:0|0:0|0:0,0:0:0:0:
128,128,173992,2,0,L|128:80,3,35,2|0|0|0,0:0|0:0|0:0|0:0,0:0:0:0:
128,64,174215,5,2,0:0:0:0:
144,64,174270,1,0,0:0:0:0:
160,64,174326,1,0,0:0:0:0:
176,64,174381,1,0,0:0:0:0:
192,64,174437,1,2,0:0:0:0:
208,64,174492,1,0,0:0:0:0:
224,64,174548,1,0,0:0:0:0:
240,64,174604,1,0,0:0:0:0:
256,64,174659,1,2,0:0:0:0:
272,64,174715,1,0,0:0:0:0:
288,64,174770,1,0,0:0:0:0:
304,64,174826,1,0,0:0:0:0:
320,64,174881,1,2,0:0:0:0:
336,64,174937,1,0,0:0:0:0:
352,64,174992,1,0,0:0:0:0:
368,64,175048,1,0,0:0:0:0:
384,64,175104,6,0,L|384:112,3,35,2|0|0|0,0:0|0:0|0:0|0:0,0:0:0:0:
384,128,175327,2,0,L|384:176,3,35,2|0|0|0,0:0|0:0|0:0|0:0,0:0:0:0:
384,192,175549,2,0,L|384:240,3,35,2|0|0|0,0:0|0:0|0:0|0:0,0:0:0:0:
384,256,175771,2,0,L|384:304,3,35,2|0|0|0,0:0|0:0|0:0|0:0,0:0:0:0:
384,320,175992,5,2,0:0:0:0:
368,320,176047,1,0,0:0:0:0:
352,320,176103,1,0,0:0:0:0:
336,320,176158,1,0,0:0:0:0:
320,320,176214,1,2,0:0:0:0:
304,320,176269,1,0,0:0:0:0:
288,320,176325,1,0,0:0:0:0:
272,320,176381,1,0,0:0:0:0:
256,320,176436,1,2,0:0:0:0:
240,320,176492,1,0,0:0:0:0:
224,320,176547,1,0,0:0:0:0:
208,320,176603,1,0,0:0:0:0:
192,320,176658,1,2,0:0:0:0:
176,320,176714,1,0,0:0:0:0:
160,320,176769,1,0,0:0:0:0:
144,320,176825,1,0,0:0:0:0:
128,320,176881,6,0,L|128:272,3,35,2|0|0|0,0:0|0:0|0:0|0:0,0:0:0:0:
128,256,177104,2,0,L|128:208,3,35,2|0|0|0,0:0|0:0|0:0|0:0,0:0:0:0:
128,192,177326,2,0,L|128:144,3,35,2|0|0|0,0:0|0:0|0:0|0:0,0:0:0:0:
128,128,177548,2,0,L|128:80,3,35,2|0|0|0,0:0|0:0|0:0|0:0,0:0:0:0:
128,64,177770,5,2,0:0:0:0:
144,64,177825,1,0,0:0:0:0:
160,64,177881,1,0,0:0:0:0:
176,64,177936,1,0,0:0:0:0:
192,64,177992,1,2,0:0:0:0:
208,64,178047,1,0,0:0:0:0:
224,64,178103,1,0,0:0:0:0:
240,64,178159,1,0,0:0:0:0:
256,64,178214,1,2,0:0:0:0:
272,64,178270,1,0,0:0:0:0:
288,64,178325,1,0,0:0:0:0:
304,64,178381,1,0,0:0:0:0:
320,64,178436,1,2,0:0:0:0:
336,64,178492,1,0,0:0:0:0:
352,64,178547,1,0,0:0:0:0:
368,64,178603,1,0,0:0:0:0:
384,64,178659,6,0,L|384:112,3,35,2|0|0|0,0:0|0:0|0:0|0:0,0:0:0:0:
384,128,178882,2,0,L|384:176,3,35,2|0|0|0,0:0|0:0|0:0|0:0,0:0:0:0:
384,192,179104,2,0,L|384:240,3,35,2|0|0|0,0:0|0:0|0:0|0:0,0:0:0:0:
384,256,179326,2,0,L|384:304,3,35,2|0|0|0,0:0|0:0|0:0|0:0,0:0:0:0:
384,320,179547,5,2,0:0:0:0:
368,320,179602,1,0,0:0:0:0:
352,320,179658,1,0,0:0:0:0:
336,320,179713,1,0,0:0:0:0:
320,320,179769,1,2,0:0:0:0:
304,320,179824,1,0,0:0:0:0:
288,320,179880,1,0,0:0:0:0:
272,320,179936,1,0,0:0:0:0:
256,320,179991,1,2,0:0:0:0:
240,320,180047,1,0,0:0:0:0:
224,320,180102,1,0,0:0:0:0:
208,320,180158,1,0,0:0:0:0:
192,320,180213,1,2,0:0:0:0:
176,320,180269,1,0,0:0:0:0:
160,320,180324,1,0,0:0:0:0:
144,320,180380,1,0,0:0:0:0:
128,320,180436,6,0,L|128:272,3,35,2|0|0|0,0:0|0:0|0:0|0:0,0:0:0:0:
128,256,180659,2,0,L|128:208,3,35,2|0|0|0,0:0|0:0|0:0|0:0,0:0:0:0:
128,192,180881,2,0,L|128:144,3,35,2|0|0|0,0:0|0:0|0:0|0:0,0:0:0:0:
128,128,181103,2,0,L|128:80,3,35,2|0|0|0,0:0|0:0|0:0|0:0,0:0:0:0:
128,64,181326,5,2,0:0:0:0:
144,64,181381,1,0,0:0:0:0:
160,64,181437,1,0,0:0:0:0:
176,64,181492,1,0,0:0:0:0:
192,64,181548,1,2,0:0:0:0:
208,64,181603,1,0,0:0:0:0:
224,64,181659,1,0,0:0:0:0:
240,64,181715,1,0,0:0:0:0:
256,64,181770,1,2,0:0:0:0:
272,64,181826,1,0,0:0:0:0:
288,64,181881,1,0,0:0:0:0:
304,64,181937,1,0,0:0:0:0:
320,64,181992,1,2,0:0:0:0:
336,64,182048,1,0,0:0:0:0:
352,64,182103,1,0,0:0:0:0:
368,64,182159,1,0,0:0:0:0:
384,64,182215,6,0,L|384:112,3,35,2|0|0|0,0:0|0:0|0:0|0:0,0:0:0:0:
384,128,182438,2,0,L|384:176,3,35,2|0|0|0,0:0|0:0|0:0|0:0,0:0:0:0:
384,192,182660,2,0,L|384:240,3,35,2|0|0|0,0:0|0:0|0:0|0:0,0:0:0:0:
384,256,182882,2,0,L|384:304,3,35,2|0|0|0,0:0|0:0|0:0|0:0,0:0:0:0:
384,320,183103,5,2,0:0:0:0:
368,320,183158,1,0,0:0:0:0:
352,320,183214,1,0,0:0:0:0:
336,320,183269,1,0,0:0:0:0:
320,320,183325,1,2,0:0:0:0:
304,320,183380,1,0,0:0:0:0:
288,320,183436,1,0,0:0:0:0:
272,320,183492,1,0,0:0:0:0:
256,320,183547,1,2,0:0:0:0:
240,320,183603,1,0,0:0:0:0:
224,320,183658,1,0,0:0:0:0:
208,320,183714,1,0,0:0:0:0:
192,320,183769,1,2,0:0:0:0:
176,320,183825,1,0,0:0:0:0:
160,320,183880,1,0,0:0:0:0:
144,320,183936,1,0,0:0:0:0:
128,320,183992,6,0,L|128:272,3,35,2|0|0|0,0:0|0:0|0:0|0:0,0:0:0:0:
128,256,184215,2,0,L|128:208,3,35,2|0|0|0,0:0|0:0|0:0|0:0,0:0:0:0:
128,192,184437,2,0,L|128:144,3,35,2|0|0|0,0:0|0:0|0:0|0:0,0:0:0:0:
128,128,184659,2,0,L|128:80,3,35,2|0|0|0,0:0|0:0|0:0|0:0,0:0:0:0:
128,64,184881,5,2,0:0:0:0:
144,64,184936,1,0,0:0:0:0:
160,64,184992,1,0,0:0:0:0:
176,64,185047,1,0,0:0:0:0:
192,64,185103,1,2,0:0:0:0:
208,64,185158,1,0,0:0:0:0:
224,64,185214,1,0,0:0:0:0:
240,64,185270,1,0,0:0:0:0:
256,64,185325,1,2,0:0:0:0:
272,64,185381,1,0,0:0:0:0:
288,64,185436,1,0,0:0:0:0:
304,64,185492,1,0,0:0:0:0:
320,64,185547,1,2,0:0:0:0:
336,64,185603,1,0,0:0:0:0:
352,64,185658,1,0,0:0:0:0:
368,64,185714,1,0,0:0:0:0:
384,64,185770,6,0,L|384:112,3,35,2|0|0|0,0:0|0:0|0:0|0:0,0:0:0:0:
384,128,185993,2,0,L|384:176,3,35,2|0|0|0,0:0|0:0|0:0|0:0,0:0:0:0:
384,192,186215,2,0,L|384:240,3,35,2|0|0|0,0:0|0:0|0:0|0:0,0:0:0:0:
384,256,186437,2,0,L|384:304,3,35,2|0|0|0,0:0|0:0|0:0|0:0,0:0:0:0:
384,320,186658,5,2,0:0:0:0:
368,320,186713,1,0,0:0:0:0:
352,320,186769,1,0,0:0:0:0:
336,320,186824,1,0,0:0:0:0:
320,320,186880,1,2,0:0:0:0:
304,320,186935,1,0,0:0:0:0:
288,320,186991,1,0,0:0:0:0:
272,320,187047,1,0,0:0:0:0:
256,320,187102,1,2,0:0:0:0:
240,320,187158,1,0,0:0:0:0:
224,320,187213,1,0,0:0:0:0:
208,320,187269,1,0,0:0:0:0:
192,320,187324,1,2,0:0:0:0:
176,320,187380,1,0,0:0:0:0:
160,320,187435,1,0,0:0:0:0:
144,320,187491,1,0,0:0:0:0:
128,320,187547,6,0,L|128:272,3,35,2|0|0|0,0:0|0:0|0:0|0:0,0:0:0:0:
128,256,187770,2,0,L|128:208,3,35,2|0|0|0,0:0|0:0|0:0|0:0,0:0:0:0:
128,192,187992,2,0,L|128:144,3,35,2|0|0|0,0:0|0:0|0:0|0:0,0:0:0:0:
128,128,188214,2,0,L|128:80,3,35,2|0|0|0,0:0|0:0|0:0|0:0,0:0:0:0:
128,64,188437,5,2,0:0:0:0:
144,64,188492,1,0,0:0:0:0:
160,64,188548,1,0,0:0:0:0:
176,64,188603,1,0,0:0:0:0:
192,64,188659,1,2,0:0:0:0:
208,64,188714,1,0,0:0:0:0:
224,64,188770,1,0,0:0:0:0:
240,64,188826,1,0,0:0:0:0:
256,64,188881,1,2,0:0:0:0:
272,64,188937,1,0,0:0:0:0:
288,64,188992,1,0,0:0:0:0:
304,64,189048,1,0,0:0:0:0:
320,64,189103,1,2,0:0:0:0:
336,64,189159,1,0,0:0:0:0:
352,64,189214,1,0,0:0:0:0:
368,64,189270,1,0,0:0:0:0:
384,64,189326,6,0,L|384:112,3,35,2|0|0|0,0:0|0:0|0:0|0:0,0:0:0:0:
384,128,189549,2,0,L|384:176,3,35,2|0|0|0,0:0|0:0|0:0|0:0,0:0:0:0:
384,192,189771,2,0,L|384:240,3,35,2|0|0|0,0:0|0:0|0:0|0:0,0:0:0:0:
384,256,189993,2,0,L|384:304,3,35,2|0|0|0,0:0|0:0|0:0|0:0,0:0:0:0:
384,320,190214,5,2,0:0:0:0:
368,320,190269,1,0,0:0:0:0:
352,320,190325,1,0,0:0:0:0:
336,320,190380,1,0,0:0:0:0:
320,320,190436,1,2,0:0:0:0:
304,320,190491,1,0,0:0:0:0:
288,320,190547,1,0,0:0:0:0:
272,320,190603,1,0,0:0:0:0:
256,320,190658,1,2,0:0:0:0:
240,320,190714,1,0,0:0:0:0:
224,320,190769,1,0,0:0:0:0:
208,320,190825,1,0,0:0:0:0:
192,320,190880,1,2,0:0:0:0:
176,320,190936,1,0,0:0:0:0:
160,320,190991,1,0,0:0:0:0:
144,320,191047,1,0,0:0:0:0:
128,320,191103,6,0,L|128:272,3,35,2|0|0|0,0:0|0:0|0:0|0:0,0:0:0:0:
128,256,191326,2,0,L|128:208,3,35,2|0|0|0,0:0|0:0|0:0|0:0,0:0:0:0:
128,192,191548,2,0,L|128:144,3,35,2|0|0|0,0:0|0:0|0:0|0:0,0:0:0:0:
128,128,191770,2,0,L|128:80,3,35,2|0|0|0,0:0|0:0|0:0|0:0,0:0:0:0:
128,64,191992,5,2,0:0:0:0:
144,64,192047,1,0,0:0:0:0:
160,64,192103,1,0,0:0:0:0:
176,64,192158,1,0,0:0:0:0:
192,64,192214,1,2,0:0:0:0:
208,64,192269,1,0,0:0:0:0:
224,64,192325,1,0,0:0:0:0:
240,64,192381,1,0,0:0:0:0:
256,64,192436,1,2,0:0:0:0:
272,64,192492,1,0,0:0:0:0:
288,64,192547,1,0,0:0:0:0:
304,64,192603,1,0,0:0:0:0:
320,64,192658,1,2,0:0:0:0:
336,64,192714,1,0,0:0:0:0:
352,64,192769,1,0,0:0:0:0:
368,64,192825,1,0,0:0:0:0:
384,64,192881,6,0,L|384:112,3,35,2|0|0|0,0:0|0:0|0:0|0:0,0:0:0:0:
384,128,193104,2,0,L|384:176,3,35,2|0|0|0,0:0|0:0|0:0|0:0,0:0:0:0:
384,192,193326,2,0,L|384:240,3,35,2|0|0|0,0:0|0:0|0:0|0:0,0:0:0:0:
384,256,193548,2,0,L|384:304,3,35,2|0|0|0,0:0|0:0|0:0|0:0,0:0:0:0:
384,320,193769,5,2,0:0:0:0:
368,320,193824,1,0,0:0:0:0:
352,320,193880,1,0,0:0:0:0:
336,320,193935,1,0,0:0:0:0:
320,320,193991,1,2,0:0:0:0:
304,320,194046,1,0,0:0:0:0:
288,320,194102,1,0,0:0:0:0:
272,320,194158,1,0,0:0:0:0:
256,320,194213,1,2,0:0:0:0:
240,320,194269,1,0,0:0:0:0:
224,320,194324,1,0,0:0:0:0:
208,320,194380,1,0,0:0:0:0:
192,320,194435,1,2,0:0:0:0:
176,320,194491,1,0,0:0:0:0:
160,320,194546,1,0,0:0:0:0:
144,320,194602,1,0,0:0:0:0:
128,320,194658,6,0,L|128:272,3,35,2|0|0|0,0:0|0:0|0:0|0:0,0:0:0:0:
128,256,194881,2,0,L|128:208,3,35,2|0|0|0,0:0|0:0|0:0|0:0,0:0:0:0:
128,192,195103,2,0,L|128:144,3,35,2|0|0|0,0:0|0:0|0:0|0:0,0:0:0:0:
128,128,195325,2,0,L|128:80,3,35,2|0|0|0,0:0|0:0|0:0|0:0,0:0:0:0:
128,64,195548,5,2,0:0:0:0:
144,64,195603,1,0,0:0:0:0:
160,64,195659,1,0,0:0:0:0:
176,64,195714,1,0,0:0:0:0:
192,64,195770,1,2,0:0:0:0:
208,64,195825,1,0,0:0:0:0:
224,64,195881,1,0,0:0:0:0:
240,64,195937,1,0,0:0:0:0:
256,64,195992,1,2,0:0:0:0:
272,64,196048,1,0,0:0:0:0:
288,64,196103,1,0,0:0:0:0:
304,64,196159,1,0,0:0:0:0:
320,64,196214,1,2,0:0:0:0:
336,64,196270,1,0,0:0:0:0:
352,64,196325,1,0,0:0:0:0:
368,64,196381,1,0,0:0:0:0:
384,64,196437,6,0,L|384:112,3,35,2|0|0|0,0:0|0:0|0:0|0:0,0:0:0:0:
384,128,196660,2,0,L|384:176,3,35,2|0|0|0,0:0|0:0|0:0|0:0,0:0:0:0:
384,192,196882,2,0,L|384:240,3,35,2|0|0|0,0:0|0:0|0:0|0:0,0:0:0:0:
384,256,197104,2,0,L|384:304,3,35,2|0|0|0,0:0|0:0|0:0|0:0,0:0:0:0:
384,320,197325,5,2,0:0:0:0:
368,320,197380,1,0,0:0:0:0:
352,320,197436,1,0,0:0:0:0:
336,320,197491,1,0,0:0:0:0:
320,320,197547,1,2,0:0:0:0:
304,320,197602,1,0,0:0:0:0:
288,320,197658,1,0,0:0:0:0:
272,320,197714,1,0,0:0:0:0:
256,320,197769,1,2,0:0:0:0:
240,320,197825,1,0,0:0:0:0:
224,320,197880,1,0,0:0:0:0:
208,320,197936,1,0,0:0:0:0:
192,320,197991,1,2,0:0:0:0:
176,320,198047,1,0,0:0:0:0:
160,320,198102,1,0,0:0:0:0:
144,320,198158,1,0,0:0:0:0:
128,320,198214,6,0,L|128:272,3,35,2|0|0|0,0:0|0:0|0:0|0:0,0:0:0:0:
128,256,198437,2,0,L|128:208,3,35,2|0|0|0,0:0|0:0|0:0|0:0,0:0:0:0:
128,192,198659,2,0,L|128:144,3,35,2|0|0|0,0:0|0:0|0:0|0:0,0:0:0:0:
128,128,198881,2,0,L|128:80,3,35,2|0|0|0,0:0|0:0|0:0|0:0,0:0:0:0:
128,64,199103,5,2,0:0:0:0:
144,64,199158,1,0,0:0:0:0:
160,64,199214,1,0,0:0:0:0:
176,64,199269,1,0,0:0:0:0:
192,64,199325,1,2,0:0:0:0:
208,64,199380,1,0,0:0:0:0:
224,64,199436,1,0,0:0:0:0:
240,64,199492,1,0,0:0:0:0:
256,64,199547,1,2,0:0:0:0:
272,64,199603,1,0,0:0:0:0:
288,64,199658,1,0,0:0:0:0:
304,64,199714,1,0,0:0:0:0:
320,64,199769,1,2,0:0:0:0:
336,64,199825,1,0,0:0:0:0:
352,64,199880,1,0,0:0:0:0:
368,64,199936,1,0,0:0:0:0:
384,64,199992,6,0,L|384:112,3,35,2|0|0|0,0:0|0:0|0:0|0:0,0:0:0:0:
384,128,200215,2,0,L|384:176,3,35,2|0|0|0,0:0|0:0|0:0|0:0,0:0:0:0:
384,192,200437,2,0,L|384:240,3,35,2|0|0|0,0:0|0:0|0:0|0:0,0:0:0:0:
384,256,200659,2,0,L|384:304,3,35,2|0|0|0,0:0|0:0|0:0|0:0,0:0:0:0:
384,320,200880,5,2,0:0:0:0:
368,320,200935,1,0,0:0:0:0:
352,320,200991,1,0,0:0:0:0:
336,320,201046,1,0,0:0:0:0:
320,320,201102,1,2,0:0:0:0:
304,320,201157,1,0,0:0:0:0:
288,320,201213,1,0,0:0:0:0:
272,320,201269,1,0,0:0:0:0:
256,320,201324,1,2,0:0:0:0:
240,320,201380,1,0,0:0:0:0:
224,320,201435,1,0,0:0:0:0:
208,320,201491,1,0,0:0:0:0:
192,320,201546,1,2,0:0:0:0:
176,320,201602,1,0,0:0:0:0:
160,320,201657,1,0,0:0:0:0:
144,320,201713,1,0,0:0:0:0:
128,320,201769,6,0,L|128:272,3,35,2|0|0|0,0:0|0:0|0:0|0:0,0:0:0:0:
128,256,201992,2,0,L|128:208,3,35,2|0|0|0,0:0|0:0|0:0|0:0,0:0:0:0:
128,192,202214,2,0,L|128:144,3,35,2|0|0|0,0:0|0:0|0:0|0:0,0:0:0:0:
128,128,202436,2,0,L|128:80,3,35,2|0|0|0,0:0|0:0|0:0|0:0,0:0:0:0:
128,64,202659,5,2,0:0:0:0:
144,64,202714,1,0,0:0:0:0:
160,64,202770,1,0,0:0:0:0:
176,64,202825,1,0,0:0:0:0:
192,64,202881,1,2,0:0:0:0:
208,64,202936,1,0,0:0:0:0:
224,64,202992,1,0,0:0:0:0:
240,64,203048,1,0,0:0:0:0:
256,64,203103,1,2,0:0:0:0:
272,64,203159,1,0,0:0:0:0:
288,64,203214,1,0,0:0:0:0:
304,64,203270,1,0,0:0:0:0:
320,64,203325,1,2,0:0:0:0:
336,64,203381,1,0,0:0:0:0:
352,64,203436,1,0,0:0:0:0:
368,64,203492,1,0,0:0:0:0:
384,64,203548,6,0,L|384:112,3,35,2|0|0|0,0:0|0:0|0:0|0:0,0:0:0:0:
384,128,203771,2,0,L|384:176,3,35,2|0|0|0,0:0|0:0|0:0|0:0,0:0:0:0:
384,192,203993,2,0,L|384:240,3,35,2|0|0|0,0:0|0:0|0:0|0:0,0:0:0:0:
384,256,204215,2,0,L|384:304,3,35,2|0|0|0,0:0|0:0|0:0|0:0,0:0:0:0:
384,320,204436,5,2,0:0:0:0:
368,320,204491,1,0,0:0:0:0:
352,320,204547,1,0,0:0:0:0:
336,320,204602,1,0,0:0:0:0:
320,320,204658,1,2,0:0:0:0:
304,320,204713,1,0,0:0:0:0:
288,320,204769,1,0,0:0:0:0:
272,320,204825,1,0,0:0:0:0:
256,320,204880,1,2,0:0:0:0:
240,320,204936,1,0,0:0:0:0:
224,320,204991,1,0,0:0:0:0:
208,320,205047,1,0,0:0:0:0:
192,320,205102,1,2,0:0:0:0:
176,320,205158,1,0,0:0:0:0:
160,320,205213,1,0,0:0:0:0:
144,320,205269,1,0,0:0:0:0:
128,320,205325,6,0,L|128:272,3,35,2|0|0|0,0:0|0:0|0:0|0:0,0:0:0:0:
128,256,205548,2,0,L|128:208,3,35,2|0|0|0,0:0|0:0|0:0|0:0,0:0:0:0:
128,192,205770,2,0,L|128:144,3,35,2|0|0|0,0:0|0:0|0:0|0:0,0:0:0:0:
128,128,205992,2,0,L|128:80,3,35,2|0|0|0,0:0|0:0|0:0|0:0,0:0:0:0:
128,64,206214,5,2,0:0:0:0:
144,64,206269,1,0,0:0:0:0:
160,64,206325,1,0,0:0:0:0:
176,64,206380,1,0,0:0:0:0:
192,64,206436,1,2,0:0:0:0:
208,64,206491,1,0,0:0:0:0:
224,64,206547,1,0,0:0:0:0:
240,64,206603,1,0,0:0:0:0:
256,64,206658,1,2,0:0:0:0:
272,64,206714,1,0,0:0:0:0:
288,64,206769,1,0,0:0:0:0:
304,64,206825,1,0,0:0:0:0:
320,64,206880,1,2,0:0:0:0:
336,64,206936,1,0,0:0:0:0:
352,64,206991,1,0,0:0:0:0:
368,64,207047,1,0,0:0:0:0:
384,64,207103,6,0,L|384:112,3,35,2|0|0|0,0:0|0:0|0:0|0:0,0:0:0:0:
384,128,207326,2,0,L|384:176,3,35,2|0|0|0,0:0|0:0|0:0|0:0,0:0:0:0:
384,192,207548,2,0,L|384:240,3,35,2|0|0|0,0:0|0:0|0:0|0:0,0:0:0:0:
384,256,207770,2,0,L|384:304,3,35,2|0|0|0,0:0|0:0|0:0|0:0,0:0:0:0:
384,320,207991,5,2,0:0:0:0:
368,320,208046,1,0,0:0:0:0:
352,320,208102,1,0,0:0:0:0:
336,320,208157,1,0,0:0:0:0:
320,320,208213,1,2,0:0:0:0:
304,320,208268,1,0,0:0:0:0:
288,320,208324,1,0,0:0:0:0:
272,320,208380,1,0,0:0:0:0:
256,320,208435,1,2,0:0:0:0:
240,320,208491,1,0,0:0:0:0:
224,320,208546,1,0,0:0:0:0:
208,320,208602,1,0,0:0:0:0:
192,320,208657,1,2,0:0:0:0:
176,320,208713,1,0,0:0:0:0:
160,320,208768,1,0,0:0:0:0:
144,320,208824,1,0,0:0:0:0:
128,320,208880,6,0,L|128:272,3,35,2|0|0|0,0:0|0:0|0:0|0:0,0:0:0:0:
128,256,209103,2,0,L|128:208,3,35,2|0|0|0,0:0|0:0|0:0|0:0,0:0:0:0:
128,192,209325,2,0,L|128:144,3,35,2|0|0|0,0:0|0:0|0:0|0:0,0:0:0:0:
128,128,209547,2,0,L|128:80,3,35,2|0|0|0,0:0|0:0|0:0|0:0,0:0:0:0:
128,64,213326,5,2,0:0:0:0:
144,64,213381,1,0,0:0:0:0:
160,64,213437,1,0,0:0:0:0:
176,64,213492,1,0,0:0:0:0:
192,64,213548,1,2,0:0:0:0:
208,64,213603,1,0,0:0:0:0:
224,64,213659,1,0,0:0:0:0:
240,64,213715,1,0,0:0:0:0:
256,64,213770,1,2,0:0:0:0:
272,64,213826,1,0,0:0:0:0:
288,64,213881,1,0,0:0:0:0:
304,64,213937,1,0,0:0:0:0:
320,64,213992,1,2,0:0:0:0:
336,64,214048,1,0,0:0:0:0:
352,64,214103,1,0,0:0:0:0:
368,64,214159,1,0,0:0:0:0:
384,64,214215,6,0,L|384:112,3,35,2|0|0|0,0:0|0:0|0:0|0:0,0:0:0:0:
384,128,214438,2,0,L|384:176,3,35,2|0|0|0,0:0|0:0|0:0|0:0,0:0:0:0:
384,192,214660,2,0,L|384:240,3,35,2|0|0|0,0:0|0:0|0:0|0:0,0:0:0:0:
384,256,214882,2,0,L|384:304,3,35,2|0|0|0,0:0|0:0|0:0|0:0,0:0:0:0:
384,320,215103,5,2,0:0:0:0:
368,320,215158,1,0,0:0:0:0:
352,320,215214,1,0,0:0:0:0:
336,320,215269,1,0,0:0:0:0:
320,320,215325,1,2,0:0:0:0:
304,320,215380,1,0,0:0:0:0:
288,320,215436,1,0,0:0:0:0:
272,320,215492,1,0,0:0:0:0:
256,320,215547,1,2,0:0:0:0:
240,320,215603,1,0,0:0:0:0:
224,320,215658,1,0,0:0:0:0:
208,320,215714,1,0,0:0:0:0:
192,320,215769,1,2,0:0:0:0:
176,320,215825,1,0,0:0:0:0:
160,320,215880,1,0,0:0:0:0:
144,320,215936,1,0,0:0:0:0:
128,320,215992,6,0,L|128:272,3,35,2|0|0|0,0:0|0:0|0:0|0:0,0:0:0:0:
128,256,216215,2,0,L|128:208,3,35,2|0|0|0,0:0|0:0|0:0|0:0,0:0:0:0:
128,192,216437,2,0,L|128:144,3,35,2|0|0|0,0:0|0:0|0:0|0:0,0:0:0:0:
128,128,216659,2,0,L|128:80,3,35,2|0|0|0,0:0|0:0|0:0|0:0,0:0:0:0:
128,64,216881,5,2,0:0:0:0:
144,64,216936,1,0,0:0:0:0:
160,64,216992,1,0,0:0:0:0:
176,64,217047,1,0,0:0:0:0:
192,64,217103,1,2,0:0:0:0:
208,64,217158,1,0,0:0:0:0:
224,64,217214,1,0,0:0:0:0:
240,64,217270,1,0,0:0:0:0:
256,64,217325,1,2,0:0:0:0:
272,64,217381,1,0,0:0:0:0:
288,64,217436,1,0,0:0:0:0:
304,64,217492,1,0,0:0:0:0:
320,64,217547,1,2,0:0:0:0:
336,64,217603,1,0,0:0:0:0:
352,64,217658,1,0,0:0:0:0:
368,64,217714,1,0,0:0:0:0:
384,64,217770,6,0,L|384:112,3,35,2|0|0|0,0:0|0:0|0:0|0:0,0:0:0:0:
384,128,217993,2,0,L|384:176,3,35,2|0|0|0,0:0|0:0|0:0|0:0,0:0:0:0:
384,192,218215,2,0,L|384:240,3,35,2|0|0|0,0:0|0:0|0:0|0:0,0:0:0:0:
384,256,218437,2,0,L|384:304,3,35,2|0|0|0,0:0|0:0|0:0|0:0,0:0:0:0:
384,320,218658,5,2,0:0:0:0:
368,320,218713,1,0,0:0:0:0:
352,320,218769,1,0,0:0:0:0:
336,320,218824,1,0,0:0:0:0:
320,320,218880,1,2,0:0:0:0:
304,320,218935,1,0,0:0:0:0:
288,320,218991,1,0,0:0:0:0:
272,320,219047,1,0,0:0:0:0:
256,320,219102,1,2,0:0:0:0:
240,320,219158,1,0,0:0:0:0:
224,320,219213,1,0,0:0:0:0:
208,320,219269,1,0,0:0:0:0:
192,320,219324,1,2,0:0:0:0:
176,320,219380,1,0,0:0:0:0:
160,320,219435,1,0,0:0:0:0:
144,320,219491,1,0,0:0:0:0:
128,320,219547,6,0,L|128:272,3,35,2|0|0|0,0:0|0:0|0:0|0:0,0:0:0:0:
128,256,219770,2,0,L|128:208,3,35,2|0|0|0,0:0|0:0|0:0|0:0,0:0:0:0:
128,192,219992,2,0,L|128:144,3,35,2|0|0|0,0:0|0:0|0:0|0:0,0:0:0:0:
128,128,220214,2,0,L|128:80,3,35,2|0|0|0,0:0|0:0|0:0|0:0,0:0:0:0:
128,64,220437,5,2,0:0:0:0:
144,64,220492,1,0,0:0:0:0:
160,64,220548,1,0,0:0:0:0:
176,64,220603,1,0,0:0:0:0:
192,64,220659,1,2,0:0:0:0:
208,64,220714,1,0,0:0:0:0:
224,64,220770,1,0,0:0:0:0:
240,64,220826,1,0,0:0:0:0:
256,64,220881,1,2,0:0:0:0:
272,64,220937,1,0,0:0:0:0:
288,64,220992,1,0,0:0:0:0:
304,64,221048,1,0,0:0:0:0:
320,64,221103,1,2,0:0:0:0:
336,64,221159,1,0,0:0:0:0:
352,64,221214,1,0,0:0:0:0:
368,64,221270,1,0,0:0:0:0:
384,64,221326,6,0,L|384:112,3,35,2|0|0|0,0:0|0:0|0:0|0:0,0:0:0:0:
384,128,221549,2,0,L|384:176,3,35,2|0|0|0,0:0|0:0|0:0|0:0,0:0:0:0:
384,192,221771,2,0,L|384:240,3,35,2|0|0|0,0:0|0:0|0:0|0:0,0:0:0:0:
384,256,221993,2,0,L|384:304,3,35,2|0|0|0,0:0|0:0|0:0|0:0,0:0:0:0:
384,320,222214,5,2,0:0:0:0:
368,320,222269,1,0,0:0:0:0:
352,320,222325,1,0,0:0:0:0:
336,320,222380,1,0,0:0:0:0:
320,320,222436,1,2,0:0:0:0:
304,320,222491,1,0,0:0:0:0:
288,320,222547,1,0,0:0:0:0:
272,320,222603,1,0,0:0:0:0:
256,320,222658,1,2,0:0:0:0:
240,320,222714,1,0,0:0:0:0:
224,320,222769,1,0,0:0:0:0:
208,320,222825,1,0,0:0:0:0:
192,320,222880,1,2,0:0:0:0:
176,320,222936,1,0,0:0:0:0:
160,320,222991,1,0,0:0:0:0:
144,320,223047,1,0,0:0:0:0:
128,320,223103,6,0,L|128:272,3,35,2|0|0|0,0:0|0:0|0:0|0:0,0:0:0:0:
128,256,223326,2,0,L|128:208,3,35,2|0|0|0,0:0|0:0|0:0|0:0,0:0:0:0:
128,192,223548,2,0,L|128:144,3,35,2|0|0|0,0:0|0:0|0:0|0:0,0:0:0:0:
128,128,223770,2,0,L|128:80,3,35,2|0|0|0,0:0|0:0|0:0|0:0,0:0:0:0:
128,64,223992,5,2,0:0:0:0:
144,64,224047,1,0,0:0:0:0:
160,64,224103,1,0,0:0:0:0:
176,64,224158,1,0,0:0:0:0:
192,64,224214,1,2,0:0:0:0:
208,64,224269,1,0,0:0:0:0:
224,64,224325,1,0,0:0:0:0:
240,64,224381,1,0,0:0:0:0:
256,64,224436,1,2,0:0:0:0:
272,64,224492,1,0,0:0:0:0:
288,64,224547,1,0,0:0:0:0:
304,64,224603,1,0,0:0:0:0:
320,64,224658,1,2,0:0:0:0:
336,64,224714,1,0,0:0:0:0:
352,64,224769,1,0,0:0:0:0:
368,64,224825,1,0,0:0:0:0:
384,64,224881,6,0,L|384:112,3,35,2|0|0|0,0:0|0:0|0:0|0:0,0:0:0:0:
384,128,225104,2,0,L|384:176,3,35,2|0|0|0,0:0|0:0|0:0|0:0,0:0:0:0:
384,192,225326,2,0,L|384:240,3,35,2|0|0|0,0:0|0:0|0:0|0:0,0:0:0:0:
384,256,225548,2,0,L|384:304,3,35,2|0|0|0,0:0|0:0|0:0|0:0,0:0:0:0:
384,320,225769,5,2,0:0:0:0:
368,320,225824,1,0,0:0:0:0:
352,320,225880,1,0,0:0:0:0:
336,320,225935,1,0,0:0:0:0:
320,320,225991,1,2,0:0:0:0:
304,320,226046,1,0,0:0:0:0:
288,320,226102,1,0,0:0:0:0:
272,320,226158,1,0,0:0:0:0:
256,320,226213,1,2,0:0:0:0:
240,320,226269,1,0,0:0:0:0:
224,320,226324,1,0,0:0:0:0:
208,320,226380,1,0,0:0:0:0:
192,320,226435,1,2,0:0:0:0:
176,320,226491,1,0,0:0:0:0:
160,320,226546,1,0,0:0:0:0:
144,320,226602,1,0,0:0:0:0:
128,320,226658,6,0,L|128:272,3,35,2|0|0|0,0:0|0:0|0:0|0:0,0:0:0:0:
128,256,226881,2,0,L|128:208,3,35,2|0|0|0,0:0|0:0|0:0|0:0,0:0:0:0:
128,192,227103,2,0,L|128:144,3,35,2|0|0|0,0:0|0:0|0:0|0:0,0:0:0:0:
128,128,227325,2,0,L|128:80,3,35,2|0|0|0,0:0|0:0|0:0|0:0,0:0:0:0:
128,64,227548,5,2,0:0:0:0:
144,64,227603,1,0,0:0:0:0:
160,64,227659,1,0,0:0:0:0:
176,64,227714,1,0,0:0:0:0:
192,64,227770,1,2,0:0:0:0:
208,64,227825,1,0,0:0:0:0:
224,64,227881,1,0,0:0:0:0:
240,64,227937,1,0,0:0:0:0:
256,64,227992,1,2,0:0:0:0:
272,64,228048,1,0,0:0:0:0:
288,64,228103,1,0,0:0:0:0:
304,64,228159,1,0,0:0:0:0:
320,64,228214,1,2,0:0:0:0:
336,64,228270,1,0,0:0:0:0:
352,64,228325,1,0,0:0:0:0:
368,64,228381,1,0,0:0:0:0:
384,64,228437,6,0,L|384:112,3,35,2|0|0|0,0:0|0:0|0:0|0:0,0:0:0:0:
384,128,228660,2,0,L|384:176,3,35,2|0|0|0,0:0|0:0|0:0|0:0,0:0:0:0:
384,192,228882,2,0,L|384:240,3,35,2|0|0|0,0:0|0:0|0:0|0:0,0:0:0:0:
384,256,229104,2,0,L|384:304,3,35,2|0|0|0,0:0|0:0|0:0|0:0,0:0:0:0:
384,320,229325,5,2,0:0:0:0:
368,320,229380,1,0,0:0:0:0:
352,320,229436,1,0,0:0:0:0:
336,320,229491,1,0,0:0:0:0:
320,320,229547,1,2,0:0:0:0:
304,320,229602,1,0,0:0:0:0:
288,320,229658,1,0,0:0:0:0:
272,320,229714,1,0,0:0:0:0:
256,320,229769,1,2,0:0:0:0:
240,320,229825,1,0,0:0:0:0:
224,320,229880,1,0,0:0:0:0:
208,320,229936,1,0,0:0:0:0:
192,320,229991,1,2,0:0:0:0:
176,320,230047,1,0,0:0:0:0:
160,320,230102,1,0,0:0:0:0:
144,320,230158,1,0,0:0:0:0:
128,320,230214,6,0,L|128:272,3,35,2|0|0|0,0:0|0:0|0:0|0:0,0:0:0:0:
128,256,230437,2,0,L|128:208,3,35,2|0|0|0,0:0|0:0|0:0|0:0,0:0:0:0:
128,192,230659,2,0,L|128:144,3,35,2|0|0|0,0:0|0:0|0:0|0:0,0:0:0:0:
128,128,230881,2,0,L|128:80,3,35,2|0|0|0,0:0|0:0|0:0|0:0,0:0:0:0:
128,64,231103,5,2,0:0:0:0:
144,64,231158,1,0,0:0:0:0:
160,64,231214,1,0,0:0:0:0:
176,64,231269,1,0,0:0:0:0:
192,64,231325,1,2,0:0:0:0:
208,64,231380,1,0,0:0:0:0:
224,64,231436,1,0,0:0:0:0:
240,64,231492,1,0,0:0:0:0:
256,64,231547,1,2,0:0:0:0:
272,64,231603,1,0,0:0:0:0:
288,64,231658,1,0,0:0:0:0:
304,64,231714,1,0,0:0:0:0:
320,64,231769,1,2,0:0:0:0:
336,64,231825,1,0,0:0:0:0:
352,64,231880,1,0,0:0:0:0:
368,64,231936,1,0,0:0:0:0:
384,64,231992,6,0,L|384:112,3,35,2|0|0|0,0:0|0:0|0:0|0:0,0:0:0:0:
384,128,232215,2,0,L|384:176,3,35,2|0|0|0,0:0|0:0|0:0|0:0,0:0:0:0:
384,192,232437,2,0,L|384:240,3,35,2|0|0|0,0:0|0:0|0:0|0:0,0:0:0:0:
384,256,232659,2,0,L|384:304,3,35,2|0|0|0,0:0|0:0|0:0|0:0,0:0:0:0:
384,320,232880,5,2,0:0:0:0:
368,320,232935,1,0,0:0:0:0:
352,320,232991,1,0,0:0:0:0:
336,320,233046,1,0,0:0:0:0:
320,320,233102,1,2,0:0:0:0:
304,320,233157,1,0,0:0:0:0:
288,320,233213,1,0,0:0:0:0:
272,320,233269,1,0,0:0:0:0:
256,320,233324,1,2,0:0:0:0:
240,320,233380,1,0,0:0:0:0:
224,320,233435,1,0,0:0:0:0:
208,320,233491,1,0,0:0:0:0:
192,320,233546,1,2,0:0:0:0:
176,320,233602,1,0,0:0:0:0:
160,320,233657,1,0,0:0:0:0:
144,320,233713,1,0,0:0:0:0:
128,320,233769,6,0,L|128:272,3,35,2|0|0|0,0:0|0:0|0:0|0:0,0:0:0:0:
128,256,233992,2,0,L|128:208,3,35,2|0|0|0,0:0|0:0|0:0|0:0,0:0:0:0:
128,192,234214,2,0,L|128:144,3,35,2|0|0|0,0:0|0:0|0:0|0:0,0:0:0:0:
128,128,234436,2,0,L|128:80,3,35,2|0|0|0,0:0|0:0|0:0|0:0,0:0:0:0:
128,64,234659,5,2,0:0:0:0:
144,64,234714,1,0,0:0:0:0:
160,64,234770,1,0,0:0:0:0:
176,64,234825,1,0,0:0:0:0:
192,64,234881,1,2,0:0:0:0:
208,64,234936,1,0,0:0:0:0:
224,64,234992,1,0,0:0:0:0:
240,64,235048,1,0,0:0:0:0:
256,64,235103,1,2,0:0:0:0:
272,64,235159,1,0,0:0:0:0:
288,64,235214,1,0,0:0:0:0:
304,64,235270,1,0,0:0:0:0:
320,64,235325,1,2,0:0:0:0:
336,64,235381,1,0,0:0:0:0:
352,64,235436,1,0,0:0:0:0:
368,64,235492,1,0,0:0:0:0:
384,64,235548,6,0,L|384:112,3,35,2|0|0|0,0:0|0:0|0:0|0:0,0:0:0:0:
384,128,235771,2,0,L|384:176,3,35,2|0|0|0,0:0|0:0|0:0|0:0,0:0:0:0:
384,192,235993,2,0,L|384:240,3,35,2|0|0|0,0:0|0:0|0:0|0:0,0:0:0:0:
384,256,236215,2,0,L|384:304,3,35,2|0|0|0,0:0|0:0|0:0|0:0,0:0:0:0:
384,320,236436,5,2,0:0:0:0:
368,320,236491,1,0,0:0:0:0:
352,320,236547,1,0,0:0:0:0:
336,320,236602,1,0,0:0:0:0:
320,320,236658,1,2,0:0:0:0:
304,320,236713,1,0,0:0:0:0:
288,320,236769,1,0,0:0:0:0:
272,320,236825,1,0,0:0:0:0:
256,320,236880,1,2,0:0:0:0:
240,320,236936,1,0,0:0:0:0:
224,320,236991,1,0,0:0:0:0:
208,320,237047,1,0,0:0:0:0:
192,320,237102,1,2,0:0:0:0:
176,320,237158,1,0,0:0:0:0:
160,320,237213,1,0,0:0:0:0:
144,320,237269,1,0,0:0:0:0:
128,320,237325,6,0,L|128:272,3,35,2|0|0|0,0:0|0:0|0:0|0:0,0:0:0:0:
128,256,237548,2,0,L|128:208,3,35,2|0|0|0,0:0|0:0|0:0|0:0,0:0:0:0:
128,192,237770,2,0,L|128:144,3,35,2|0|0|0,0:0|0:0|0:0|0:0,0:0:0:0:
128,128,237992,2,0,L|128:80,3,35,2|0|0|0,0:0|0:0|0:0|0:0,0:0:0:0:
128,64,238214,5,2,0:0:0:0:
144,64,238269,1,0,0:0:0:0:
160,64,238325,1,0,0:0:0:0:
176,64,238380,1,0,0:0:0:0:
192,64,238436,1,2,0:0:0:0:
208,64,238491,1,0,0:0:0:0:
224,64,238547,1,0,0:0:0:0:
240,64,238603,1,0,0:0:0:0:
256,64,238658,1,2,0:0:0:0:
272,64,238714,1,0,0:0:0:0:
288,64,238769,1,0,0:0:0:0:
304,64,238825,1,0,0:0:0:0:
320,64,238880,1,2,0:0:0:0:
336,64,238936,1,0,0:0:0:0:
352,64,238991,1,0,0:0:0:0:
368,64,239047,1,0,0:0:0:0:
384,64,239103,6,0,L|384:112,3,35,2|0|0|0,0:0|0:0|0:0|0:0,0:0:0:0:
384,128,239326,2,0,L|384:176,3,35,2|0|0|0,0:0|0:0|0:0|0:0,0:0:0:0:
384,192,239548,2,0,L|384:240,3,35,2|0|0|0,0:0|0:0|0:0|0:0,0:0:0:0:
384,256,239770,2,0,L|384:304,3,35,2|0|0|0,0:0|0:0|0:0|0:0,0:0:0:0:
384,320,239991,5,2,0:0:0:0:
368,320,240046,1,0,0:0:0:0:
352,320,240102,1,0,0:0:0:0:
336,320,240157,1,0,0:0:0:0:
320,320,240213,1,2,0:0:0:0:
304,320,240268,1,0,0:0:0:0:
288,320,240324,1,0,0:0:0:0:
272,320,240380,1,0,0:0:0:0:
256,320,240435,1,2,0:0:0:0:
240,320,240491,1,0,0:0:0:0:
224,320,240546,1,0,0:0:0:0:
208,320,240602,1,0,0:0:0:0:
192,320,240657,1,2,0:0:0:0:
176,320,240713,1,0,0:0:0:0:
160,320,240768,1,0,0:0:0:0:
144,320,240824,1,0,0:0:0:0:
128,320,240880,6,0,L|128:272,3,35,2|0|0|0,0:0|0:0|0:0|0:0,0:0:0:0:
128,256,241103,2,0,L|128:208,3,35,2|0|0|0,0:0|0:0|0:0|0:0,0:0:0:0:
128,192,241325,2,0,L|128:144,3,35,2|0|0|0,0:0|0:0|0:0|0:0,0:0:0:0:
128,128,241547,2,0,L|128:80,3,35,2|0|0|0,0:0|0:0|0:0|0:0,0:0:0:0:
128,64,241771,5,2,0:0:0:0:
144,64,241826,1,0,0:0:0:0:
160,64,241882,1,0,0:0:0:0:
176,64,241937,1,0,0:0:0:0:
192,64,241993,1,2,0:0:0:0:
208,64,242048,1,0,0:0:0:0:
224,64,242104,1,0,0:0:0:0:
240,64,242160,1,0,0:0:0:0:
256,64,242215,1,2,0:0:0:0:
272,64,242271,1,0,0:0:0:0:
288,64,242326,1,0,0:0:0:0:
304,64,242382,1,0,0:0:0:0:
320,64,242437,1,2,0:0:0:0:
336,64,242493,1,0,0:0:0:0:
352,64,242548,1,0,0:0:0:0:
368,64,242604,1,0,0:0:0:0:
384,64,242660,6,0,L|384:112,3,35,2|0|0|0,0:0|0:0|0:0|0:0,0:0:0:0:
384,128,242883,2,0,L|384:176,3,35,2|0|0|0,0:0|0:0|0:0|0:0,0:0:0:0:
384,192,243105,2,0,L|384:240,3,35,2|0|0|0,0:0|0:0|0:0|0:0,0:0:0:0:
384,256,243327,2,0,L|384:304,3,35,2|0|0|0,0:0|0:0|0:0|0:0,0:0:0:0:
384,320,243548,5,2,0:0:0:0:
368,320,243603,1,0,0:0:0:0:
352,320,243659,1,0,0:0:0:0:
336,320,243714,1,0,0:0:0:0:
320,320,243770,1,2,0:0:0:0:
304,320,243825,1,0,0:0:0:0:
288,320,243881,1,0,0:0:0:0:
272,320,243937,1,0,0:0:0:0:
256,320,243992,1,2,0:0:0:0:
240,320,244048,1,0,0:0:0:0:
224,320,244103,1,0,0:0:0:0:
208,320,244159,1,0,0:0:0:0:
192,320,244214,1,2,0:0:0:0:
176,320,244270,1,0,0:0:0:0:
160,320,244325,1,0,0:0:0:0:
144,320,244381,1,0,0:0:0:0:
128,320,244437,6,0,L|128:272,3,35,2|0|0|0,0:0|0:0|0:0|0:0,0:0:0:0:
128,256,244660,2,0,L|128:208,3,35,2|0|0|0,0:0|0:0|0:0|0:0,0:0:0:0:
128,192,244882,2,0,L|128:144,3,35,2|0|0|0,0:0|0:0|0:0|0:0,0:0:0:0:
128,128,245104,2,0,L|128:80,3,35,2|0|0|0,0:0|0:0|0:0|0:0,0:0:0:0:
128,64,245326,5,2,0:0:0:0:
144,64,245381,1,0,0:0:0:0:
160,64,245437,1,0,0:0:0:0:
176,64,245492,1,0,0:0:0:0:
192,64,245548,1,2,0:0:0:0:
208,64,245603,1,0,0:0:0:0:
224,64,245659,1,0,0:0:0:0:
240,64,245715,1,0,0:0:0:0:
256,64,245770,1,2,0:0:0:0:
272,64,245826,1,0,0:0:0:0:
288,64,245881,1,0,0:0:0:0:
304,64,245937,1,0,0:0:0:0:
320,64,245992,1,2,0:0:0:0:
336,64,246048,1,0,0:0:0:0:
352,64,246103,1,0,0:0:0:0:
368,64,246159,1,0,0:0:0:0:
384,64,246215,6,0,L|384:112,3,35,2|0|0|0,0:0|0:0|0:0|0:0,0:0:0:0:
384,128,246438,2,0,L|384:176,3,35,2|0|0|0,0:0|0:0|0:0|0:0,0:0:0:0:
384,192,246660,2,0,L|384:240,3,35,2|0|0|0,0:0|0:0|0:0|0:0,0:0:0:0:
384,256,246882,2,0,L|384:304,3,35,2|0|0|0,0:0|0:0|0:0|0:0,0:0:0:0:
384,320,247103,5,2,0:0:0:0:
368,320,247158,1,0,0:0:0:0:
352,320,247214,1,0,0:0:0:0:
336,320,247269,1,0,0:0:0:0:
320,320,247325,1,2,0:0:0:0:
304,320,247380,1,0,0:0:0:0:
288,320,247436,1,0,0:0:0:0:
272,320,247492,1,0,0:0:0:0:
256,320,247547,1,2,0:0:0:0:
240,320,247603,1,0,0:0:0:0:
224,320,247658,1,0,0:0:0:0:
208,320,247714,1,0,0:0:0:0:
192,320,247769,1,2,0:0:0:0:
176,320,247825,1,0,0:0:0:0:
160,320,247880,1,0,0:0:0:0:
144,320,247936,1,0,0:0:0:0:
128,320,247992,6,0,L|128:272,3,35,2|0|0|0,0:0|0:0|0:0|0:0,0:0:0:0:
128,256,248215,2,0,L|128:208,3,35,2|0|0|0,0:0|0:0|0:0|0:0,0:0:0:0:
128,192,248437,2,0,L|128:144,3,35,2|0|0|0,0:0|0:0|0:0|0:0,0:0:0:0:
128,128,248659,2,0,L|128:80,3,35,2|0|0|0,0:0|0:0|0:0|0:0,0:0:0:0:
128,64,248882,5,2,0:0:0:0:
144,64,248937,1,0,0:0:0:0:
160,64,248993,1,0,0:0:0:0:
176,64,249048,1,0,0:0:0:0:
192,64,249104,1,2,0:0:0:0:
208,64,249159,1,0,0:0:0:0:
224,64,249215,1,0,0:0:0:0:
240,64,249271,1,0,0:0:0:0:
256,64,249326,1,2,0:0:0:0:
272,64,249382,1,0,0:0:0:0:
288,64,249437,1,0,0:0:0:0:
304,64,249493,1,0,0:0:0:0:
320,64,249548,1,2,0:0:0:0:
336,64,249604,1,0,0:0:0:0:
352,64,249659,1,0,0:0:0:0:
368,64,249715,1,0,0:0:0:0:
384,64,249771,6,0,L|384:112,3,35,2|0|0|0,0:0|0:0|0:0|0:0,0:0:0:0:
384,128,249994,2,0,L|384:176,3,35,2|0|0|0,0:0|0:0|0:0|0:0,0:0:0:0:
384,192,250216,2,0,L|384:240,3,35,2|0|0|0,0:0|0:0|0:0|0:0,0:0:0:0:
384,256,250438,2,0,L|384:304,3,35,2|0|0|0,0:0|0:0|0:0|0:0,0:0:0:0:
384,320,250659,5,2,0:0:0:0:
368,320,250714,1,0,0:0:0:0:
352,320,250770,1,0,0:0:0:0:
336,320,250825,1,0,0:0:0:0:
320,320,250881,1,2,0:0:0:0:
304,320,250936,1,0,0:0:0:0:
288,320,250992,1,0,0:0:0:0:
272,320,251048,1,0,0:0:0:0:
256,320,251103,1,2,0:0:0:0:
240,320,251159,1,0,0:0:0:0:
224,320,251214,1,0,0:0:0:0:
208,320,251270,1,0,0:0:0:0:
192,320,251325,1,2,0:0:0:0:
176,320,251381,1,0,0:0:0:0:
160,320,251436,1,0,0:0:0:0:
144,320,251492,1,0,0:0:0:0:
128,320,251548,6,0,L|128:272,3,35,2|0|0|0,0:0|0:0|0:0|0:0,0:0:0:0:
128,256,251771,2,0,L|128:208,3,35,2|0|0|0,0:0|0:0|0:0|0:0,0:0:0:0:
128,192,251993,2,0,L|128:144,3,35,2|0|0|0,0:0|0:0|0:0|0:0,0:0:0:0:
128,128,252215,2,0,L|128:80,3,35,2|0|0|0,0:0|0:0|0:0|0:0,0:0:0:0:
128,64,252437,5,2,0:0:0:0:
144,64,252492,1,0,0:0:0:0:
160,64,252548,1,0,0:0:0:0:
176,64,252603,1,0,0:0:0:0:
192,64,252659,1,2,0:0:0:0:
208,64,252714,1,0,0:0:0:0:
224,64,252770,1,0,0:0:0:0:
240,64,252826,1,0,0:0:0:0:
256,64,252881,1,2,0:0:0:0:
272,64,252937,1,0,0:0:0:0:
288,64,252992,1,0,0:0:0:0:
304,64,253048,1,0,0:0:0:0:
320,64,253103,1,2,0:0:0:0:
336,64,253159,1,0,0:0:0:0:
352,64,253214,1,0,0:0:0:0:
368,64,253270,1,0,0:0:0:0:
384,64,253326,6,0,L|384:112,3,35,2|0|0|0,0:0|0:0|0:0|0:0,0:0:0:0:
384,128,253549,2,0,L|384:176,3,35,2|0|0|0,0:0|0:0|0:0|0:0,0:0:0:0:
384,192,253771,2,0,L|384:240,3,35,2|0|0|0,0:0|0:0|0:0|0:0,0:0:0:0:
384,256,253993,2,0,L|384:304,3,35,2|0|0|0,0:0|0:0|0:0|0:0,0:0:0:0:
384,320,254214,5,2,0:0:0:0:
368,320,254269,1,0,0:0:0:0:
352,320,254325,1,0,0:0:0:0:
336,320,254380,1,0,0:0:0:0:
320,320,254436,1,2,0:0:0:0:
304,320,254491,1,0,0:0:0:0:
288,320,254547,1,0,0:0:0:0:
272,320,254603,1,0,0:0:0:0:
256,320,254658,1,2,0:0:0:0:
240,320,254714,1,0,0:0:0:0:
224,320,254769,1,0,0:0:0:0:
208,320,254825,1,0,0:0:0:0:
192,320,254880,1,2,0:0:0:0:
176,320,254936,1,0,0:0:0:0:
160,320,254991,1,0,0:0:0:0:
144,320,255047,1,0,0:0:0:0:
128,320,255103,6,0,L|128:272,3,35,2|0|0|0,0:0|0:0|0:0|0:0,0:0:0:0:
128,256,255326,2,0,L|128:208,3,35,2|0|0|0,0:0|0:0|0:0|0:0,0:0:0:0:
128,192,255548,2,0,L|128:144,3,35,2|0|0|0,0:0|0:0|0:0|0:0,0:0:0:0:
128,128,255770,2,0,L|128:80,3,35,2|0|0|0,0:0|0:0|0:0|0:0,0:0:0:0:
128,64,255993,5,2,0:0:0:0:
144,64,256048,1,0,0:0:0:0:
160,64,256104,1,0,0:0:0:0:
176,64,256159,1,0,0:0:0:0:
192,64,256215,1,2,0:0:0:0:
208,64,256270,1,0,0:0:0:0:
224,64,256326,1,0,0:0:0:0:
240,64,256382,1,0,0:0:0:0:
256,64,256437,1,2,0:0:0:0:
272,64,256493,1,0,0:0:0:0:
288,64,256548,1,0,0:0:0:0:
304,64,256604,1,0,0:0:0:0:
320,64,256659,1,2,0:0:0:0:
336,64,256715,1,0,0:0:0:0:
352,64,256770,1,0,0:0:0:0:
368,64,256826,1,0,0:0:0:0:
384,64,256882,6,0,L|384:112,3,35,2|0|0|0,0:0|0:0|0:0|0:0,0:0:0:0:
384,128,257105,2,0,L|384:176,3,35,2|0|0|0,0:0|0:0|0:0|0:0,0:0:0:0:
384,192,257327,2,0,L|384:240,3,35,2|0|0|0,0:0|0:0|0:0|0:0,0:0:0:0:
384,256,257549,2,0,L|384:304,3,35,2|0|0|0,0:0|0:0|0:0|0:0,0:0:0:0:
384,320,257770,5,2,0:0:0:0:
368,320,257825,1,0,0:0:0:0:
352,320,257881,1,0,0:0:0:0:
336,320,257936,1,0,0:0:0:0:
320,320,257992,1,2,0:0:0:0:
304,320,258047,1,0,0:0:0:0:
288,320,258103,1,0,0:0:0:0:
272,320,258159,1,0,0:0:0:0:
256,320,258214,1,2,0:0:0:0:
240,320,258270,1,0,0:0:0:0:
224,320,258325,1,0,0:0:0:0:
208,320,258381,1,0,0:0:0:0:
192,320,258436,1,2,0:0:0:0:
176,320,258492,1,0,0:0:0:0:
160,320,258547,1,0,0:0:0:0:
144,320,258603,1,0,0:0:0:0:
128,320,258659,6,0,L|128:272,3,35,2|0|0|0,0:0|0:0|0:0|0:0,0:0:0:0:
128,256,258882,2,0,L|128:208,3,35,2|0|0|0,0:0|0:0|0:0|0:0,0:0:0:0:
128,192,259104,2,0,L|128:144,3,35,2|0|0|0,0:0|0:0|0:0|0:0,0:0:0:0:
128,128,259326,2,0,L|128:80,3,35,2|0|0|0,0:0|0:0|0:0|0:0,0:0:0:0:
128,64,259548,5,2,0:0:0:0:
144,64,259603,1,0,0:0:0:0:
160,64,259659,1,0,0:0:0:0:
176,64,259714,1,0,0:0:0:0:
192,64,259770,1,2,0:0:0:0:
208,64,259825,1,0,0:0:0:0:
224,64,259881,1,0,0:0:0:0:
240,64,259937,1,0,0:0:0:0:
256,64,259992,1,2,0:0:0:0:
272,64,260048,1,0,0:0:0:0:
288,64,260103,1,0,0:0:0:0:
304,64,260159,1,0,0:0:0:0:
320,64,260214,1,2,0:0:0:0:
336,64,260270,1,0,0:0:0:0:
352,64,260325,1,0,0:0:0:0:
368,64,260381,1,0,0:0:0:0:
384,64,260437,6,0,L|384:112,3,35,2|0|0|0,0:0|0:0|0:0|0:0,0:0:0:0:
384,128,260660,2,0,L|384:176,3,35,2|0|0|0,0:0|0:0|0:0|0:0,0:0:0:0:
384,192,260882,2,0,L|384:240,3,35,2|0|0|0,0:0|0:0|0:0|0:0,0:0:0:0:
384,256,261104,2,0,L|384:304,3,35,2|0|0|0,0:0|0:0|0:0|0:0,0:0:0:0:
384,320,261325,5,2,0:0:0:0:
368,320,261380,1,0,0:0:0:0:
352,320,261436,1,0,0:0:0:0:
336,320,261491,1,0,0:0:0:0:
320,320,261547,1,2,0:0:0:0:
304,320,261602,1,0,0:0:0:0:
288,320,261658,1,0,0:0:0:0:
272,320,261714,1,0,0:0:0:0:
256,320,261769,1,2,0:0:0:0:
240,320,261825,1,0,0:0:0:0:
224,320,261880,1,0,0:0:0:0:
208,320,261936,1,0,0:0:0:0:
192,320,261991,1,2,0:0:0:0:
176,320,262047,1,0,0:0:0:0:
160,320,262102,1,0,0:0:0:0:
144,320,262158,1,0,0:0:0:0:
128,320,262214,6,0,L|128:272,3,35,2|0|0|0,0:0|0:0|0:0|0:0,0:0:0:0:
128,256,262437,2,0,L|128:208,3,35,2|0|0|0,0:0|0:0|0:0|0:0,0:0:0:0:
128,192,262659,2,0,L|128:144,3,35,2|0|0|0,0:0|0:0|0:0|0:0,0:0:0:0:
128,128,262881,2,0,L|128:80,3,35,2|0|0|0,0:0|0:0|0:0|0:0,0:0:0:0:
128,64,263104,5,2,0:0:0:0:
144,64,263159,1,0,0:0:0:0:
160,64,263215,1,0,0:0:0:0:
176,64,263270,1,0,0:0:0:0:
192,64,263326,1,2,0:0:0:0:
208,64,263381,1,0,0:0:0:0:
224,64,263437,1,0,0:0:0:0:
240,64,263493,1,0,0:0:0:0:
256,64,263548,1,2,0:0:0:0:
272,64,263604,1,0,0:0:0:0:
288,64,263659,1,0,0:0:0:0:
304,64,263715,1,0,0:0:0:0:
320,64,263770,1,2,0:0:0:0:
336,64,263826,1,0,0:0:0:0:
352,64,263881,1,0,0:0:0:0:
368,64,263937,1,0,0:0:0:0:
384,64,263993,6,0,L|384:112,3,35,2|0|0|0,0:0|0:0|0:0|0:0,0:0:0:0:
384,128,264216,2,0,L|384:176,3,35,2|0|0|0,0:0|0:0|0:0|0:0,0:0:0:0:
384,192,264438,2,0,L|384:240,3,35,2|0|0|0,0:0|0:0|0:0|0:0,0:0:0:0:
384,256,264660,2,0,L|384:304,3,35,2|0|0|0,0:0|0:0|0:0|0:0,0:0:0:0:
384,320,264881,5,2,0:0:0:0:
368,320,264936,1,0,0:0:0:0:
352,320,264992,1,0,0:0:0:0:
336,320,265047,1,0,0:0:0:0:
320,320,265103,1,2,0:0:0:0:
304,320,265158,1,0,0:0:0:0:
288,320,265214,1,0,0:0:0:0:
272,320,265270,1,0,0:0:0:0:
256,320,265325,1,2,0:0:0:0:
240,320,265381,1,0,0:0:0:0:
224,320,265436,1,0,0:0:0:0:
208,320,265492,1,0,0:0:0:0:
192,320,265547,1,2,0:0:0:0:
176,320,265603,1,0,0:0:0:0:
160,320,265658,1,0,0:0:0:0:
144,320,265714,1,0,0:0:0:0:
128,320,265770,6,0,L|128:272,3,35,2|0|0|0,0:0|0:0|0:0|0:0,0:0:0:0:
128,256,265993,2,0,L|128:208,3,35,2|0|0|0,0:0|0:0|0:0|0:0,0:0:0:0:
128,192,266215,2,0,L|128:144,3,35,2|0|0|0,0:0|0:0|0:0|0:0,0:0:0:0:
128,128,266437,2,0,L|128:80,3,35,2|0|0|0,0:0|0:0|0:0|0:0,0:0:0:0:
128,64,266659,5,2,0:0:0:0:
144,64,266714,1,0,0:0:0:0:
160,64,266770,1,0,0:0:0:0:
176,64,266825,1,0,0:0:0:0:
192,64,266881,1,2,0:0:0:0:
208,64,266936,1,0,0:0:0:0:
224,64,266992,1,0,0:0:0:0:
240,64,267048,1,0,0:0:0:0:
256,64,267103,1,2,0:0:0:0:
272,64,267159,1,0,0:0:0:0:
288,64,267214,1,0,0:0:0:0:
304,64,267270,1,0,0:0:0:0:
320,64,267325,1,2,0:0:0:0:
336,64,267381,1,0,0:0:0:0:
352,64,267436,1,0,0:0:0:0:
368,64,267492,1,0,0:0:0:0:
384,64,267548,6,0,L|384:112,3,35,2|0|0|0,0:0|0:0|0:0|0:0,0:0:0:0:
384,128,267771,2,0,L|384:176,3,35,2|0|0|0,0:0|0:0|0:0|0:0,0:0:0:0:
384,192,267993,2,0,L|384:240,3,35,2|0|0|0,0:0|0:0|0:0|0:0,0:0:0:0:
384,256,268215,2,0,L|384:304,3,35,2|0|0|0,0:0|0:0|0:0|0:0,0:0:0:0:
384,320,268436,5,2,0:0:0:0:
368,320,268491,1,0,0:0:0:0:
352,320,268547,1,0,0:0:0:0:
336,320,268602,1,0,0:0:0:0:
320,320,268658,1,2,0:0:0:0:
304,320,268713,1,0,0:0:0:0:
288,320,268769,1,0,0:0:0:0:
272,320,268825,1,0,0:0:0:0:
256,320,268880,1,2,0:0:0:0:
240,320,268936,1,0,0:0:0:0:
224,320,268991,1,0,0:0:0:0:
208,320,269047,1,0,0:0:0:0:
192,320,269102,1,2,0:0:0:0:
176,320,269158,1,0,0:0:0:0:
160,320,269213,1,0,0:0:0:0:
144,320,269269,1,0,0:0:0:0:
128,320,269325,6,0,L|128:272,3,35,2|0|0|0,0:0|0:0|0:0|0:0,0:0:0:0:
128,256,269548,2,0,L|128:208,3,35,2|0|0|0,0:0|0:0|0:0|0:0,0:0:0:0:
128,192,269770,2,0,L|128:144,3,35,2|0|0|0,0:0|0:0|0:0|0:0,0:0:0:0:
128,128,269992,2,0,L|128:80,3,35,2|0|0|0,0:0|0:0|0:0|0:0,0:0:0:0:
