osu file format v14

[General]
AudioFilename: Sonic_Cannon.mp3
AudioLeadIn: 0
PreviewTime: -1
Countdown: 1
SampleSet: Soft
StackLeniency: 0.7
Mode: 0
LetterboxInBreaks: 1
WidescreenStoryboard: 0

[Editor]
DistanceSpacing: 0.8
BeatDivisor: 4
GridSize: 16
TimelineZoom: 2.6

[Metadata]
Title:Burst Stream Practice Maps 2
TitleUnicode:Burst Stream Practice Maps 2
Artist:Various Artists
ArtistUnicode:Various Artists
Creator:nooblet
Version:260 BPM base
Source:
Tags:
BeatmapID:1022686
BeatmapSetID:478861

[Difficulty]
HPDrainRate:0
CircleSize:4
OverallDifficulty:10
ApproachRate:10
SliderMultiplier:1.4
SliderTickRate:1

[Events]
//Background and Video events
//Break Periods
//Storyboard Layer 0 (Background)
//Storyboard Layer 1 (Fail)
//Storyboard Layer 2 (Pass)
//Storyboard Layer 3 (Foreground)
//Storyboard Sound Samples

[TimingPoints]
8027.73230447907,230.769230769231,4,2,0,100,1,0

[HitObjects]
128,64,8027,5,2,0:0:0:0:
144,64,8085,1,0,0:0:0:0:
160,64,8143,1,0,0:0:0:0:
176,64,8200,1,0,0:0:0:0:
192,64,8258,1,2,0:0:0:0:
208,64,8316,1,0,0:0:0:0:
224,64,8373,1,0,0:0:0:0:
240,64,8431,1,0,0:0:0:0:
256,64,8489,1,2,0:0:0:0:
272,64,8547,1,0,0:0:0:0:
288,64,8605,1,0,0:0:0:0:
304,64,8662,1,0,0:0:0:0:
320,64,8720,1,2,0:0:0:0:
336,64,8778,1,0,0:0:0:0:
352,64,8835,1,0,0:0:0:0:
368,64,8893,1,0,0:0:0:0:
384,64,8950,5,2,0:0:0:0:
384,80,9008,1,0,0:0:0:0:
384,96,9066,1,0,0:0:0:0:
384,112,9123,1,0,0:0:0:0:
384,128,9181,1,2,0:0:0:0:
384,144,9239,1,0,0:0:0:0:
384,160,9296,1,0,0:0:0:0:
384,176,9354,1,0,0:0:0:0:
384,192,9412,1,2,0:0:0:0:
384,208,9470,1,0,0:0:0:0:
384,224,9528,1,0,0:0:0:0:
384,240,9585,1,0,0:0:0:0:
384,256,9643,1,2,0:0:0:0:
384,272,9701,1,0,0:0:0:0:
384,288,9758,1,0,0:0:0:0:
384,304,9816,1,0,0:0:0:0:
384,320,9873,5,2,0:0:0:0:
368,320,9931,1,0,0:0:0:0:
352,320,9989,1,0,0:0:0:0:
336,320,10046,1,0,0:0:0:0:
320,320,10104,1,2,0:0:0:0:
304,320,10162,1,0,0:0:0:0:
288,320,10219,1,0,0:0:0:0:
272,320,10277,1,0,0:0:0:0:
256,320,10335,1,2,0:0:0:0:
240,320,10393,1,0,0:0:0:0:
224,320,10451,1,0,0:0:0:0:
208,320,10508,1,0,0:0:0:0:
192,320,10566,1,2,0:0:0:0:
176,320,10624,1,0,0:0:0:0:
160,320,10681,1,0,0:0:0:0:
144,320,10739,1,0,0:0:0:0:
128,320,10796,5,2,0:0:0:0:
128,304,10854,1,0,0:0:0:0:
128,288,10912,1,0,0:0:0:0:
128,272,10969,1,0,0:0:0:0:
128,256,11027,1,2,0:0:0:0:
128,240,11085,1,0,0:0:0:0:
128,224,11142,1,0,0:0:0:0:
128,208,11200,1,0,0:0:0:0:
128,192,11258,1,2,0:0:0:0:
128,176,11316,1,0,0:0:0:0:
128,160,11374,1,0,0:0:0:0:
128,144,11431,1,0,0:0:0:0:
128,128,11489,1,2,0:0:0:0:
128,112,11547,1,0,0:0:0:0:
128,96,11604,1,0,0:0:0:0:
128,80,11662,1,0,0:0:0:0:
