osu file format v14

[General]
AudioFilename: Sonic_Cannon.mp3
AudioLeadIn: 0
PreviewTime: -1
Countdown: 1
SampleSet: Soft
StackLeniency: 0.7
Mode: 0
LetterboxInBreaks: 1
WidescreenStoryboard: 1

[Editor]
Bookmarks: 54181,65258
DistanceSpacing: 0.8
BeatDivisor: 4
GridSize: 16
TimelineZoom: 2.6

[Metadata]
Title:Burst Stream Practice Maps 2
TitleUnicode:Burst Stream Practice Maps 2
Artist:Various Artists
ArtistUnicode:Various Artists
Creator:nooblet
Version:260 BPM 8 notes
Source:
Tags:
BeatmapID:1022685
BeatmapSetID:478861

[Difficulty]
HPDrainRate:0
CircleSize:4
OverallDifficulty:10
ApproachRate:10
SliderMultiplier:1.4
SliderTickRate:1

[Events]
//Background and Video events
//Break Periods
2,22940,24193
2,54324,61116
//Storyboard Layer 0 (Background)
//Storyboard Layer 1 (Fail)
//Storyboard Layer 2 (Pass)
//Storyboard Layer 3 (Foreground)
//Storyboard Sound Samples

[TimingPoints]
8027.73230447907,230.769230769231,4,2,0,100,1,0

[HitObjects]
128,64,8027,5,2,0:0:0:0:
144,64,8085,1,0,0:0:0:0:
160,64,8143,1,0,0:0:0:0:
176,64,8200,1,0,0:0:0:0:
192,64,8258,1,2,0:0:0:0:
208,64,8316,1,0,0:0:0:0:
224,64,8373,1,0,0:0:0:0:
240,64,8431,1,0,0:0:0:0:
256,64,8489,2,0,L|304:64,3,35,2|0|0|0,0:0|0:0|0:0|0:0,0:0:0:0:
320,64,8720,2,0,L|368:64,3,35,2|0|0|0,0:0|0:0|0:0|0:0,0:0:0:0:
384,64,8950,5,2,0:0:0:0:
384,80,9008,1,0,0:0:0:0:
384,96,9066,1,0,0:0:0:0:
384,112,9123,1,0,0:0:0:0:
384,128,9181,1,2,0:0:0:0:
384,144,9239,1,0,0:0:0:0:
384,160,9296,1,0,0:0:0:0:
384,176,9354,1,0,0:0:0:0:
384,192,9412,2,0,L|384:240,3,35,2|0|0|0,0:0|0:0|0:0|0:0,0:0:0:0:
384,256,9643,2,0,L|384:304,3,35,2|0|0|0,0:0|0:0|0:0|0:0,0:0:0:0:
384,320,9873,5,2,0:0:0:0:
368,320,9931,1,0,0:0:0:0:
352,320,9989,1,0,0:0:0:0:
336,320,10046,1,0,0:0:0:0:
320,320,10104,1,2,0:0:0:0:
304,320,10162,1,0,0:0:0:0:
288,320,10219,1,0,0:0:0:0:
272,320,10277,1,0,0:0:0:0:
256,320,10335,2,0,L|208:320,3,35,2|0|0|0,0:0|0:0|0:0|0:0,0:0:0:0:
192,320,10566,2,0,L|144:320,3,35,2|0|0|0,0:0|0:0|0:0|0:0,0:0:0:0:
128,320,10796,5,2,0:0:0:0:
128,304,10854,1,0,0:0:0:0:
128,288,10912,1,0,0:0:0:0:
128,272,10969,1,0,0:0:0:0:
128,256,11027,1,2,0:0:0:0:
128,240,11085,1,0,0:0:0:0:
128,224,11142,1,0,0:0:0:0:
128,207,11200,1,0,0:0:0:0:
128,192,11258,2,0,L|128:144,3,35,2|0|0|0,0:0|0:0|0:0|0:0,0:0:0:0:
128,128,11489,2,0,L|128:80,3,35,2|0|0|0,0:0|0:0|0:0|0:0,0:0:0:0:
128,64,11720,5,2,0:0:0:0:
144,64,11778,1,0,0:0:0:0:
160,64,11836,1,0,0:0:0:0:
176,64,11893,1,0,0:0:0:0:
192,64,11951,1,2,0:0:0:0:
208,64,12009,1,0,0:0:0:0:
224,64,12066,1,0,0:0:0:0:
240,64,12124,1,0,0:0:0:0:
256,64,12182,2,0,L|304:64,3,35,2|0|0|0,0:0|0:0|0:0|0:0,0:0:0:0:
320,64,12413,2,0,L|368:64,3,35,2|0|0|0,0:0|0:0|0:0|0:0,0:0:0:0:
384,64,12643,5,2,0:0:0:0:
384,80,12701,1,0,0:0:0:0:
384,96,12759,1,0,0:0:0:0:
384,112,12816,1,0,0:0:0:0:
384,128,12874,1,2,0:0:0:0:
384,144,12932,1,0,0:0:0:0:
384,160,12989,1,0,0:0:0:0:
384,176,13047,1,0,0:0:0:0:
384,192,13105,2,0,L|384:240,3,35,2|0|0|0,0:0|0:0|0:0|0:0,0:0:0:0:
384,256,13336,2,0,L|384:304,3,35,2|0|0|0,0:0|0:0|0:0|0:0,0:0:0:0:
384,320,13566,5,2,0:0:0:0:
368,320,13624,1,0,0:0:0:0:
352,320,13682,1,0,0:0:0:0:
336,320,13739,1,0,0:0:0:0:
320,320,13797,1,2,0:0:0:0:
304,320,13855,1,0,0:0:0:0:
288,320,13912,1,0,0:0:0:0:
272,320,13970,1,0,0:0:0:0:
256,320,14028,2,0,L|208:320,3,35,2|0|0|0,0:0|0:0|0:0|0:0,0:0:0:0:
192,320,14259,2,0,L|144:320,3,35,2|0|0|0,0:0|0:0|0:0|0:0,0:0:0:0:
128,320,14489,5,2,0:0:0:0:
128,304,14547,1,0,0:0:0:0:
128,288,14605,1,0,0:0:0:0:
128,272,14662,1,0,0:0:0:0:
128,256,14720,1,2,0:0:0:0:
128,240,14778,1,0,0:0:0:0:
128,224,14835,1,0,0:0:0:0:
128,207,14893,1,0,0:0:0:0:
128,192,14951,2,0,L|128:144,3,35,2|0|0|0,0:0|0:0|0:0|0:0,0:0:0:0:
128,128,15182,2,0,L|128:80,3,35,2|0|0|0,0:0|0:0|0:0|0:0,0:0:0:0:
128,64,15412,5,2,0:0:0:0:
144,64,15470,1,0,0:0:0:0:
160,64,15528,1,0,0:0:0:0:
176,64,15585,1,0,0:0:0:0:
192,64,15643,1,2,0:0:0:0:
208,64,15701,1,0,0:0:0:0:
224,64,15758,1,0,0:0:0:0:
240,64,15816,1,0,0:0:0:0:
256,64,15874,2,0,L|304:64,3,35,2|0|0|0,0:0|0:0|0:0|0:0,0:0:0:0:
320,64,16105,2,0,L|368:64,3,35,2|0|0|0,0:0|0:0|0:0|0:0,0:0:0:0:
384,64,16335,5,2,0:0:0:0:
384,80,16393,1,0,0:0:0:0:
384,96,16451,1,0,0:0:0:0:
384,112,16508,1,0,0:0:0:0:
384,128,16566,1,2,0:0:0:0:
384,144,16624,1,0,0:0:0:0:
384,160,16681,1,0,0:0:0:0:
384,176,16739,1,0,0:0:0:0:
384,192,16797,2,0,L|384:240,3,35,2|0|0|0,0:0|0:0|0:0|0:0,0:0:0:0:
384,256,17028,2,0,L|384:304,3,35,2|0|0|0,0:0|0:0|0:0|0:0,0:0:0:0:
384,320,17258,5,2,0:0:0:0:
368,320,17316,1,0,0:0:0:0:
352,320,17374,1,0,0:0:0:0:
336,320,17431,1,0,0:0:0:0:
320,320,17489,1,2,0:0:0:0:
304,320,17547,1,0,0:0:0:0:
288,320,17604,1,0,0:0:0:0:
272,320,17662,1,0,0:0:0:0:
256,320,17720,2,0,L|208:320,3,35,2|0|0|0,0:0|0:0|0:0|0:0,0:0:0:0:
192,320,17951,2,0,L|144:320,3,35,2|0|0|0,0:0|0:0|0:0|0:0,0:0:0:0:
128,320,18181,5,2,0:0:0:0:
128,304,18239,1,0,0:0:0:0:
128,288,18297,1,0,0:0:0:0:
128,272,18354,1,0,0:0:0:0:
128,256,18412,1,2,0:0:0:0:
128,240,18470,1,0,0:0:0:0:
128,224,18527,1,0,0:0:0:0:
128,207,18585,1,0,0:0:0:0:
128,192,18643,2,0,L|128:144,3,35,2|0|0|0,0:0|0:0|0:0|0:0,0:0:0:0:
128,128,18874,2,0,L|128:80,3,35,2|0|0|0,0:0|0:0|0:0|0:0,0:0:0:0:
128,64,19105,5,2,0:0:0:0:
144,64,19163,1,0,0:0:0:0:
160,64,19221,1,0,0:0:0:0:
176,64,19278,1,0,0:0:0:0:
192,64,19336,1,2,0:0:0:0:
208,64,19394,1,0,0:0:0:0:
224,64,19451,1,0,0:0:0:0:
240,64,19509,1,0,0:0:0:0:
256,64,19567,2,0,L|304:64,3,35,2|0|0|0,0:0|0:0|0:0|0:0,0:0:0:0:
320,64,19798,2,0,L|368:64,3,35,2|0|0|0,0:0|0:0|0:0|0:0,0:0:0:0:
384,64,20028,5,2,0:0:0:0:
384,80,20086,1,0,0:0:0:0:
384,96,20144,1,0,0:0:0:0:
384,112,20201,1,0,0:0:0:0:
384,128,20259,1,2,0:0:0:0:
384,144,20317,1,0,0:0:0:0:
384,160,20374,1,0,0:0:0:0:
384,176,20432,1,0,0:0:0:0:
384,192,20490,2,0,L|384:240,3,35,2|0|0|0,0:0|0:0|0:0|0:0,0:0:0:0:
384,256,20721,2,0,L|384:304,3,35,2|0|0|0,0:0|0:0|0:0|0:0,0:0:0:0:
384,320,20951,5,2,0:0:0:0:
368,320,21009,1,0,0:0:0:0:
352,320,21067,1,0,0:0:0:0:
336,320,21124,1,0,0:0:0:0:
320,320,21182,1,2,0:0:0:0:
304,320,21240,1,0,0:0:0:0:
288,320,21297,1,0,0:0:0:0:
272,320,21355,1,0,0:0:0:0:
256,320,21413,2,0,L|208:320,3,35,2|0|0|0,0:0|0:0|0:0|0:0,0:0:0:0:
192,320,21644,2,0,L|144:320,3,35,2|0|0|0,0:0|0:0|0:0|0:0,0:0:0:0:
128,320,21874,5,2,0:0:0:0:
128,304,21932,1,0,0:0:0:0:
128,288,21990,1,0,0:0:0:0:
128,272,22047,1,0,0:0:0:0:
128,256,22105,1,2,0:0:0:0:
128,240,22163,1,0,0:0:0:0:
128,224,22220,1,0,0:0:0:0:
128,207,22278,1,0,0:0:0:0:
128,192,22336,2,0,L|128:144,3,35,2|0|0|0,0:0|0:0|0:0|0:0,0:0:0:0:
128,128,22567,2,0,L|128:80,3,35,2|0|0|0,0:0|0:0|0:0|0:0,0:0:0:0:
128,64,24643,5,2,0:0:0:0:
144,64,24701,1,0,0:0:0:0:
160,64,24759,1,0,0:0:0:0:
176,64,24816,1,0,0:0:0:0:
192,64,24874,1,2,0:0:0:0:
208,64,24932,1,0,0:0:0:0:
224,64,24989,1,0,0:0:0:0:
240,64,25047,1,0,0:0:0:0:
256,64,25105,2,0,L|304:64,3,35,2|0|0|0,0:0|0:0|0:0|0:0,0:0:0:0:
320,64,25336,2,0,L|368:64,3,35,2|0|0|0,0:0|0:0|0:0|0:0,0:0:0:0:
384,64,25566,5,2,0:0:0:0:
384,80,25624,1,0,0:0:0:0:
384,96,25682,1,0,0:0:0:0:
384,112,25739,1,0,0:0:0:0:
384,128,25797,1,2,0:0:0:0:
384,144,25855,1,0,0:0:0:0:
384,160,25912,1,0,0:0:0:0:
384,176,25970,1,0,0:0:0:0:
384,192,26028,2,0,L|384:240,3,35,2|0|0|0,0:0|0:0|0:0|0:0,0:0:0:0:
384,256,26259,2,0,L|384:304,3,35,2|0|0|0,0:0|0:0|0:0|0:0,0:0:0:0:
384,320,26489,5,2,0:0:0:0:
368,320,26547,1,0,0:0:0:0:
352,320,26605,1,0,0:0:0:0:
336,320,26662,1,0,0:0:0:0:
320,320,26720,1,2,0:0:0:0:
304,320,26778,1,0,0:0:0:0:
288,320,26835,1,0,0:0:0:0:
272,320,26893,1,0,0:0:0:0:
256,320,26951,2,0,L|208:320,3,35,2|0|0|0,0:0|0:0|0:0|0:0,0:0:0:0:
192,320,27182,2,0,L|144:320,3,35,2|0|0|0,0:0|0:0|0:0|0:0,0:0:0:0:
128,320,27412,5,2,0:0:0:0:
128,304,27470,1,0,0:0:0:0:
128,288,27528,1,0,0:0:0:0:
128,272,27585,1,0,0:0:0:0:
128,256,27643,1,2,0:0:0:0:
128,240,27701,1,0,0:0:0:0:
128,224,27758,1,0,0:0:0:0:
128,207,27816,1,0,0:0:0:0:
128,192,27874,2,0,L|128:144,3,35,2|0|0|0,0:0|0:0|0:0|0:0,0:0:0:0:
128,128,28105,2,0,L|128:80,3,35,2|0|0|0,0:0|0:0|0:0|0:0,0:0:0:0:
128,64,28336,5,2,0:0:0:0:
144,64,28394,1,0,0:0:0:0:
160,64,28452,1,0,0:0:0:0:
176,64,28509,1,0,0:0:0:0:
192,64,28567,1,2,0:0:0:0:
208,64,28625,1,0,0:0:0:0:
224,64,28682,1,0,0:0:0:0:
240,64,28740,1,0,0:0:0:0:
256,64,28798,2,0,L|304:64,3,35,2|0|0|0,0:0|0:0|0:0|0:0,0:0:0:0:
320,64,29029,2,0,L|368:64,3,35,2|0|0|0,0:0|0:0|0:0|0:0,0:0:0:0:
384,64,29259,5,2,0:0:0:0:
384,80,29317,1,0,0:0:0:0:
384,96,29375,1,0,0:0:0:0:
384,112,29432,1,0,0:0:0:0:
384,128,29490,1,2,0:0:0:0:
384,144,29548,1,0,0:0:0:0:
384,160,29605,1,0,0:0:0:0:
384,176,29663,1,0,0:0:0:0:
384,192,29721,2,0,L|384:240,3,35,2|0|0|0,0:0|0:0|0:0|0:0,0:0:0:0:
384,256,29952,2,0,L|384:304,3,35,2|0|0|0,0:0|0:0|0:0|0:0,0:0:0:0:
384,320,30182,5,2,0:0:0:0:
368,320,30240,1,0,0:0:0:0:
352,320,30298,1,0,0:0:0:0:
336,320,30355,1,0,0:0:0:0:
320,320,30413,1,2,0:0:0:0:
304,320,30471,1,0,0:0:0:0:
288,320,30528,1,0,0:0:0:0:
272,320,30586,1,0,0:0:0:0:
256,320,30644,2,0,L|208:320,3,35,2|0|0|0,0:0|0:0|0:0|0:0,0:0:0:0:
192,320,30875,2,0,L|144:320,3,35,2|0|0|0,0:0|0:0|0:0|0:0,0:0:0:0:
128,320,31105,5,2,0:0:0:0:
128,304,31163,1,0,0:0:0:0:
128,288,31221,1,0,0:0:0:0:
128,272,31278,1,0,0:0:0:0:
128,256,31336,1,2,0:0:0:0:
128,240,31394,1,0,0:0:0:0:
128,224,31451,1,0,0:0:0:0:
128,207,31509,1,0,0:0:0:0:
128,192,31567,2,0,L|128:144,3,35,2|0|0|0,0:0|0:0|0:0|0:0,0:0:0:0:
128,128,31798,2,0,L|128:80,3,35,2|0|0|0,0:0|0:0|0:0|0:0,0:0:0:0:
128,64,32027,5,2,0:0:0:0:
144,64,32085,1,0,0:0:0:0:
160,64,32143,1,0,0:0:0:0:
176,64,32200,1,0,0:0:0:0:
192,64,32258,1,2,0:0:0:0:
208,64,32316,1,0,0:0:0:0:
224,64,32373,1,0,0:0:0:0:
240,64,32431,1,0,0:0:0:0:
256,64,32489,2,0,L|304:64,3,35,2|0|0|0,0:0|0:0|0:0|0:0,0:0:0:0:
320,64,32720,2,0,L|368:64,3,35,2|0|0|0,0:0|0:0|0:0|0:0,0:0:0:0:
384,64,32950,5,2,0:0:0:0:
384,80,33008,1,0,0:0:0:0:
384,96,33066,1,0,0:0:0:0:
384,112,33123,1,0,0:0:0:0:
384,128,33181,1,2,0:0:0:0:
384,144,33239,1,0,0:0:0:0:
384,160,33296,1,0,0:0:0:0:
384,176,33354,1,0,0:0:0:0:
384,192,33412,2,0,L|384:240,3,35,2|0|0|0,0:0|0:0|0:0|0:0,0:0:0:0:
384,256,33643,2,0,L|384:304,3,35,2|0|0|0,0:0|0:0|0:0|0:0,0:0:0:0:
384,320,33873,5,2,0:0:0:0:
368,320,33931,1,0,0:0:0:0:
352,320,33989,1,0,0:0:0:0:
336,320,34046,1,0,0:0:0:0:
320,320,34104,1,2,0:0:0:0:
304,320,34162,1,0,0:0:0:0:
288,320,34219,1,0,0:0:0:0:
272,320,34277,1,0,0:0:0:0:
256,320,34335,2,0,L|208:320,3,35,2|0|0|0,0:0|0:0|0:0|0:0,0:0:0:0:
192,320,34566,2,0,L|144:320,3,35,2|0|0|0,0:0|0:0|0:0|0:0,0:0:0:0:
128,320,34796,5,2,0:0:0:0:
128,304,34854,1,0,0:0:0:0:
128,288,34912,1,0,0:0:0:0:
128,272,34969,1,0,0:0:0:0:
128,256,35027,1,2,0:0:0:0:
128,240,35085,1,0,0:0:0:0:
128,224,35142,1,0,0:0:0:0:
128,207,35200,1,0,0:0:0:0:
128,192,35258,2,0,L|128:144,3,35,2|0|0|0,0:0|0:0|0:0|0:0,0:0:0:0:
128,128,35489,2,0,L|128:80,3,35,2|0|0|0,0:0|0:0|0:0|0:0,0:0:0:0:
128,64,35720,5,2,0:0:0:0:
144,64,35778,1,0,0:0:0:0:
160,64,35836,1,0,0:0:0:0:
176,64,35893,1,0,0:0:0:0:
192,64,35951,1,2,0:0:0:0:
208,64,36009,1,0,0:0:0:0:
224,64,36066,1,0,0:0:0:0:
240,64,36124,1,0,0:0:0:0:
256,64,36182,2,0,L|304:64,3,35,2|0|0|0,0:0|0:0|0:0|0:0,0:0:0:0:
320,64,36413,2,0,L|368:64,3,35,2|0|0|0,0:0|0:0|0:0|0:0,0:0:0:0:
384,64,36643,5,2,0:0:0:0:
384,80,36701,1,0,0:0:0:0:
384,96,36759,1,0,0:0:0:0:
384,112,36816,1,0,0:0:0:0:
384,128,36874,1,2,0:0:0:0:
384,144,36932,1,0,0:0:0:0:
384,160,36989,1,0,0:0:0:0:
384,176,37047,1,0,0:0:0:0:
384,192,37105,2,0,L|384:240,3,35,2|0|0|0,0:0|0:0|0:0|0:0,0:0:0:0:
384,256,37336,2,0,L|384:304,3,35,2|0|0|0,0:0|0:0|0:0|0:0,0:0:0:0:
384,320,37566,5,2,0:0:0:0:
368,320,37624,1,0,0:0:0:0:
352,320,37682,1,0,0:0:0:0:
336,320,37739,1,0,0:0:0:0:
320,320,37797,1,2,0:0:0:0:
304,320,37855,1,0,0:0:0:0:
288,320,37912,1,0,0:0:0:0:
272,320,37970,1,0,0:0:0:0:
256,320,38028,2,0,L|208:320,3,35,2|0|0|0,0:0|0:0|0:0|0:0,0:0:0:0:
192,320,38259,2,0,L|144:320,3,35,2|0|0|0,0:0|0:0|0:0|0:0,0:0:0:0:
128,320,38489,5,2,0:0:0:0:
128,304,38547,1,0,0:0:0:0:
128,288,38605,1,0,0:0:0:0:
128,272,38662,1,0,0:0:0:0:
128,256,38720,1,2,0:0:0:0:
128,240,38778,1,0,0:0:0:0:
128,224,38835,1,0,0:0:0:0:
128,207,38893,1,0,0:0:0:0:
128,192,38951,2,0,L|128:144,3,35,2|0|0|0,0:0|0:0|0:0|0:0,0:0:0:0:
128,128,39182,2,0,L|128:80,3,35,2|0|0|0,0:0|0:0|0:0|0:0,0:0:0:0:
128,64,39412,5,2,0:0:0:0:
144,64,39470,1,0,0:0:0:0:
160,64,39528,1,0,0:0:0:0:
176,64,39585,1,0,0:0:0:0:
192,64,39643,1,2,0:0:0:0:
208,64,39701,1,0,0:0:0:0:
224,64,39758,1,0,0:0:0:0:
240,64,39816,1,0,0:0:0:0:
256,64,39874,2,0,L|304:64,3,35,2|0|0|0,0:0|0:0|0:0|0:0,0:0:0:0:
320,64,40105,2,0,L|368:64,3,35,2|0|0|0,0:0|0:0|0:0|0:0,0:0:0:0:
384,64,40335,5,2,0:0:0:0:
384,80,40393,1,0,0:0:0:0:
384,96,40451,1,0,0:0:0:0:
384,112,40508,1,0,0:0:0:0:
384,128,40566,1,2,0:0:0:0:
384,144,40624,1,0,0:0:0:0:
384,160,40681,1,0,0:0:0:0:
384,176,40739,1,0,0:0:0:0:
384,192,40797,2,0,L|384:240,3,35,2|0|0|0,0:0|0:0|0:0|0:0,0:0:0:0:
384,256,41028,2,0,L|384:304,3,35,2|0|0|0,0:0|0:0|0:0|0:0,0:0:0:0:
384,320,41258,5,2,0:0:0:0:
368,320,41316,1,0,0:0:0:0:
352,320,41374,1,0,0:0:0:0:
336,320,41431,1,0,0:0:0:0:
320,320,41489,1,2,0:0:0:0:
304,320,41547,1,0,0:0:0:0:
288,320,41604,1,0,0:0:0:0:
272,320,41662,1,0,0:0:0:0:
256,320,41720,2,0,L|208:320,3,35,2|0|0|0,0:0|0:0|0:0|0:0,0:0:0:0:
192,320,41951,2,0,L|144:320,3,35,2|0|0|0,0:0|0:0|0:0|0:0,0:0:0:0:
128,320,42181,5,2,0:0:0:0:
128,304,42239,1,0,0:0:0:0:
128,288,42297,1,0,0:0:0:0:
128,272,42354,1,0,0:0:0:0:
128,256,42412,1,2,0:0:0:0:
128,240,42470,1,0,0:0:0:0:
128,224,42527,1,0,0:0:0:0:
128,207,42585,1,0,0:0:0:0:
128,192,42643,2,0,L|128:144,3,35,2|0|0|0,0:0|0:0|0:0|0:0,0:0:0:0:
128,128,42874,2,0,L|128:80,3,35,2|0|0|0,0:0|0:0|0:0|0:0,0:0:0:0:
128,64,43105,5,2,0:0:0:0:
144,64,43163,1,0,0:0:0:0:
160,64,43221,1,0,0:0:0:0:
176,64,43278,1,0,0:0:0:0:
192,64,43336,1,2,0:0:0:0:
208,64,43394,1,0,0:0:0:0:
224,64,43451,1,0,0:0:0:0:
240,64,43509,1,0,0:0:0:0:
256,64,43567,2,0,L|304:64,3,35,2|0|0|0,0:0|0:0|0:0|0:0,0:0:0:0:
320,64,43798,2,0,L|368:64,3,35,2|0|0|0,0:0|0:0|0:0|0:0,0:0:0:0:
384,64,44028,5,2,0:0:0:0:
384,80,44086,1,0,0:0:0:0:
384,96,44144,1,0,0:0:0:0:
384,112,44201,1,0,0:0:0:0:
384,128,44259,1,2,0:0:0:0:
384,144,44317,1,0,0:0:0:0:
384,160,44374,1,0,0:0:0:0:
384,176,44432,1,0,0:0:0:0:
384,192,44490,2,0,L|384:240,3,35,2|0|0|0,0:0|0:0|0:0|0:0,0:0:0:0:
384,256,44721,2,0,L|384:304,3,35,2|0|0|0,0:0|0:0|0:0|0:0,0:0:0:0:
384,320,44951,5,2,0:0:0:0:
368,320,45009,1,0,0:0:0:0:
352,320,45067,1,0,0:0:0:0:
336,320,45124,1,0,0:0:0:0:
320,320,45182,1,2,0:0:0:0:
304,320,45240,1,0,0:0:0:0:
288,320,45297,1,0,0:0:0:0:
272,320,45355,1,0,0:0:0:0:
256,320,45413,2,0,L|208:320,3,35,2|0|0|0,0:0|0:0|0:0|0:0,0:0:0:0:
192,320,45644,2,0,L|144:320,3,35,2|0|0|0,0:0|0:0|0:0|0:0,0:0:0:0:
128,320,45874,5,2,0:0:0:0:
128,304,45932,1,0,0:0:0:0:
128,288,45990,1,0,0:0:0:0:
128,272,46047,1,0,0:0:0:0:
128,256,46105,1,2,0:0:0:0:
128,240,46163,1,0,0:0:0:0:
128,224,46220,1,0,0:0:0:0:
128,207,46278,1,0,0:0:0:0:
128,192,46336,2,0,L|128:144,3,35,2|0|0|0,0:0|0:0|0:0|0:0,0:0:0:0:
128,128,46567,2,0,L|128:80,3,35,2|0|0|0,0:0|0:0|0:0|0:0,0:0:0:0:
128,64,46796,5,2,0:0:0:0:
144,64,46854,1,0,0:0:0:0:
160,64,46912,1,0,0:0:0:0:
176,64,46969,1,0,0:0:0:0:
192,64,47027,1,2,0:0:0:0:
208,64,47085,1,0,0:0:0:0:
224,64,47142,1,0,0:0:0:0:
240,64,47200,1,0,0:0:0:0:
256,64,47258,2,0,L|304:64,3,35,2|0|0|0,0:0|0:0|0:0|0:0,0:0:0:0:
320,64,47489,2,0,L|368:64,3,35,2|0|0|0,0:0|0:0|0:0|0:0,0:0:0:0:
384,64,47719,5,2,0:0:0:0:
384,80,47777,1,0,0:0:0:0:
384,96,47835,1,0,0:0:0:0:
384,112,47892,1,0,0:0:0:0:
384,128,47950,1,2,0:0:0:0:
384,144,48008,1,0,0:0:0:0:
384,160,48065,1,0,0:0:0:0:
384,176,48123,1,0,0:0:0:0:
384,192,48181,2,0,L|384:240,3,35,2|0|0|0,0:0|0:0|0:0|0:0,0:0:0:0:
384,256,48412,2,0,L|384:304,3,35,2|0|0|0,0:0|0:0|0:0|0:0,0:0:0:0:
384,320,48642,5,2,0:0:0:0:
368,320,48700,1,0,0:0:0:0:
352,320,48758,1,0,0:0:0:0:
336,320,48815,1,0,0:0:0:0:
320,320,48873,1,2,0:0:0:0:
304,320,48931,1,0,0:0:0:0:
288,320,48988,1,0,0:0:0:0:
272,320,49046,1,0,0:0:0:0:
256,320,49104,2,0,L|208:320,3,35,2|0|0|0,0:0|0:0|0:0|0:0,0:0:0:0:
192,320,49335,2,0,L|144:320,3,35,2|0|0|0,0:0|0:0|0:0|0:0,0:0:0:0:
128,320,49565,5,2,0:0:0:0:
128,304,49623,1,0,0:0:0:0:
128,288,49681,1,0,0:0:0:0:
128,272,49738,1,0,0:0:0:0:
128,256,49796,1,2,0:0:0:0:
128,240,49854,1,0,0:0:0:0:
128,224,49911,1,0,0:0:0:0:
128,207,49969,1,0,0:0:0:0:
128,192,50027,2,0,L|128:144,3,35,2|0|0|0,0:0|0:0|0:0|0:0,0:0:0:0:
128,128,50258,2,0,L|128:80,3,35,2|0|0|0,0:0|0:0|0:0|0:0,0:0:0:0:
128,64,50489,5,2,0:0:0:0:
144,64,50547,1,0,0:0:0:0:
160,64,50605,1,0,0:0:0:0:
176,64,50662,1,0,0:0:0:0:
192,64,50720,1,2,0:0:0:0:
208,64,50778,1,0,0:0:0:0:
224,64,50835,1,0,0:0:0:0:
240,64,50893,1,0,0:0:0:0:
256,64,50951,2,0,L|304:64,3,35,2|0|0|0,0:0|0:0|0:0|0:0,0:0:0:0:
320,64,51182,2,0,L|368:64,3,35,2|0|0|0,0:0|0:0|0:0|0:0,0:0:0:0:
384,64,51412,5,2,0:0:0:0:
384,80,51470,1,0,0:0:0:0:
384,96,51528,1,0,0:0:0:0:
384,112,51585,1,0,0:0:0:0:
384,128,51643,1,2,0:0:0:0:
384,144,51701,1,0,0:0:0:0:
384,160,51758,1,0,0:0:0:0:
384,176,51816,1,0,0:0:0:0:
384,192,51874,2,0,L|384:240,3,35,2|0|0|0,0:0|0:0|0:0|0:0,0:0:0:0:
384,256,52105,2,0,L|384:304,3,35,2|0|0|0,0:0|0:0|0:0|0:0,0:0:0:0:
384,320,52335,5,2,0:0:0:0:
368,320,52393,1,0,0:0:0:0:
352,320,52451,1,0,0:0:0:0:
336,320,52508,1,0,0:0:0:0:
320,320,52566,1,2,0:0:0:0:
304,320,52624,1,0,0:0:0:0:
288,320,52681,1,0,0:0:0:0:
272,320,52739,1,0,0:0:0:0:
256,320,52797,2,0,L|208:320,3,35,2|0|0|0,0:0|0:0|0:0|0:0,0:0:0:0:
192,320,53028,2,0,L|144:320,3,35,2|0|0|0,0:0|0:0|0:0|0:0,0:0:0:0:
128,320,53258,5,2,0:0:0:0:
128,304,53316,1,0,0:0:0:0:
128,288,53374,1,0,0:0:0:0:
128,272,53431,1,0,0:0:0:0:
128,256,53489,1,2,0:0:0:0:
128,240,53547,1,0,0:0:0:0:
128,224,53604,1,0,0:0:0:0:
128,207,53662,1,0,0:0:0:0:
128,192,53720,2,0,L|128:144,3,35,2|0|0|0,0:0|0:0|0:0|0:0,0:0:0:0:
128,128,53951,2,0,L|128:80,3,35,2|0|0|0,0:0|0:0|0:0|0:0,0:0:0:0:
128,64,61566,5,2,0:0:0:0:
144,64,61624,1,0,0:0:0:0:
160,64,61682,1,0,0:0:0:0:
176,64,61739,1,0,0:0:0:0:
192,64,61797,1,2,0:0:0:0:
208,64,61855,1,0,0:0:0:0:
224,64,61912,1,0,0:0:0:0:
240,64,61970,1,0,0:0:0:0:
256,64,62028,2,0,L|304:64,3,35,2|0|0|0,0:0|0:0|0:0|0:0,0:0:0:0:
320,64,62259,2,0,L|368:64,3,35,2|0|0|0,0:0|0:0|0:0|0:0,0:0:0:0:
384,64,62489,5,2,0:0:0:0:
384,80,62547,1,0,0:0:0:0:
384,96,62605,1,0,0:0:0:0:
384,112,62662,1,0,0:0:0:0:
384,128,62720,1,2,0:0:0:0:
384,144,62778,1,0,0:0:0:0:
384,160,62835,1,0,0:0:0:0:
384,176,62893,1,0,0:0:0:0:
384,192,62951,2,0,L|384:240,3,35,2|0|0|0,0:0|0:0|0:0|0:0,0:0:0:0:
384,256,63182,2,0,L|384:304,3,35,2|0|0|0,0:0|0:0|0:0|0:0,0:0:0:0:
384,320,63412,5,2,0:0:0:0:
368,320,63470,1,0,0:0:0:0:
352,320,63528,1,0,0:0:0:0:
336,320,63585,1,0,0:0:0:0:
320,320,63643,1,2,0:0:0:0:
304,320,63701,1,0,0:0:0:0:
288,320,63758,1,0,0:0:0:0:
272,320,63816,1,0,0:0:0:0:
256,320,63874,2,0,L|208:320,3,35,2|0|0|0,0:0|0:0|0:0|0:0,0:0:0:0:
192,320,64105,2,0,L|144:320,3,35,2|0|0|0,0:0|0:0|0:0|0:0,0:0:0:0:
128,320,64335,5,2,0:0:0:0:
128,304,64393,1,0,0:0:0:0:
128,288,64451,1,0,0:0:0:0:
128,272,64508,1,0,0:0:0:0:
128,256,64566,1,2,0:0:0:0:
128,240,64624,1,0,0:0:0:0:
128,224,64681,1,0,0:0:0:0:
128,207,64739,1,0,0:0:0:0:
128,192,64797,2,0,L|128:144,3,35,2|0|0|0,0:0|0:0|0:0|0:0,0:0:0:0:
128,128,65028,2,0,L|128:80,3,35,2|0|0|0,0:0|0:0|0:0|0:0,0:0:0:0:
128,64,67104,5,2,0:0:0:0:
144,64,67162,1,0,0:0:0:0:
160,64,67220,1,0,0:0:0:0:
176,64,67277,1,0,0:0:0:0:
192,64,67335,1,2,0:0:0:0:
208,64,67393,1,0,0:0:0:0:
224,64,67450,1,0,0:0:0:0:
240,64,67508,1,0,0:0:0:0:
256,64,67566,2,0,L|304:64,3,35,2|0|0|0,0:0|0:0|0:0|0:0,0:0:0:0:
320,64,67797,2,0,L|368:64,3,35,2|0|0|0,0:0|0:0|0:0|0:0,0:0:0:0:
384,64,68027,5,2,0:0:0:0:
384,80,68085,1,0,0:0:0:0:
384,96,68143,1,0,0:0:0:0:
384,112,68200,1,0,0:0:0:0:
384,128,68258,1,2,0:0:0:0:
384,144,68316,1,0,0:0:0:0:
384,160,68373,1,0,0:0:0:0:
384,176,68431,1,0,0:0:0:0:
384,192,68489,2,0,L|384:240,3,35,2|0|0|0,0:0|0:0|0:0|0:0,0:0:0:0:
384,256,68720,2,0,L|384:304,3,35,2|0|0|0,0:0|0:0|0:0|0:0,0:0:0:0:
384,320,68950,5,2,0:0:0:0:
368,320,69008,1,0,0:0:0:0:
352,320,69066,1,0,0:0:0:0:
336,320,69123,1,0,0:0:0:0:
320,320,69181,1,2,0:0:0:0:
304,320,69239,1,0,0:0:0:0:
288,320,69296,1,0,0:0:0:0:
272,320,69354,1,0,0:0:0:0:
256,320,69412,2,0,L|208:320,3,35,2|0|0|0,0:0|0:0|0:0|0:0,0:0:0:0:
192,320,69643,2,0,L|144:320,3,35,2|0|0|0,0:0|0:0|0:0|0:0,0:0:0:0:
128,320,69873,5,2,0:0:0:0:
128,304,69931,1,0,0:0:0:0:
128,288,69989,1,0,0:0:0:0:
128,272,70046,1,0,0:0:0:0:
128,256,70104,1,2,0:0:0:0:
128,240,70162,1,0,0:0:0:0:
128,224,70219,1,0,0:0:0:0:
128,207,70277,1,0,0:0:0:0:
128,192,70335,2,0,L|128:144,3,35,2|0|0|0,0:0|0:0|0:0|0:0,0:0:0:0:
128,128,70566,2,0,L|128:80,3,35,2|0|0|0,0:0|0:0|0:0|0:0,0:0:0:0:
128,64,70797,5,2,0:0:0:0:
144,64,70855,1,0,0:0:0:0:
160,64,70913,1,0,0:0:0:0:
176,64,70970,1,0,0:0:0:0:
192,64,71028,1,2,0:0:0:0:
208,64,71086,1,0,0:0:0:0:
224,64,71143,1,0,0:0:0:0:
240,64,71201,1,0,0:0:0:0:
256,64,71259,2,0,L|304:64,3,35,2|0|0|0,0:0|0:0|0:0|0:0,0:0:0:0:
320,64,71490,2,0,L|368:64,3,35,2|0|0|0,0:0|0:0|0:0|0:0,0:0:0:0:
384,64,71720,5,2,0:0:0:0:
384,80,71778,1,0,0:0:0:0:
384,96,71836,1,0,0:0:0:0:
384,112,71893,1,0,0:0:0:0:
384,128,71951,1,2,0:0:0:0:
384,144,72009,1,0,0:0:0:0:
384,160,72066,1,0,0:0:0:0:
384,176,72124,1,0,0:0:0:0:
384,192,72182,2,0,L|384:240,3,35,2|0|0|0,0:0|0:0|0:0|0:0,0:0:0:0:
384,256,72413,2,0,L|384:304,3,35,2|0|0|0,0:0|0:0|0:0|0:0,0:0:0:0:
384,320,72643,5,2,0:0:0:0:
368,320,72701,1,0,0:0:0:0:
352,320,72759,1,0,0:0:0:0:
336,320,72816,1,0,0:0:0:0:
320,320,72874,1,2,0:0:0:0:
304,320,72932,1,0,0:0:0:0:
288,320,72989,1,0,0:0:0:0:
272,320,73047,1,0,0:0:0:0:
256,320,73105,2,0,L|208:320,3,35,2|0|0|0,0:0|0:0|0:0|0:0,0:0:0:0:
192,320,73336,2,0,L|144:320,3,35,2|0|0|0,0:0|0:0|0:0|0:0,0:0:0:0:
128,320,73566,5,2,0:0:0:0:
128,304,73624,1,0,0:0:0:0:
128,288,73682,1,0,0:0:0:0:
128,272,73739,1,0,0:0:0:0:
128,256,73797,1,2,0:0:0:0:
128,240,73855,1,0,0:0:0:0:
128,224,73912,1,0,0:0:0:0:
128,207,73970,1,0,0:0:0:0:
128,192,74028,2,0,L|128:144,3,35,2|0|0|0,0:0|0:0|0:0|0:0,0:0:0:0:
128,128,74259,2,0,L|128:80,3,35,2|0|0|0,0:0|0:0|0:0|0:0,0:0:0:0:
128,64,74489,5,2,0:0:0:0:
144,64,74547,1,0,0:0:0:0:
160,64,74605,1,0,0:0:0:0:
176,64,74662,1,0,0:0:0:0:
192,64,74720,1,2,0:0:0:0:
208,64,74778,1,0,0:0:0:0:
224,64,74835,1,0,0:0:0:0:
240,64,74893,1,0,0:0:0:0:
256,64,74951,2,0,L|304:64,3,35,2|0|0|0,0:0|0:0|0:0|0:0,0:0:0:0:
320,64,75182,2,0,L|368:64,3,35,2|0|0|0,0:0|0:0|0:0|0:0,0:0:0:0:
384,64,75412,5,2,0:0:0:0:
384,80,75470,1,0,0:0:0:0:
384,96,75528,1,0,0:0:0:0:
384,112,75585,1,0,0:0:0:0:
384,128,75643,1,2,0:0:0:0:
384,144,75701,1,0,0:0:0:0:
384,160,75758,1,0,0:0:0:0:
384,176,75816,1,0,0:0:0:0:
384,192,75874,2,0,L|384:240,3,35,2|0|0|0,0:0|0:0|0:0|0:0,0:0:0:0:
384,256,76105,2,0,L|384:304,3,35,2|0|0|0,0:0|0:0|0:0|0:0,0:0:0:0:
384,320,76335,5,2,0:0:0:0:
368,320,76393,1,0,0:0:0:0:
352,320,76451,1,0,0:0:0:0:
336,320,76508,1,0,0:0:0:0:
320,320,76566,1,2,0:0:0:0:
304,320,76624,1,0,0:0:0:0:
288,320,76681,1,0,0:0:0:0:
272,320,76739,1,0,0:0:0:0:
256,320,76797,2,0,L|208:320,3,35,2|0|0|0,0:0|0:0|0:0|0:0,0:0:0:0:
192,320,77028,2,0,L|144:320,3,35,2|0|0|0,0:0|0:0|0:0|0:0,0:0:0:0:
128,320,77258,5,2,0:0:0:0:
128,304,77316,1,0,0:0:0:0:
128,288,77374,1,0,0:0:0:0:
128,272,77431,1,0,0:0:0:0:
128,256,77489,1,2,0:0:0:0:
128,240,77547,1,0,0:0:0:0:
128,224,77604,1,0,0:0:0:0:
128,207,77662,1,0,0:0:0:0:
128,192,77720,2,0,L|128:144,3,35,2|0|0|0,0:0|0:0|0:0|0:0,0:0:0:0:
128,128,77951,2,0,L|128:80,3,35,2|0|0|0,0:0|0:0|0:0|0:0,0:0:0:0:
128,64,78182,5,2,0:0:0:0:
144,64,78240,1,0,0:0:0:0:
160,64,78298,1,0,0:0:0:0:
176,64,78355,1,0,0:0:0:0:
192,64,78413,1,2,0:0:0:0:
208,64,78471,1,0,0:0:0:0:
224,64,78528,1,0,0:0:0:0:
240,64,78586,1,0,0:0:0:0:
256,64,78644,2,0,L|304:64,3,35,2|0|0|0,0:0|0:0|0:0|0:0,0:0:0:0:
320,64,78875,2,0,L|368:64,3,35,2|0|0|0,0:0|0:0|0:0|0:0,0:0:0:0:
384,64,79105,5,2,0:0:0:0:
384,80,79163,1,0,0:0:0:0:
384,96,79221,1,0,0:0:0:0:
384,112,79278,1,0,0:0:0:0:
384,128,79336,1,2,0:0:0:0:
384,144,79394,1,0,0:0:0:0:
384,160,79451,1,0,0:0:0:0:
384,176,79509,1,0,0:0:0:0:
384,192,79567,2,0,L|384:240,3,35,2|0|0|0,0:0|0:0|0:0|0:0,0:0:0:0:
384,256,79798,2,0,L|384:304,3,35,2|0|0|0,0:0|0:0|0:0|0:0,0:0:0:0:
384,320,80028,5,2,0:0:0:0:
368,320,80086,1,0,0:0:0:0:
352,320,80144,1,0,0:0:0:0:
336,320,80201,1,0,0:0:0:0:
320,320,80259,1,2,0:0:0:0:
304,320,80317,1,0,0:0:0:0:
288,320,80374,1,0,0:0:0:0:
272,320,80432,1,0,0:0:0:0:
256,320,80490,2,0,L|208:320,3,35,2|0|0|0,0:0|0:0|0:0|0:0,0:0:0:0:
192,320,80721,2,0,L|144:320,3,35,2|0|0|0,0:0|0:0|0:0|0:0,0:0:0:0:
128,320,80951,5,2,0:0:0:0:
128,304,81009,1,0,0:0:0:0:
128,288,81067,1,0,0:0:0:0:
128,272,81124,1,0,0:0:0:0:
128,256,81182,1,2,0:0:0:0:
128,240,81240,1,0,0:0:0:0:
128,224,81297,1,0,0:0:0:0:
128,207,81355,1,0,0:0:0:0:
128,192,81413,2,0,L|128:144,3,35,2|0|0|0,0:0|0:0|0:0|0:0,0:0:0:0:
128,128,81644,2,0,L|128:80,3,35,2|0|0|0,0:0|0:0|0:0|0:0,0:0:0:0:
128,64,81873,5,2,0:0:0:0:
144,64,81931,1,0,0:0:0:0:
160,64,81989,1,0,0:0:0:0:
176,64,82046,1,0,0:0:0:0:
192,64,82104,1,2,0:0:0:0:
208,64,82162,1,0,0:0:0:0:
224,64,82219,1,0,0:0:0:0:
240,64,82277,1,0,0:0:0:0:
256,64,82335,2,0,L|304:64,3,35,2|0|0|0,0:0|0:0|0:0|0:0,0:0:0:0:
320,64,82566,2,0,L|368:64,3,35,2|0|0|0,0:0|0:0|0:0|0:0,0:0:0:0:
384,64,82796,5,2,0:0:0:0:
384,80,82854,1,0,0:0:0:0:
384,96,82912,1,0,0:0:0:0:
384,112,82969,1,0,0:0:0:0:
384,128,83027,1,2,0:0:0:0:
384,144,83085,1,0,0:0:0:0:
384,160,83142,1,0,0:0:0:0:
384,176,83200,1,0,0:0:0:0:
384,192,83258,2,0,L|384:240,3,35,2|0|0|0,0:0|0:0|0:0|0:0,0:0:0:0:
384,256,83489,2,0,L|384:304,3,35,2|0|0|0,0:0|0:0|0:0|0:0,0:0:0:0:
384,320,83719,5,2,0:0:0:0:
368,320,83777,1,0,0:0:0:0:
352,320,83835,1,0,0:0:0:0:
336,320,83892,1,0,0:0:0:0:
320,320,83950,1,2,0:0:0:0:
304,320,84008,1,0,0:0:0:0:
288,320,84065,1,0,0:0:0:0:
272,320,84123,1,0,0:0:0:0:
256,320,84181,2,0,L|208:320,3,35,2|0|0|0,0:0|0:0|0:0|0:0,0:0:0:0:
192,320,84412,2,0,L|144:320,3,35,2|0|0|0,0:0|0:0|0:0|0:0,0:0:0:0:
128,320,84642,5,2,0:0:0:0:
128,304,84700,1,0,0:0:0:0:
128,288,84758,1,0,0:0:0:0:
128,272,84815,1,0,0:0:0:0:
128,256,84873,1,2,0:0:0:0:
128,240,84931,1,0,0:0:0:0:
128,224,84988,1,0,0:0:0:0:
128,207,85046,1,0,0:0:0:0:
128,192,85104,2,0,L|128:144,3,35,2|0|0|0,0:0|0:0|0:0|0:0,0:0:0:0:
128,128,85335,2,0,L|128:80,3,35,2|0|0|0,0:0|0:0|0:0|0:0,0:0:0:0:
128,64,85566,5,2,0:0:0:0:
144,64,85624,1,0,0:0:0:0:
160,64,85682,1,0,0:0:0:0:
176,64,85739,1,0,0:0:0:0:
192,64,85797,1,2,0:0:0:0:
208,64,85855,1,0,0:0:0:0:
224,64,85912,1,0,0:0:0:0:
240,64,85970,1,0,0:0:0:0:
256,64,86028,2,0,L|304:64,3,35,2|0|0|0,0:0|0:0|0:0|0:0,0:0:0:0:
320,64,86259,2,0,L|368:64,3,35,2|0|0|0,0:0|0:0|0:0|0:0,0:0:0:0:
384,64,86489,5,2,0:0:0:0:
384,80,86547,1,0,0:0:0:0:
384,96,86605,1,0,0:0:0:0:
384,112,86662,1,0,0:0:0:0:
384,128,86720,1,2,0:0:0:0:
384,144,86778,1,0,0:0:0:0:
384,160,86835,1,0,0:0:0:0:
384,176,86893,1,0,0:0:0:0:
384,192,86951,2,0,L|384:240,3,35,2|0|0|0,0:0|0:0|0:0|0:0,0:0:0:0:
384,256,87182,2,0,L|384:304,3,35,2|0|0|0,0:0|0:0|0:0|0:0,0:0:0:0:
384,320,87412,5,2,0:0:0:0:
368,320,87470,1,0,0:0:0:0:
352,320,87528,1,0,0:0:0:0:
336,320,87585,1,0,0:0:0:0:
320,320,87643,1,2,0:0:0:0:
304,320,87701,1,0,0:0:0:0:
288,320,87758,1,0,0:0:0:0:
272,320,87816,1,0,0:0:0:0:
256,320,87874,2,0,L|208:320,3,35,2|0|0|0,0:0|0:0|0:0|0:0,0:0:0:0:
192,320,88105,2,0,L|144:320,3,35,2|0|0|0,0:0|0:0|0:0|0:0,0:0:0:0:
128,320,88335,5,2,0:0:0:0:
128,304,88393,1,0,0:0:0:0:
128,288,88451,1,0,0:0:0:0:
128,272,88508,1,0,0:0:0:0:
128,256,88566,1,2,0:0:0:0:
128,240,88624,1,0,0:0:0:0:
128,224,88681,1,0,0:0:0:0:
128,207,88739,1,0,0:0:0:0:
128,192,88797,2,0,L|128:144,3,35,2|0|0|0,0:0|0:0|0:0|0:0,0:0:0:0:
128,128,89028,2,0,L|128:80,3,35,2|0|0|0,0:0|0:0|0:0|0:0,0:0:0:0:
128,64,89258,5,2,0:0:0:0:
144,64,89316,1,0,0:0:0:0:
160,64,89374,1,0,0:0:0:0:
176,64,89431,1,0,0:0:0:0:
192,64,89489,1,2,0:0:0:0:
208,64,89547,1,0,0:0:0:0:
224,64,89604,1,0,0:0:0:0:
240,64,89662,1,0,0:0:0:0:
256,64,89720,2,0,L|304:64,3,35,2|0|0|0,0:0|0:0|0:0|0:0,0:0:0:0:
320,64,89951,2,0,L|368:64,3,35,2|0|0|0,0:0|0:0|0:0|0:0,0:0:0:0:
384,64,90181,5,2,0:0:0:0:
384,80,90239,1,0,0:0:0:0:
384,96,90297,1,0,0:0:0:0:
384,112,90354,1,0,0:0:0:0:
384,128,90412,1,2,0:0:0:0:
384,144,90470,1,0,0:0:0:0:
384,160,90527,1,0,0:0:0:0:
384,176,90585,1,0,0:0:0:0:
384,192,90643,2,0,L|384:240,3,35,2|0|0|0,0:0|0:0|0:0|0:0,0:0:0:0:
384,256,90874,2,0,L|384:304,3,35,2|0|0|0,0:0|0:0|0:0|0:0,0:0:0:0:
384,320,91104,5,2,0:0:0:0:
368,320,91162,1,0,0:0:0:0:
352,320,91220,1,0,0:0:0:0:
336,320,91277,1,0,0:0:0:0:
320,320,91335,1,2,0:0:0:0:
304,320,91393,1,0,0:0:0:0:
288,320,91450,1,0,0:0:0:0:
272,320,91508,1,0,0:0:0:0:
256,320,91566,2,0,L|208:320,3,35,2|0|0|0,0:0|0:0|0:0|0:0,0:0:0:0:
192,320,91797,2,0,L|144:320,3,35,2|0|0|0,0:0|0:0|0:0|0:0,0:0:0:0:
128,320,92027,5,2,0:0:0:0:
128,304,92085,1,0,0:0:0:0:
128,288,92143,1,0,0:0:0:0:
128,272,92200,1,0,0:0:0:0:
128,256,92258,1,2,0:0:0:0:
128,240,92316,1,0,0:0:0:0:
128,224,92373,1,0,0:0:0:0:
128,207,92431,1,0,0:0:0:0:
128,192,92489,2,0,L|128:144,3,35,2|0|0|0,0:0|0:0|0:0|0:0,0:0:0:0:
128,128,92720,2,0,L|128:80,3,35,2|0|0|0,0:0|0:0|0:0|0:0,0:0:0:0:
128,64,92951,5,2,0:0:0:0:
144,64,93009,1,0,0:0:0:0:
160,64,93067,1,0,0:0:0:0:
176,64,93124,1,0,0:0:0:0:
192,64,93182,1,2,0:0:0:0:
208,64,93240,1,0,0:0:0:0:
224,64,93297,1,0,0:0:0:0:
240,64,93355,1,0,0:0:0:0:
256,64,93413,2,0,L|304:64,3,35,2|0|0|0,0:0|0:0|0:0|0:0,0:0:0:0:
320,64,93644,2,0,L|368:64,3,35,2|0|0|0,0:0|0:0|0:0|0:0,0:0:0:0:
384,64,93874,5,2,0:0:0:0:
384,80,93932,1,0,0:0:0:0:
384,96,93990,1,0,0:0:0:0:
384,112,94047,1,0,0:0:0:0:
384,128,94105,1,2,0:0:0:0:
384,144,94163,1,0,0:0:0:0:
384,160,94220,1,0,0:0:0:0:
384,176,94278,1,0,0:0:0:0:
384,192,94336,2,0,L|384:240,3,35,2|0|0|0,0:0|0:0|0:0|0:0,0:0:0:0:
384,256,94567,2,0,L|384:304,3,35,2|0|0|0,0:0|0:0|0:0|0:0,0:0:0:0:
384,320,94797,5,2,0:0:0:0:
368,320,94855,1,0,0:0:0:0:
352,320,94913,1,0,0:0:0:0:
336,320,94970,1,0,0:0:0:0:
320,320,95028,1,2,0:0:0:0:
304,320,95086,1,0,0:0:0:0:
288,320,95143,1,0,0:0:0:0:
272,320,95201,1,0,0:0:0:0:
256,320,95259,2,0,L|208:320,3,35,2|0|0|0,0:0|0:0|0:0|0:0,0:0:0:0:
192,320,95490,2,0,L|144:320,3,35,2|0|0|0,0:0|0:0|0:0|0:0,0:0:0:0:
128,320,95720,5,2,0:0:0:0:
128,304,95778,1,0,0:0:0:0:
128,288,95836,1,0,0:0:0:0:
128,272,95893,1,0,0:0:0:0:
128,256,95951,1,2,0:0:0:0:
128,240,96009,1,0,0:0:0:0:
128,224,96066,1,0,0:0:0:0:
128,207,96124,1,0,0:0:0:0:
128,192,96182,2,0,L|128:144,3,35,2|0|0|0,0:0|0:0|0:0|0:0,0:0:0:0:
128,128,96413,2,0,L|128:80,3,35,2|0|0|0,0:0|0:0|0:0|0:0,0:0:0:0:
128,64,96642,5,2,0:0:0:0:
144,64,96700,1,0,0:0:0:0:
160,64,96758,1,0,0:0:0:0:
176,64,96815,1,0,0:0:0:0:
192,64,96873,1,2,0:0:0:0:
208,64,96931,1,0,0:0:0:0:
224,64,96988,1,0,0:0:0:0:
240,64,97046,1,0,0:0:0:0:
256,64,97104,2,0,L|304:64,3,35,2|0|0|0,0:0|0:0|0:0|0:0,0:0:0:0:
320,64,97335,2,0,L|368:64,3,35,2|0|0|0,0:0|0:0|0:0|0:0,0:0:0:0:
384,64,97565,5,2,0:0:0:0:
384,80,97623,1,0,0:0:0:0:
384,96,97681,1,0,0:0:0:0:
384,112,97738,1,0,0:0:0:0:
384,128,97796,1,2,0:0:0:0:
384,144,97854,1,0,0:0:0:0:
384,160,97911,1,0,0:0:0:0:
384,176,97969,1,0,0:0:0:0:
384,192,98027,2,0,L|384:240,3,35,2|0|0|0,0:0|0:0|0:0|0:0,0:0:0:0:
384,256,98258,2,0,L|384:304,3,35,2|0|0|0,0:0|0:0|0:0|0:0,0:0:0:0:
384,320,98488,5,2,0:0:0:0:
368,320,98546,1,0,0:0:0:0:
352,320,98604,1,0,0:0:0:0:
336,320,98661,1,0,0:0:0:0:
320,320,98719,1,2,0:0:0:0:
304,320,98777,1,0,0:0:0:0:
288,320,98834,1,0,0:0:0:0:
272,320,98892,1,0,0:0:0:0:
256,320,98950,2,0,L|208:320,3,35,2|0|0|0,0:0|0:0|0:0|0:0,0:0:0:0:
192,320,99181,2,0,L|144:320,3,35,2|0|0|0,0:0|0:0|0:0|0:0,0:0:0:0:
128,320,99411,5,2,0:0:0:0:
128,304,99469,1,0,0:0:0:0:
128,288,99527,1,0,0:0:0:0:
128,272,99584,1,0,0:0:0:0:
128,256,99642,1,2,0:0:0:0:
128,240,99700,1,0,0:0:0:0:
128,224,99757,1,0,0:0:0:0:
128,207,99815,1,0,0:0:0:0:
128,192,99873,2,0,L|128:144,3,35,2|0|0|0,0:0|0:0|0:0|0:0,0:0:0:0:
128,128,100104,2,0,L|128:80,3,35,2|0|0|0,0:0|0:0|0:0|0:0,0:0:0:0:
128,64,100335,5,2,0:0:0:0:
144,64,100393,1,0,0:0:0:0:
160,64,100451,1,0,0:0:0:0:
176,64,100508,1,0,0:0:0:0:
192,64,100566,1,2,0:0:0:0:
208,64,100624,1,0,0:0:0:0:
224,64,100681,1,0,0:0:0:0:
240,64,100739,1,0,0:0:0:0:
256,64,100797,2,0,L|304:64,3,35,2|0|0|0,0:0|0:0|0:0|0:0,0:0:0:0:
320,64,101028,2,0,L|368:64,3,35,2|0|0|0,0:0|0:0|0:0|0:0,0:0:0:0:
384,64,101258,5,2,0:0:0:0:
384,80,101316,1,0,0:0:0:0:
384,96,101374,1,0,0:0:0:0:
384,112,101431,1,0,0:0:0:0:
384,128,101489,1,2,0:0:0:0:
384,144,101547,1,0,0:0:0:0:
384,160,101604,1,0,0:0:0:0:
384,176,101662,1,0,0:0:0:0:
384,192,101720,2,0,L|384:240,3,35,2|0|0|0,0:0|0:0|0:0|0:0,0:0:0:0:
384,256,101951,2,0,L|384:304,3,35,2|0|0|0,0:0|0:0|0:0|0:0,0:0:0:0:
384,320,102181,5,2,0:0:0:0:
368,320,102239,1,0,0:0:0:0:
352,320,102297,1,0,0:0:0:0:
336,320,102354,1,0,0:0:0:0:
320,320,102412,1,2,0:0:0:0:
304,320,102470,1,0,0:0:0:0:
288,320,102527,1,0,0:0:0:0:
272,320,102585,1,0,0:0:0:0:
256,320,102643,2,0,L|208:320,3,35,2|0|0|0,0:0|0:0|0:0|0:0,0:0:0:0:
192,320,102874,2,0,L|144:320,3,35,2|0|0|0,0:0|0:0|0:0|0:0,0:0:0:0:
128,320,103104,5,2,0:0:0:0:
128,304,103162,1,0,0:0:0:0:
128,288,103220,1,0,0:0:0:0:
128,272,103277,1,0,0:0:0:0:
128,256,103335,1,2,0:0:0:0:
128,240,103393,1,0,0:0:0:0:
128,224,103450,1,0,0:0:0:0:
128,207,103508,1,0,0:0:0:0:
128,192,103566,2,0,L|128:144,3,35,2|0|0|0,0:0|0:0|0:0|0:0,0:0:0:0:
128,128,103797,2,0,L|128:80,3,35,2|0|0|0,0:0|0:0|0:0|0:0,0:0:0:0:
128,64,104027,5,2,0:0:0:0:
144,64,104085,1,0,0:0:0:0:
160,64,104143,1,0,0:0:0:0:
176,64,104200,1,0,0:0:0:0:
192,64,104258,1,2,0:0:0:0:
208,64,104316,1,0,0:0:0:0:
224,64,104373,1,0,0:0:0:0:
240,64,104431,1,0,0:0:0:0:
256,64,104489,2,0,L|304:64,3,35,2|0|0|0,0:0|0:0|0:0|0:0,0:0:0:0:
320,64,104720,2,0,L|368:64,3,35,2|0|0|0,0:0|0:0|0:0|0:0,0:0:0:0:
384,64,104950,5,2,0:0:0:0:
384,80,105008,1,0,0:0:0:0:
384,96,105066,1,0,0:0:0:0:
384,112,105123,1,0,0:0:0:0:
384,128,105181,1,2,0:0:0:0:
384,144,105239,1,0,0:0:0:0:
384,160,105296,1,0,0:0:0:0:
384,176,105354,1,0,0:0:0:0:
384,192,105412,2,0,L|384:240,3,35,2|0|0|0,0:0|0:0|0:0|0:0,0:0:0:0:
384,256,105643,2,0,L|384:304,3,35,2|0|0|0,0:0|0:0|0:0|0:0,0:0:0:0:
384,320,105873,5,2,0:0:0:0:
368,320,105931,1,0,0:0:0:0:
352,320,105989,1,0,0:0:0:0:
336,320,106046,1,0,0:0:0:0:
320,320,106104,1,2,0:0:0:0:
304,320,106162,1,0,0:0:0:0:
288,320,106219,1,0,0:0:0:0:
272,320,106277,1,0,0:0:0:0:
256,320,106335,2,0,L|208:320,3,35,2|0|0|0,0:0|0:0|0:0|0:0,0:0:0:0:
192,320,106566,2,0,L|144:320,3,35,2|0|0|0,0:0|0:0|0:0|0:0,0:0:0:0:
128,320,106796,5,2,0:0:0:0:
128,304,106854,1,0,0:0:0:0:
128,288,106912,1,0,0:0:0:0:
128,272,106969,1,0,0:0:0:0:
128,256,107027,1,2,0:0:0:0:
128,240,107085,1,0,0:0:0:0:
128,224,107142,1,0,0:0:0:0:
128,207,107200,1,0,0:0:0:0:
128,192,107258,2,0,L|128:144,3,35,2|0|0|0,0:0|0:0|0:0|0:0,0:0:0:0:
128,128,107489,2,0,L|128:80,3,35,2|0|0|0,0:0|0:0|0:0|0:0,0:0:0:0:
128,64,107720,5,2,0:0:0:0:
144,64,107778,1,0,0:0:0:0:
160,64,107836,1,0,0:0:0:0:
176,64,107893,1,0,0:0:0:0:
192,64,107951,1,2,0:0:0:0:
208,64,108009,1,0,0:0:0:0:
224,64,108066,1,0,0:0:0:0:
240,64,108124,1,0,0:0:0:0:
256,64,108182,2,0,L|304:64,3,35,2|0|0|0,0:0|0:0|0:0|0:0,0:0:0:0:
320,64,108413,2,0,L|368:64,3,35,2|0|0|0,0:0|0:0|0:0|0:0,0:0:0:0:
384,64,108643,5,2,0:0:0:0:
384,80,108701,1,0,0:0:0:0:
384,96,108759,1,0,0:0:0:0:
384,112,108816,1,0,0:0:0:0:
384,128,108874,1,2,0:0:0:0:
384,144,108932,1,0,0:0:0:0:
384,160,108989,1,0,0:0:0:0:
384,176,109047,1,0,0:0:0:0:
384,192,109105,2,0,L|384:240,3,35,2|0|0|0,0:0|0:0|0:0|0:0,0:0:0:0:
384,256,109336,2,0,L|384:304,3,35,2|0|0|0,0:0|0:0|0:0|0:0,0:0:0:0:
384,320,109566,5,2,0:0:0:0:
368,320,109624,1,0,0:0:0:0:
352,320,109682,1,0,0:0:0:0:
336,320,109739,1,0,0:0:0:0:
320,320,109797,1,2,0:0:0:0:
304,320,109855,1,0,0:0:0:0:
288,320,109912,1,0,0:0:0:0:
272,320,109970,1,0,0:0:0:0:
256,320,110028,2,0,L|208:320,3,35,2|0|0|0,0:0|0:0|0:0|0:0,0:0:0:0:
192,320,110259,2,0,L|144:320,3,35,2|0|0|0,0:0|0:0|0:0|0:0,0:0:0:0:
128,320,110489,5,2,0:0:0:0:
128,304,110547,1,0,0:0:0:0:
128,288,110605,1,0,0:0:0:0:
128,272,110662,1,0,0:0:0:0:
128,256,110720,1,2,0:0:0:0:
128,240,110778,1,0,0:0:0:0:
128,224,110835,1,0,0:0:0:0:
128,207,110893,1,0,0:0:0:0:
128,192,110951,2,0,L|128:144,3,35,2|0|0|0,0:0|0:0|0:0|0:0,0:0:0:0:
128,128,111182,2,0,L|128:80,3,35,2|0|0|0,0:0|0:0|0:0|0:0,0:0:0:0:
