osu file format v14

[General]
AudioFilename: [SDVX II --] Bangin' Burst [NOFX].mp3
AudioLeadIn: 0
PreviewTime: -1
Countdown: 1
SampleSet: Soft
StackLeniency: 0.7
Mode: 0
LetterboxInBreaks: 1
WidescreenStoryboard: 1

[Editor]
DistanceSpacing: 0.8
BeatDivisor: 4
GridSize: 16
TimelineZoom: 2.2

[Metadata]
Title:Burst Stream Practice Maps 2
TitleUnicode:Burst Stream Practice Maps 2
Artist:Various Artists
ArtistUnicode:Various Artists
Creator:nooblet
Version:234 BPM 8 notes
Source:
Tags:
BeatmapID:1022681
BeatmapSetID:478861

[Difficulty]
HPDrainRate:0
CircleSize:4
OverallDifficulty:10
ApproachRate:10
SliderMultiplier:1.4
SliderTickRate:1

[Events]
//Background and Video events
//Break Periods
//Storyboard Layer 0 (Background)
//Storyboard Layer 1 (Fail)
//Storyboard Layer 2 (Pass)
//Storyboard Layer 3 (Foreground)
//Storyboard Sound Samples

[TimingPoints]
803,256.410256410256,4,2,0,100,1,0

[HitObjects]
128,64,9008,5,2,0:0:0:0:
144,64,9072,1,0,0:0:0:0:
160,64,9136,1,0,0:0:0:0:
176,64,9200,1,0,0:0:0:0:
192,64,9264,1,2,0:0:0:0:
208,64,9328,1,0,0:0:0:0:
224,64,9392,1,0,0:0:0:0:
240,64,9456,1,0,0:0:0:0:
256,64,9520,2,0,L|320:64,3,35,2|0|0|0,0:0|0:0|0:0|0:0,0:0:0:0:
320,64,9776,2,0,L|384:64,3,35,2|0|0|0,0:0|0:0|0:0|0:0,0:0:0:0:
384,64,10033,5,2,0:0:0:0:
384,80,10097,1,0,0:0:0:0:
384,96,10161,1,0,0:0:0:0:
384,112,10225,1,0,0:0:0:0:
384,128,10289,1,2,0:0:0:0:
384,144,10353,1,0,0:0:0:0:
384,160,10417,1,0,0:0:0:0:
384,176,10481,1,0,0:0:0:0:
384,192,10545,2,0,L|384:256,3,35,2|0|0|0,0:0|0:0|0:0|0:0,0:0:0:0:
384,256,10802,2,0,L|384:320,3,35,2|0|0|0,0:0|0:0|0:0|0:0,0:0:0:0:
384,320,11059,5,2,0:0:0:0:
368,320,11123,1,0,0:0:0:0:
352,320,11187,1,0,0:0:0:0:
336,320,11251,1,0,0:0:0:0:
320,320,11315,1,2,0:0:0:0:
304,320,11379,1,0,0:0:0:0:
288,320,11443,1,0,0:0:0:0:
272,320,11507,1,0,0:0:0:0:
256,320,11571,2,0,L|192:320,3,35,2|0|0|0,0:0|0:0|0:0|0:0,0:0:0:0:
192,320,11827,2,0,L|128:320,3,35,2|0|0|0,0:0|0:0|0:0|0:0,0:0:0:0:
128,320,12084,5,2,0:0:0:0:
128,304,12148,1,0,0:0:0:0:
128,288,12212,1,0,0:0:0:0:
128,272,12276,1,0,0:0:0:0:
128,256,12340,1,2,0:0:0:0:
128,240,12404,1,0,0:0:0:0:
128,224,12468,1,0,0:0:0:0:
128,207,12532,1,0,0:0:0:0:
128,192,12596,2,0,L|128:128,3,35,2|0|0|0,0:0|0:0|0:0|0:0,0:0:0:0:
128,128,12853,2,0,L|128:64,3,35,2|0|0|0,0:0|0:0|0:0|0:0,0:0:0:0:
128,64,13110,5,2,0:0:0:0:
144,64,13174,1,0,0:0:0:0:
160,64,13238,1,0,0:0:0:0:
176,64,13302,1,0,0:0:0:0:
192,64,13366,1,2,0:0:0:0:
208,64,13430,1,0,0:0:0:0:
224,64,13494,1,0,0:0:0:0:
240,64,13558,1,0,0:0:0:0:
256,64,13622,2,0,L|320:64,3,35,2|0|0|0,0:0|0:0|0:0|0:0,0:0:0:0:
320,64,13878,2,0,L|384:64,3,35,2|0|0|0,0:0|0:0|0:0|0:0,0:0:0:0:
384,64,14135,5,2,0:0:0:0:
384,80,14199,1,0,0:0:0:0:
384,96,14263,1,0,0:0:0:0:
384,112,14327,1,0,0:0:0:0:
384,128,14391,1,2,0:0:0:0:
384,144,14455,1,0,0:0:0:0:
384,160,14519,1,0,0:0:0:0:
384,176,14583,1,0,0:0:0:0:
384,192,14647,2,0,L|384:256,3,35,2|0|0|0,0:0|0:0|0:0|0:0,0:0:0:0:
384,256,14904,2,0,L|384:320,3,35,2|0|0|0,0:0|0:0|0:0|0:0,0:0:0:0:
384,320,15161,5,2,0:0:0:0:
368,320,15225,1,0,0:0:0:0:
352,320,15289,1,0,0:0:0:0:
336,320,15353,1,0,0:0:0:0:
320,320,15417,1,2,0:0:0:0:
304,320,15481,1,0,0:0:0:0:
288,320,15545,1,0,0:0:0:0:
272,320,15609,1,0,0:0:0:0:
256,320,15673,2,0,L|192:320,3,35,2|0|0|0,0:0|0:0|0:0|0:0,0:0:0:0:
192,320,15929,2,0,L|128:320,3,35,2|0|0|0,0:0|0:0|0:0|0:0,0:0:0:0:
128,320,16186,5,2,0:0:0:0:
128,304,16250,1,0,0:0:0:0:
128,288,16314,1,0,0:0:0:0:
128,272,16378,1,0,0:0:0:0:
128,256,16442,1,2,0:0:0:0:
128,240,16506,1,0,0:0:0:0:
128,224,16570,1,0,0:0:0:0:
128,207,16634,1,0,0:0:0:0:
128,192,16698,2,0,L|128:128,3,35,2|0|0|0,0:0|0:0|0:0|0:0,0:0:0:0:
128,128,16955,2,0,L|128:64,3,35,2|0|0|0,0:0|0:0|0:0|0:0,0:0:0:0:
128,64,17213,5,2,0:0:0:0:
144,64,17277,1,0,0:0:0:0:
160,64,17341,1,0,0:0:0:0:
176,64,17405,1,0,0:0:0:0:
192,64,17469,1,2,0:0:0:0:
208,64,17533,1,0,0:0:0:0:
224,64,17597,1,0,0:0:0:0:
240,64,17661,1,0,0:0:0:0:
256,64,17725,2,0,L|320:64,3,35,2|0|0|0,0:0|0:0|0:0|0:0,0:0:0:0:
320,64,17981,2,0,L|384:64,3,35,2|0|0|0,0:0|0:0|0:0|0:0,0:0:0:0:
384,64,18238,5,2,0:0:0:0:
384,80,18302,1,0,0:0:0:0:
384,96,18366,1,0,0:0:0:0:
384,112,18430,1,0,0:0:0:0:
384,128,18494,1,2,0:0:0:0:
384,144,18558,1,0,0:0:0:0:
384,160,18622,1,0,0:0:0:0:
384,176,18686,1,0,0:0:0:0:
384,192,18750,2,0,L|384:256,3,35,2|0|0|0,0:0|0:0|0:0|0:0,0:0:0:0:
384,256,19007,2,0,L|384:320,3,35,2|0|0|0,0:0|0:0|0:0|0:0,0:0:0:0:
384,320,19264,5,2,0:0:0:0:
368,320,19328,1,0,0:0:0:0:
352,320,19392,1,0,0:0:0:0:
336,320,19456,1,0,0:0:0:0:
320,320,19520,1,2,0:0:0:0:
304,320,19584,1,0,0:0:0:0:
288,320,19648,1,0,0:0:0:0:
272,320,19712,1,0,0:0:0:0:
256,320,19776,2,0,L|192:320,3,35,2|0|0|0,0:0|0:0|0:0|0:0,0:0:0:0:
192,320,20032,2,0,L|128:320,3,35,2|0|0|0,0:0|0:0|0:0|0:0,0:0:0:0:
128,320,20289,5,2,0:0:0:0:
128,304,20353,1,0,0:0:0:0:
128,288,20417,1,0,0:0:0:0:
128,272,20481,1,0,0:0:0:0:
128,256,20545,1,2,0:0:0:0:
128,240,20609,1,0,0:0:0:0:
128,224,20673,1,0,0:0:0:0:
128,207,20737,1,0,0:0:0:0:
128,192,20801,2,0,L|128:128,3,35,2|0|0|0,0:0|0:0|0:0|0:0,0:0:0:0:
128,128,21058,2,0,L|128:64,3,35,2|0|0|0,0:0|0:0|0:0|0:0,0:0:0:0:
128,64,21315,5,2,0:0:0:0:
144,64,21379,1,0,0:0:0:0:
160,64,21443,1,0,0:0:0:0:
176,64,21507,1,0,0:0:0:0:
192,64,21571,1,2,0:0:0:0:
208,64,21635,1,0,0:0:0:0:
224,64,21699,1,0,0:0:0:0:
240,64,21763,1,0,0:0:0:0:
256,64,21827,2,0,L|320:64,3,35,2|0|0|0,0:0|0:0|0:0|0:0,0:0:0:0:
320,64,22083,2,0,L|384:64,3,35,2|0|0|0,0:0|0:0|0:0|0:0,0:0:0:0:
384,64,22340,5,2,0:0:0:0:
384,80,22404,1,0,0:0:0:0:
384,96,22468,1,0,0:0:0:0:
384,112,22532,1,0,0:0:0:0:
384,128,22596,1,2,0:0:0:0:
384,144,22660,1,0,0:0:0:0:
384,160,22724,1,0,0:0:0:0:
384,176,22788,1,0,0:0:0:0:
384,192,22852,2,0,L|384:256,3,35,2|0|0|0,0:0|0:0|0:0|0:0,0:0:0:0:
384,256,23109,2,0,L|384:320,3,35,2|0|0|0,0:0|0:0|0:0|0:0,0:0:0:0:
384,320,23366,5,2,0:0:0:0:
368,320,23430,1,0,0:0:0:0:
352,320,23494,1,0,0:0:0:0:
336,320,23558,1,0,0:0:0:0:
320,320,23622,1,2,0:0:0:0:
304,320,23686,1,0,0:0:0:0:
288,320,23750,1,0,0:0:0:0:
272,320,23814,1,0,0:0:0:0:
256,320,23878,2,0,L|192:320,3,35,2|0|0|0,0:0|0:0|0:0|0:0,0:0:0:0:
192,320,24134,2,0,L|128:320,3,35,2|0|0|0,0:0|0:0|0:0|0:0,0:0:0:0:
128,320,24391,5,2,0:0:0:0:
128,304,24455,1,0,0:0:0:0:
128,288,24519,1,0,0:0:0:0:
128,272,24583,1,0,0:0:0:0:
128,256,24647,1,2,0:0:0:0:
128,240,24711,1,0,0:0:0:0:
128,224,24775,1,0,0:0:0:0:
128,207,24839,1,0,0:0:0:0:
128,192,24903,2,0,L|128:128,3,35,2|0|0|0,0:0|0:0|0:0|0:0,0:0:0:0:
128,128,25160,2,0,L|128:64,3,35,2|0|0|0,0:0|0:0|0:0|0:0,0:0:0:0:
128,64,25418,5,2,0:0:0:0:
144,64,25482,1,0,0:0:0:0:
160,64,25546,1,0,0:0:0:0:
176,64,25610,1,0,0:0:0:0:
192,64,25674,1,2,0:0:0:0:
208,64,25738,1,0,0:0:0:0:
224,64,25802,1,0,0:0:0:0:
240,64,25866,1,0,0:0:0:0:
256,64,25930,2,0,L|320:64,3,35,2|0|0|0,0:0|0:0|0:0|0:0,0:0:0:0:
320,64,26186,2,0,L|384:64,3,35,2|0|0|0,0:0|0:0|0:0|0:0,0:0:0:0:
384,64,26443,5,2,0:0:0:0:
384,80,26507,1,0,0:0:0:0:
384,96,26571,1,0,0:0:0:0:
384,112,26635,1,0,0:0:0:0:
384,128,26699,1,2,0:0:0:0:
384,144,26763,1,0,0:0:0:0:
384,160,26827,1,0,0:0:0:0:
384,176,26891,1,0,0:0:0:0:
384,192,26955,2,0,L|384:256,3,35,2|0|0|0,0:0|0:0|0:0|0:0,0:0:0:0:
384,256,27212,2,0,L|384:320,3,35,2|0|0|0,0:0|0:0|0:0|0:0,0:0:0:0:
384,320,27469,5,2,0:0:0:0:
368,320,27533,1,0,0:0:0:0:
352,320,27597,1,0,0:0:0:0:
336,320,27661,1,0,0:0:0:0:
320,320,27725,1,2,0:0:0:0:
304,320,27789,1,0,0:0:0:0:
288,320,27853,1,0,0:0:0:0:
272,320,27917,1,0,0:0:0:0:
256,320,27981,2,0,L|192:320,3,35,2|0|0|0,0:0|0:0|0:0|0:0,0:0:0:0:
192,320,28237,2,0,L|128:320,3,35,2|0|0|0,0:0|0:0|0:0|0:0,0:0:0:0:
128,320,28494,5,2,0:0:0:0:
128,304,28558,1,0,0:0:0:0:
128,288,28622,1,0,0:0:0:0:
128,272,28686,1,0,0:0:0:0:
128,256,28750,1,2,0:0:0:0:
128,240,28814,1,0,0:0:0:0:
128,224,28878,1,0,0:0:0:0:
128,207,28942,1,0,0:0:0:0:
128,192,29006,2,0,L|128:128,3,35,2|0|0|0,0:0|0:0|0:0|0:0,0:0:0:0:
128,128,29263,2,0,L|128:64,3,35,2|0|0|0,0:0|0:0|0:0|0:0,0:0:0:0:
128,64,29520,5,2,0:0:0:0:
144,64,29584,1,0,0:0:0:0:
160,64,29648,1,0,0:0:0:0:
176,64,29712,1,0,0:0:0:0:
192,64,29776,1,2,0:0:0:0:
208,64,29840,1,0,0:0:0:0:
224,64,29904,1,0,0:0:0:0:
240,64,29968,1,0,0:0:0:0:
256,64,30032,2,0,L|320:64,3,35,2|0|0|0,0:0|0:0|0:0|0:0,0:0:0:0:
320,64,30288,2,0,L|384:64,3,35,2|0|0|0,0:0|0:0|0:0|0:0,0:0:0:0:
384,64,30545,5,2,0:0:0:0:
384,80,30609,1,0,0:0:0:0:
384,96,30673,1,0,0:0:0:0:
384,112,30737,1,0,0:0:0:0:
384,128,30801,1,2,0:0:0:0:
384,144,30865,1,0,0:0:0:0:
384,160,30929,1,0,0:0:0:0:
384,176,30993,1,0,0:0:0:0:
384,192,31057,2,0,L|384:256,3,35,2|0|0|0,0:0|0:0|0:0|0:0,0:0:0:0:
384,256,31314,2,0,L|384:320,3,35,2|0|0|0,0:0|0:0|0:0|0:0,0:0:0:0:
384,320,31571,5,2,0:0:0:0:
368,320,31635,1,0,0:0:0:0:
352,320,31699,1,0,0:0:0:0:
336,320,31763,1,0,0:0:0:0:
320,320,31827,1,2,0:0:0:0:
304,320,31891,1,0,0:0:0:0:
288,320,31955,1,0,0:0:0:0:
272,320,32019,1,0,0:0:0:0:
256,320,32083,2,0,L|192:320,3,35,2|0|0|0,0:0|0:0|0:0|0:0,0:0:0:0:
192,320,32339,2,0,L|128:320,3,35,2|0|0|0,0:0|0:0|0:0|0:0,0:0:0:0:
128,320,32596,5,2,0:0:0:0:
128,304,32660,1,0,0:0:0:0:
128,288,32724,1,0,0:0:0:0:
128,272,32788,1,0,0:0:0:0:
128,256,32852,1,2,0:0:0:0:
128,240,32916,1,0,0:0:0:0:
128,224,32980,1,0,0:0:0:0:
128,207,33044,1,0,0:0:0:0:
128,192,33108,2,0,L|128:128,3,35,2|0|0|0,0:0|0:0|0:0|0:0,0:0:0:0:
128,128,33365,2,0,L|128:64,3,35,2|0|0|0,0:0|0:0|0:0|0:0,0:0:0:0:
128,64,33623,5,2,0:0:0:0:
144,64,33687,1,0,0:0:0:0:
160,64,33751,1,0,0:0:0:0:
176,64,33815,1,0,0:0:0:0:
192,64,33879,1,2,0:0:0:0:
208,64,33943,1,0,0:0:0:0:
224,64,34007,1,0,0:0:0:0:
240,64,34071,1,0,0:0:0:0:
256,64,34135,2,0,L|320:64,3,35,2|0|0|0,0:0|0:0|0:0|0:0,0:0:0:0:
320,64,34391,2,0,L|384:64,3,35,2|0|0|0,0:0|0:0|0:0|0:0,0:0:0:0:
384,64,34648,5,2,0:0:0:0:
384,80,34712,1,0,0:0:0:0:
384,96,34776,1,0,0:0:0:0:
384,112,34840,1,0,0:0:0:0:
384,128,34904,1,2,0:0:0:0:
384,144,34968,1,0,0:0:0:0:
384,160,35032,1,0,0:0:0:0:
384,176,35096,1,0,0:0:0:0:
384,192,35160,2,0,L|384:256,3,35,2|0|0|0,0:0|0:0|0:0|0:0,0:0:0:0:
384,256,35417,2,0,L|384:320,3,35,2|0|0|0,0:0|0:0|0:0|0:0,0:0:0:0:
384,320,35674,5,2,0:0:0:0:
368,320,35738,1,0,0:0:0:0:
352,320,35802,1,0,0:0:0:0:
336,320,35866,1,0,0:0:0:0:
320,320,35930,1,2,0:0:0:0:
304,320,35994,1,0,0:0:0:0:
288,320,36058,1,0,0:0:0:0:
272,320,36122,1,0,0:0:0:0:
256,320,36186,2,0,L|192:320,3,35,2|0|0|0,0:0|0:0|0:0|0:0,0:0:0:0:
192,320,36442,2,0,L|128:320,3,35,2|0|0|0,0:0|0:0|0:0|0:0,0:0:0:0:
128,320,36699,5,2,0:0:0:0:
128,304,36763,1,0,0:0:0:0:
128,288,36827,1,0,0:0:0:0:
128,272,36891,1,0,0:0:0:0:
128,256,36955,1,2,0:0:0:0:
128,240,37019,1,0,0:0:0:0:
128,224,37083,1,0,0:0:0:0:
128,207,37147,1,0,0:0:0:0:
128,192,37211,2,0,L|128:128,3,35,2|0|0|0,0:0|0:0|0:0|0:0,0:0:0:0:
128,128,37468,2,0,L|128:64,3,35,2|0|0|0,0:0|0:0|0:0|0:0,0:0:0:0:
128,64,37725,5,2,0:0:0:0:
144,64,37789,1,0,0:0:0:0:
160,64,37853,1,0,0:0:0:0:
176,64,37917,1,0,0:0:0:0:
192,64,37981,1,2,0:0:0:0:
208,64,38045,1,0,0:0:0:0:
224,64,38109,1,0,0:0:0:0:
240,64,38173,1,0,0:0:0:0:
256,64,38237,2,0,L|320:64,3,35,2|0|0|0,0:0|0:0|0:0|0:0,0:0:0:0:
320,64,38493,2,0,L|384:64,3,35,2|0|0|0,0:0|0:0|0:0|0:0,0:0:0:0:
384,64,38750,5,2,0:0:0:0:
384,80,38814,1,0,0:0:0:0:
384,96,38878,1,0,0:0:0:0:
384,112,38942,1,0,0:0:0:0:
384,128,39006,1,2,0:0:0:0:
384,144,39070,1,0,0:0:0:0:
384,160,39134,1,0,0:0:0:0:
384,176,39198,1,0,0:0:0:0:
384,192,39262,2,0,L|384:256,3,35,2|0|0|0,0:0|0:0|0:0|0:0,0:0:0:0:
384,256,39519,2,0,L|384:320,3,35,2|0|0|0,0:0|0:0|0:0|0:0,0:0:0:0:
384,320,39776,5,2,0:0:0:0:
368,320,39840,1,0,0:0:0:0:
352,320,39904,1,0,0:0:0:0:
336,320,39968,1,0,0:0:0:0:
320,320,40032,1,2,0:0:0:0:
304,320,40096,1,0,0:0:0:0:
288,320,40160,1,0,0:0:0:0:
272,320,40224,1,0,0:0:0:0:
256,320,40288,2,0,L|192:320,3,35,2|0|0|0,0:0|0:0|0:0|0:0,0:0:0:0:
192,320,40544,2,0,L|128:320,3,35,2|0|0|0,0:0|0:0|0:0|0:0,0:0:0:0:
128,320,40801,5,2,0:0:0:0:
128,304,40865,1,0,0:0:0:0:
128,288,40929,1,0,0:0:0:0:
128,272,40993,1,0,0:0:0:0:
128,256,41057,1,2,0:0:0:0:
128,240,41121,1,0,0:0:0:0:
128,224,41185,1,0,0:0:0:0:
128,207,41249,1,0,0:0:0:0:
128,192,41313,2,0,L|128:128,3,35,2|0|0|0,0:0|0:0|0:0|0:0,0:0:0:0:
128,128,41570,2,0,L|128:64,3,35,2|0|0|0,0:0|0:0|0:0|0:0,0:0:0:0:
128,64,41828,5,2,0:0:0:0:
144,64,41892,1,0,0:0:0:0:
160,64,41956,1,0,0:0:0:0:
176,64,42020,1,0,0:0:0:0:
192,64,42084,1,2,0:0:0:0:
208,64,42148,1,0,0:0:0:0:
224,64,42212,1,0,0:0:0:0:
240,64,42276,1,0,0:0:0:0:
256,64,42340,2,0,L|320:64,3,35,2|0|0|0,0:0|0:0|0:0|0:0,0:0:0:0:
320,64,42596,2,0,L|384:64,3,35,2|0|0|0,0:0|0:0|0:0|0:0,0:0:0:0:
384,64,42853,5,2,0:0:0:0:
384,80,42917,1,0,0:0:0:0:
384,96,42981,1,0,0:0:0:0:
384,112,43045,1,0,0:0:0:0:
384,128,43109,1,2,0:0:0:0:
384,144,43173,1,0,0:0:0:0:
384,160,43237,1,0,0:0:0:0:
384,176,43301,1,0,0:0:0:0:
384,192,43365,2,0,L|384:256,3,35,2|0|0|0,0:0|0:0|0:0|0:0,0:0:0:0:
384,256,43622,2,0,L|384:320,3,35,2|0|0|0,0:0|0:0|0:0|0:0,0:0:0:0:
384,320,43879,5,2,0:0:0:0:
368,320,43943,1,0,0:0:0:0:
352,320,44007,1,0,0:0:0:0:
336,320,44071,1,0,0:0:0:0:
320,320,44135,1,2,0:0:0:0:
304,320,44199,1,0,0:0:0:0:
288,320,44263,1,0,0:0:0:0:
272,320,44327,1,0,0:0:0:0:
256,320,44391,2,0,L|192:320,3,35,2|0|0|0,0:0|0:0|0:0|0:0,0:0:0:0:
192,320,44647,2,0,L|128:320,3,35,2|0|0|0,0:0|0:0|0:0|0:0,0:0:0:0:
128,320,44904,5,2,0:0:0:0:
128,304,44968,1,0,0:0:0:0:
128,288,45032,1,0,0:0:0:0:
128,272,45096,1,0,0:0:0:0:
128,256,45160,1,2,0:0:0:0:
128,240,45224,1,0,0:0:0:0:
128,224,45288,1,0,0:0:0:0:
128,207,45352,1,0,0:0:0:0:
128,192,45416,2,0,L|128:128,3,35,2|0|0|0,0:0|0:0|0:0|0:0,0:0:0:0:
128,128,45673,2,0,L|128:64,3,35,2|0|0|0,0:0|0:0|0:0|0:0,0:0:0:0:
128,64,45930,5,2,0:0:0:0:
144,64,45994,1,0,0:0:0:0:
160,64,46058,1,0,0:0:0:0:
176,64,46122,1,0,0:0:0:0:
192,64,46186,1,2,0:0:0:0:
208,64,46250,1,0,0:0:0:0:
224,64,46314,1,0,0:0:0:0:
240,64,46378,1,0,0:0:0:0:
256,64,46442,2,0,L|320:64,3,35,2|0|0|0,0:0|0:0|0:0|0:0,0:0:0:0:
320,64,46698,2,0,L|384:64,3,35,2|0|0|0,0:0|0:0|0:0|0:0,0:0:0:0:
384,64,46955,5,2,0:0:0:0:
384,80,47019,1,0,0:0:0:0:
384,96,47083,1,0,0:0:0:0:
384,112,47147,1,0,0:0:0:0:
384,128,47211,1,2,0:0:0:0:
384,144,47275,1,0,0:0:0:0:
384,160,47339,1,0,0:0:0:0:
384,176,47403,1,0,0:0:0:0:
384,192,47467,2,0,L|384:256,3,35,2|0|0|0,0:0|0:0|0:0|0:0,0:0:0:0:
384,256,47724,2,0,L|384:320,3,35,2|0|0|0,0:0|0:0|0:0|0:0,0:0:0:0:
384,320,47981,5,2,0:0:0:0:
368,320,48045,1,0,0:0:0:0:
352,320,48109,1,0,0:0:0:0:
336,320,48173,1,0,0:0:0:0:
320,320,48237,1,2,0:0:0:0:
304,320,48301,1,0,0:0:0:0:
288,320,48365,1,0,0:0:0:0:
272,320,48429,1,0,0:0:0:0:
256,320,48493,2,0,L|192:320,3,35,2|0|0|0,0:0|0:0|0:0|0:0,0:0:0:0:
192,320,48749,2,0,L|128:320,3,35,2|0|0|0,0:0|0:0|0:0|0:0,0:0:0:0:
128,320,49006,5,2,0:0:0:0:
128,304,49070,1,0,0:0:0:0:
128,288,49134,1,0,0:0:0:0:
128,272,49198,1,0,0:0:0:0:
128,256,49262,1,2,0:0:0:0:
128,240,49326,1,0,0:0:0:0:
128,224,49390,1,0,0:0:0:0:
128,207,49454,1,0,0:0:0:0:
128,192,49518,2,0,L|128:128,3,35,2|0|0|0,0:0|0:0|0:0|0:0,0:0:0:0:
128,128,49775,2,0,L|128:64,3,35,2|0|0|0,0:0|0:0|0:0|0:0,0:0:0:0:
128,64,50033,5,2,0:0:0:0:
144,64,50097,1,0,0:0:0:0:
160,64,50161,1,0,0:0:0:0:
176,64,50225,1,0,0:0:0:0:
192,64,50289,1,2,0:0:0:0:
208,64,50353,1,0,0:0:0:0:
224,64,50417,1,0,0:0:0:0:
240,64,50481,1,0,0:0:0:0:
256,64,50545,2,0,L|320:64,3,35,2|0|0|0,0:0|0:0|0:0|0:0,0:0:0:0:
320,64,50801,2,0,L|384:64,3,35,2|0|0|0,0:0|0:0|0:0|0:0,0:0:0:0:
384,64,51058,5,2,0:0:0:0:
384,80,51122,1,0,0:0:0:0:
384,96,51186,1,0,0:0:0:0:
384,112,51250,1,0,0:0:0:0:
384,128,51314,1,2,0:0:0:0:
384,144,51378,1,0,0:0:0:0:
384,160,51442,1,0,0:0:0:0:
384,176,51506,1,0,0:0:0:0:
384,192,51570,2,0,L|384:256,3,35,2|0|0|0,0:0|0:0|0:0|0:0,0:0:0:0:
384,256,51827,2,0,L|384:320,3,35,2|0|0|0,0:0|0:0|0:0|0:0,0:0:0:0:
384,320,52084,5,2,0:0:0:0:
368,320,52148,1,0,0:0:0:0:
352,320,52212,1,0,0:0:0:0:
336,320,52276,1,0,0:0:0:0:
320,320,52340,1,2,0:0:0:0:
304,320,52404,1,0,0:0:0:0:
288,320,52468,1,0,0:0:0:0:
272,320,52532,1,0,0:0:0:0:
256,320,52596,2,0,L|192:320,3,35,2|0|0|0,0:0|0:0|0:0|0:0,0:0:0:0:
192,320,52852,2,0,L|128:320,3,35,2|0|0|0,0:0|0:0|0:0|0:0,0:0:0:0:
128,320,53109,5,2,0:0:0:0:
128,304,53173,1,0,0:0:0:0:
128,288,53237,1,0,0:0:0:0:
128,272,53301,1,0,0:0:0:0:
128,256,53365,1,2,0:0:0:0:
128,240,53429,1,0,0:0:0:0:
128,224,53493,1,0,0:0:0:0:
128,207,53557,1,0,0:0:0:0:
128,192,53621,2,0,L|128:128,3,35,2|0|0|0,0:0|0:0|0:0|0:0,0:0:0:0:
128,128,53878,2,0,L|128:64,3,35,2|0|0|0,0:0|0:0|0:0|0:0,0:0:0:0:
128,64,54135,5,2,0:0:0:0:
144,64,54199,1,0,0:0:0:0:
160,64,54263,1,0,0:0:0:0:
176,64,54327,1,0,0:0:0:0:
192,64,54391,1,2,0:0:0:0:
208,64,54455,1,0,0:0:0:0:
224,64,54519,1,0,0:0:0:0:
240,64,54583,1,0,0:0:0:0:
256,64,54647,2,0,L|320:64,3,35,2|0|0|0,0:0|0:0|0:0|0:0,0:0:0:0:
320,64,54903,2,0,L|384:64,3,35,2|0|0|0,0:0|0:0|0:0|0:0,0:0:0:0:
384,64,55160,5,2,0:0:0:0:
384,80,55224,1,0,0:0:0:0:
384,96,55288,1,0,0:0:0:0:
384,112,55352,1,0,0:0:0:0:
384,128,55416,1,2,0:0:0:0:
384,144,55480,1,0,0:0:0:0:
384,160,55544,1,0,0:0:0:0:
384,176,55608,1,0,0:0:0:0:
384,192,55672,2,0,L|384:256,3,35,2|0|0|0,0:0|0:0|0:0|0:0,0:0:0:0:
384,256,55929,2,0,L|384:320,3,35,2|0|0|0,0:0|0:0|0:0|0:0,0:0:0:0:
384,320,56186,5,2,0:0:0:0:
368,320,56250,1,0,0:0:0:0:
352,320,56314,1,0,0:0:0:0:
336,320,56378,1,0,0:0:0:0:
320,320,56442,1,2,0:0:0:0:
304,320,56506,1,0,0:0:0:0:
288,320,56570,1,0,0:0:0:0:
272,320,56634,1,0,0:0:0:0:
256,320,56698,2,0,L|192:320,3,35,2|0|0|0,0:0|0:0|0:0|0:0,0:0:0:0:
192,320,56954,2,0,L|128:320,3,35,2|0|0|0,0:0|0:0|0:0|0:0,0:0:0:0:
128,320,57211,5,2,0:0:0:0:
128,304,57275,1,0,0:0:0:0:
128,288,57339,1,0,0:0:0:0:
128,272,57403,1,0,0:0:0:0:
128,256,57467,1,2,0:0:0:0:
128,240,57531,1,0,0:0:0:0:
128,224,57595,1,0,0:0:0:0:
128,207,57659,1,0,0:0:0:0:
128,192,57723,2,0,L|128:128,3,35,2|0|0|0,0:0|0:0|0:0|0:0,0:0:0:0:
128,128,57980,2,0,L|128:64,3,35,2|0|0|0,0:0|0:0|0:0|0:0,0:0:0:0:
128,64,58238,5,2,0:0:0:0:
144,64,58302,1,0,0:0:0:0:
160,64,58366,1,0,0:0:0:0:
176,64,58430,1,0,0:0:0:0:
192,64,58494,1,2,0:0:0:0:
208,64,58558,1,0,0:0:0:0:
224,64,58622,1,0,0:0:0:0:
240,64,58686,1,0,0:0:0:0:
256,64,58750,2,0,L|320:64,3,35,2|0|0|0,0:0|0:0|0:0|0:0,0:0:0:0:
320,64,59006,2,0,L|384:64,3,35,2|0|0|0,0:0|0:0|0:0|0:0,0:0:0:0:
384,64,59263,5,2,0:0:0:0:
384,80,59327,1,0,0:0:0:0:
384,96,59391,1,0,0:0:0:0:
384,112,59455,1,0,0:0:0:0:
384,128,59519,1,2,0:0:0:0:
384,144,59583,1,0,0:0:0:0:
384,160,59647,1,0,0:0:0:0:
384,176,59711,1,0,0:0:0:0:
384,192,59775,2,0,L|384:256,3,35,2|0|0|0,0:0|0:0|0:0|0:0,0:0:0:0:
384,256,60032,2,0,L|384:320,3,35,2|0|0|0,0:0|0:0|0:0|0:0,0:0:0:0:
384,320,60289,5,2,0:0:0:0:
368,320,60353,1,0,0:0:0:0:
352,320,60417,1,0,0:0:0:0:
336,320,60481,1,0,0:0:0:0:
320,320,60545,1,2,0:0:0:0:
304,320,60609,1,0,0:0:0:0:
288,320,60673,1,0,0:0:0:0:
272,320,60737,1,0,0:0:0:0:
256,320,60801,2,0,L|192:320,3,35,2|0|0|0,0:0|0:0|0:0|0:0,0:0:0:0:
192,320,61057,2,0,L|128:320,3,35,2|0|0|0,0:0|0:0|0:0|0:0,0:0:0:0:
128,320,61314,5,2,0:0:0:0:
128,304,61378,1,0,0:0:0:0:
128,288,61442,1,0,0:0:0:0:
128,272,61506,1,0,0:0:0:0:
128,256,61570,1,2,0:0:0:0:
128,240,61634,1,0,0:0:0:0:
128,224,61698,1,0,0:0:0:0:
128,207,61762,1,0,0:0:0:0:
128,192,61826,2,0,L|128:128,3,35,2|0|0|0,0:0|0:0|0:0|0:0,0:0:0:0:
128,128,62083,2,0,L|128:64,3,35,2|0|0|0,0:0|0:0|0:0|0:0,0:0:0:0:
128,64,62340,5,2,0:0:0:0:
144,64,62404,1,0,0:0:0:0:
160,64,62468,1,0,0:0:0:0:
176,64,62532,1,0,0:0:0:0:
192,64,62596,1,2,0:0:0:0:
208,64,62660,1,0,0:0:0:0:
224,64,62724,1,0,0:0:0:0:
240,64,62788,1,0,0:0:0:0:
256,64,62852,2,0,L|320:64,3,35,2|0|0|0,0:0|0:0|0:0|0:0,0:0:0:0:
320,64,63108,2,0,L|384:64,3,35,2|0|0|0,0:0|0:0|0:0|0:0,0:0:0:0:
384,64,63365,5,2,0:0:0:0:
384,80,63429,1,0,0:0:0:0:
384,96,63493,1,0,0:0:0:0:
384,112,63557,1,0,0:0:0:0:
384,128,63621,1,2,0:0:0:0:
384,144,63685,1,0,0:0:0:0:
384,160,63749,1,0,0:0:0:0:
384,176,63813,1,0,0:0:0:0:
384,192,63877,2,0,L|384:256,3,35,2|0|0|0,0:0|0:0|0:0|0:0,0:0:0:0:
384,256,64134,2,0,L|384:320,3,35,2|0|0|0,0:0|0:0|0:0|0:0,0:0:0:0:
384,320,64391,5,2,0:0:0:0:
368,320,64455,1,0,0:0:0:0:
352,320,64519,1,0,0:0:0:0:
336,320,64583,1,0,0:0:0:0:
320,320,64647,1,2,0:0:0:0:
304,320,64711,1,0,0:0:0:0:
288,320,64775,1,0,0:0:0:0:
272,320,64839,1,0,0:0:0:0:
256,320,64903,2,0,L|192:320,3,35,2|0|0|0,0:0|0:0|0:0|0:0,0:0:0:0:
192,320,65159,2,0,L|128:320,3,35,2|0|0|0,0:0|0:0|0:0|0:0,0:0:0:0:
128,320,65416,5,2,0:0:0:0:
128,304,65480,1,0,0:0:0:0:
128,288,65544,1,0,0:0:0:0:
128,272,65608,1,0,0:0:0:0:
128,256,65672,1,2,0:0:0:0:
128,240,65736,1,0,0:0:0:0:
128,224,65800,1,0,0:0:0:0:
128,207,65864,1,0,0:0:0:0:
128,192,65928,2,0,L|128:128,3,35,2|0|0|0,0:0|0:0|0:0|0:0,0:0:0:0:
128,128,66185,2,0,L|128:64,3,35,2|0|0|0,0:0|0:0|0:0|0:0,0:0:0:0:
128,64,66443,5,2,0:0:0:0:
144,64,66507,1,0,0:0:0:0:
160,64,66571,1,0,0:0:0:0:
176,64,66635,1,0,0:0:0:0:
192,64,66699,1,2,0:0:0:0:
208,64,66763,1,0,0:0:0:0:
224,64,66827,1,0,0:0:0:0:
240,64,66891,1,0,0:0:0:0:
256,64,66955,2,0,L|320:64,3,35,2|0|0|0,0:0|0:0|0:0|0:0,0:0:0:0:
320,64,67211,2,0,L|384:64,3,35,2|0|0|0,0:0|0:0|0:0|0:0,0:0:0:0:
384,64,67468,5,2,0:0:0:0:
384,80,67532,1,0,0:0:0:0:
384,96,67596,1,0,0:0:0:0:
384,112,67660,1,0,0:0:0:0:
384,128,67724,1,2,0:0:0:0:
384,144,67788,1,0,0:0:0:0:
384,160,67852,1,0,0:0:0:0:
384,176,67916,1,0,0:0:0:0:
384,192,67980,2,0,L|384:256,3,35,2|0|0|0,0:0|0:0|0:0|0:0,0:0:0:0:
384,256,68237,2,0,L|384:320,3,35,2|0|0|0,0:0|0:0|0:0|0:0,0:0:0:0:
384,320,68494,5,2,0:0:0:0:
368,320,68558,1,0,0:0:0:0:
352,320,68622,1,0,0:0:0:0:
336,320,68686,1,0,0:0:0:0:
320,320,68750,1,2,0:0:0:0:
304,320,68814,1,0,0:0:0:0:
288,320,68878,1,0,0:0:0:0:
272,320,68942,1,0,0:0:0:0:
256,320,69006,2,0,L|192:320,3,35,2|0|0|0,0:0|0:0|0:0|0:0,0:0:0:0:
192,320,69262,2,0,L|128:320,3,35,2|0|0|0,0:0|0:0|0:0|0:0,0:0:0:0:
128,320,69519,5,2,0:0:0:0:
128,304,69583,1,0,0:0:0:0:
128,288,69647,1,0,0:0:0:0:
128,272,69711,1,0,0:0:0:0:
128,256,69775,1,2,0:0:0:0:
128,240,69839,1,0,0:0:0:0:
128,224,69903,1,0,0:0:0:0:
128,207,69967,1,0,0:0:0:0:
128,192,70031,2,0,L|128:128,3,35,2|0|0|0,0:0|0:0|0:0|0:0,0:0:0:0:
128,128,70288,2,0,L|128:64,3,35,2|0|0|0,0:0|0:0|0:0|0:0,0:0:0:0:
128,64,70545,5,2,0:0:0:0:
144,64,70609,1,0,0:0:0:0:
160,64,70673,1,0,0:0:0:0:
176,64,70737,1,0,0:0:0:0:
192,64,70801,1,2,0:0:0:0:
208,64,70865,1,0,0:0:0:0:
224,64,70929,1,0,0:0:0:0:
240,64,70993,1,0,0:0:0:0:
256,64,71057,2,0,L|320:64,3,35,2|0|0|0,0:0|0:0|0:0|0:0,0:0:0:0:
320,64,71313,2,0,L|384:64,3,35,2|0|0|0,0:0|0:0|0:0|0:0,0:0:0:0:
384,64,71570,5,2,0:0:0:0:
384,80,71634,1,0,0:0:0:0:
384,96,71698,1,0,0:0:0:0:
384,112,71762,1,0,0:0:0:0:
384,128,71826,1,2,0:0:0:0:
384,144,71890,1,0,0:0:0:0:
384,160,71954,1,0,0:0:0:0:
384,176,72018,1,0,0:0:0:0:
384,192,72082,2,0,L|384:256,3,35,2|0|0|0,0:0|0:0|0:0|0:0,0:0:0:0:
384,256,72339,2,0,L|384:320,3,35,2|0|0|0,0:0|0:0|0:0|0:0,0:0:0:0:
384,320,72596,5,2,0:0:0:0:
368,320,72660,1,0,0:0:0:0:
352,320,72724,1,0,0:0:0:0:
336,320,72788,1,0,0:0:0:0:
320,320,72852,1,2,0:0:0:0:
304,320,72916,1,0,0:0:0:0:
288,320,72980,1,0,0:0:0:0:
272,320,73044,1,0,0:0:0:0:
256,320,73108,2,0,L|192:320,3,35,2|0|0|0,0:0|0:0|0:0|0:0,0:0:0:0:
192,320,73364,2,0,L|128:320,3,35,2|0|0|0,0:0|0:0|0:0|0:0,0:0:0:0:
128,320,73621,5,2,0:0:0:0:
128,304,73685,1,0,0:0:0:0:
128,288,73749,1,0,0:0:0:0:
128,272,73813,1,0,0:0:0:0:
128,256,73877,1,2,0:0:0:0:
128,240,73941,1,0,0:0:0:0:
128,224,74005,1,0,0:0:0:0:
128,207,74069,1,0,0:0:0:0:
128,192,74133,2,0,L|128:128,3,35,2|0|0|0,0:0|0:0|0:0|0:0,0:0:0:0:
128,128,74390,2,0,L|128:64,3,35,2|0|0|0,0:0|0:0|0:0|0:0,0:0:0:0:
128,64,74649,5,2,0:0:0:0:
144,64,74713,1,0,0:0:0:0:
160,64,74777,1,0,0:0:0:0:
176,64,74841,1,0,0:0:0:0:
192,64,74905,1,2,0:0:0:0:
208,64,74969,1,0,0:0:0:0:
224,64,75033,1,0,0:0:0:0:
240,64,75097,1,0,0:0:0:0:
256,64,75161,2,0,L|320:64,3,35,2|0|0|0,0:0|0:0|0:0|0:0,0:0:0:0:
320,64,75417,2,0,L|384:64,3,35,2|0|0|0,0:0|0:0|0:0|0:0,0:0:0:0:
384,64,75674,5,2,0:0:0:0:
384,80,75738,1,0,0:0:0:0:
384,96,75802,1,0,0:0:0:0:
384,112,75866,1,0,0:0:0:0:
384,128,75930,1,2,0:0:0:0:
384,144,75994,1,0,0:0:0:0:
384,160,76058,1,0,0:0:0:0:
384,176,76122,1,0,0:0:0:0:
384,192,76186,2,0,L|384:256,3,35,2|0|0|0,0:0|0:0|0:0|0:0,0:0:0:0:
384,256,76443,2,0,L|384:320,3,35,2|0|0|0,0:0|0:0|0:0|0:0,0:0:0:0:
384,320,76700,5,2,0:0:0:0:
368,320,76764,1,0,0:0:0:0:
352,320,76828,1,0,0:0:0:0:
336,320,76892,1,0,0:0:0:0:
320,320,76956,1,2,0:0:0:0:
304,320,77020,1,0,0:0:0:0:
288,320,77084,1,0,0:0:0:0:
272,320,77148,1,0,0:0:0:0:
256,320,77212,2,0,L|192:320,3,35,2|0|0|0,0:0|0:0|0:0|0:0,0:0:0:0:
192,320,77468,2,0,L|128:320,3,35,2|0|0|0,0:0|0:0|0:0|0:0,0:0:0:0:
128,320,77725,5,2,0:0:0:0:
128,304,77789,1,0,0:0:0:0:
128,288,77853,1,0,0:0:0:0:
128,272,77917,1,0,0:0:0:0:
128,256,77981,1,2,0:0:0:0:
128,240,78045,1,0,0:0:0:0:
128,224,78109,1,0,0:0:0:0:
128,207,78173,1,0,0:0:0:0:
128,192,78237,2,0,L|128:128,3,35,2|0|0|0,0:0|0:0|0:0|0:0,0:0:0:0:
128,128,78494,2,0,L|128:64,3,35,2|0|0|0,0:0|0:0|0:0|0:0,0:0:0:0:
128,64,78751,5,2,0:0:0:0:
144,64,78815,1,0,0:0:0:0:
160,64,78879,1,0,0:0:0:0:
176,64,78943,1,0,0:0:0:0:
192,64,79007,1,2,0:0:0:0:
208,64,79071,1,0,0:0:0:0:
224,64,79135,1,0,0:0:0:0:
240,64,79199,1,0,0:0:0:0:
256,64,79263,2,0,L|320:64,3,35,2|0|0|0,0:0|0:0|0:0|0:0,0:0:0:0:
320,64,79519,2,0,L|384:64,3,35,2|0|0|0,0:0|0:0|0:0|0:0,0:0:0:0:
384,64,79776,5,2,0:0:0:0:
384,80,79840,1,0,0:0:0:0:
384,96,79904,1,0,0:0:0:0:
384,112,79968,1,0,0:0:0:0:
384,128,80032,1,2,0:0:0:0:
384,144,80096,1,0,0:0:0:0:
384,160,80160,1,0,0:0:0:0:
384,176,80224,1,0,0:0:0:0:
384,192,80288,2,0,L|384:256,3,35,2|0|0|0,0:0|0:0|0:0|0:0,0:0:0:0:
384,256,80545,2,0,L|384:320,3,35,2|0|0|0,0:0|0:0|0:0|0:0,0:0:0:0:
384,320,80802,5,2,0:0:0:0:
368,320,80866,1,0,0:0:0:0:
352,320,80930,1,0,0:0:0:0:
336,320,80994,1,0,0:0:0:0:
320,320,81058,1,2,0:0:0:0:
304,320,81122,1,0,0:0:0:0:
288,320,81186,1,0,0:0:0:0:
272,320,81250,1,0,0:0:0:0:
256,320,81314,2,0,L|192:320,3,35,2|0|0|0,0:0|0:0|0:0|0:0,0:0:0:0:
192,320,81570,2,0,L|128:320,3,35,2|0|0|0,0:0|0:0|0:0|0:0,0:0:0:0:
128,320,81827,5,2,0:0:0:0:
128,304,81891,1,0,0:0:0:0:
128,288,81955,1,0,0:0:0:0:
128,272,82019,1,0,0:0:0:0:
128,256,82083,1,2,0:0:0:0:
128,240,82147,1,0,0:0:0:0:
128,224,82211,1,0,0:0:0:0:
128,207,82275,1,0,0:0:0:0:
128,192,82339,2,0,L|128:128,3,35,2|0|0|0,0:0|0:0|0:0|0:0,0:0:0:0:
128,128,82596,2,0,L|128:64,3,35,2|0|0|0,0:0|0:0|0:0|0:0,0:0:0:0:
128,64,82854,5,2,0:0:0:0:
144,64,82918,1,0,0:0:0:0:
160,64,82982,1,0,0:0:0:0:
176,64,83046,1,0,0:0:0:0:
192,64,83110,1,2,0:0:0:0:
208,64,83174,1,0,0:0:0:0:
224,64,83238,1,0,0:0:0:0:
240,64,83302,1,0,0:0:0:0:
256,64,83366,2,0,L|320:64,3,35,2|0|0|0,0:0|0:0|0:0|0:0,0:0:0:0:
320,64,83622,2,0,L|384:64,3,35,2|0|0|0,0:0|0:0|0:0|0:0,0:0:0:0:
384,64,83879,5,2,0:0:0:0:
384,80,83943,1,0,0:0:0:0:
384,96,84007,1,0,0:0:0:0:
384,112,84071,1,0,0:0:0:0:
384,128,84135,1,2,0:0:0:0:
384,144,84199,1,0,0:0:0:0:
384,160,84263,1,0,0:0:0:0:
384,176,84327,1,0,0:0:0:0:
384,192,84391,2,0,L|384:256,3,35,2|0|0|0,0:0|0:0|0:0|0:0,0:0:0:0:
384,256,84648,2,0,L|384:320,3,35,2|0|0|0,0:0|0:0|0:0|0:0,0:0:0:0:
384,320,84905,5,2,0:0:0:0:
368,320,84969,1,0,0:0:0:0:
352,320,85033,1,0,0:0:0:0:
336,320,85097,1,0,0:0:0:0:
320,320,85161,1,2,0:0:0:0:
304,320,85225,1,0,0:0:0:0:
288,320,85289,1,0,0:0:0:0:
272,320,85353,1,0,0:0:0:0:
256,320,85417,2,0,L|192:320,3,35,2|0|0|0,0:0|0:0|0:0|0:0,0:0:0:0:
192,320,85673,2,0,L|128:320,3,35,2|0|0|0,0:0|0:0|0:0|0:0,0:0:0:0:
128,320,85930,5,2,0:0:0:0:
128,304,85994,1,0,0:0:0:0:
128,288,86058,1,0,0:0:0:0:
128,272,86122,1,0,0:0:0:0:
128,256,86186,1,2,0:0:0:0:
128,240,86250,1,0,0:0:0:0:
128,224,86314,1,0,0:0:0:0:
128,207,86378,1,0,0:0:0:0:
128,192,86442,2,0,L|128:128,3,35,2|0|0|0,0:0|0:0|0:0|0:0,0:0:0:0:
128,128,86699,2,0,L|128:64,3,35,2|0|0|0,0:0|0:0|0:0|0:0,0:0:0:0:
128,64,86956,5,2,0:0:0:0:
144,64,87020,1,0,0:0:0:0:
160,64,87084,1,0,0:0:0:0:
176,64,87148,1,0,0:0:0:0:
192,64,87212,1,2,0:0:0:0:
208,64,87276,1,0,0:0:0:0:
224,64,87340,1,0,0:0:0:0:
240,64,87404,1,0,0:0:0:0:
256,64,87468,2,0,L|320:64,3,35,2|0|0|0,0:0|0:0|0:0|0:0,0:0:0:0:
320,64,87724,2,0,L|384:64,3,35,2|0|0|0,0:0|0:0|0:0|0:0,0:0:0:0:
384,64,87981,5,2,0:0:0:0:
384,80,88045,1,0,0:0:0:0:
384,96,88109,1,0,0:0:0:0:
384,112,88173,1,0,0:0:0:0:
384,128,88237,1,2,0:0:0:0:
384,144,88301,1,0,0:0:0:0:
384,160,88365,1,0,0:0:0:0:
384,176,88429,1,0,0:0:0:0:
384,192,88493,2,0,L|384:256,3,35,2|0|0|0,0:0|0:0|0:0|0:0,0:0:0:0:
384,256,88750,2,0,L|384:320,3,35,2|0|0|0,0:0|0:0|0:0|0:0,0:0:0:0:
384,320,89007,5,2,0:0:0:0:
368,320,89071,1,0,0:0:0:0:
352,320,89135,1,0,0:0:0:0:
336,320,89199,1,0,0:0:0:0:
320,320,89263,1,2,0:0:0:0:
304,320,89327,1,0,0:0:0:0:
288,320,89391,1,0,0:0:0:0:
272,320,89455,1,0,0:0:0:0:
256,320,89519,2,0,L|192:320,3,35,2|0|0|0,0:0|0:0|0:0|0:0,0:0:0:0:
192,320,89775,2,0,L|128:320,3,35,2|0|0|0,0:0|0:0|0:0|0:0,0:0:0:0:
128,320,90032,5,2,0:0:0:0:
128,304,90096,1,0,0:0:0:0:
128,288,90160,1,0,0:0:0:0:
128,272,90224,1,0,0:0:0:0:
128,256,90288,1,2,0:0:0:0:
128,240,90352,1,0,0:0:0:0:
128,224,90416,1,0,0:0:0:0:
128,207,90480,1,0,0:0:0:0:
128,192,90544,2,0,L|128:128,3,35,2|0|0|0,0:0|0:0|0:0|0:0,0:0:0:0:
128,128,90801,2,0,L|128:64,3,35,2|0|0|0,0:0|0:0|0:0|0:0,0:0:0:0:
128,64,91059,5,2,0:0:0:0:
144,64,91123,1,0,0:0:0:0:
160,64,91187,1,0,0:0:0:0:
176,64,91251,1,0,0:0:0:0:
192,64,91315,1,2,0:0:0:0:
208,64,91379,1,0,0:0:0:0:
224,64,91443,1,0,0:0:0:0:
240,64,91507,1,0,0:0:0:0:
256,64,91571,2,0,L|320:64,3,35,2|0|0|0,0:0|0:0|0:0|0:0,0:0:0:0:
320,64,91827,2,0,L|384:64,3,35,2|0|0|0,0:0|0:0|0:0|0:0,0:0:0:0:
384,64,92084,5,2,0:0:0:0:
384,80,92148,1,0,0:0:0:0:
384,96,92212,1,0,0:0:0:0:
384,112,92276,1,0,0:0:0:0:
384,128,92340,1,2,0:0:0:0:
384,144,92404,1,0,0:0:0:0:
384,160,92468,1,0,0:0:0:0:
384,176,92532,1,0,0:0:0:0:
384,192,92596,2,0,L|384:256,3,35,2|0|0|0,0:0|0:0|0:0|0:0,0:0:0:0:
384,256,92853,2,0,L|384:320,3,35,2|0|0|0,0:0|0:0|0:0|0:0,0:0:0:0:
384,320,93110,5,2,0:0:0:0:
368,320,93174,1,0,0:0:0:0:
352,320,93238,1,0,0:0:0:0:
336,320,93302,1,0,0:0:0:0:
320,320,93366,1,2,0:0:0:0:
304,320,93430,1,0,0:0:0:0:
288,320,93494,1,0,0:0:0:0:
272,320,93558,1,0,0:0:0:0:
256,320,93622,2,0,L|192:320,3,35,2|0|0|0,0:0|0:0|0:0|0:0,0:0:0:0:
192,320,93878,2,0,L|128:320,3,35,2|0|0|0,0:0|0:0|0:0|0:0,0:0:0:0:
128,320,94135,5,2,0:0:0:0:
128,304,94199,1,0,0:0:0:0:
128,288,94263,1,0,0:0:0:0:
128,272,94327,1,0,0:0:0:0:
128,256,94391,1,2,0:0:0:0:
128,240,94455,1,0,0:0:0:0:
128,224,94519,1,0,0:0:0:0:
128,207,94583,1,0,0:0:0:0:
128,192,94647,2,0,L|128:128,3,35,2|0|0|0,0:0|0:0|0:0|0:0,0:0:0:0:
128,128,94904,2,0,L|128:64,3,35,2|0|0|0,0:0|0:0|0:0|0:0,0:0:0:0:
128,64,95161,5,2,0:0:0:0:
144,64,95225,1,0,0:0:0:0:
160,64,95289,1,0,0:0:0:0:
176,64,95353,1,0,0:0:0:0:
192,64,95417,1,2,0:0:0:0:
208,64,95481,1,0,0:0:0:0:
224,64,95545,1,0,0:0:0:0:
240,64,95609,1,0,0:0:0:0:
256,64,95673,2,0,L|320:64,3,35,2|0|0|0,0:0|0:0|0:0|0:0,0:0:0:0:
320,64,95929,2,0,L|384:64,3,35,2|0|0|0,0:0|0:0|0:0|0:0,0:0:0:0:
384,64,96186,5,2,0:0:0:0:
384,80,96250,1,0,0:0:0:0:
384,96,96314,1,0,0:0:0:0:
384,112,96378,1,0,0:0:0:0:
384,128,96442,1,2,0:0:0:0:
384,144,96506,1,0,0:0:0:0:
384,160,96570,1,0,0:0:0:0:
384,176,96634,1,0,0:0:0:0:
384,192,96698,2,0,L|384:256,3,35,2|0|0|0,0:0|0:0|0:0|0:0,0:0:0:0:
384,256,96955,2,0,L|384:320,3,35,2|0|0|0,0:0|0:0|0:0|0:0,0:0:0:0:
384,320,97212,5,2,0:0:0:0:
368,320,97276,1,0,0:0:0:0:
352,320,97340,1,0,0:0:0:0:
336,320,97404,1,0,0:0:0:0:
320,320,97468,1,2,0:0:0:0:
304,320,97532,1,0,0:0:0:0:
288,320,97596,1,0,0:0:0:0:
272,320,97660,1,0,0:0:0:0:
256,320,97724,2,0,L|192:320,3,35,2|0|0|0,0:0|0:0|0:0|0:0,0:0:0:0:
192,320,97980,2,0,L|128:320,3,35,2|0|0|0,0:0|0:0|0:0|0:0,0:0:0:0:
128,320,98237,5,2,0:0:0:0:
128,304,98301,1,0,0:0:0:0:
128,288,98365,1,0,0:0:0:0:
128,272,98429,1,0,0:0:0:0:
128,256,98493,1,2,0:0:0:0:
128,240,98557,1,0,0:0:0:0:
128,224,98621,1,0,0:0:0:0:
128,207,98685,1,0,0:0:0:0:
128,192,98749,2,0,L|128:128,3,35,2|0|0|0,0:0|0:0|0:0|0:0,0:0:0:0:
128,128,99006,2,0,L|128:64,3,35,2|0|0|0,0:0|0:0|0:0|0:0,0:0:0:0:
128,64,99264,5,2,0:0:0:0:
144,64,99328,1,0,0:0:0:0:
160,64,99392,1,0,0:0:0:0:
176,64,99456,1,0,0:0:0:0:
192,64,99520,1,2,0:0:0:0:
208,64,99584,1,0,0:0:0:0:
224,64,99648,1,0,0:0:0:0:
240,64,99712,1,0,0:0:0:0:
256,64,99776,2,0,L|320:64,3,35,2|0|0|0,0:0|0:0|0:0|0:0,0:0:0:0:
320,64,100032,2,0,L|384:64,3,35,2|0|0|0,0:0|0:0|0:0|0:0,0:0:0:0:
384,64,100289,5,2,0:0:0:0:
384,80,100353,1,0,0:0:0:0:
384,96,100417,1,0,0:0:0:0:
384,112,100481,1,0,0:0:0:0:
384,128,100545,1,2,0:0:0:0:
384,144,100609,1,0,0:0:0:0:
384,160,100673,1,0,0:0:0:0:
384,176,100737,1,0,0:0:0:0:
384,192,100801,2,0,L|384:256,3,35,2|0|0|0,0:0|0:0|0:0|0:0,0:0:0:0:
384,256,101058,2,0,L|384:320,3,35,2|0|0|0,0:0|0:0|0:0|0:0,0:0:0:0:
384,320,101315,5,2,0:0:0:0:
368,320,101379,1,0,0:0:0:0:
352,320,101443,1,0,0:0:0:0:
336,320,101507,1,0,0:0:0:0:
320,320,101571,1,2,0:0:0:0:
304,320,101635,1,0,0:0:0:0:
288,320,101699,1,0,0:0:0:0:
272,320,101763,1,0,0:0:0:0:
256,320,101827,2,0,L|192:320,3,35,2|0|0|0,0:0|0:0|0:0|0:0,0:0:0:0:
192,320,102083,2,0,L|128:320,3,35,2|0|0|0,0:0|0:0|0:0|0:0,0:0:0:0:
128,320,102340,5,2,0:0:0:0:
128,304,102404,1,0,0:0:0:0:
128,288,102468,1,0,0:0:0:0:
128,272,102532,1,0,0:0:0:0:
128,256,102596,1,2,0:0:0:0:
128,240,102660,1,0,0:0:0:0:
128,224,102724,1,0,0:0:0:0:
128,207,102788,1,0,0:0:0:0:
128,192,102852,2,0,L|128:128,3,35,2|0|0|0,0:0|0:0|0:0|0:0,0:0:0:0:
128,128,103109,2,0,L|128:64,3,35,2|0|0|0,0:0|0:0|0:0|0:0,0:0:0:0:
128,64,103366,5,2,0:0:0:0:
144,64,103430,1,0,0:0:0:0:
160,64,103494,1,0,0:0:0:0:
176,64,103558,1,0,0:0:0:0:
192,64,103622,1,2,0:0:0:0:
208,64,103686,1,0,0:0:0:0:
224,64,103750,1,0,0:0:0:0:
240,64,103814,1,0,0:0:0:0:
256,64,103878,2,0,L|320:64,3,35,2|0|0|0,0:0|0:0|0:0|0:0,0:0:0:0:
320,64,104134,2,0,L|384:64,3,35,2|0|0|0,0:0|0:0|0:0|0:0,0:0:0:0:
384,64,104391,5,2,0:0:0:0:
384,80,104455,1,0,0:0:0:0:
384,96,104519,1,0,0:0:0:0:
384,112,104583,1,0,0:0:0:0:
384,128,104647,1,2,0:0:0:0:
384,144,104711,1,0,0:0:0:0:
384,160,104775,1,0,0:0:0:0:
384,176,104839,1,0,0:0:0:0:
384,192,104903,2,0,L|384:256,3,35,2|0|0|0,0:0|0:0|0:0|0:0,0:0:0:0:
384,256,105160,2,0,L|384:320,3,35,2|0|0|0,0:0|0:0|0:0|0:0,0:0:0:0:
384,320,105417,5,2,0:0:0:0:
368,320,105481,1,0,0:0:0:0:
352,320,105545,1,0,0:0:0:0:
336,320,105609,1,0,0:0:0:0:
320,320,105673,1,2,0:0:0:0:
304,320,105737,1,0,0:0:0:0:
288,320,105801,1,0,0:0:0:0:
272,320,105865,1,0,0:0:0:0:
256,320,105929,2,0,L|192:320,3,35,2|0|0|0,0:0|0:0|0:0|0:0,0:0:0:0:
192,320,106185,2,0,L|128:320,3,35,2|0|0|0,0:0|0:0|0:0|0:0,0:0:0:0:
128,320,106442,5,2,0:0:0:0:
128,304,106506,1,0,0:0:0:0:
128,288,106570,1,0,0:0:0:0:
128,272,106634,1,0,0:0:0:0:
128,256,106698,1,2,0:0:0:0:
128,240,106762,1,0,0:0:0:0:
128,224,106826,1,0,0:0:0:0:
128,207,106890,1,0,0:0:0:0:
128,192,106954,2,0,L|128:128,3,35,2|0|0|0,0:0|0:0|0:0|0:0,0:0:0:0:
128,128,107211,2,0,L|128:64,3,35,2|0|0|0,0:0|0:0|0:0|0:0,0:0:0:0:
128,64,107469,5,2,0:0:0:0:
144,64,107533,1,0,0:0:0:0:
160,64,107597,1,0,0:0:0:0:
176,64,107661,1,0,0:0:0:0:
192,64,107725,1,2,0:0:0:0:
208,64,107789,1,0,0:0:0:0:
224,64,107853,1,0,0:0:0:0:
240,64,107917,1,0,0:0:0:0:
256,64,107981,2,0,L|320:64,3,35,2|0|0|0,0:0|0:0|0:0|0:0,0:0:0:0:
320,64,108237,2,0,L|384:64,3,35,2|0|0|0,0:0|0:0|0:0|0:0,0:0:0:0:
384,64,108494,5,2,0:0:0:0:
384,80,108558,1,0,0:0:0:0:
384,96,108622,1,0,0:0:0:0:
384,112,108686,1,0,0:0:0:0:
384,128,108750,1,2,0:0:0:0:
384,144,108814,1,0,0:0:0:0:
384,160,108878,1,0,0:0:0:0:
384,176,108942,1,0,0:0:0:0:
384,192,109006,2,0,L|384:256,3,35,2|0|0|0,0:0|0:0|0:0|0:0,0:0:0:0:
384,256,109263,2,0,L|384:320,3,35,2|0|0|0,0:0|0:0|0:0|0:0,0:0:0:0:
384,320,109520,5,2,0:0:0:0:
368,320,109584,1,0,0:0:0:0:
352,320,109648,1,0,0:0:0:0:
336,320,109712,1,0,0:0:0:0:
320,320,109776,1,2,0:0:0:0:
304,320,109840,1,0,0:0:0:0:
288,320,109904,1,0,0:0:0:0:
272,320,109968,1,0,0:0:0:0:
256,320,110032,2,0,L|192:320,3,35,2|0|0|0,0:0|0:0|0:0|0:0,0:0:0:0:
192,320,110288,2,0,L|128:320,3,35,2|0|0|0,0:0|0:0|0:0|0:0,0:0:0:0:
128,320,110545,5,2,0:0:0:0:
128,304,110609,1,0,0:0:0:0:
128,288,110673,1,0,0:0:0:0:
128,272,110737,1,0,0:0:0:0:
128,256,110801,1,2,0:0:0:0:
128,240,110865,1,0,0:0:0:0:
128,224,110929,1,0,0:0:0:0:
128,207,110993,1,0,0:0:0:0:
128,192,111057,2,0,L|128:128,3,35,2|0|0|0,0:0|0:0|0:0|0:0,0:0:0:0:
128,128,111314,2,0,L|128:64,3,35,2|0|0|0,0:0|0:0|0:0|0:0,0:0:0:0:
128,64,111572,5,2,0:0:0:0:
144,64,111636,1,0,0:0:0:0:
160,64,111700,1,0,0:0:0:0:
176,64,111764,1,0,0:0:0:0:
192,64,111828,1,2,0:0:0:0:
208,64,111892,1,0,0:0:0:0:
224,64,111956,1,0,0:0:0:0:
240,64,112020,1,0,0:0:0:0:
256,64,112084,2,0,L|320:64,3,35,2|0|0|0,0:0|0:0|0:0|0:0,0:0:0:0:
320,64,112340,2,0,L|384:64,3,35,2|0|0|0,0:0|0:0|0:0|0:0,0:0:0:0:
384,64,112597,5,2,0:0:0:0:
384,80,112661,1,0,0:0:0:0:
384,96,112725,1,0,0:0:0:0:
384,112,112789,1,0,0:0:0:0:
384,128,112853,1,2,0:0:0:0:
384,144,112917,1,0,0:0:0:0:
384,160,112981,1,0,0:0:0:0:
384,176,113045,1,0,0:0:0:0:
384,192,113109,2,0,L|384:256,3,35,2|0|0|0,0:0|0:0|0:0|0:0,0:0:0:0:
384,256,113366,2,0,L|384:320,3,35,2|0|0|0,0:0|0:0|0:0|0:0,0:0:0:0:
384,320,113623,5,2,0:0:0:0:
368,320,113687,1,0,0:0:0:0:
352,320,113751,1,0,0:0:0:0:
336,320,113815,1,0,0:0:0:0:
320,320,113879,1,2,0:0:0:0:
304,320,113943,1,0,0:0:0:0:
288,320,114007,1,0,0:0:0:0:
272,320,114071,1,0,0:0:0:0:
256,320,114135,2,0,L|192:320,3,35,2|0|0|0,0:0|0:0|0:0|0:0,0:0:0:0:
192,320,114391,2,0,L|128:320,3,35,2|0|0|0,0:0|0:0|0:0|0:0,0:0:0:0:
128,320,114648,5,2,0:0:0:0:
128,304,114712,1,0,0:0:0:0:
128,288,114776,1,0,0:0:0:0:
128,272,114840,1,0,0:0:0:0:
128,256,114904,1,2,0:0:0:0:
128,240,114968,1,0,0:0:0:0:
128,224,115032,1,0,0:0:0:0:
128,207,115096,1,0,0:0:0:0:
128,192,115160,2,0,L|128:128,3,35,2|0|0|0,0:0|0:0|0:0|0:0,0:0:0:0:
128,128,115417,2,0,L|128:64,3,35,2|0|0|0,0:0|0:0|0:0|0:0,0:0:0:0:
128,64,115674,5,2,0:0:0:0:
144,64,115738,1,0,0:0:0:0:
160,64,115802,1,0,0:0:0:0:
176,64,115866,1,0,0:0:0:0:
192,64,115930,1,2,0:0:0:0:
208,64,115994,1,0,0:0:0:0:
224,64,116058,1,0,0:0:0:0:
240,64,116122,1,0,0:0:0:0:
256,64,116186,2,0,L|320:64,3,35,2|0|0|0,0:0|0:0|0:0|0:0,0:0:0:0:
320,64,116442,2,0,L|384:64,3,35,2|0|0|0,0:0|0:0|0:0|0:0,0:0:0:0:
384,64,116699,5,2,0:0:0:0:
384,80,116763,1,0,0:0:0:0:
384,96,116827,1,0,0:0:0:0:
384,112,116891,1,0,0:0:0:0:
384,128,116955,1,2,0:0:0:0:
384,144,117019,1,0,0:0:0:0:
384,160,117083,1,0,0:0:0:0:
384,176,117147,1,0,0:0:0:0:
