osu file format v14

[General]
AudioFilename: [SDVX II --] Bangin' Burst [NOFX].mp3
AudioLeadIn: 0
PreviewTime: -1
Countdown: 1
SampleSet: Soft
StackLeniency: 0.7
Mode: 0
LetterboxInBreaks: 1
WidescreenStoryboard: 1

[Editor]
DistanceSpacing: 0.8
BeatDivisor: 4
GridSize: 16
TimelineZoom: 2.2

[Metadata]
Title:Burst Stream Practice Maps 2
TitleUnicode:Burst Stream Practice Maps 2
Artist:Various Artists
ArtistUnicode:Various Artists
Creator:nooblet
Version:234 BPM 32 notes
Source:
Tags:
BeatmapID:1022680
BeatmapSetID:478861

[Difficulty]
HPDrainRate:0
CircleSize:4
OverallDifficulty:10
ApproachRate:10
SliderMultiplier:1.4
SliderTickRate:1

[Events]
//Background and Video events
//Break Periods
//Storyboard Layer 0 (Background)
//Storyboard Layer 1 (Fail)
//Storyboard Layer 2 (Pass)
//Storyboard Layer 3 (Foreground)
//Storyboard Sound Samples

[TimingPoints]
803,256.410256410256,4,2,0,100,1,0

[HitObjects]
128,64,9008,5,2,0:0:0:0:
144,64,9072,1,0,0:0:0:0:
160,64,9136,1,0,0:0:0:0:
176,64,9200,1,0,0:0:0:0:
192,64,9264,1,2,0:0:0:0:
208,64,9328,1,0,0:0:0:0:
224,64,9392,1,0,0:0:0:0:
240,64,9456,1,0,0:0:0:0:
256,64,9520,1,2,0:0:0:0:
272,64,9584,1,0,0:0:0:0:
288,64,9648,1,0,0:0:0:0:
304,64,9712,1,0,0:0:0:0:
320,64,9776,1,2,0:0:0:0:
336,64,9841,1,0,0:0:0:0:
352,64,9905,1,0,0:0:0:0:
368,64,9969,1,0,0:0:0:0:
384,64,10033,5,2,0:0:0:0:
384,80,10097,1,0,0:0:0:0:
384,96,10161,1,0,0:0:0:0:
384,112,10225,1,0,0:0:0:0:
384,128,10289,1,2,0:0:0:0:
384,144,10353,1,0,0:0:0:0:
384,160,10417,1,0,0:0:0:0:
384,176,10481,1,0,0:0:0:0:
384,192,10545,1,2,0:0:0:0:
384,208,10609,1,0,0:0:0:0:
384,224,10673,1,0,0:0:0:0:
384,240,10737,1,0,0:0:0:0:
384,256,10802,1,2,0:0:0:0:
384,272,10867,1,0,0:0:0:0:
384,288,10931,1,0,0:0:0:0:
384,304,10995,1,0,0:0:0:0:
384,320,11059,6,0,L|320:320,3,35,2|0|0|0,0:0|0:0|0:0|0:0,0:0:0:0:
320,320,11315,2,0,L|256:320,3,35,2|0|0|0,0:0|0:0|0:0|0:0,0:0:0:0:
256,320,11572,2,0,L|192:320,3,35,2|0|0|0,0:0|0:0|0:0|0:0,0:0:0:0:
192,320,11828,2,0,L|128:320,3,35,2|0|0|0,0:0|0:0|0:0|0:0,0:0:0:0:
128,320,12085,6,0,L|128:256,3,35,2|0|0|0,0:0|0:0|0:0|0:0,0:0:0:0:
128,256,12341,2,0,L|128:192,3,35,2|0|0|0,0:0|0:0|0:0|0:0,0:0:0:0:
128,192,12598,2,0,L|128:128,3,35,2|0|0|0,0:0|0:0|0:0|0:0,0:0:0:0:
128,128,12854,2,0,L|128:64,3,35,2|0|0|0,0:0|0:0|0:0|0:0,0:0:0:0:
128,64,13110,5,2,0:0:0:0:
144,64,13174,1,0,0:0:0:0:
160,64,13238,1,0,0:0:0:0:
176,64,13302,1,0,0:0:0:0:
192,64,13366,1,2,0:0:0:0:
208,64,13430,1,0,0:0:0:0:
224,64,13494,1,0,0:0:0:0:
240,64,13558,1,0,0:0:0:0:
256,64,13622,1,2,0:0:0:0:
272,64,13686,1,0,0:0:0:0:
288,64,13750,1,0,0:0:0:0:
304,64,13814,1,0,0:0:0:0:
320,64,13878,1,2,0:0:0:0:
336,64,13943,1,0,0:0:0:0:
352,64,14007,1,0,0:0:0:0:
368,64,14071,1,0,0:0:0:0:
384,64,14135,5,2,0:0:0:0:
384,80,14199,1,0,0:0:0:0:
384,96,14263,1,0,0:0:0:0:
384,112,14327,1,0,0:0:0:0:
384,128,14391,1,2,0:0:0:0:
384,144,14455,1,0,0:0:0:0:
384,160,14519,1,0,0:0:0:0:
384,176,14585,1,0,0:0:0:0:
384,192,14649,1,2,0:0:0:0:
384,208,14713,1,0,0:0:0:0:
384,224,14777,1,0,0:0:0:0:
384,240,14841,1,0,0:0:0:0:
384,256,14904,1,2,0:0:0:0:
384,272,14969,1,0,0:0:0:0:
384,288,15033,1,0,0:0:0:0:
384,304,15097,1,0,0:0:0:0:
384,320,15161,6,0,L|320:320,3,35,2|0|0|0,0:0|0:0|0:0|0:0,0:0:0:0:
320,320,15417,2,0,L|256:320,3,35,2|0|0|0,0:0|0:0|0:0|0:0,0:0:0:0:
256,320,15674,2,0,L|192:320,3,35,2|0|0|0,0:0|0:0|0:0|0:0,0:0:0:0:
192,320,15930,2,0,L|128:320,3,35,2|0|0|0,0:0|0:0|0:0|0:0,0:0:0:0:
128,320,16187,6,0,L|128:256,3,35,2|0|0|0,0:0|0:0|0:0|0:0,0:0:0:0:
128,256,16443,2,0,L|128:192,3,35,2|0|0|0,0:0|0:0|0:0|0:0,0:0:0:0:
128,192,16700,2,0,L|128:128,3,35,2|0|0|0,0:0|0:0|0:0|0:0,0:0:0:0:
128,128,16956,2,0,L|128:64,3,35,2|0|0|0,0:0|0:0|0:0|0:0,0:0:0:0:
128,64,17213,5,2,0:0:0:0:
144,64,17277,1,0,0:0:0:0:
160,64,17341,1,0,0:0:0:0:
176,64,17405,1,0,0:0:0:0:
192,64,17469,1,2,0:0:0:0:
208,64,17533,1,0,0:0:0:0:
224,64,17597,1,0,0:0:0:0:
240,64,17661,1,0,0:0:0:0:
256,64,17725,1,2,0:0:0:0:
272,64,17789,1,0,0:0:0:0:
288,64,17853,1,0,0:0:0:0:
304,64,17917,1,0,0:0:0:0:
320,64,17981,1,2,0:0:0:0:
336,64,18046,1,0,0:0:0:0:
352,64,18110,1,0,0:0:0:0:
368,64,18174,1,0,0:0:0:0:
384,64,18238,5,2,0:0:0:0:
384,80,18302,1,0,0:0:0:0:
384,96,18366,1,0,0:0:0:0:
384,112,18430,1,0,0:0:0:0:
384,128,18494,1,2,0:0:0:0:
384,144,18558,1,0,0:0:0:0:
384,160,18622,1,0,0:0:0:0:
384,176,18686,1,0,0:0:0:0:
384,192,18750,1,2,0:0:0:0:
384,208,18814,1,0,0:0:0:0:
384,224,18878,1,0,0:0:0:0:
384,240,18944,1,0,0:0:0:0:
384,256,19007,1,2,0:0:0:0:
384,272,19072,1,0,0:0:0:0:
384,288,19136,1,0,0:0:0:0:
384,304,19200,1,0,0:0:0:0:
384,320,19264,6,0,L|320:320,3,35,2|0|0|0,0:0|0:0|0:0|0:0,0:0:0:0:
320,320,19520,2,0,L|256:320,3,35,2|0|0|0,0:0|0:0|0:0|0:0,0:0:0:0:
256,320,19777,2,0,L|192:320,3,35,2|0|0|0,0:0|0:0|0:0|0:0,0:0:0:0:
192,320,20033,2,0,L|128:320,3,35,2|0|0|0,0:0|0:0|0:0|0:0,0:0:0:0:
128,320,20290,6,0,L|128:256,3,35,2|0|0|0,0:0|0:0|0:0|0:0,0:0:0:0:
128,256,20546,2,0,L|128:192,3,35,2|0|0|0,0:0|0:0|0:0|0:0,0:0:0:0:
128,192,20803,2,0,L|128:128,3,35,2|0|0|0,0:0|0:0|0:0|0:0,0:0:0:0:
128,128,21059,2,0,L|128:64,3,35,2|0|0|0,0:0|0:0|0:0|0:0,0:0:0:0:
128,64,21315,5,2,0:0:0:0:
144,64,21379,1,0,0:0:0:0:
160,64,21443,1,0,0:0:0:0:
176,64,21507,1,0,0:0:0:0:
192,64,21571,1,2,0:0:0:0:
208,64,21635,1,0,0:0:0:0:
224,64,21699,1,0,0:0:0:0:
240,64,21763,1,0,0:0:0:0:
256,64,21827,1,2,0:0:0:0:
272,64,21891,1,0,0:0:0:0:
288,64,21955,1,0,0:0:0:0:
304,64,22019,1,0,0:0:0:0:
320,64,22085,1,2,0:0:0:0:
336,64,22148,1,0,0:0:0:0:
352,64,22212,1,0,0:0:0:0:
368,64,22276,1,0,0:0:0:0:
384,64,22340,5,2,0:0:0:0:
384,80,22404,1,0,0:0:0:0:
384,96,22468,1,0,0:0:0:0:
384,112,22532,1,0,0:0:0:0:
384,128,22596,1,2,0:0:0:0:
384,144,22660,1,0,0:0:0:0:
384,160,22726,1,0,0:0:0:0:
384,176,22790,1,0,0:0:0:0:
384,192,22854,1,2,0:0:0:0:
384,208,22918,1,0,0:0:0:0:
384,224,22982,1,0,0:0:0:0:
384,240,23046,1,0,0:0:0:0:
384,256,23109,1,2,0:0:0:0:
384,272,23174,1,0,0:0:0:0:
384,288,23238,1,0,0:0:0:0:
384,304,23302,1,0,0:0:0:0:
384,320,23366,6,0,L|320:320,3,35,2|0|0|0,0:0|0:0|0:0|0:0,0:0:0:0:
320,320,23622,2,0,L|256:320,3,35,2|0|0|0,0:0|0:0|0:0|0:0,0:0:0:0:
256,320,23879,2,0,L|192:320,3,35,2|0|0|0,0:0|0:0|0:0|0:0,0:0:0:0:
192,320,24135,2,0,L|128:320,3,35,2|0|0|0,0:0|0:0|0:0|0:0,0:0:0:0:
128,320,24392,6,0,L|128:256,3,35,2|0|0|0,0:0|0:0|0:0|0:0,0:0:0:0:
128,256,24648,2,0,L|128:192,3,35,2|0|0|0,0:0|0:0|0:0|0:0,0:0:0:0:
128,192,24905,2,0,L|128:128,3,35,2|0|0|0,0:0|0:0|0:0|0:0,0:0:0:0:
128,128,25161,2,0,L|128:64,3,35,2|0|0|0,0:0|0:0|0:0|0:0,0:0:0:0:
128,64,25418,5,2,0:0:0:0:
144,64,25482,1,0,0:0:0:0:
160,64,25546,1,0,0:0:0:0:
176,64,25610,1,0,0:0:0:0:
192,64,25674,1,2,0:0:0:0:
208,64,25738,1,0,0:0:0:0:
224,64,25802,1,0,0:0:0:0:
240,64,25866,1,0,0:0:0:0:
256,64,25930,1,2,0:0:0:0:
272,64,25994,1,0,0:0:0:0:
288,64,26058,1,0,0:0:0:0:
304,64,26122,1,0,0:0:0:0:
320,64,26186,1,2,0:0:0:0:
336,64,26251,1,0,0:0:0:0:
352,64,26315,1,0,0:0:0:0:
368,64,26379,1,0,0:0:0:0:
384,64,26443,5,2,0:0:0:0:
384,80,26507,1,0,0:0:0:0:
384,96,26571,1,0,0:0:0:0:
384,112,26635,1,0,0:0:0:0:
384,128,26699,1,2,0:0:0:0:
384,144,26763,1,0,0:0:0:0:
384,160,26827,1,0,0:0:0:0:
384,176,26891,1,0,0:0:0:0:
384,192,26955,1,2,0:0:0:0:
384,208,27019,1,0,0:0:0:0:
384,224,27083,1,0,0:0:0:0:
384,240,27147,1,0,0:0:0:0:
384,256,27212,1,2,0:0:0:0:
384,272,27277,1,0,0:0:0:0:
384,288,27341,1,0,0:0:0:0:
384,304,27405,1,0,0:0:0:0:
384,320,27469,6,0,L|320:320,3,35,2|0|0|0,0:0|0:0|0:0|0:0,0:0:0:0:
320,320,27725,2,0,L|256:320,3,35,2|0|0|0,0:0|0:0|0:0|0:0,0:0:0:0:
256,320,27982,2,0,L|192:320,3,35,2|0|0|0,0:0|0:0|0:0|0:0,0:0:0:0:
192,320,28238,2,0,L|128:320,3,35,2|0|0|0,0:0|0:0|0:0|0:0,0:0:0:0:
128,320,28495,6,0,L|128:256,3,35,2|0|0|0,0:0|0:0|0:0|0:0,0:0:0:0:
128,256,28751,2,0,L|128:192,3,35,2|0|0|0,0:0|0:0|0:0|0:0,0:0:0:0:
128,192,29008,2,0,L|128:128,3,35,2|0|0|0,0:0|0:0|0:0|0:0,0:0:0:0:
128,128,29264,2,0,L|128:64,3,35,2|0|0|0,0:0|0:0|0:0|0:0,0:0:0:0:
128,64,29520,5,2,0:0:0:0:
144,64,29584,1,0,0:0:0:0:
160,64,29648,1,0,0:0:0:0:
176,64,29712,1,0,0:0:0:0:
192,64,29776,1,2,0:0:0:0:
208,64,29840,1,0,0:0:0:0:
224,64,29904,1,0,0:0:0:0:
240,64,29968,1,0,0:0:0:0:
256,64,30032,1,2,0:0:0:0:
272,64,30096,1,0,0:0:0:0:
288,64,30160,1,0,0:0:0:0:
304,64,30224,1,0,0:0:0:0:
320,64,30288,1,2,0:0:0:0:
336,64,30353,1,0,0:0:0:0:
352,64,30417,1,0,0:0:0:0:
368,64,30481,1,0,0:0:0:0:
384,64,30545,5,2,0:0:0:0:
384,80,30609,1,0,0:0:0:0:
384,96,30673,1,0,0:0:0:0:
384,112,30737,1,0,0:0:0:0:
384,128,30801,1,2,0:0:0:0:
384,144,30865,1,0,0:0:0:0:
384,160,30929,1,0,0:0:0:0:
384,176,30995,1,0,0:0:0:0:
384,192,31059,1,2,0:0:0:0:
384,208,31123,1,0,0:0:0:0:
384,224,31187,1,0,0:0:0:0:
384,240,31251,1,0,0:0:0:0:
384,256,31314,1,2,0:0:0:0:
384,272,31379,1,0,0:0:0:0:
384,288,31443,1,0,0:0:0:0:
384,304,31507,1,0,0:0:0:0:
384,320,31571,6,0,L|320:320,3,35,2|0|0|0,0:0|0:0|0:0|0:0,0:0:0:0:
320,320,31827,2,0,L|256:320,3,35,2|0|0|0,0:0|0:0|0:0|0:0,0:0:0:0:
256,320,32084,2,0,L|192:320,3,35,2|0|0|0,0:0|0:0|0:0|0:0,0:0:0:0:
192,320,32340,2,0,L|128:320,3,35,2|0|0|0,0:0|0:0|0:0|0:0,0:0:0:0:
128,320,32597,6,0,L|128:256,3,35,2|0|0|0,0:0|0:0|0:0|0:0,0:0:0:0:
128,256,32853,2,0,L|128:192,3,35,2|0|0|0,0:0|0:0|0:0|0:0,0:0:0:0:
128,192,33110,2,0,L|128:128,3,35,2|0|0|0,0:0|0:0|0:0|0:0,0:0:0:0:
128,128,33366,2,0,L|128:64,3,35,2|0|0|0,0:0|0:0|0:0|0:0,0:0:0:0:
128,64,33623,5,2,0:0:0:0:
144,64,33687,1,0,0:0:0:0:
160,64,33751,1,0,0:0:0:0:
176,64,33815,1,0,0:0:0:0:
192,64,33879,1,2,0:0:0:0:
208,64,33943,1,0,0:0:0:0:
224,64,34007,1,0,0:0:0:0:
240,64,34071,1,0,0:0:0:0:
256,64,34135,1,2,0:0:0:0:
272,64,34199,1,0,0:0:0:0:
288,64,34263,1,0,0:0:0:0:
304,64,34327,1,0,0:0:0:0:
320,64,34391,1,2,0:0:0:0:
336,64,34456,1,0,0:0:0:0:
352,64,34520,1,0,0:0:0:0:
368,64,34584,1,0,0:0:0:0:
384,64,34648,5,2,0:0:0:0:
384,80,34712,1,0,0:0:0:0:
384,96,34776,1,0,0:0:0:0:
384,112,34840,1,0,0:0:0:0:
384,128,34904,1,2,0:0:0:0:
384,144,34968,1,0,0:0:0:0:
384,160,35032,1,0,0:0:0:0:
384,176,35096,1,0,0:0:0:0:
384,192,35160,1,2,0:0:0:0:
384,208,35224,1,0,0:0:0:0:
384,224,35288,1,0,0:0:0:0:
384,240,35352,1,0,0:0:0:0:
384,256,35417,1,2,0:0:0:0:
384,272,35482,1,0,0:0:0:0:
384,288,35546,1,0,0:0:0:0:
384,304,35610,1,0,0:0:0:0:
384,320,35674,6,0,L|320:320,3,35,2|0|0|0,0:0|0:0|0:0|0:0,0:0:0:0:
320,320,35930,2,0,L|256:320,3,35,2|0|0|0,0:0|0:0|0:0|0:0,0:0:0:0:
256,320,36187,2,0,L|192:320,3,35,2|0|0|0,0:0|0:0|0:0|0:0,0:0:0:0:
192,320,36443,2,0,L|128:320,3,35,2|0|0|0,0:0|0:0|0:0|0:0,0:0:0:0:
128,320,36700,6,0,L|128:256,3,35,2|0|0|0,0:0|0:0|0:0|0:0,0:0:0:0:
128,256,36956,2,0,L|128:192,3,35,2|0|0|0,0:0|0:0|0:0|0:0,0:0:0:0:
128,192,37213,2,0,L|128:128,3,35,2|0|0|0,0:0|0:0|0:0|0:0,0:0:0:0:
128,128,37469,2,0,L|128:64,3,35,2|0|0|0,0:0|0:0|0:0|0:0,0:0:0:0:
128,64,37725,5,2,0:0:0:0:
144,64,37789,1,0,0:0:0:0:
160,64,37853,1,0,0:0:0:0:
176,64,37917,1,0,0:0:0:0:
192,64,37981,1,2,0:0:0:0:
208,64,38045,1,0,0:0:0:0:
224,64,38109,1,0,0:0:0:0:
240,64,38173,1,0,0:0:0:0:
256,64,38237,1,2,0:0:0:0:
272,64,38301,1,0,0:0:0:0:
288,64,38365,1,0,0:0:0:0:
304,64,38429,1,0,0:0:0:0:
320,64,38493,1,2,0:0:0:0:
336,64,38558,1,0,0:0:0:0:
352,64,38622,1,0,0:0:0:0:
368,64,38686,1,0,0:0:0:0:
384,64,38750,5,2,0:0:0:0:
384,80,38814,1,0,0:0:0:0:
384,96,38878,1,0,0:0:0:0:
384,112,38942,1,0,0:0:0:0:
384,128,39006,1,2,0:0:0:0:
384,144,39070,1,0,0:0:0:0:
384,160,39134,1,0,0:0:0:0:
384,176,39200,1,0,0:0:0:0:
384,192,39264,1,2,0:0:0:0:
384,208,39328,1,0,0:0:0:0:
384,224,39392,1,0,0:0:0:0:
384,240,39456,1,0,0:0:0:0:
384,256,39519,1,2,0:0:0:0:
384,272,39584,1,0,0:0:0:0:
384,288,39648,1,0,0:0:0:0:
384,304,39712,1,0,0:0:0:0:
384,320,39776,6,0,L|320:320,3,35,2|0|0|0,0:0|0:0|0:0|0:0,0:0:0:0:
320,320,40032,2,0,L|256:320,3,35,2|0|0|0,0:0|0:0|0:0|0:0,0:0:0:0:
256,320,40289,2,0,L|192:320,3,35,2|0|0|0,0:0|0:0|0:0|0:0,0:0:0:0:
192,320,40545,2,0,L|128:320,3,35,2|0|0|0,0:0|0:0|0:0|0:0,0:0:0:0:
128,320,40802,6,0,L|128:256,3,35,2|0|0|0,0:0|0:0|0:0|0:0,0:0:0:0:
128,256,41058,2,0,L|128:192,3,35,2|0|0|0,0:0|0:0|0:0|0:0,0:0:0:0:
128,192,41315,2,0,L|128:128,3,35,2|0|0|0,0:0|0:0|0:0|0:0,0:0:0:0:
128,128,41571,2,0,L|128:64,3,35,2|0|0|0,0:0|0:0|0:0|0:0,0:0:0:0:
128,64,41828,5,2,0:0:0:0:
144,64,41892,1,0,0:0:0:0:
160,64,41956,1,0,0:0:0:0:
176,64,42020,1,0,0:0:0:0:
192,64,42084,1,2,0:0:0:0:
208,64,42148,1,0,0:0:0:0:
224,64,42212,1,0,0:0:0:0:
240,64,42276,1,0,0:0:0:0:
256,64,42340,1,2,0:0:0:0:
272,64,42404,1,0,0:0:0:0:
288,64,42468,1,0,0:0:0:0:
304,64,42532,1,0,0:0:0:0:
320,64,42596,1,2,0:0:0:0:
336,64,42661,1,0,0:0:0:0:
352,64,42725,1,0,0:0:0:0:
368,64,42789,1,0,0:0:0:0:
384,64,42853,5,2,0:0:0:0:
384,80,42917,1,0,0:0:0:0:
384,96,42981,1,0,0:0:0:0:
384,112,43045,1,0,0:0:0:0:
384,128,43109,1,2,0:0:0:0:
384,144,43173,1,0,0:0:0:0:
384,160,43237,1,0,0:0:0:0:
384,176,43301,1,0,0:0:0:0:
384,192,43365,1,2,0:0:0:0:
384,208,43429,1,0,0:0:0:0:
384,224,43493,1,0,0:0:0:0:
384,240,43557,1,0,0:0:0:0:
384,256,43622,1,2,0:0:0:0:
384,272,43687,1,0,0:0:0:0:
384,288,43751,1,0,0:0:0:0:
384,304,43815,1,0,0:0:0:0:
384,320,43879,6,0,L|320:320,3,35,2|0|0|0,0:0|0:0|0:0|0:0,0:0:0:0:
320,320,44135,2,0,L|256:320,3,35,2|0|0|0,0:0|0:0|0:0|0:0,0:0:0:0:
256,320,44392,2,0,L|192:320,3,35,2|0|0|0,0:0|0:0|0:0|0:0,0:0:0:0:
192,320,44648,2,0,L|128:320,3,35,2|0|0|0,0:0|0:0|0:0|0:0,0:0:0:0:
128,320,44905,6,0,L|128:256,3,35,2|0|0|0,0:0|0:0|0:0|0:0,0:0:0:0:
128,256,45161,2,0,L|128:192,3,35,2|0|0|0,0:0|0:0|0:0|0:0,0:0:0:0:
128,192,45418,2,0,L|128:128,3,35,2|0|0|0,0:0|0:0|0:0|0:0,0:0:0:0:
128,128,45674,2,0,L|128:64,3,35,2|0|0|0,0:0|0:0|0:0|0:0,0:0:0:0:
128,64,45930,5,2,0:0:0:0:
144,64,45994,1,0,0:0:0:0:
160,64,46058,1,0,0:0:0:0:
176,64,46122,1,0,0:0:0:0:
192,64,46186,1,2,0:0:0:0:
208,64,46250,1,0,0:0:0:0:
224,64,46314,1,0,0:0:0:0:
240,64,46378,1,0,0:0:0:0:
256,64,46442,1,2,0:0:0:0:
272,64,46506,1,0,0:0:0:0:
288,64,46570,1,0,0:0:0:0:
304,64,46634,1,0,0:0:0:0:
320,64,46698,1,2,0:0:0:0:
336,64,46763,1,0,0:0:0:0:
352,64,46827,1,0,0:0:0:0:
368,64,46891,1,0,0:0:0:0:
384,64,46955,5,2,0:0:0:0:
384,80,47019,1,0,0:0:0:0:
384,96,47083,1,0,0:0:0:0:
384,112,47147,1,0,0:0:0:0:
384,128,47211,1,2,0:0:0:0:
384,144,47275,1,0,0:0:0:0:
384,160,47339,1,0,0:0:0:0:
384,176,47405,1,0,0:0:0:0:
384,192,47469,1,2,0:0:0:0:
384,208,47533,1,0,0:0:0:0:
384,224,47597,1,0,0:0:0:0:
384,240,47661,1,0,0:0:0:0:
384,256,47724,1,2,0:0:0:0:
384,272,47789,1,0,0:0:0:0:
384,288,47853,1,0,0:0:0:0:
384,304,47917,1,0,0:0:0:0:
384,320,47981,6,0,L|320:320,3,35,2|0|0|0,0:0|0:0|0:0|0:0,0:0:0:0:
320,320,48237,2,0,L|256:320,3,35,2|0|0|0,0:0|0:0|0:0|0:0,0:0:0:0:
256,320,48494,2,0,L|192:320,3,35,2|0|0|0,0:0|0:0|0:0|0:0,0:0:0:0:
192,320,48750,2,0,L|128:320,3,35,2|0|0|0,0:0|0:0|0:0|0:0,0:0:0:0:
128,320,49007,6,0,L|128:256,3,35,2|0|0|0,0:0|0:0|0:0|0:0,0:0:0:0:
128,256,49263,2,0,L|128:192,3,35,2|0|0|0,0:0|0:0|0:0|0:0,0:0:0:0:
128,192,49520,2,0,L|128:128,3,35,2|0|0|0,0:0|0:0|0:0|0:0,0:0:0:0:
128,128,49776,2,0,L|128:64,3,35,2|0|0|0,0:0|0:0|0:0|0:0,0:0:0:0:
128,64,50033,5,2,0:0:0:0:
144,64,50097,1,0,0:0:0:0:
160,64,50161,1,0,0:0:0:0:
176,64,50225,1,0,0:0:0:0:
192,64,50289,1,2,0:0:0:0:
208,64,50353,1,0,0:0:0:0:
224,64,50417,1,0,0:0:0:0:
240,64,50481,1,0,0:0:0:0:
256,64,50545,1,2,0:0:0:0:
272,64,50609,1,0,0:0:0:0:
288,64,50673,1,0,0:0:0:0:
304,64,50737,1,0,0:0:0:0:
320,64,50801,1,2,0:0:0:0:
336,64,50866,1,0,0:0:0:0:
352,64,50930,1,0,0:0:0:0:
368,64,50994,1,0,0:0:0:0:
384,64,51058,5,2,0:0:0:0:
384,80,51122,1,0,0:0:0:0:
384,96,51186,1,0,0:0:0:0:
384,112,51250,1,0,0:0:0:0:
384,128,51314,1,2,0:0:0:0:
384,144,51378,1,0,0:0:0:0:
384,160,51442,1,0,0:0:0:0:
384,176,51506,1,0,0:0:0:0:
384,192,51570,1,2,0:0:0:0:
384,208,51634,1,0,0:0:0:0:
384,224,51698,1,0,0:0:0:0:
384,240,51762,1,0,0:0:0:0:
384,256,51827,1,2,0:0:0:0:
384,272,51892,1,0,0:0:0:0:
384,288,51956,1,0,0:0:0:0:
384,304,52020,1,0,0:0:0:0:
384,320,52084,6,0,L|320:320,3,35,2|0|0|0,0:0|0:0|0:0|0:0,0:0:0:0:
320,320,52340,2,0,L|256:320,3,35,2|0|0|0,0:0|0:0|0:0|0:0,0:0:0:0:
256,320,52597,2,0,L|192:320,3,35,2|0|0|0,0:0|0:0|0:0|0:0,0:0:0:0:
192,320,52853,2,0,L|128:320,3,35,2|0|0|0,0:0|0:0|0:0|0:0,0:0:0:0:
128,320,53110,6,0,L|128:256,3,35,2|0|0|0,0:0|0:0|0:0|0:0,0:0:0:0:
128,256,53366,2,0,L|128:192,3,35,2|0|0|0,0:0|0:0|0:0|0:0,0:0:0:0:
128,192,53623,2,0,L|128:128,3,35,2|0|0|0,0:0|0:0|0:0|0:0,0:0:0:0:
128,128,53879,2,0,L|128:64,3,35,2|0|0|0,0:0|0:0|0:0|0:0,0:0:0:0:
128,64,54135,5,2,0:0:0:0:
144,64,54199,1,0,0:0:0:0:
160,64,54263,1,0,0:0:0:0:
176,64,54327,1,0,0:0:0:0:
192,64,54391,1,2,0:0:0:0:
208,64,54455,1,0,0:0:0:0:
224,64,54519,1,0,0:0:0:0:
240,64,54583,1,0,0:0:0:0:
256,64,54647,1,2,0:0:0:0:
272,64,54711,1,0,0:0:0:0:
288,64,54775,1,0,0:0:0:0:
304,64,54839,1,0,0:0:0:0:
320,64,54903,1,2,0:0:0:0:
336,64,54968,1,0,0:0:0:0:
352,64,55032,1,0,0:0:0:0:
368,64,55096,1,0,0:0:0:0:
384,64,55160,5,2,0:0:0:0:
384,80,55224,1,0,0:0:0:0:
384,96,55288,1,0,0:0:0:0:
384,112,55352,1,0,0:0:0:0:
384,128,55416,1,2,0:0:0:0:
384,144,55480,1,0,0:0:0:0:
384,160,55544,1,0,0:0:0:0:
384,176,55610,1,0,0:0:0:0:
384,192,55674,1,2,0:0:0:0:
384,208,55738,1,0,0:0:0:0:
384,224,55802,1,0,0:0:0:0:
384,240,55866,1,0,0:0:0:0:
384,256,55929,1,2,0:0:0:0:
384,272,55994,1,0,0:0:0:0:
384,288,56058,1,0,0:0:0:0:
384,304,56122,1,0,0:0:0:0:
384,320,56186,6,0,L|320:320,3,35,2|0|0|0,0:0|0:0|0:0|0:0,0:0:0:0:
320,320,56442,2,0,L|256:320,3,35,2|0|0|0,0:0|0:0|0:0|0:0,0:0:0:0:
256,320,56699,2,0,L|192:320,3,35,2|0|0|0,0:0|0:0|0:0|0:0,0:0:0:0:
192,320,56955,2,0,L|128:320,3,35,2|0|0|0,0:0|0:0|0:0|0:0,0:0:0:0:
128,320,57212,6,0,L|128:256,3,35,2|0|0|0,0:0|0:0|0:0|0:0,0:0:0:0:
128,256,57468,2,0,L|128:192,3,35,2|0|0|0,0:0|0:0|0:0|0:0,0:0:0:0:
128,192,57725,2,0,L|128:128,3,35,2|0|0|0,0:0|0:0|0:0|0:0,0:0:0:0:
128,128,57981,2,0,L|128:64,3,35,2|0|0|0,0:0|0:0|0:0|0:0,0:0:0:0:
128,64,58238,5,2,0:0:0:0:
144,64,58302,1,0,0:0:0:0:
160,64,58366,1,0,0:0:0:0:
176,64,58430,1,0,0:0:0:0:
192,64,58494,1,2,0:0:0:0:
208,64,58558,1,0,0:0:0:0:
224,64,58622,1,0,0:0:0:0:
240,64,58686,1,0,0:0:0:0:
256,64,58750,1,2,0:0:0:0:
272,64,58814,1,0,0:0:0:0:
288,64,58878,1,0,0:0:0:0:
304,64,58942,1,0,0:0:0:0:
320,64,59006,1,2,0:0:0:0:
336,64,59071,1,0,0:0:0:0:
352,64,59135,1,0,0:0:0:0:
368,64,59199,1,0,0:0:0:0:
384,64,59263,5,2,0:0:0:0:
384,80,59327,1,0,0:0:0:0:
384,96,59391,1,0,0:0:0:0:
384,112,59455,1,0,0:0:0:0:
384,128,59519,1,2,0:0:0:0:
384,144,59583,1,0,0:0:0:0:
384,160,59647,1,0,0:0:0:0:
384,176,59711,1,0,0:0:0:0:
384,192,59775,1,2,0:0:0:0:
384,208,59839,1,0,0:0:0:0:
384,224,59903,1,0,0:0:0:0:
384,240,59967,1,0,0:0:0:0:
384,256,60032,1,2,0:0:0:0:
384,272,60097,1,0,0:0:0:0:
384,288,60161,1,0,0:0:0:0:
384,304,60225,1,0,0:0:0:0:
384,320,60289,6,0,L|320:320,3,35,2|0|0|0,0:0|0:0|0:0|0:0,0:0:0:0:
320,320,60545,2,0,L|256:320,3,35,2|0|0|0,0:0|0:0|0:0|0:0,0:0:0:0:
256,320,60802,2,0,L|192:320,3,35,2|0|0|0,0:0|0:0|0:0|0:0,0:0:0:0:
192,320,61058,2,0,L|128:320,3,35,2|0|0|0,0:0|0:0|0:0|0:0,0:0:0:0:
128,320,61315,6,0,L|128:256,3,35,2|0|0|0,0:0|0:0|0:0|0:0,0:0:0:0:
128,256,61571,2,0,L|128:192,3,35,2|0|0|0,0:0|0:0|0:0|0:0,0:0:0:0:
128,192,61828,2,0,L|128:128,3,35,2|0|0|0,0:0|0:0|0:0|0:0,0:0:0:0:
128,128,62084,2,0,L|128:64,3,35,2|0|0|0,0:0|0:0|0:0|0:0,0:0:0:0:
128,64,62340,5,2,0:0:0:0:
144,64,62404,1,0,0:0:0:0:
160,64,62468,1,0,0:0:0:0:
176,64,62532,1,0,0:0:0:0:
192,64,62596,1,2,0:0:0:0:
208,64,62660,1,0,0:0:0:0:
224,64,62724,1,0,0:0:0:0:
240,64,62788,1,0,0:0:0:0:
256,64,62852,1,2,0:0:0:0:
272,64,62916,1,0,0:0:0:0:
288,64,62980,1,0,0:0:0:0:
304,64,63044,1,0,0:0:0:0:
320,64,63108,1,2,0:0:0:0:
336,64,63173,1,0,0:0:0:0:
352,64,63237,1,0,0:0:0:0:
368,64,63301,1,0,0:0:0:0:
384,64,63365,5,2,0:0:0:0:
384,80,63429,1,0,0:0:0:0:
384,96,63493,1,0,0:0:0:0:
384,112,63557,1,0,0:0:0:0:
384,128,63621,1,2,0:0:0:0:
384,144,63685,1,0,0:0:0:0:
384,160,63749,1,0,0:0:0:0:
384,176,63815,1,0,0:0:0:0:
384,192,63879,1,2,0:0:0:0:
384,208,63943,1,0,0:0:0:0:
384,224,64007,1,0,0:0:0:0:
384,240,64071,1,0,0:0:0:0:
384,256,64134,1,2,0:0:0:0:
384,272,64199,1,0,0:0:0:0:
384,288,64263,1,0,0:0:0:0:
384,304,64327,1,0,0:0:0:0:
384,320,64391,6,0,L|320:320,3,35,2|0|0|0,0:0|0:0|0:0|0:0,0:0:0:0:
320,320,64647,2,0,L|256:320,3,35,2|0|0|0,0:0|0:0|0:0|0:0,0:0:0:0:
256,320,64904,2,0,L|192:320,3,35,2|0|0|0,0:0|0:0|0:0|0:0,0:0:0:0:
192,320,65160,2,0,L|128:320,3,35,2|0|0|0,0:0|0:0|0:0|0:0,0:0:0:0:
128,320,65417,6,0,L|128:256,3,35,2|0|0|0,0:0|0:0|0:0|0:0,0:0:0:0:
128,256,65673,2,0,L|128:192,3,35,2|0|0|0,0:0|0:0|0:0|0:0,0:0:0:0:
128,192,65930,2,0,L|128:128,3,35,2|0|0|0,0:0|0:0|0:0|0:0,0:0:0:0:
128,128,66186,2,0,L|128:64,3,35,2|0|0|0,0:0|0:0|0:0|0:0,0:0:0:0:
128,64,66444,5,2,0:0:0:0:
144,64,66508,1,0,0:0:0:0:
160,64,66572,1,0,0:0:0:0:
176,64,66636,1,0,0:0:0:0:
192,64,66700,1,2,0:0:0:0:
208,64,66764,1,0,0:0:0:0:
224,64,66828,1,0,0:0:0:0:
240,64,66892,1,0,0:0:0:0:
256,64,66956,1,2,0:0:0:0:
272,64,67020,1,0,0:0:0:0:
288,64,67084,1,0,0:0:0:0:
304,64,67148,1,0,0:0:0:0:
320,64,67212,1,2,0:0:0:0:
336,64,67277,1,0,0:0:0:0:
352,64,67341,1,0,0:0:0:0:
368,64,67405,1,0,0:0:0:0:
384,64,67469,5,2,0:0:0:0:
384,80,67533,1,0,0:0:0:0:
384,96,67597,1,0,0:0:0:0:
384,112,67661,1,0,0:0:0:0:
384,128,67725,1,2,0:0:0:0:
384,144,67789,1,0,0:0:0:0:
384,160,67853,1,0,0:0:0:0:
384,176,67917,1,0,0:0:0:0:
384,192,67981,1,2,0:0:0:0:
384,208,68045,1,0,0:0:0:0:
384,224,68109,1,0,0:0:0:0:
384,240,68173,1,0,0:0:0:0:
384,256,68238,1,2,0:0:0:0:
384,272,68303,1,0,0:0:0:0:
384,288,68367,1,0,0:0:0:0:
384,304,68431,1,0,0:0:0:0:
384,320,68495,6,0,L|320:320,3,35,2|0|0|0,0:0|0:0|0:0|0:0,0:0:0:0:
320,320,68751,2,0,L|256:320,3,35,2|0|0|0,0:0|0:0|0:0|0:0,0:0:0:0:
256,320,69008,2,0,L|192:320,3,35,2|0|0|0,0:0|0:0|0:0|0:0,0:0:0:0:
192,320,69264,2,0,L|128:320,3,35,2|0|0|0,0:0|0:0|0:0|0:0,0:0:0:0:
128,320,69521,6,0,L|128:256,3,35,2|0|0|0,0:0|0:0|0:0|0:0,0:0:0:0:
128,256,69777,2,0,L|128:192,3,35,2|0|0|0,0:0|0:0|0:0|0:0,0:0:0:0:
128,192,70034,2,0,L|128:128,3,35,2|0|0|0,0:0|0:0|0:0|0:0,0:0:0:0:
128,128,70290,2,0,L|128:64,3,35,2|0|0|0,0:0|0:0|0:0|0:0,0:0:0:0:
128,64,70546,5,2,0:0:0:0:
144,64,70610,1,0,0:0:0:0:
160,64,70674,1,0,0:0:0:0:
176,64,70738,1,0,0:0:0:0:
192,64,70802,1,2,0:0:0:0:
208,64,70866,1,0,0:0:0:0:
224,64,70930,1,0,0:0:0:0:
240,64,70994,1,0,0:0:0:0:
256,64,71058,1,2,0:0:0:0:
272,64,71122,1,0,0:0:0:0:
288,64,71186,1,0,0:0:0:0:
304,64,71250,1,0,0:0:0:0:
320,64,71314,1,2,0:0:0:0:
336,64,71379,1,0,0:0:0:0:
352,64,71443,1,0,0:0:0:0:
368,64,71507,1,0,0:0:0:0:
384,64,71571,5,2,0:0:0:0:
384,80,71635,1,0,0:0:0:0:
384,96,71699,1,0,0:0:0:0:
384,112,71763,1,0,0:0:0:0:
384,128,71827,1,2,0:0:0:0:
384,144,71891,1,0,0:0:0:0:
384,160,71955,1,0,0:0:0:0:
384,176,72021,1,0,0:0:0:0:
384,192,72085,1,2,0:0:0:0:
384,208,72149,1,0,0:0:0:0:
384,224,72213,1,0,0:0:0:0:
384,240,72277,1,0,0:0:0:0:
384,256,72340,1,2,0:0:0:0:
384,272,72405,1,0,0:0:0:0:
384,288,72469,1,0,0:0:0:0:
384,304,72533,1,0,0:0:0:0:
384,320,72597,6,0,L|320:320,3,35,2|0|0|0,0:0|0:0|0:0|0:0,0:0:0:0:
320,320,72853,2,0,L|256:320,3,35,2|0|0|0,0:0|0:0|0:0|0:0,0:0:0:0:
256,320,73110,2,0,L|192:320,3,35,2|0|0|0,0:0|0:0|0:0|0:0,0:0:0:0:
192,320,73366,2,0,L|128:320,3,35,2|0|0|0,0:0|0:0|0:0|0:0,0:0:0:0:
128,320,73623,6,0,L|128:256,3,35,2|0|0|0,0:0|0:0|0:0|0:0,0:0:0:0:
128,256,73879,2,0,L|128:192,3,35,2|0|0|0,0:0|0:0|0:0|0:0,0:0:0:0:
128,192,74136,2,0,L|128:128,3,35,2|0|0|0,0:0|0:0|0:0|0:0,0:0:0:0:
128,128,74392,2,0,L|128:64,3,35,2|0|0|0,0:0|0:0|0:0|0:0,0:0:0:0:
128,64,74649,5,2,0:0:0:0:
144,64,74713,1,0,0:0:0:0:
160,64,74777,1,0,0:0:0:0:
176,64,74841,1,0,0:0:0:0:
192,64,74905,1,2,0:0:0:0:
208,64,74969,1,0,0:0:0:0:
224,64,75033,1,0,0:0:0:0:
240,64,75097,1,0,0:0:0:0:
256,64,75161,1,2,0:0:0:0:
272,64,75225,1,0,0:0:0:0:
288,64,75289,1,0,0:0:0:0:
304,64,75353,1,0,0:0:0:0:
320,64,75417,1,2,0:0:0:0:
336,64,75482,1,0,0:0:0:0:
352,64,75546,1,0,0:0:0:0:
368,64,75610,1,0,0:0:0:0:
384,64,75674,5,2,0:0:0:0:
384,80,75738,1,0,0:0:0:0:
384,96,75802,1,0,0:0:0:0:
384,112,75866,1,0,0:0:0:0:
384,128,75930,1,2,0:0:0:0:
384,144,75994,1,0,0:0:0:0:
384,160,76058,1,0,0:0:0:0:
384,176,76122,1,0,0:0:0:0:
384,192,76186,1,2,0:0:0:0:
384,208,76250,1,0,0:0:0:0:
384,224,76314,1,0,0:0:0:0:
384,240,76378,1,0,0:0:0:0:
384,256,76443,1,2,0:0:0:0:
384,272,76508,1,0,0:0:0:0:
384,288,76572,1,0,0:0:0:0:
384,304,76636,1,0,0:0:0:0:
384,320,76700,6,0,L|320:320,3,35,2|0|0|0,0:0|0:0|0:0|0:0,0:0:0:0:
320,320,76956,2,0,L|256:320,3,35,2|0|0|0,0:0|0:0|0:0|0:0,0:0:0:0:
256,320,77213,2,0,L|192:320,3,35,2|0|0|0,0:0|0:0|0:0|0:0,0:0:0:0:
192,320,77469,2,0,L|128:320,3,35,2|0|0|0,0:0|0:0|0:0|0:0,0:0:0:0:
128,320,77726,6,0,L|128:256,3,35,2|0|0|0,0:0|0:0|0:0|0:0,0:0:0:0:
128,256,77982,2,0,L|128:192,3,35,2|0|0|0,0:0|0:0|0:0|0:0,0:0:0:0:
128,192,78239,2,0,L|128:128,3,35,2|0|0|0,0:0|0:0|0:0|0:0,0:0:0:0:
128,128,78495,2,0,L|128:64,3,35,2|0|0|0,0:0|0:0|0:0|0:0,0:0:0:0:
128,64,78751,5,2,0:0:0:0:
144,64,78815,1,0,0:0:0:0:
160,64,78879,1,0,0:0:0:0:
176,64,78943,1,0,0:0:0:0:
192,64,79007,1,2,0:0:0:0:
208,64,79071,1,0,0:0:0:0:
224,64,79135,1,0,0:0:0:0:
240,64,79199,1,0,0:0:0:0:
256,64,79263,1,2,0:0:0:0:
272,64,79327,1,0,0:0:0:0:
288,64,79391,1,0,0:0:0:0:
304,64,79455,1,0,0:0:0:0:
320,64,79519,1,2,0:0:0:0:
336,64,79584,1,0,0:0:0:0:
352,64,79648,1,0,0:0:0:0:
368,64,79712,1,0,0:0:0:0:
384,64,79776,5,2,0:0:0:0:
384,80,79840,1,0,0:0:0:0:
384,96,79904,1,0,0:0:0:0:
384,112,79968,1,0,0:0:0:0:
384,128,80032,1,2,0:0:0:0:
384,144,80096,1,0,0:0:0:0:
384,160,80160,1,0,0:0:0:0:
384,176,80226,1,0,0:0:0:0:
384,192,80290,1,2,0:0:0:0:
384,208,80354,1,0,0:0:0:0:
384,224,80418,1,0,0:0:0:0:
384,240,80482,1,0,0:0:0:0:
384,256,80545,1,2,0:0:0:0:
384,272,80610,1,0,0:0:0:0:
384,288,80674,1,0,0:0:0:0:
384,304,80738,1,0,0:0:0:0:
384,320,80802,6,0,L|320:320,3,35,2|0|0|0,0:0|0:0|0:0|0:0,0:0:0:0:
320,320,81058,2,0,L|256:320,3,35,2|0|0|0,0:0|0:0|0:0|0:0,0:0:0:0:
256,320,81315,2,0,L|192:320,3,35,2|0|0|0,0:0|0:0|0:0|0:0,0:0:0:0:
192,320,81571,2,0,L|128:320,3,35,2|0|0|0,0:0|0:0|0:0|0:0,0:0:0:0:
128,320,81828,6,0,L|128:256,3,35,2|0|0|0,0:0|0:0|0:0|0:0,0:0:0:0:
128,256,82084,2,0,L|128:192,3,35,2|0|0|0,0:0|0:0|0:0|0:0,0:0:0:0:
128,192,82341,2,0,L|128:128,3,35,2|0|0|0,0:0|0:0|0:0|0:0,0:0:0:0:
128,128,82597,2,0,L|128:64,3,35,2|0|0|0,0:0|0:0|0:0|0:0,0:0:0:0:
128,64,82854,5,2,0:0:0:0:
144,64,82918,1,0,0:0:0:0:
160,64,82982,1,0,0:0:0:0:
176,64,83046,1,0,0:0:0:0:
192,64,83110,1,2,0:0:0:0:
208,64,83174,1,0,0:0:0:0:
224,64,83238,1,0,0:0:0:0:
240,64,83302,1,0,0:0:0:0:
256,64,83366,1,2,0:0:0:0:
272,64,83430,1,0,0:0:0:0:
288,64,83494,1,0,0:0:0:0:
304,64,83558,1,0,0:0:0:0:
320,64,83622,1,2,0:0:0:0:
336,64,83687,1,0,0:0:0:0:
352,64,83751,1,0,0:0:0:0:
368,64,83815,1,0,0:0:0:0:
384,64,83879,5,2,0:0:0:0:
384,80,83943,1,0,0:0:0:0:
384,96,84007,1,0,0:0:0:0:
384,112,84071,1,0,0:0:0:0:
384,128,84135,1,2,0:0:0:0:
384,144,84199,1,0,0:0:0:0:
384,160,84263,1,0,0:0:0:0:
384,176,84327,1,0,0:0:0:0:
384,192,84391,1,2,0:0:0:0:
384,208,84455,1,0,0:0:0:0:
384,224,84519,1,0,0:0:0:0:
384,240,84583,1,0,0:0:0:0:
384,256,84648,1,2,0:0:0:0:
384,272,84713,1,0,0:0:0:0:
384,288,84777,1,0,0:0:0:0:
384,304,84841,1,0,0:0:0:0:
384,320,84905,6,0,L|320:320,3,35,2|0|0|0,0:0|0:0|0:0|0:0,0:0:0:0:
320,320,85161,2,0,L|256:320,3,35,2|0|0|0,0:0|0:0|0:0|0:0,0:0:0:0:
256,320,85418,2,0,L|192:320,3,35,2|0|0|0,0:0|0:0|0:0|0:0,0:0:0:0:
192,320,85674,2,0,L|128:320,3,35,2|0|0|0,0:0|0:0|0:0|0:0,0:0:0:0:
128,320,85931,6,0,L|128:256,3,35,2|0|0|0,0:0|0:0|0:0|0:0,0:0:0:0:
128,256,86187,2,0,L|128:192,3,35,2|0|0|0,0:0|0:0|0:0|0:0,0:0:0:0:
128,192,86444,2,0,L|128:128,3,35,2|0|0|0,0:0|0:0|0:0|0:0,0:0:0:0:
128,128,86700,2,0,L|128:64,3,35,2|0|0|0,0:0|0:0|0:0|0:0,0:0:0:0:
128,64,86956,5,2,0:0:0:0:
144,64,87020,1,0,0:0:0:0:
160,64,87084,1,0,0:0:0:0:
176,64,87148,1,0,0:0:0:0:
192,64,87212,1,2,0:0:0:0:
208,64,87276,1,0,0:0:0:0:
224,64,87340,1,0,0:0:0:0:
240,64,87404,1,0,0:0:0:0:
256,64,87468,1,2,0:0:0:0:
272,64,87532,1,0,0:0:0:0:
288,64,87596,1,0,0:0:0:0:
304,64,87660,1,0,0:0:0:0:
320,64,87724,1,2,0:0:0:0:
336,64,87789,1,0,0:0:0:0:
352,64,87853,1,0,0:0:0:0:
368,64,87917,1,0,0:0:0:0:
384,64,87981,5,2,0:0:0:0:
384,80,88045,1,0,0:0:0:0:
384,96,88109,1,0,0:0:0:0:
384,112,88173,1,0,0:0:0:0:
384,128,88237,1,2,0:0:0:0:
384,144,88301,1,0,0:0:0:0:
384,160,88365,1,0,0:0:0:0:
384,176,88431,1,0,0:0:0:0:
384,192,88495,1,2,0:0:0:0:
384,208,88559,1,0,0:0:0:0:
384,224,88623,1,0,0:0:0:0:
384,240,88687,1,0,0:0:0:0:
384,256,88750,1,2,0:0:0:0:
384,272,88815,1,0,0:0:0:0:
384,288,88879,1,0,0:0:0:0:
384,304,88943,1,0,0:0:0:0:
384,320,89007,6,0,L|320:320,3,35,2|0|0|0,0:0|0:0|0:0|0:0,0:0:0:0:
320,320,89263,2,0,L|256:320,3,35,2|0|0|0,0:0|0:0|0:0|0:0,0:0:0:0:
256,320,89520,2,0,L|192:320,3,35,2|0|0|0,0:0|0:0|0:0|0:0,0:0:0:0:
192,320,89776,2,0,L|128:320,3,35,2|0|0|0,0:0|0:0|0:0|0:0,0:0:0:0:
128,320,90033,6,0,L|128:256,3,35,2|0|0|0,0:0|0:0|0:0|0:0,0:0:0:0:
128,256,90289,2,0,L|128:192,3,35,2|0|0|0,0:0|0:0|0:0|0:0,0:0:0:0:
128,192,90546,2,0,L|128:128,3,35,2|0|0|0,0:0|0:0|0:0|0:0,0:0:0:0:
128,128,90802,2,0,L|128:64,3,35,2|0|0|0,0:0|0:0|0:0|0:0,0:0:0:0:
128,64,91059,5,2,0:0:0:0:
144,64,91123,1,0,0:0:0:0:
160,64,91187,1,0,0:0:0:0:
176,64,91251,1,0,0:0:0:0:
192,64,91315,1,2,0:0:0:0:
208,64,91379,1,0,0:0:0:0:
224,64,91443,1,0,0:0:0:0:
240,64,91507,1,0,0:0:0:0:
256,64,91571,1,2,0:0:0:0:
272,64,91635,1,0,0:0:0:0:
288,64,91699,1,0,0:0:0:0:
304,64,91763,1,0,0:0:0:0:
320,64,91827,1,2,0:0:0:0:
336,64,91892,1,0,0:0:0:0:
352,64,91956,1,0,0:0:0:0:
368,64,92020,1,0,0:0:0:0:
384,64,92084,5,2,0:0:0:0:
384,80,92148,1,0,0:0:0:0:
384,96,92212,1,0,0:0:0:0:
384,112,92276,1,0,0:0:0:0:
384,128,92340,1,2,0:0:0:0:
384,144,92404,1,0,0:0:0:0:
384,160,92468,1,0,0:0:0:0:
384,176,92532,1,0,0:0:0:0:
384,192,92596,1,2,0:0:0:0:
384,208,92660,1,0,0:0:0:0:
384,224,92724,1,0,0:0:0:0:
384,240,92788,1,0,0:0:0:0:
384,256,92853,1,2,0:0:0:0:
384,272,92918,1,0,0:0:0:0:
384,288,92982,1,0,0:0:0:0:
384,304,93046,1,0,0:0:0:0:
384,320,93110,6,0,L|320:320,3,35,2|0|0|0,0:0|0:0|0:0|0:0,0:0:0:0:
320,320,93366,2,0,L|256:320,3,35,2|0|0|0,0:0|0:0|0:0|0:0,0:0:0:0:
256,320,93623,2,0,L|192:320,3,35,2|0|0|0,0:0|0:0|0:0|0:0,0:0:0:0:
192,320,93879,2,0,L|128:320,3,35,2|0|0|0,0:0|0:0|0:0|0:0,0:0:0:0:
128,320,94136,6,0,L|128:256,3,35,2|0|0|0,0:0|0:0|0:0|0:0,0:0:0:0:
128,256,94392,2,0,L|128:192,3,35,2|0|0|0,0:0|0:0|0:0|0:0,0:0:0:0:
128,192,94649,2,0,L|128:128,3,35,2|0|0|0,0:0|0:0|0:0|0:0,0:0:0:0:
128,128,94905,2,0,L|128:64,3,35,2|0|0|0,0:0|0:0|0:0|0:0,0:0:0:0:
128,64,95161,5,2,0:0:0:0:
144,64,95225,1,0,0:0:0:0:
160,64,95289,1,0,0:0:0:0:
176,64,95353,1,0,0:0:0:0:
192,64,95417,1,2,0:0:0:0:
208,64,95481,1,0,0:0:0:0:
224,64,95545,1,0,0:0:0:0:
240,64,95609,1,0,0:0:0:0:
256,64,95673,1,2,0:0:0:0:
272,64,95737,1,0,0:0:0:0:
288,64,95801,1,0,0:0:0:0:
304,64,95865,1,0,0:0:0:0:
320,64,95929,1,2,0:0:0:0:
336,64,95994,1,0,0:0:0:0:
352,64,96058,1,0,0:0:0:0:
368,64,96122,1,0,0:0:0:0:
384,64,96186,5,2,0:0:0:0:
384,80,96250,1,0,0:0:0:0:
384,96,96314,1,0,0:0:0:0:
384,112,96378,1,0,0:0:0:0:
384,128,96442,1,2,0:0:0:0:
384,144,96506,1,0,0:0:0:0:
384,160,96570,1,0,0:0:0:0:
384,176,96636,1,0,0:0:0:0:
384,192,96700,1,2,0:0:0:0:
384,208,96764,1,0,0:0:0:0:
384,224,96828,1,0,0:0:0:0:
384,240,96892,1,0,0:0:0:0:
384,256,96955,1,2,0:0:0:0:
384,272,97020,1,0,0:0:0:0:
384,288,97084,1,0,0:0:0:0:
384,304,97148,1,0,0:0:0:0:
384,320,97212,6,0,L|320:320,3,35,2|0|0|0,0:0|0:0|0:0|0:0,0:0:0:0:
320,320,97468,2,0,L|256:320,3,35,2|0|0|0,0:0|0:0|0:0|0:0,0:0:0:0:
256,320,97725,2,0,L|192:320,3,35,2|0|0|0,0:0|0:0|0:0|0:0,0:0:0:0:
192,320,97981,2,0,L|128:320,3,35,2|0|0|0,0:0|0:0|0:0|0:0,0:0:0:0:
128,320,98238,6,0,L|128:256,3,35,2|0|0|0,0:0|0:0|0:0|0:0,0:0:0:0:
128,256,98494,2,0,L|128:192,3,35,2|0|0|0,0:0|0:0|0:0|0:0,0:0:0:0:
128,192,98751,2,0,L|128:128,3,35,2|0|0|0,0:0|0:0|0:0|0:0,0:0:0:0:
128,128,99007,2,0,L|128:64,3,35,2|0|0|0,0:0|0:0|0:0|0:0,0:0:0:0:
128,64,99264,5,2,0:0:0:0:
144,64,99328,1,0,0:0:0:0:
160,64,99392,1,0,0:0:0:0:
176,64,99456,1,0,0:0:0:0:
192,64,99520,1,2,0:0:0:0:
208,64,99584,1,0,0:0:0:0:
224,64,99648,1,0,0:0:0:0:
240,64,99712,1,0,0:0:0:0:
256,64,99776,1,2,0:0:0:0:
272,64,99840,1,0,0:0:0:0:
288,64,99904,1,0,0:0:0:0:
304,64,99968,1,0,0:0:0:0:
320,64,100032,1,2,0:0:0:0:
336,64,100097,1,0,0:0:0:0:
352,64,100161,1,0,0:0:0:0:
368,64,100225,1,0,0:0:0:0:
384,64,100289,5,2,0:0:0:0:
384,80,100353,1,0,0:0:0:0:
384,96,100417,1,0,0:0:0:0:
384,112,100481,1,0,0:0:0:0:
384,128,100545,1,2,0:0:0:0:
384,144,100609,1,0,0:0:0:0:
384,160,100673,1,0,0:0:0:0:
384,176,100737,1,0,0:0:0:0:
384,192,100801,1,2,0:0:0:0:
384,208,100865,1,0,0:0:0:0:
384,224,100929,1,0,0:0:0:0:
384,240,100993,1,0,0:0:0:0:
384,256,101058,1,2,0:0:0:0:
384,272,101123,1,0,0:0:0:0:
384,288,101187,1,0,0:0:0:0:
384,304,101251,1,0,0:0:0:0:
384,320,101315,6,0,L|320:320,3,35,2|0|0|0,0:0|0:0|0:0|0:0,0:0:0:0:
320,320,101571,2,0,L|256:320,3,35,2|0|0|0,0:0|0:0|0:0|0:0,0:0:0:0:
256,320,101828,2,0,L|192:320,3,35,2|0|0|0,0:0|0:0|0:0|0:0,0:0:0:0:
192,320,102084,2,0,L|128:320,3,35,2|0|0|0,0:0|0:0|0:0|0:0,0:0:0:0:
128,320,102341,6,0,L|128:256,3,35,2|0|0|0,0:0|0:0|0:0|0:0,0:0:0:0:
128,256,102597,2,0,L|128:192,3,35,2|0|0|0,0:0|0:0|0:0|0:0,0:0:0:0:
128,192,102854,2,0,L|128:128,3,35,2|0|0|0,0:0|0:0|0:0|0:0,0:0:0:0:
128,128,103110,2,0,L|128:64,3,35,2|0|0|0,0:0|0:0|0:0|0:0,0:0:0:0:
128,64,103366,5,2,0:0:0:0:
144,64,103430,1,0,0:0:0:0:
160,64,103494,1,0,0:0:0:0:
176,64,103558,1,0,0:0:0:0:
192,64,103622,1,2,0:0:0:0:
208,64,103686,1,0,0:0:0:0:
224,64,103750,1,0,0:0:0:0:
240,64,103814,1,0,0:0:0:0:
256,64,103878,1,2,0:0:0:0:
272,64,103942,1,0,0:0:0:0:
288,64,104006,1,0,0:0:0:0:
304,64,104070,1,0,0:0:0:0:
320,64,104134,1,2,0:0:0:0:
336,64,104199,1,0,0:0:0:0:
352,64,104263,1,0,0:0:0:0:
368,64,104327,1,0,0:0:0:0:
384,64,104391,5,2,0:0:0:0:
384,80,104455,1,0,0:0:0:0:
384,96,104519,1,0,0:0:0:0:
384,112,104583,1,0,0:0:0:0:
384,128,104647,1,2,0:0:0:0:
384,144,104711,1,0,0:0:0:0:
384,160,104775,1,0,0:0:0:0:
384,176,104841,1,0,0:0:0:0:
384,192,104905,1,2,0:0:0:0:
384,208,104969,1,0,0:0:0:0:
384,224,105033,1,0,0:0:0:0:
384,240,105097,1,0,0:0:0:0:
384,256,105160,1,2,0:0:0:0:
384,272,105225,1,0,0:0:0:0:
384,288,105289,1,0,0:0:0:0:
384,304,105353,1,0,0:0:0:0:
384,320,105417,6,0,L|320:320,3,35,2|0|0|0,0:0|0:0|0:0|0:0,0:0:0:0:
320,320,105673,2,0,L|256:320,3,35,2|0|0|0,0:0|0:0|0:0|0:0,0:0:0:0:
256,320,105930,2,0,L|192:320,3,35,2|0|0|0,0:0|0:0|0:0|0:0,0:0:0:0:
192,320,106186,2,0,L|128:320,3,35,2|0|0|0,0:0|0:0|0:0|0:0,0:0:0:0:
128,320,106443,6,0,L|128:256,3,35,2|0|0|0,0:0|0:0|0:0|0:0,0:0:0:0:
128,256,106699,2,0,L|128:192,3,35,2|0|0|0,0:0|0:0|0:0|0:0,0:0:0:0:
128,192,106956,2,0,L|128:128,3,35,2|0|0|0,0:0|0:0|0:0|0:0,0:0:0:0:
128,128,107212,2,0,L|128:64,3,35,2|0|0|0,0:0|0:0|0:0|0:0,0:0:0:0:
128,64,107469,5,2,0:0:0:0:
144,64,107533,1,0,0:0:0:0:
160,64,107597,1,0,0:0:0:0:
176,64,107661,1,0,0:0:0:0:
192,64,107725,1,2,0:0:0:0:
208,64,107789,1,0,0:0:0:0:
224,64,107853,1,0,0:0:0:0:
240,64,107917,1,0,0:0:0:0:
256,64,107981,1,2,0:0:0:0:
272,64,108045,1,0,0:0:0:0:
288,64,108109,1,0,0:0:0:0:
304,64,108173,1,0,0:0:0:0:
320,64,108237,1,2,0:0:0:0:
336,64,108302,1,0,0:0:0:0:
352,64,108366,1,0,0:0:0:0:
368,64,108430,1,0,0:0:0:0:
384,64,108494,5,2,0:0:0:0:
384,80,108558,1,0,0:0:0:0:
384,96,108622,1,0,0:0:0:0:
384,112,108686,1,0,0:0:0:0:
384,128,108750,1,2,0:0:0:0:
384,144,108814,1,0,0:0:0:0:
384,160,108878,1,0,0:0:0:0:
384,176,108942,1,0,0:0:0:0:
384,192,109006,1,2,0:0:0:0:
384,208,109070,1,0,0:0:0:0:
384,224,109134,1,0,0:0:0:0:
384,240,109198,1,0,0:0:0:0:
384,256,109263,1,2,0:0:0:0:
384,272,109328,1,0,0:0:0:0:
384,288,109392,1,0,0:0:0:0:
384,304,109456,1,0,0:0:0:0:
384,320,109520,6,0,L|320:320,3,35,2|0|0|0,0:0|0:0|0:0|0:0,0:0:0:0:
320,320,109776,2,0,L|256:320,3,35,2|0|0|0,0:0|0:0|0:0|0:0,0:0:0:0:
256,320,110033,2,0,L|192:320,3,35,2|0|0|0,0:0|0:0|0:0|0:0,0:0:0:0:
192,320,110289,2,0,L|128:320,3,35,2|0|0|0,0:0|0:0|0:0|0:0,0:0:0:0:
128,320,110546,6,0,L|128:256,3,35,2|0|0|0,0:0|0:0|0:0|0:0,0:0:0:0:
128,256,110802,2,0,L|128:192,3,35,2|0|0|0,0:0|0:0|0:0|0:0,0:0:0:0:
128,192,111059,2,0,L|128:128,3,35,2|0|0|0,0:0|0:0|0:0|0:0,0:0:0:0:
128,128,111315,2,0,L|128:64,3,35,2|0|0|0,0:0|0:0|0:0|0:0,0:0:0:0:
128,64,111571,5,2,0:0:0:0:
144,64,111635,1,0,0:0:0:0:
160,64,111699,1,0,0:0:0:0:
176,64,111763,1,0,0:0:0:0:
192,64,111827,1,2,0:0:0:0:
208,64,111891,1,0,0:0:0:0:
224,64,111955,1,0,0:0:0:0:
240,64,112019,1,0,0:0:0:0:
256,64,112083,1,2,0:0:0:0:
272,64,112147,1,0,0:0:0:0:
288,64,112211,1,0,0:0:0:0:
304,64,112275,1,0,0:0:0:0:
320,64,112339,1,2,0:0:0:0:
336,64,112404,1,0,0:0:0:0:
352,64,112468,1,0,0:0:0:0:
368,64,112532,1,0,0:0:0:0:
384,64,112596,5,2,0:0:0:0:
384,80,112660,1,0,0:0:0:0:
384,96,112724,1,0,0:0:0:0:
384,112,112788,1,0,0:0:0:0:
384,128,112852,1,2,0:0:0:0:
384,144,112916,1,0,0:0:0:0:
384,160,112980,1,0,0:0:0:0:
384,176,113046,1,0,0:0:0:0:
384,192,113110,1,2,0:0:0:0:
384,208,113174,1,0,0:0:0:0:
384,224,113238,1,0,0:0:0:0:
384,240,113302,1,0,0:0:0:0:
384,256,113365,1,2,0:0:0:0:
384,272,113430,1,0,0:0:0:0:
384,288,113494,1,0,0:0:0:0:
384,304,113558,1,0,0:0:0:0:
384,320,113622,6,0,L|320:320,3,35,2|0|0|0,0:0|0:0|0:0|0:0,0:0:0:0:
320,320,113878,2,0,L|256:320,3,35,2|0|0|0,0:0|0:0|0:0|0:0,0:0:0:0:
256,320,114135,2,0,L|192:320,3,35,2|0|0|0,0:0|0:0|0:0|0:0,0:0:0:0:
192,320,114391,2,0,L|128:320,3,35,2|0|0|0,0:0|0:0|0:0|0:0,0:0:0:0:
128,320,114648,6,0,L|128:256,3,35,2|0|0|0,0:0|0:0|0:0|0:0,0:0:0:0:
128,256,114904,2,0,L|128:192,3,35,2|0|0|0,0:0|0:0|0:0|0:0,0:0:0:0:
128,192,115161,2,0,L|128:128,3,35,2|0|0|0,0:0|0:0|0:0|0:0,0:0:0:0:
128,128,115417,2,0,L|128:64,3,35,2|0|0|0,0:0|0:0|0:0|0:0,0:0:0:0:
128,64,115674,5,2,0:0:0:0:
144,64,115738,1,0,0:0:0:0:
160,64,115802,1,0,0:0:0:0:
176,64,115866,1,0,0:0:0:0:
192,64,115930,1,2,0:0:0:0:
208,64,115994,1,0,0:0:0:0:
224,64,116058,1,0,0:0:0:0:
240,64,116122,1,0,0:0:0:0:
256,64,116186,1,2,0:0:0:0:
272,64,116250,1,0,0:0:0:0:
288,64,116314,1,0,0:0:0:0:
304,64,116378,1,0,0:0:0:0:
320,64,116442,1,2,0:0:0:0:
336,64,116507,1,0,0:0:0:0:
352,64,116571,1,0,0:0:0:0:
368,64,116635,1,0,0:0:0:0:
384,64,116699,5,2,0:0:0:0:
384,80,116763,1,0,0:0:0:0:
384,96,116827,1,0,0:0:0:0:
384,112,116891,1,0,0:0:0:0:
384,128,116955,1,2,0:0:0:0:
384,144,117019,1,0,0:0:0:0:
384,160,117083,1,0,0:0:0:0:
384,176,117149,1,0,0:0:0:0:
384,192,117213,1,2,0:0:0:0:
