osu file format v14

[General]
AudioFilename: figuruma.mp3
AudioLeadIn: 0
PreviewTime: -1
Countdown: 1
SampleSet: Soft
StackLeniency: 0.7
Mode: 0
LetterboxInBreaks: 1
WidescreenStoryboard: 0

[Editor]
DistanceSpacing: 0.8
BeatDivisor: 4
GridSize: 16
TimelineZoom: 1.7

[Metadata]
Title:Burst Stream Practice Maps 2
TitleUnicode:Burst Stream Practice Maps 2
Artist:Various Artists
ArtistUnicode:Various Artists
Creator:nooblet
Version:215 BPM base
Source:
Tags:
BeatmapID:1022678
BeatmapSetID:478861

[Difficulty]
HPDrainRate:0
CircleSize:4
OverallDifficulty:10
ApproachRate:10
SliderMultiplier:1.4
SliderTickRate:1

[Events]
//Background and Video events
//Break Periods
//Storyboard Layer 0 (Background)
//Storyboard Layer 1 (Fail)
//Storyboard Layer 2 (Pass)
//Storyboard Layer 3 (Foreground)
//Storyboard Sound Samples

[TimingPoints]
193,279.06976744186,4,2,0,100,1,0

[HitObjects]
128,64,9123,5,2,0:0:0:0:
144,64,9192,1,0,0:0:0:0:
160,64,9262,1,0,0:0:0:0:
176,64,9332,1,0,0:0:0:0:
192,64,9402,1,2,0:0:0:0:
208,64,9472,1,0,0:0:0:0:
224,64,9541,1,0,0:0:0:0:
240,64,9611,1,0,0:0:0:0:
256,64,9681,1,2,0:0:0:0:
272,64,9751,1,0,0:0:0:0:
288,64,9820,1,0,0:0:0:0:
304,64,9890,1,0,0:0:0:0:
320,64,9960,1,2,0:0:0:0:
336,64,10030,1,0,0:0:0:0:
352,64,10099,1,0,0:0:0:0:
368,64,10169,1,0,0:0:0:0:
384,64,10239,5,2,0:0:0:0:
384,80,10308,1,0,0:0:0:0:
384,96,10378,1,0,0:0:0:0:
384,112,10448,1,0,0:0:0:0:
384,128,10518,1,2,0:0:0:0:
384,144,10588,1,0,0:0:0:0:
384,160,10657,1,0,0:0:0:0:
384,176,10727,1,0,0:0:0:0:
384,192,10797,1,2,0:0:0:0:
384,208,10867,1,0,0:0:0:0:
384,224,10936,1,0,0:0:0:0:
384,240,11006,1,0,0:0:0:0:
384,256,11076,1,2,0:0:0:0:
384,272,11146,1,0,0:0:0:0:
384,288,11215,1,0,0:0:0:0:
384,304,11285,1,0,0:0:0:0:
384,320,11355,5,2,0:0:0:0:
368,320,11424,1,0,0:0:0:0:
352,320,11494,1,0,0:0:0:0:
336,320,11564,1,0,0:0:0:0:
320,320,11634,1,2,0:0:0:0:
304,320,11704,1,0,0:0:0:0:
288,320,11773,1,0,0:0:0:0:
272,320,11843,1,0,0:0:0:0:
256,320,11913,1,2,0:0:0:0:
240,320,11983,1,0,0:0:0:0:
224,320,12052,1,0,0:0:0:0:
208,320,12122,1,0,0:0:0:0:
192,320,12192,1,2,0:0:0:0:
176,320,12262,1,0,0:0:0:0:
160,320,12331,1,0,0:0:0:0:
144,320,12401,1,0,0:0:0:0:
128,320,12471,5,2,0:0:0:0:
128,304,12540,1,0,0:0:0:0:
128,288,12610,1,0,0:0:0:0:
128,272,12680,1,0,0:0:0:0:
128,256,12750,1,2,0:0:0:0:
128,240,12820,1,0,0:0:0:0:
128,224,12889,1,0,0:0:0:0:
128,207,12959,1,0,0:0:0:0:
128,192,13029,1,2,0:0:0:0:
128,176,13099,1,0,0:0:0:0:
128,160,13168,1,0,0:0:0:0:
128,144,13238,1,0,0:0:0:0:
128,128,13308,1,2,0:0:0:0:
128,112,13378,1,0,0:0:0:0:
128,96,13447,1,0,0:0:0:0:
128,80,13517,1,0,0:0:0:0:
