osu file format v14

[General]
AudioFilename: figuruma.mp3
AudioLeadIn: 0
PreviewTime: -1
Countdown: 1
SampleSet: None
StackLeniency: 0.7
Mode: 0
LetterboxInBreaks: 1
WidescreenStoryboard: 1

[Editor]
Bookmarks: 51541,111820,183262
DistanceSpacing: 0.8
BeatDivisor: 4
GridSize: 16
TimelineZoom: 1.7

[Metadata]
Title:Burst Stream Practice Maps 2
TitleUnicode:Burst Stream Practice Maps 2
Artist:Various Artists
ArtistUnicode:Various Artists
Creator:nooblet
Version:215 BPM 32 notes
Source:
Tags:
BeatmapID:1022676
BeatmapSetID:478861

[Difficulty]
HPDrainRate:0
CircleSize:4
OverallDifficulty:10
ApproachRate:10
SliderMultiplier:1.4
SliderTickRate:1

[Events]
//Background and Video events
//Break Periods
2,51671,61138
2,111950,121417
2,183391,192859
//Storyboard Layer 0 (Background)
//Storyboard Layer 1 (Fail)
//Storyboard Layer 2 (Pass)
//Storyboard Layer 3 (Foreground)
//Storyboard Sound Samples

[TimingPoints]
193,279.06976744186,4,2,0,100,1,0

[HitObjects]
128,64,9123,5,2,0:0:0:0:
144,64,9192,1,0,0:0:0:0:
160,64,9262,1,0,0:0:0:0:
176,64,9332,1,0,0:0:0:0:
192,64,9402,1,2,0:0:0:0:
208,64,9472,1,0,0:0:0:0:
224,64,9541,1,0,0:0:0:0:
240,64,9611,1,0,0:0:0:0:
256,64,9681,1,2,0:0:0:0:
272,64,9751,1,0,0:0:0:0:
288,64,9820,1,0,0:0:0:0:
304,64,9890,1,0,0:0:0:0:
320,64,9960,1,2,0:0:0:0:
336,64,10030,1,0,0:0:0:0:
352,64,10099,1,0,0:0:0:0:
368,64,10169,1,0,0:0:0:0:
384,64,10239,5,2,0:0:0:0:
384,80,10308,1,0,0:0:0:0:
384,96,10378,1,0,0:0:0:0:
384,112,10448,1,0,0:0:0:0:
384,128,10518,1,2,0:0:0:0:
384,144,10588,1,0,0:0:0:0:
384,160,10657,1,0,0:0:0:0:
384,176,10727,1,0,0:0:0:0:
384,192,10797,1,2,0:0:0:0:
384,208,10867,1,0,0:0:0:0:
384,224,10936,1,0,0:0:0:0:
384,240,11006,1,0,0:0:0:0:
384,256,11076,1,2,0:0:0:0:
384,272,11146,1,0,0:0:0:0:
384,288,11215,1,0,0:0:0:0:
384,304,11285,1,0,0:0:0:0:
384,320,11355,6,0,L|320:320,3,35,2|0|0|0,0:0|0:0|0:0|0:0,0:0:0:0:
320,320,11634,2,0,L|256:320,3,35,2|0|0|0,0:0|0:0|0:0|0:0,0:0:0:0:
256,320,11913,2,0,L|192:320,3,35,2|0|0|0,0:0|0:0|0:0|0:0,0:0:0:0:
192,320,12192,2,0,L|128:320,3,35,2|0|0|0,0:0|0:0|0:0|0:0,0:0:0:0:
128,320,12472,6,0,L|128:256,3,35,2|0|0|0,0:0|0:0|0:0|0:0,0:0:0:0:
128,256,12751,2,0,L|128:192,3,35,2|0|0|0,0:0|0:0|0:0|0:0,0:0:0:0:
128,192,13030,2,0,L|128:128,3,35,2|0|0|0,0:0|0:0|0:0|0:0,0:0:0:0:
128,128,13309,2,0,L|128:64,3,35,2|0|0|0,0:0|0:0|0:0|0:0,0:0:0:0:
128,64,13588,5,2,0:0:0:0:
144,64,13657,1,0,0:0:0:0:
160,64,13727,1,0,0:0:0:0:
176,64,13797,1,0,0:0:0:0:
192,64,13867,1,2,0:0:0:0:
208,64,13937,1,0,0:0:0:0:
224,64,14006,1,0,0:0:0:0:
240,64,14076,1,0,0:0:0:0:
256,64,14146,1,2,0:0:0:0:
272,64,14216,1,0,0:0:0:0:
288,64,14285,1,0,0:0:0:0:
304,64,14355,1,0,0:0:0:0:
320,64,14425,1,2,0:0:0:0:
336,64,14495,1,0,0:0:0:0:
352,64,14564,1,0,0:0:0:0:
368,64,14634,1,0,0:0:0:0:
384,64,14704,5,2,0:0:0:0:
384,80,14773,1,0,0:0:0:0:
384,96,14843,1,0,0:0:0:0:
384,112,14913,1,0,0:0:0:0:
384,128,14983,1,2,0:0:0:0:
384,144,15053,1,0,0:0:0:0:
384,160,15122,1,0,0:0:0:0:
384,176,15192,1,0,0:0:0:0:
384,192,15262,1,2,0:0:0:0:
384,208,15332,1,0,0:0:0:0:
384,224,15401,1,0,0:0:0:0:
384,240,15471,1,0,0:0:0:0:
384,256,15541,1,2,0:0:0:0:
384,272,15611,1,0,0:0:0:0:
384,288,15680,1,0,0:0:0:0:
384,304,15750,1,0,0:0:0:0:
384,320,15820,6,0,L|320:320,3,35,2|0|0|0,0:0|0:0|0:0|0:0,0:0:0:0:
320,320,16099,2,0,L|256:320,3,35,2|0|0|0,0:0|0:0|0:0|0:0,0:0:0:0:
256,320,16378,2,0,L|192:320,3,35,2|0|0|0,0:0|0:0|0:0|0:0,0:0:0:0:
192,320,16657,2,0,L|128:320,3,35,2|0|0|0,0:0|0:0|0:0|0:0,0:0:0:0:
128,320,16937,6,0,L|128:256,3,35,2|0|0|0,0:0|0:0|0:0|0:0,0:0:0:0:
128,256,17216,2,0,L|128:192,3,35,2|0|0|0,0:0|0:0|0:0|0:0,0:0:0:0:
128,192,17495,2,0,L|128:128,3,35,2|0|0|0,0:0|0:0|0:0|0:0,0:0:0:0:
128,128,17774,2,0,L|128:64,3,35,2|0|0|0,0:0|0:0|0:0|0:0,0:0:0:0:
128,64,18053,5,2,0:0:0:0:
144,64,18122,1,0,0:0:0:0:
160,64,18192,1,0,0:0:0:0:
176,64,18262,1,0,0:0:0:0:
192,64,18332,1,2,0:0:0:0:
208,64,18402,1,0,0:0:0:0:
224,64,18471,1,0,0:0:0:0:
240,64,18541,1,0,0:0:0:0:
256,64,18611,1,2,0:0:0:0:
272,64,18681,1,0,0:0:0:0:
288,64,18750,1,0,0:0:0:0:
304,64,18820,1,0,0:0:0:0:
320,64,18890,1,2,0:0:0:0:
336,64,18960,1,0,0:0:0:0:
352,64,19029,1,0,0:0:0:0:
368,64,19099,1,0,0:0:0:0:
384,64,19169,5,2,0:0:0:0:
384,80,19238,1,0,0:0:0:0:
384,96,19308,1,0,0:0:0:0:
384,112,19378,1,0,0:0:0:0:
384,128,19448,1,2,0:0:0:0:
384,144,19518,1,0,0:0:0:0:
384,160,19587,1,0,0:0:0:0:
384,176,19657,1,0,0:0:0:0:
384,192,19727,1,2,0:0:0:0:
384,208,19797,1,0,0:0:0:0:
384,224,19866,1,0,0:0:0:0:
384,240,19936,1,0,0:0:0:0:
384,256,20006,1,2,0:0:0:0:
384,272,20076,1,0,0:0:0:0:
384,288,20145,1,0,0:0:0:0:
384,304,20215,1,0,0:0:0:0:
384,320,20285,6,0,L|320:320,3,35,2|0|0|0,0:0|0:0|0:0|0:0,0:0:0:0:
320,320,20564,2,0,L|256:320,3,35,2|0|0|0,0:0|0:0|0:0|0:0,0:0:0:0:
256,320,20843,2,0,L|192:320,3,35,2|0|0|0,0:0|0:0|0:0|0:0,0:0:0:0:
192,320,21122,2,0,L|128:320,3,35,2|0|0|0,0:0|0:0|0:0|0:0,0:0:0:0:
128,320,21402,6,0,L|128:256,3,35,2|0|0|0,0:0|0:0|0:0|0:0,0:0:0:0:
128,256,21681,2,0,L|128:192,3,35,2|0|0|0,0:0|0:0|0:0|0:0,0:0:0:0:
128,192,21960,2,0,L|128:128,3,35,2|0|0|0,0:0|0:0|0:0|0:0,0:0:0:0:
128,128,22239,2,0,L|128:64,3,35,2|0|0|0,0:0|0:0|0:0|0:0,0:0:0:0:
128,64,22518,5,2,0:0:0:0:
144,64,22587,1,0,0:0:0:0:
160,64,22657,1,0,0:0:0:0:
176,64,22727,1,0,0:0:0:0:
192,64,22797,1,2,0:0:0:0:
208,64,22867,1,0,0:0:0:0:
224,64,22936,1,0,0:0:0:0:
240,64,23006,1,0,0:0:0:0:
256,64,23076,1,2,0:0:0:0:
272,64,23146,1,0,0:0:0:0:
288,64,23215,1,0,0:0:0:0:
304,64,23285,1,0,0:0:0:0:
320,64,23355,1,2,0:0:0:0:
336,64,23425,1,0,0:0:0:0:
352,64,23494,1,0,0:0:0:0:
368,64,23564,1,0,0:0:0:0:
384,64,23634,5,2,0:0:0:0:
384,80,23703,1,0,0:0:0:0:
384,96,23773,1,0,0:0:0:0:
384,112,23843,1,0,0:0:0:0:
384,128,23913,1,2,0:0:0:0:
384,144,23983,1,0,0:0:0:0:
384,160,24052,1,0,0:0:0:0:
384,176,24122,1,0,0:0:0:0:
384,192,24192,1,2,0:0:0:0:
384,208,24262,1,0,0:0:0:0:
384,224,24331,1,0,0:0:0:0:
384,240,24401,1,0,0:0:0:0:
384,256,24471,1,2,0:0:0:0:
384,272,24541,1,0,0:0:0:0:
384,288,24610,1,0,0:0:0:0:
384,304,24680,1,0,0:0:0:0:
384,320,24750,6,0,L|320:320,3,35,2|0|0|0,0:0|0:0|0:0|0:0,0:0:0:0:
320,320,25029,2,0,L|256:320,3,35,2|0|0|0,0:0|0:0|0:0|0:0,0:0:0:0:
256,320,25308,2,0,L|192:320,3,35,2|0|0|0,0:0|0:0|0:0|0:0,0:0:0:0:
192,320,25587,2,0,L|128:320,3,35,2|0|0|0,0:0|0:0|0:0|0:0,0:0:0:0:
128,320,25867,6,0,L|128:256,3,35,2|0|0|0,0:0|0:0|0:0|0:0,0:0:0:0:
128,256,26146,2,0,L|128:192,3,35,2|0|0|0,0:0|0:0|0:0|0:0,0:0:0:0:
128,192,26425,2,0,L|128:128,3,35,2|0|0|0,0:0|0:0|0:0|0:0,0:0:0:0:
128,128,26704,2,0,L|128:64,3,35,2|0|0|0,0:0|0:0|0:0|0:0,0:0:0:0:
128,64,26983,5,2,0:0:0:0:
144,64,27052,1,0,0:0:0:0:
160,64,27122,1,0,0:0:0:0:
176,64,27192,1,0,0:0:0:0:
192,64,27262,1,2,0:0:0:0:
208,64,27332,1,0,0:0:0:0:
224,64,27401,1,0,0:0:0:0:
240,64,27471,1,0,0:0:0:0:
256,64,27541,1,2,0:0:0:0:
272,64,27611,1,0,0:0:0:0:
288,64,27680,1,0,0:0:0:0:
304,64,27750,1,0,0:0:0:0:
320,64,27820,1,2,0:0:0:0:
336,64,27890,1,0,0:0:0:0:
352,64,27959,1,0,0:0:0:0:
368,64,28029,1,0,0:0:0:0:
384,64,28099,5,2,0:0:0:0:
384,80,28168,1,0,0:0:0:0:
384,96,28238,1,0,0:0:0:0:
384,112,28308,1,0,0:0:0:0:
384,128,28378,1,2,0:0:0:0:
384,144,28448,1,0,0:0:0:0:
384,160,28517,1,0,0:0:0:0:
384,176,28587,1,0,0:0:0:0:
384,192,28657,1,2,0:0:0:0:
384,208,28727,1,0,0:0:0:0:
384,224,28796,1,0,0:0:0:0:
384,240,28866,1,0,0:0:0:0:
384,256,28936,1,2,0:0:0:0:
384,272,29006,1,0,0:0:0:0:
384,288,29075,1,0,0:0:0:0:
384,304,29145,1,0,0:0:0:0:
384,320,29215,6,0,L|320:320,3,35,2|0|0|0,0:0|0:0|0:0|0:0,0:0:0:0:
320,320,29494,2,0,L|256:320,3,35,2|0|0|0,0:0|0:0|0:0|0:0,0:0:0:0:
256,320,29773,2,0,L|192:320,3,35,2|0|0|0,0:0|0:0|0:0|0:0,0:0:0:0:
192,320,30052,2,0,L|128:320,3,35,2|0|0|0,0:0|0:0|0:0|0:0,0:0:0:0:
128,320,30332,6,0,L|128:256,3,35,2|0|0|0,0:0|0:0|0:0|0:0,0:0:0:0:
128,256,30611,2,0,L|128:192,3,35,2|0|0|0,0:0|0:0|0:0|0:0,0:0:0:0:
128,192,30890,2,0,L|128:128,3,35,2|0|0|0,0:0|0:0|0:0|0:0,0:0:0:0:
128,128,31169,2,0,L|128:64,3,35,2|0|0|0,0:0|0:0|0:0|0:0,0:0:0:0:
128,64,31448,5,2,0:0:0:0:
144,64,31517,1,0,0:0:0:0:
160,64,31587,1,0,0:0:0:0:
176,64,31657,1,0,0:0:0:0:
192,64,31727,1,2,0:0:0:0:
208,64,31797,1,0,0:0:0:0:
224,64,31866,1,0,0:0:0:0:
240,64,31936,1,0,0:0:0:0:
256,64,32006,1,2,0:0:0:0:
272,64,32076,1,0,0:0:0:0:
288,64,32145,1,0,0:0:0:0:
304,64,32215,1,0,0:0:0:0:
320,64,32285,1,2,0:0:0:0:
336,64,32355,1,0,0:0:0:0:
352,64,32424,1,0,0:0:0:0:
368,64,32494,1,0,0:0:0:0:
384,64,32564,5,2,0:0:0:0:
384,80,32633,1,0,0:0:0:0:
384,96,32703,1,0,0:0:0:0:
384,112,32773,1,0,0:0:0:0:
384,128,32843,1,2,0:0:0:0:
384,144,32913,1,0,0:0:0:0:
384,160,32982,1,0,0:0:0:0:
384,176,33052,1,0,0:0:0:0:
384,192,33122,1,2,0:0:0:0:
384,208,33192,1,0,0:0:0:0:
384,224,33261,1,0,0:0:0:0:
384,240,33331,1,0,0:0:0:0:
384,256,33401,1,2,0:0:0:0:
384,272,33471,1,0,0:0:0:0:
384,288,33540,1,0,0:0:0:0:
384,304,33610,1,0,0:0:0:0:
384,320,33680,6,0,L|320:320,3,35,2|0|0|0,0:0|0:0|0:0|0:0,0:0:0:0:
320,320,33959,2,0,L|256:320,3,35,2|0|0|0,0:0|0:0|0:0|0:0,0:0:0:0:
256,320,34238,2,0,L|192:320,3,35,2|0|0|0,0:0|0:0|0:0|0:0,0:0:0:0:
192,320,34517,2,0,L|128:320,3,35,2|0|0|0,0:0|0:0|0:0|0:0,0:0:0:0:
128,320,34797,6,0,L|128:256,3,35,2|0|0|0,0:0|0:0|0:0|0:0,0:0:0:0:
128,256,35076,2,0,L|128:192,3,35,2|0|0|0,0:0|0:0|0:0|0:0,0:0:0:0:
128,192,35355,2,0,L|128:128,3,35,2|0|0|0,0:0|0:0|0:0|0:0,0:0:0:0:
128,128,35634,2,0,L|128:64,3,35,2|0|0|0,0:0|0:0|0:0|0:0,0:0:0:0:
128,64,35913,5,2,0:0:0:0:
144,64,35982,1,0,0:0:0:0:
160,64,36052,1,0,0:0:0:0:
176,64,36122,1,0,0:0:0:0:
192,64,36192,1,2,0:0:0:0:
208,64,36262,1,0,0:0:0:0:
224,64,36331,1,0,0:0:0:0:
240,64,36401,1,0,0:0:0:0:
256,64,36471,1,2,0:0:0:0:
272,64,36541,1,0,0:0:0:0:
288,64,36610,1,0,0:0:0:0:
304,64,36680,1,0,0:0:0:0:
320,64,36750,1,2,0:0:0:0:
336,64,36820,1,0,0:0:0:0:
352,64,36889,1,0,0:0:0:0:
368,64,36959,1,0,0:0:0:0:
384,64,37029,5,2,0:0:0:0:
384,80,37098,1,0,0:0:0:0:
384,96,37168,1,0,0:0:0:0:
384,112,37238,1,0,0:0:0:0:
384,128,37308,1,2,0:0:0:0:
384,144,37378,1,0,0:0:0:0:
384,160,37447,1,0,0:0:0:0:
384,176,37517,1,0,0:0:0:0:
384,192,37587,1,2,0:0:0:0:
384,208,37657,1,0,0:0:0:0:
384,224,37726,1,0,0:0:0:0:
384,240,37796,1,0,0:0:0:0:
384,256,37866,1,2,0:0:0:0:
384,272,37936,1,0,0:0:0:0:
384,288,38005,1,0,0:0:0:0:
384,304,38075,1,0,0:0:0:0:
384,320,38145,6,0,L|320:320,3,35,2|0|0|0,0:0|0:0|0:0|0:0,0:0:0:0:
320,320,38424,2,0,L|256:320,3,35,2|0|0|0,0:0|0:0|0:0|0:0,0:0:0:0:
256,320,38703,2,0,L|192:320,3,35,2|0|0|0,0:0|0:0|0:0|0:0,0:0:0:0:
192,320,38982,2,0,L|128:320,3,35,2|0|0|0,0:0|0:0|0:0|0:0,0:0:0:0:
128,320,39262,6,0,L|128:256,3,35,2|0|0|0,0:0|0:0|0:0|0:0,0:0:0:0:
128,256,39541,2,0,L|128:192,3,35,2|0|0|0,0:0|0:0|0:0|0:0,0:0:0:0:
128,192,39820,2,0,L|128:128,3,35,2|0|0|0,0:0|0:0|0:0|0:0,0:0:0:0:
128,128,40099,2,0,L|128:64,3,35,2|0|0|0,0:0|0:0|0:0|0:0,0:0:0:0:
128,64,40378,5,2,0:0:0:0:
144,64,40447,1,0,0:0:0:0:
160,64,40517,1,0,0:0:0:0:
176,64,40587,1,0,0:0:0:0:
192,64,40657,1,2,0:0:0:0:
208,64,40727,1,0,0:0:0:0:
224,64,40796,1,0,0:0:0:0:
240,64,40866,1,0,0:0:0:0:
256,64,40936,1,2,0:0:0:0:
272,64,41006,1,0,0:0:0:0:
288,64,41075,1,0,0:0:0:0:
304,64,41145,1,0,0:0:0:0:
320,64,41215,1,2,0:0:0:0:
336,64,41285,1,0,0:0:0:0:
352,64,41354,1,0,0:0:0:0:
368,64,41424,1,0,0:0:0:0:
384,64,41494,5,2,0:0:0:0:
384,80,41563,1,0,0:0:0:0:
384,96,41633,1,0,0:0:0:0:
384,112,41703,1,0,0:0:0:0:
384,128,41773,1,2,0:0:0:0:
384,144,41843,1,0,0:0:0:0:
384,160,41912,1,0,0:0:0:0:
384,176,41982,1,0,0:0:0:0:
384,192,42052,1,2,0:0:0:0:
384,208,42122,1,0,0:0:0:0:
384,224,42191,1,0,0:0:0:0:
384,240,42261,1,0,0:0:0:0:
384,256,42331,1,2,0:0:0:0:
384,272,42401,1,0,0:0:0:0:
384,288,42470,1,0,0:0:0:0:
384,304,42540,1,0,0:0:0:0:
384,320,42610,6,0,L|320:320,3,35,2|0|0|0,0:0|0:0|0:0|0:0,0:0:0:0:
320,320,42889,2,0,L|256:320,3,35,2|0|0|0,0:0|0:0|0:0|0:0,0:0:0:0:
256,320,43168,2,0,L|192:320,3,35,2|0|0|0,0:0|0:0|0:0|0:0,0:0:0:0:
192,320,43447,2,0,L|128:320,3,35,2|0|0|0,0:0|0:0|0:0|0:0,0:0:0:0:
128,320,43727,6,0,L|128:256,3,35,2|0|0|0,0:0|0:0|0:0|0:0,0:0:0:0:
128,256,44006,2,0,L|128:192,3,35,2|0|0|0,0:0|0:0|0:0|0:0,0:0:0:0:
128,192,44285,2,0,L|128:128,3,35,2|0|0|0,0:0|0:0|0:0|0:0,0:0:0:0:
128,128,44564,2,0,L|128:64,3,35,2|0|0|0,0:0|0:0|0:0|0:0,0:0:0:0:
128,64,44844,5,2,0:0:0:0:
144,64,44913,1,0,0:0:0:0:
160,64,44983,1,0,0:0:0:0:
176,64,45053,1,0,0:0:0:0:
192,64,45123,1,2,0:0:0:0:
208,64,45193,1,0,0:0:0:0:
224,64,45262,1,0,0:0:0:0:
240,64,45332,1,0,0:0:0:0:
256,64,45402,1,2,0:0:0:0:
272,64,45472,1,0,0:0:0:0:
288,64,45541,1,0,0:0:0:0:
304,64,45611,1,0,0:0:0:0:
320,64,45681,1,2,0:0:0:0:
336,64,45751,1,0,0:0:0:0:
352,64,45820,1,0,0:0:0:0:
368,64,45890,1,0,0:0:0:0:
384,64,45960,5,2,0:0:0:0:
384,80,46029,1,0,0:0:0:0:
384,96,46099,1,0,0:0:0:0:
384,112,46169,1,0,0:0:0:0:
384,128,46239,1,2,0:0:0:0:
384,144,46309,1,0,0:0:0:0:
384,160,46378,1,0,0:0:0:0:
384,176,46448,1,0,0:0:0:0:
384,192,46518,1,2,0:0:0:0:
384,208,46588,1,0,0:0:0:0:
384,224,46657,1,0,0:0:0:0:
384,240,46727,1,0,0:0:0:0:
384,256,46797,1,2,0:0:0:0:
384,272,46867,1,0,0:0:0:0:
384,288,46936,1,0,0:0:0:0:
384,304,47006,1,0,0:0:0:0:
384,320,47076,6,0,L|320:320,3,35,2|0|0|0,0:0|0:0|0:0|0:0,0:0:0:0:
320,320,47355,2,0,L|256:320,3,35,2|0|0|0,0:0|0:0|0:0|0:0,0:0:0:0:
256,320,47634,2,0,L|192:320,3,35,2|0|0|0,0:0|0:0|0:0|0:0,0:0:0:0:
192,320,47913,2,0,L|128:320,3,35,2|0|0|0,0:0|0:0|0:0|0:0,0:0:0:0:
128,320,48193,6,0,L|128:256,3,35,2|0|0|0,0:0|0:0|0:0|0:0,0:0:0:0:
128,256,48472,2,0,L|128:192,3,35,2|0|0|0,0:0|0:0|0:0|0:0,0:0:0:0:
128,192,48751,2,0,L|128:128,3,35,2|0|0|0,0:0|0:0|0:0|0:0,0:0:0:0:
128,128,49030,2,0,L|128:64,3,35,2|0|0|0,0:0|0:0|0:0|0:0,0:0:0:0:
128,64,49309,5,2,0:0:0:0:
144,64,49378,1,0,0:0:0:0:
160,64,49448,1,0,0:0:0:0:
176,64,49518,1,0,0:0:0:0:
192,64,49588,1,2,0:0:0:0:
208,64,49658,1,0,0:0:0:0:
224,64,49727,1,0,0:0:0:0:
240,64,49797,1,0,0:0:0:0:
256,64,49867,1,2,0:0:0:0:
272,64,49937,1,0,0:0:0:0:
288,64,50006,1,0,0:0:0:0:
304,64,50076,1,0,0:0:0:0:
320,64,50146,1,2,0:0:0:0:
336,64,50216,1,0,0:0:0:0:
352,64,50285,1,0,0:0:0:0:
368,64,50355,1,0,0:0:0:0:
384,64,50425,5,2,0:0:0:0:
384,80,50494,1,0,0:0:0:0:
384,96,50564,1,0,0:0:0:0:
384,112,50634,1,0,0:0:0:0:
384,128,50704,1,2,0:0:0:0:
384,144,50774,1,0,0:0:0:0:
384,160,50843,1,0,0:0:0:0:
384,176,50913,1,0,0:0:0:0:
384,192,50983,1,2,0:0:0:0:
384,208,51053,1,0,0:0:0:0:
384,224,51122,1,0,0:0:0:0:
384,240,51192,1,0,0:0:0:0:
384,256,51262,1,2,0:0:0:0:
384,272,51332,1,0,0:0:0:0:
384,288,51401,1,0,0:0:0:0:
384,304,51471,1,0,0:0:0:0:
128,64,61588,5,2,0:0:0:0:
144,64,61657,1,0,0:0:0:0:
160,64,61727,1,0,0:0:0:0:
176,64,61797,1,0,0:0:0:0:
192,64,61867,1,2,0:0:0:0:
208,64,61937,1,0,0:0:0:0:
224,64,62006,1,0,0:0:0:0:
240,64,62076,1,0,0:0:0:0:
256,64,62146,1,2,0:0:0:0:
272,64,62216,1,0,0:0:0:0:
288,64,62285,1,0,0:0:0:0:
304,64,62355,1,0,0:0:0:0:
320,64,62425,1,2,0:0:0:0:
336,64,62495,1,0,0:0:0:0:
352,64,62564,1,0,0:0:0:0:
368,64,62634,1,0,0:0:0:0:
384,64,62704,5,2,0:0:0:0:
384,80,62773,1,0,0:0:0:0:
384,96,62843,1,0,0:0:0:0:
384,112,62913,1,0,0:0:0:0:
384,128,62983,1,2,0:0:0:0:
384,144,63053,1,0,0:0:0:0:
384,160,63122,1,0,0:0:0:0:
384,176,63192,1,0,0:0:0:0:
384,192,63262,1,2,0:0:0:0:
384,208,63332,1,0,0:0:0:0:
384,224,63401,1,0,0:0:0:0:
384,240,63471,1,0,0:0:0:0:
384,256,63541,1,2,0:0:0:0:
384,272,63611,1,0,0:0:0:0:
384,288,63680,1,0,0:0:0:0:
384,304,63750,1,0,0:0:0:0:
384,320,63820,6,0,L|320:320,3,35,2|0|0|0,0:0|0:0|0:0|0:0,0:0:0:0:
320,320,64099,2,0,L|256:320,3,35,2|0|0|0,0:0|0:0|0:0|0:0,0:0:0:0:
256,320,64378,2,0,L|192:320,3,35,2|0|0|0,0:0|0:0|0:0|0:0,0:0:0:0:
192,320,64657,2,0,L|128:320,3,35,2|0|0|0,0:0|0:0|0:0|0:0,0:0:0:0:
128,320,64937,6,0,L|128:256,3,35,2|0|0|0,0:0|0:0|0:0|0:0,0:0:0:0:
128,256,65216,2,0,L|128:192,3,35,2|0|0|0,0:0|0:0|0:0|0:0,0:0:0:0:
128,192,65495,2,0,L|128:128,3,35,2|0|0|0,0:0|0:0|0:0|0:0,0:0:0:0:
128,128,65774,2,0,L|128:64,3,35,2|0|0|0,0:0|0:0|0:0|0:0,0:0:0:0:
128,64,66053,5,2,0:0:0:0:
144,64,66122,1,0,0:0:0:0:
160,64,66192,1,0,0:0:0:0:
176,64,66262,1,0,0:0:0:0:
192,64,66332,1,2,0:0:0:0:
208,64,66402,1,0,0:0:0:0:
224,64,66471,1,0,0:0:0:0:
240,64,66541,1,0,0:0:0:0:
256,64,66611,1,2,0:0:0:0:
272,64,66681,1,0,0:0:0:0:
288,64,66750,1,0,0:0:0:0:
304,64,66820,1,0,0:0:0:0:
320,64,66890,1,2,0:0:0:0:
336,64,66960,1,0,0:0:0:0:
352,64,67029,1,0,0:0:0:0:
368,64,67099,1,0,0:0:0:0:
384,64,67169,5,2,0:0:0:0:
384,80,67238,1,0,0:0:0:0:
384,96,67308,1,0,0:0:0:0:
384,112,67378,1,0,0:0:0:0:
384,128,67448,1,2,0:0:0:0:
384,144,67518,1,0,0:0:0:0:
384,160,67587,1,0,0:0:0:0:
384,176,67657,1,0,0:0:0:0:
384,192,67727,1,2,0:0:0:0:
384,208,67797,1,0,0:0:0:0:
384,224,67866,1,0,0:0:0:0:
384,240,67936,1,0,0:0:0:0:
384,256,68006,1,2,0:0:0:0:
384,272,68076,1,0,0:0:0:0:
384,288,68145,1,0,0:0:0:0:
384,304,68215,1,0,0:0:0:0:
384,320,68285,6,0,L|320:320,3,35,2|0|0|0,0:0|0:0|0:0|0:0,0:0:0:0:
320,320,68564,2,0,L|256:320,3,35,2|0|0|0,0:0|0:0|0:0|0:0,0:0:0:0:
256,320,68843,2,0,L|192:320,3,35,2|0|0|0,0:0|0:0|0:0|0:0,0:0:0:0:
192,320,69122,2,0,L|128:320,3,35,2|0|0|0,0:0|0:0|0:0|0:0,0:0:0:0:
128,320,69402,6,0,L|128:256,3,35,2|0|0|0,0:0|0:0|0:0|0:0,0:0:0:0:
128,256,69681,2,0,L|128:192,3,35,2|0|0|0,0:0|0:0|0:0|0:0,0:0:0:0:
128,192,69960,2,0,L|128:128,3,35,2|0|0|0,0:0|0:0|0:0|0:0,0:0:0:0:
128,128,70239,2,0,L|128:64,3,35,2|0|0|0,0:0|0:0|0:0|0:0,0:0:0:0:
128,64,70518,5,2,0:0:0:0:
144,64,70587,1,0,0:0:0:0:
160,64,70657,1,0,0:0:0:0:
176,64,70727,1,0,0:0:0:0:
192,64,70797,1,2,0:0:0:0:
208,64,70867,1,0,0:0:0:0:
224,64,70936,1,0,0:0:0:0:
240,64,71006,1,0,0:0:0:0:
256,64,71076,1,2,0:0:0:0:
272,64,71146,1,0,0:0:0:0:
288,64,71215,1,0,0:0:0:0:
304,64,71285,1,0,0:0:0:0:
320,64,71355,1,2,0:0:0:0:
336,64,71425,1,0,0:0:0:0:
352,64,71494,1,0,0:0:0:0:
368,64,71564,1,0,0:0:0:0:
384,64,71634,5,2,0:0:0:0:
384,80,71703,1,0,0:0:0:0:
384,96,71773,1,0,0:0:0:0:
384,112,71843,1,0,0:0:0:0:
384,128,71913,1,2,0:0:0:0:
384,144,71983,1,0,0:0:0:0:
384,160,72052,1,0,0:0:0:0:
384,176,72122,1,0,0:0:0:0:
384,192,72192,1,2,0:0:0:0:
384,208,72262,1,0,0:0:0:0:
384,224,72331,1,0,0:0:0:0:
384,240,72401,1,0,0:0:0:0:
384,256,72471,1,2,0:0:0:0:
384,272,72541,1,0,0:0:0:0:
384,288,72610,1,0,0:0:0:0:
384,304,72680,1,0,0:0:0:0:
384,320,72750,6,0,L|320:320,3,35,2|0|0|0,0:0|0:0|0:0|0:0,0:0:0:0:
320,320,73029,2,0,L|256:320,3,35,2|0|0|0,0:0|0:0|0:0|0:0,0:0:0:0:
256,320,73308,2,0,L|192:320,3,35,2|0|0|0,0:0|0:0|0:0|0:0,0:0:0:0:
192,320,73587,2,0,L|128:320,3,35,2|0|0|0,0:0|0:0|0:0|0:0,0:0:0:0:
128,320,73867,6,0,L|128:256,3,35,2|0|0|0,0:0|0:0|0:0|0:0,0:0:0:0:
128,256,74146,2,0,L|128:192,3,35,2|0|0|0,0:0|0:0|0:0|0:0,0:0:0:0:
128,192,74425,2,0,L|128:128,3,35,2|0|0|0,0:0|0:0|0:0|0:0,0:0:0:0:
128,128,74704,2,0,L|128:64,3,35,2|0|0|0,0:0|0:0|0:0|0:0,0:0:0:0:
128,64,74983,5,2,0:0:0:0:
144,64,75052,1,0,0:0:0:0:
160,64,75122,1,0,0:0:0:0:
176,64,75192,1,0,0:0:0:0:
192,64,75262,1,2,0:0:0:0:
208,64,75332,1,0,0:0:0:0:
224,64,75401,1,0,0:0:0:0:
240,64,75471,1,0,0:0:0:0:
256,64,75541,1,2,0:0:0:0:
272,64,75611,1,0,0:0:0:0:
288,64,75680,1,0,0:0:0:0:
304,64,75750,1,0,0:0:0:0:
320,64,75820,1,2,0:0:0:0:
336,64,75890,1,0,0:0:0:0:
352,64,75959,1,0,0:0:0:0:
368,64,76029,1,0,0:0:0:0:
384,64,76099,5,2,0:0:0:0:
384,80,76168,1,0,0:0:0:0:
384,96,76238,1,0,0:0:0:0:
384,112,76308,1,0,0:0:0:0:
384,128,76378,1,2,0:0:0:0:
384,144,76448,1,0,0:0:0:0:
384,160,76517,1,0,0:0:0:0:
384,176,76587,1,0,0:0:0:0:
384,192,76657,1,2,0:0:0:0:
384,208,76727,1,0,0:0:0:0:
384,224,76796,1,0,0:0:0:0:
384,240,76866,1,0,0:0:0:0:
384,256,76936,1,2,0:0:0:0:
384,272,77006,1,0,0:0:0:0:
384,288,77075,1,0,0:0:0:0:
384,304,77145,1,0,0:0:0:0:
384,320,77215,6,0,L|320:320,3,35,2|0|0|0,0:0|0:0|0:0|0:0,0:0:0:0:
320,320,77494,2,0,L|256:320,3,35,2|0|0|0,0:0|0:0|0:0|0:0,0:0:0:0:
256,320,77773,2,0,L|192:320,3,35,2|0|0|0,0:0|0:0|0:0|0:0,0:0:0:0:
192,320,78052,2,0,L|128:320,3,35,2|0|0|0,0:0|0:0|0:0|0:0,0:0:0:0:
128,320,78332,6,0,L|128:256,3,35,2|0|0|0,0:0|0:0|0:0|0:0,0:0:0:0:
128,256,78611,2,0,L|128:192,3,35,2|0|0|0,0:0|0:0|0:0|0:0,0:0:0:0:
128,192,78890,2,0,L|128:128,3,35,2|0|0|0,0:0|0:0|0:0|0:0,0:0:0:0:
128,128,79169,2,0,L|128:64,3,35,2|0|0|0,0:0|0:0|0:0|0:0,0:0:0:0:
128,64,79448,5,2,0:0:0:0:
144,64,79517,1,0,0:0:0:0:
160,64,79587,1,0,0:0:0:0:
176,64,79657,1,0,0:0:0:0:
192,64,79727,1,2,0:0:0:0:
208,64,79797,1,0,0:0:0:0:
224,64,79866,1,0,0:0:0:0:
240,64,79936,1,0,0:0:0:0:
256,64,80006,1,2,0:0:0:0:
272,64,80076,1,0,0:0:0:0:
288,64,80145,1,0,0:0:0:0:
304,64,80215,1,0,0:0:0:0:
320,64,80285,1,2,0:0:0:0:
336,64,80355,1,0,0:0:0:0:
352,64,80424,1,0,0:0:0:0:
368,64,80494,1,0,0:0:0:0:
384,64,80564,5,2,0:0:0:0:
384,80,80633,1,0,0:0:0:0:
384,96,80703,1,0,0:0:0:0:
384,112,80773,1,0,0:0:0:0:
384,128,80843,1,2,0:0:0:0:
384,144,80913,1,0,0:0:0:0:
384,160,80982,1,0,0:0:0:0:
384,176,81052,1,0,0:0:0:0:
384,192,81122,1,2,0:0:0:0:
384,208,81192,1,0,0:0:0:0:
384,224,81261,1,0,0:0:0:0:
384,240,81331,1,0,0:0:0:0:
384,256,81401,1,2,0:0:0:0:
384,272,81471,1,0,0:0:0:0:
384,288,81540,1,0,0:0:0:0:
384,304,81610,1,0,0:0:0:0:
384,320,81680,6,0,L|320:320,3,35,2|0|0|0,0:0|0:0|0:0|0:0,0:0:0:0:
320,320,81959,2,0,L|256:320,3,35,2|0|0|0,0:0|0:0|0:0|0:0,0:0:0:0:
256,320,82238,2,0,L|192:320,3,35,2|0|0|0,0:0|0:0|0:0|0:0,0:0:0:0:
192,320,82517,2,0,L|128:320,3,35,2|0|0|0,0:0|0:0|0:0|0:0,0:0:0:0:
128,320,82797,6,0,L|128:256,3,35,2|0|0|0,0:0|0:0|0:0|0:0,0:0:0:0:
128,256,83076,2,0,L|128:192,3,35,2|0|0|0,0:0|0:0|0:0|0:0,0:0:0:0:
128,192,83355,2,0,L|128:128,3,35,2|0|0|0,0:0|0:0|0:0|0:0,0:0:0:0:
128,128,83634,2,0,L|128:64,3,35,2|0|0|0,0:0|0:0|0:0|0:0,0:0:0:0:
128,64,83913,5,2,0:0:0:0:
144,64,83982,1,0,0:0:0:0:
160,64,84052,1,0,0:0:0:0:
176,64,84122,1,0,0:0:0:0:
192,64,84192,1,2,0:0:0:0:
208,64,84262,1,0,0:0:0:0:
224,64,84331,1,0,0:0:0:0:
240,64,84401,1,0,0:0:0:0:
256,64,84471,1,2,0:0:0:0:
272,64,84541,1,0,0:0:0:0:
288,64,84610,1,0,0:0:0:0:
304,64,84680,1,0,0:0:0:0:
320,64,84750,1,2,0:0:0:0:
336,64,84820,1,0,0:0:0:0:
352,64,84889,1,0,0:0:0:0:
368,64,84959,1,0,0:0:0:0:
384,64,85029,5,2,0:0:0:0:
384,80,85098,1,0,0:0:0:0:
384,96,85168,1,0,0:0:0:0:
384,112,85238,1,0,0:0:0:0:
384,128,85308,1,2,0:0:0:0:
384,144,85378,1,0,0:0:0:0:
384,160,85447,1,0,0:0:0:0:
384,176,85517,1,0,0:0:0:0:
384,192,85587,1,2,0:0:0:0:
384,208,85657,1,0,0:0:0:0:
384,224,85726,1,0,0:0:0:0:
384,240,85796,1,0,0:0:0:0:
384,256,85866,1,2,0:0:0:0:
384,272,85936,1,0,0:0:0:0:
384,288,86005,1,0,0:0:0:0:
384,304,86075,1,0,0:0:0:0:
384,320,86145,6,0,L|320:320,3,35,2|0|0|0,0:0|0:0|0:0|0:0,0:0:0:0:
320,320,86424,2,0,L|256:320,3,35,2|0|0|0,0:0|0:0|0:0|0:0,0:0:0:0:
256,320,86703,2,0,L|192:320,3,35,2|0|0|0,0:0|0:0|0:0|0:0,0:0:0:0:
192,320,86982,2,0,L|128:320,3,35,2|0|0|0,0:0|0:0|0:0|0:0,0:0:0:0:
128,320,87262,6,0,L|128:256,3,35,2|0|0|0,0:0|0:0|0:0|0:0,0:0:0:0:
128,256,87541,2,0,L|128:192,3,35,2|0|0|0,0:0|0:0|0:0|0:0,0:0:0:0:
128,192,87820,2,0,L|128:128,3,35,2|0|0|0,0:0|0:0|0:0|0:0,0:0:0:0:
128,128,88099,2,0,L|128:64,3,35,2|0|0|0,0:0|0:0|0:0|0:0,0:0:0:0:
128,64,88379,5,2,0:0:0:0:
144,64,88448,1,0,0:0:0:0:
160,64,88518,1,0,0:0:0:0:
176,64,88588,1,0,0:0:0:0:
192,64,88658,1,2,0:0:0:0:
208,64,88728,1,0,0:0:0:0:
224,64,88797,1,0,0:0:0:0:
240,64,88867,1,0,0:0:0:0:
256,64,88937,1,2,0:0:0:0:
272,64,89007,1,0,0:0:0:0:
288,64,89076,1,0,0:0:0:0:
304,64,89146,1,0,0:0:0:0:
320,64,89216,1,2,0:0:0:0:
336,64,89286,1,0,0:0:0:0:
352,64,89355,1,0,0:0:0:0:
368,64,89425,1,0,0:0:0:0:
384,64,89495,5,2,0:0:0:0:
384,80,89564,1,0,0:0:0:0:
384,96,89634,1,0,0:0:0:0:
384,112,89704,1,0,0:0:0:0:
384,128,89774,1,2,0:0:0:0:
384,144,89844,1,0,0:0:0:0:
384,160,89913,1,0,0:0:0:0:
384,176,89983,1,0,0:0:0:0:
384,192,90053,1,2,0:0:0:0:
384,208,90123,1,0,0:0:0:0:
384,224,90192,1,0,0:0:0:0:
384,240,90262,1,0,0:0:0:0:
384,256,90332,1,2,0:0:0:0:
384,272,90402,1,0,0:0:0:0:
384,288,90471,1,0,0:0:0:0:
384,304,90541,1,0,0:0:0:0:
384,320,90611,6,0,L|320:320,3,35,2|0|0|0,0:0|0:0|0:0|0:0,0:0:0:0:
320,320,90890,2,0,L|256:320,3,35,2|0|0|0,0:0|0:0|0:0|0:0,0:0:0:0:
256,320,91169,2,0,L|192:320,3,35,2|0|0|0,0:0|0:0|0:0|0:0,0:0:0:0:
192,320,91448,2,0,L|128:320,3,35,2|0|0|0,0:0|0:0|0:0|0:0,0:0:0:0:
128,320,91728,6,0,L|128:256,3,35,2|0|0|0,0:0|0:0|0:0|0:0,0:0:0:0:
128,256,92007,2,0,L|128:192,3,35,2|0|0|0,0:0|0:0|0:0|0:0,0:0:0:0:
128,192,92286,2,0,L|128:128,3,35,2|0|0|0,0:0|0:0|0:0|0:0,0:0:0:0:
128,128,92565,2,0,L|128:64,3,35,2|0|0|0,0:0|0:0|0:0|0:0,0:0:0:0:
128,64,92844,5,2,0:0:0:0:
144,64,92913,1,0,0:0:0:0:
160,64,92983,1,0,0:0:0:0:
176,64,93053,1,0,0:0:0:0:
192,64,93123,1,2,0:0:0:0:
208,64,93193,1,0,0:0:0:0:
224,64,93262,1,0,0:0:0:0:
240,64,93332,1,0,0:0:0:0:
256,64,93402,1,2,0:0:0:0:
272,64,93472,1,0,0:0:0:0:
288,64,93541,1,0,0:0:0:0:
304,64,93611,1,0,0:0:0:0:
320,64,93681,1,2,0:0:0:0:
336,64,93751,1,0,0:0:0:0:
352,64,93820,1,0,0:0:0:0:
368,64,93890,1,0,0:0:0:0:
384,64,93960,5,2,0:0:0:0:
384,80,94029,1,0,0:0:0:0:
384,96,94099,1,0,0:0:0:0:
384,112,94169,1,0,0:0:0:0:
384,128,94239,1,2,0:0:0:0:
384,144,94309,1,0,0:0:0:0:
384,160,94378,1,0,0:0:0:0:
384,176,94448,1,0,0:0:0:0:
384,192,94518,1,2,0:0:0:0:
384,208,94588,1,0,0:0:0:0:
384,224,94657,1,0,0:0:0:0:
384,240,94727,1,0,0:0:0:0:
384,256,94797,1,2,0:0:0:0:
384,272,94867,1,0,0:0:0:0:
384,288,94936,1,0,0:0:0:0:
384,304,95006,1,0,0:0:0:0:
384,320,95076,6,0,L|320:320,3,35,2|0|0|0,0:0|0:0|0:0|0:0,0:0:0:0:
320,320,95355,2,0,L|256:320,3,35,2|0|0|0,0:0|0:0|0:0|0:0,0:0:0:0:
256,320,95634,2,0,L|192:320,3,35,2|0|0|0,0:0|0:0|0:0|0:0,0:0:0:0:
192,320,95913,2,0,L|128:320,3,35,2|0|0|0,0:0|0:0|0:0|0:0,0:0:0:0:
128,320,96193,6,0,L|128:256,3,35,2|0|0|0,0:0|0:0|0:0|0:0,0:0:0:0:
128,256,96472,2,0,L|128:192,3,35,2|0|0|0,0:0|0:0|0:0|0:0,0:0:0:0:
128,192,96751,2,0,L|128:128,3,35,2|0|0|0,0:0|0:0|0:0|0:0,0:0:0:0:
128,128,97030,2,0,L|128:64,3,35,2|0|0|0,0:0|0:0|0:0|0:0,0:0:0:0:
128,64,97309,5,2,0:0:0:0:
144,64,97378,1,0,0:0:0:0:
160,64,97448,1,0,0:0:0:0:
176,64,97518,1,0,0:0:0:0:
192,64,97588,1,2,0:0:0:0:
208,64,97658,1,0,0:0:0:0:
224,64,97727,1,0,0:0:0:0:
240,64,97797,1,0,0:0:0:0:
256,64,97867,1,2,0:0:0:0:
272,64,97937,1,0,0:0:0:0:
288,64,98006,1,0,0:0:0:0:
304,64,98076,1,0,0:0:0:0:
320,64,98146,1,2,0:0:0:0:
336,64,98216,1,0,0:0:0:0:
352,64,98285,1,0,0:0:0:0:
368,64,98355,1,0,0:0:0:0:
384,64,98425,5,2,0:0:0:0:
384,80,98494,1,0,0:0:0:0:
384,96,98564,1,0,0:0:0:0:
384,112,98634,1,0,0:0:0:0:
384,128,98704,1,2,0:0:0:0:
384,144,98774,1,0,0:0:0:0:
384,160,98843,1,0,0:0:0:0:
384,176,98913,1,0,0:0:0:0:
384,192,98983,1,2,0:0:0:0:
384,208,99053,1,0,0:0:0:0:
384,224,99122,1,0,0:0:0:0:
384,240,99192,1,0,0:0:0:0:
384,256,99262,1,2,0:0:0:0:
384,272,99332,1,0,0:0:0:0:
384,288,99401,1,0,0:0:0:0:
384,304,99471,1,0,0:0:0:0:
384,320,99541,6,0,L|320:320,3,35,2|0|0|0,0:0|0:0|0:0|0:0,0:0:0:0:
320,320,99820,2,0,L|256:320,3,35,2|0|0|0,0:0|0:0|0:0|0:0,0:0:0:0:
256,320,100099,2,0,L|192:320,3,35,2|0|0|0,0:0|0:0|0:0|0:0,0:0:0:0:
192,320,100378,2,0,L|128:320,3,35,2|0|0|0,0:0|0:0|0:0|0:0,0:0:0:0:
128,320,100658,6,0,L|128:256,3,35,2|0|0|0,0:0|0:0|0:0|0:0,0:0:0:0:
128,256,100937,2,0,L|128:192,3,35,2|0|0|0,0:0|0:0|0:0|0:0,0:0:0:0:
128,192,101216,2,0,L|128:128,3,35,2|0|0|0,0:0|0:0|0:0|0:0,0:0:0:0:
128,128,101495,2,0,L|128:64,3,35,2|0|0|0,0:0|0:0|0:0|0:0,0:0:0:0:
128,64,101774,5,2,0:0:0:0:
144,64,101843,1,0,0:0:0:0:
160,64,101913,1,0,0:0:0:0:
176,64,101983,1,0,0:0:0:0:
192,64,102053,1,2,0:0:0:0:
208,64,102123,1,0,0:0:0:0:
224,64,102192,1,0,0:0:0:0:
240,64,102262,1,0,0:0:0:0:
256,64,102332,1,2,0:0:0:0:
272,64,102402,1,0,0:0:0:0:
288,64,102471,1,0,0:0:0:0:
304,64,102541,1,0,0:0:0:0:
320,64,102611,1,2,0:0:0:0:
336,64,102681,1,0,0:0:0:0:
352,64,102750,1,0,0:0:0:0:
368,64,102820,1,0,0:0:0:0:
384,64,102890,5,2,0:0:0:0:
384,80,102959,1,0,0:0:0:0:
384,96,103029,1,0,0:0:0:0:
384,112,103099,1,0,0:0:0:0:
384,128,103169,1,2,0:0:0:0:
384,144,103239,1,0,0:0:0:0:
384,160,103308,1,0,0:0:0:0:
384,176,103378,1,0,0:0:0:0:
384,192,103448,1,2,0:0:0:0:
384,208,103518,1,0,0:0:0:0:
384,224,103587,1,0,0:0:0:0:
384,240,103657,1,0,0:0:0:0:
384,256,103727,1,2,0:0:0:0:
384,272,103797,1,0,0:0:0:0:
384,288,103866,1,0,0:0:0:0:
384,304,103936,1,0,0:0:0:0:
384,320,104006,6,0,L|320:320,3,35,2|0|0|0,0:0|0:0|0:0|0:0,0:0:0:0:
320,320,104285,2,0,L|256:320,3,35,2|0|0|0,0:0|0:0|0:0|0:0,0:0:0:0:
256,320,104564,2,0,L|192:320,3,35,2|0|0|0,0:0|0:0|0:0|0:0,0:0:0:0:
192,320,104843,2,0,L|128:320,3,35,2|0|0|0,0:0|0:0|0:0|0:0,0:0:0:0:
128,320,105123,6,0,L|128:256,3,35,2|0|0|0,0:0|0:0|0:0|0:0,0:0:0:0:
128,256,105402,2,0,L|128:192,3,35,2|0|0|0,0:0|0:0|0:0|0:0,0:0:0:0:
128,192,105681,2,0,L|128:128,3,35,2|0|0|0,0:0|0:0|0:0|0:0,0:0:0:0:
128,128,105960,2,0,L|128:64,3,35,2|0|0|0,0:0|0:0|0:0|0:0,0:0:0:0:
128,64,106239,5,2,0:0:0:0:
144,64,106308,1,0,0:0:0:0:
160,64,106378,1,0,0:0:0:0:
176,64,106448,1,0,0:0:0:0:
192,64,106518,1,2,0:0:0:0:
208,64,106588,1,0,0:0:0:0:
224,64,106657,1,0,0:0:0:0:
240,64,106727,1,0,0:0:0:0:
256,64,106797,1,2,0:0:0:0:
272,64,106867,1,0,0:0:0:0:
288,64,106936,1,0,0:0:0:0:
304,64,107006,1,0,0:0:0:0:
320,64,107076,1,2,0:0:0:0:
336,64,107146,1,0,0:0:0:0:
352,64,107215,1,0,0:0:0:0:
368,64,107285,1,0,0:0:0:0:
384,64,107355,5,2,0:0:0:0:
384,80,107424,1,0,0:0:0:0:
384,96,107494,1,0,0:0:0:0:
384,112,107564,1,0,0:0:0:0:
384,128,107634,1,2,0:0:0:0:
384,144,107704,1,0,0:0:0:0:
384,160,107773,1,0,0:0:0:0:
384,176,107843,1,0,0:0:0:0:
384,192,107913,1,2,0:0:0:0:
384,208,107983,1,0,0:0:0:0:
384,224,108052,1,0,0:0:0:0:
384,240,108122,1,0,0:0:0:0:
384,256,108192,1,2,0:0:0:0:
384,272,108262,1,0,0:0:0:0:
384,288,108331,1,0,0:0:0:0:
384,304,108401,1,0,0:0:0:0:
384,320,108471,6,0,L|320:320,3,35,2|0|0|0,0:0|0:0|0:0|0:0,0:0:0:0:
320,320,108750,2,0,L|256:320,3,35,2|0|0|0,0:0|0:0|0:0|0:0,0:0:0:0:
256,320,109029,2,0,L|192:320,3,35,2|0|0|0,0:0|0:0|0:0|0:0,0:0:0:0:
192,320,109308,2,0,L|128:320,3,35,2|0|0|0,0:0|0:0|0:0|0:0,0:0:0:0:
128,320,109588,6,0,L|128:256,3,35,2|0|0|0,0:0|0:0|0:0|0:0,0:0:0:0:
128,256,109867,2,0,L|128:192,3,35,2|0|0|0,0:0|0:0|0:0|0:0,0:0:0:0:
128,192,110146,2,0,L|128:128,3,35,2|0|0|0,0:0|0:0|0:0|0:0,0:0:0:0:
128,128,110425,2,0,L|128:64,3,35,2|0|0|0,0:0|0:0|0:0|0:0,0:0:0:0:
128,64,110704,5,2,0:0:0:0:
144,64,110773,1,0,0:0:0:0:
160,64,110843,1,0,0:0:0:0:
176,64,110913,1,0,0:0:0:0:
192,64,110983,1,2,0:0:0:0:
208,64,111053,1,0,0:0:0:0:
224,64,111122,1,0,0:0:0:0:
240,64,111192,1,0,0:0:0:0:
256,64,111262,1,2,0:0:0:0:
272,64,111332,1,0,0:0:0:0:
288,64,111401,1,0,0:0:0:0:
304,64,111471,1,0,0:0:0:0:
320,64,111541,1,2,0:0:0:0:
336,64,111611,1,0,0:0:0:0:
352,64,111680,1,0,0:0:0:0:
368,64,111750,1,0,0:0:0:0:
128,64,121867,5,2,0:0:0:0:
144,64,121936,1,0,0:0:0:0:
160,64,122006,1,0,0:0:0:0:
176,64,122076,1,0,0:0:0:0:
192,64,122146,1,2,0:0:0:0:
208,64,122216,1,0,0:0:0:0:
224,64,122285,1,0,0:0:0:0:
240,64,122355,1,0,0:0:0:0:
256,64,122425,1,2,0:0:0:0:
272,64,122495,1,0,0:0:0:0:
288,64,122564,1,0,0:0:0:0:
304,64,122634,1,0,0:0:0:0:
320,64,122704,1,2,0:0:0:0:
336,64,122774,1,0,0:0:0:0:
352,64,122843,1,0,0:0:0:0:
368,64,122913,1,0,0:0:0:0:
384,64,122983,5,2,0:0:0:0:
384,80,123052,1,0,0:0:0:0:
384,96,123122,1,0,0:0:0:0:
384,112,123192,1,0,0:0:0:0:
384,128,123262,1,2,0:0:0:0:
384,144,123332,1,0,0:0:0:0:
384,160,123401,1,0,0:0:0:0:
384,176,123471,1,0,0:0:0:0:
384,192,123541,1,2,0:0:0:0:
384,208,123611,1,0,0:0:0:0:
384,224,123680,1,0,0:0:0:0:
384,240,123750,1,0,0:0:0:0:
384,256,123820,1,2,0:0:0:0:
384,272,123890,1,0,0:0:0:0:
384,288,123959,1,0,0:0:0:0:
384,304,124029,1,0,0:0:0:0:
384,320,124099,6,0,L|320:320,3,35,2|0|0|0,0:0|0:0|0:0|0:0,0:0:0:0:
320,320,124378,2,0,L|256:320,3,35,2|0|0|0,0:0|0:0|0:0|0:0,0:0:0:0:
256,320,124657,2,0,L|192:320,3,35,2|0|0|0,0:0|0:0|0:0|0:0,0:0:0:0:
192,320,124936,2,0,L|128:320,3,35,2|0|0|0,0:0|0:0|0:0|0:0,0:0:0:0:
128,320,125216,6,0,L|128:256,3,35,2|0|0|0,0:0|0:0|0:0|0:0,0:0:0:0:
128,256,125495,2,0,L|128:192,3,35,2|0|0|0,0:0|0:0|0:0|0:0,0:0:0:0:
128,192,125774,2,0,L|128:128,3,35,2|0|0|0,0:0|0:0|0:0|0:0,0:0:0:0:
128,128,126053,2,0,L|128:64,3,35,2|0|0|0,0:0|0:0|0:0|0:0,0:0:0:0:
128,64,126332,5,2,0:0:0:0:
144,64,126401,1,0,0:0:0:0:
160,64,126471,1,0,0:0:0:0:
176,64,126541,1,0,0:0:0:0:
192,64,126611,1,2,0:0:0:0:
208,64,126681,1,0,0:0:0:0:
224,64,126750,1,0,0:0:0:0:
240,64,126820,1,0,0:0:0:0:
256,64,126890,1,2,0:0:0:0:
272,64,126960,1,0,0:0:0:0:
288,64,127029,1,0,0:0:0:0:
304,64,127099,1,0,0:0:0:0:
320,64,127169,1,2,0:0:0:0:
336,64,127239,1,0,0:0:0:0:
352,64,127308,1,0,0:0:0:0:
368,64,127378,1,0,0:0:0:0:
384,64,127448,5,2,0:0:0:0:
384,80,127517,1,0,0:0:0:0:
384,96,127587,1,0,0:0:0:0:
384,112,127657,1,0,0:0:0:0:
384,128,127727,1,2,0:0:0:0:
384,144,127797,1,0,0:0:0:0:
384,160,127866,1,0,0:0:0:0:
384,176,127936,1,0,0:0:0:0:
384,192,128006,1,2,0:0:0:0:
384,208,128076,1,0,0:0:0:0:
384,224,128145,1,0,0:0:0:0:
384,240,128215,1,0,0:0:0:0:
384,256,128285,1,2,0:0:0:0:
384,272,128355,1,0,0:0:0:0:
384,288,128424,1,0,0:0:0:0:
384,304,128494,1,0,0:0:0:0:
384,320,128564,6,0,L|320:320,3,35,2|0|0|0,0:0|0:0|0:0|0:0,0:0:0:0:
320,320,128843,2,0,L|256:320,3,35,2|0|0|0,0:0|0:0|0:0|0:0,0:0:0:0:
256,320,129122,2,0,L|192:320,3,35,2|0|0|0,0:0|0:0|0:0|0:0,0:0:0:0:
192,320,129401,2,0,L|128:320,3,35,2|0|0|0,0:0|0:0|0:0|0:0,0:0:0:0:
128,320,129681,6,0,L|128:256,3,35,2|0|0|0,0:0|0:0|0:0|0:0,0:0:0:0:
128,256,129960,2,0,L|128:192,3,35,2|0|0|0,0:0|0:0|0:0|0:0,0:0:0:0:
128,192,130239,2,0,L|128:128,3,35,2|0|0|0,0:0|0:0|0:0|0:0,0:0:0:0:
128,128,130518,2,0,L|128:64,3,35,2|0|0|0,0:0|0:0|0:0|0:0,0:0:0:0:
128,64,130797,5,2,0:0:0:0:
144,64,130866,1,0,0:0:0:0:
160,64,130936,1,0,0:0:0:0:
176,64,131006,1,0,0:0:0:0:
192,64,131076,1,2,0:0:0:0:
208,64,131146,1,0,0:0:0:0:
224,64,131215,1,0,0:0:0:0:
240,64,131285,1,0,0:0:0:0:
256,64,131355,1,2,0:0:0:0:
272,64,131425,1,0,0:0:0:0:
288,64,131494,1,0,0:0:0:0:
304,64,131564,1,0,0:0:0:0:
320,64,131634,1,2,0:0:0:0:
336,64,131704,1,0,0:0:0:0:
352,64,131773,1,0,0:0:0:0:
368,64,131843,1,0,0:0:0:0:
384,64,131913,5,2,0:0:0:0:
384,80,131982,1,0,0:0:0:0:
384,96,132052,1,0,0:0:0:0:
384,112,132122,1,0,0:0:0:0:
384,128,132192,1,2,0:0:0:0:
384,144,132262,1,0,0:0:0:0:
384,160,132331,1,0,0:0:0:0:
384,176,132401,1,0,0:0:0:0:
384,192,132471,1,2,0:0:0:0:
384,208,132541,1,0,0:0:0:0:
384,224,132610,1,0,0:0:0:0:
384,240,132680,1,0,0:0:0:0:
384,256,132750,1,2,0:0:0:0:
384,272,132820,1,0,0:0:0:0:
384,288,132889,1,0,0:0:0:0:
384,304,132959,1,0,0:0:0:0:
384,320,133029,6,0,L|320:320,3,35,2|0|0|0,0:0|0:0|0:0|0:0,0:0:0:0:
320,320,133308,2,0,L|256:320,3,35,2|0|0|0,0:0|0:0|0:0|0:0,0:0:0:0:
256,320,133587,2,0,L|192:320,3,35,2|0|0|0,0:0|0:0|0:0|0:0,0:0:0:0:
192,320,133866,2,0,L|128:320,3,35,2|0|0|0,0:0|0:0|0:0|0:0,0:0:0:0:
128,320,134146,6,0,L|128:256,3,35,2|0|0|0,0:0|0:0|0:0|0:0,0:0:0:0:
128,256,134425,2,0,L|128:192,3,35,2|0|0|0,0:0|0:0|0:0|0:0,0:0:0:0:
128,192,134704,2,0,L|128:128,3,35,2|0|0|0,0:0|0:0|0:0|0:0,0:0:0:0:
128,128,134983,2,0,L|128:64,3,35,2|0|0|0,0:0|0:0|0:0|0:0,0:0:0:0:
128,64,135262,5,2,0:0:0:0:
144,64,135331,1,0,0:0:0:0:
160,64,135401,1,0,0:0:0:0:
176,64,135471,1,0,0:0:0:0:
192,64,135541,1,2,0:0:0:0:
208,64,135611,1,0,0:0:0:0:
224,64,135680,1,0,0:0:0:0:
240,64,135750,1,0,0:0:0:0:
256,64,135820,1,2,0:0:0:0:
272,64,135890,1,0,0:0:0:0:
288,64,135959,1,0,0:0:0:0:
304,64,136029,1,0,0:0:0:0:
320,64,136099,1,2,0:0:0:0:
336,64,136169,1,0,0:0:0:0:
352,64,136238,1,0,0:0:0:0:
368,64,136308,1,0,0:0:0:0:
384,64,136378,5,2,0:0:0:0:
384,80,136447,1,0,0:0:0:0:
384,96,136517,1,0,0:0:0:0:
384,112,136587,1,0,0:0:0:0:
384,128,136657,1,2,0:0:0:0:
384,144,136727,1,0,0:0:0:0:
384,160,136796,1,0,0:0:0:0:
384,176,136866,1,0,0:0:0:0:
384,192,136936,1,2,0:0:0:0:
384,208,137006,1,0,0:0:0:0:
384,224,137075,1,0,0:0:0:0:
384,240,137145,1,0,0:0:0:0:
384,256,137215,1,2,0:0:0:0:
384,272,137285,1,0,0:0:0:0:
384,288,137354,1,0,0:0:0:0:
384,304,137424,1,0,0:0:0:0:
384,320,137494,6,0,L|320:320,3,35,2|0|0|0,0:0|0:0|0:0|0:0,0:0:0:0:
320,320,137773,2,0,L|256:320,3,35,2|0|0|0,0:0|0:0|0:0|0:0,0:0:0:0:
256,320,138052,2,0,L|192:320,3,35,2|0|0|0,0:0|0:0|0:0|0:0,0:0:0:0:
192,320,138331,2,0,L|128:320,3,35,2|0|0|0,0:0|0:0|0:0|0:0,0:0:0:0:
128,320,138611,6,0,L|128:256,3,35,2|0|0|0,0:0|0:0|0:0|0:0,0:0:0:0:
128,256,138890,2,0,L|128:192,3,35,2|0|0|0,0:0|0:0|0:0|0:0,0:0:0:0:
128,192,139169,2,0,L|128:128,3,35,2|0|0|0,0:0|0:0|0:0|0:0,0:0:0:0:
128,128,139448,2,0,L|128:64,3,35,2|0|0|0,0:0|0:0|0:0|0:0,0:0:0:0:
128,64,139727,5,2,0:0:0:0:
144,64,139796,1,0,0:0:0:0:
160,64,139866,1,0,0:0:0:0:
176,64,139936,1,0,0:0:0:0:
192,64,140006,1,2,0:0:0:0:
208,64,140076,1,0,0:0:0:0:
224,64,140145,1,0,0:0:0:0:
240,64,140215,1,0,0:0:0:0:
256,64,140285,1,2,0:0:0:0:
272,64,140355,1,0,0:0:0:0:
288,64,140424,1,0,0:0:0:0:
304,64,140494,1,0,0:0:0:0:
320,64,140564,1,2,0:0:0:0:
336,64,140634,1,0,0:0:0:0:
352,64,140703,1,0,0:0:0:0:
368,64,140773,1,0,0:0:0:0:
384,64,140843,5,2,0:0:0:0:
384,80,140912,1,0,0:0:0:0:
384,96,140982,1,0,0:0:0:0:
384,112,141052,1,0,0:0:0:0:
384,128,141122,1,2,0:0:0:0:
384,144,141192,1,0,0:0:0:0:
384,160,141261,1,0,0:0:0:0:
384,176,141331,1,0,0:0:0:0:
384,192,141401,1,2,0:0:0:0:
384,208,141471,1,0,0:0:0:0:
384,224,141540,1,0,0:0:0:0:
384,240,141610,1,0,0:0:0:0:
384,256,141680,1,2,0:0:0:0:
384,272,141750,1,0,0:0:0:0:
384,288,141819,1,0,0:0:0:0:
384,304,141889,1,0,0:0:0:0:
384,320,141959,6,0,L|320:320,3,35,2|0|0|0,0:0|0:0|0:0|0:0,0:0:0:0:
320,320,142238,2,0,L|256:320,3,35,2|0|0|0,0:0|0:0|0:0|0:0,0:0:0:0:
256,320,142517,2,0,L|192:320,3,35,2|0|0|0,0:0|0:0|0:0|0:0,0:0:0:0:
192,320,142796,2,0,L|128:320,3,35,2|0|0|0,0:0|0:0|0:0|0:0,0:0:0:0:
128,320,143076,6,0,L|128:256,3,35,2|0|0|0,0:0|0:0|0:0|0:0,0:0:0:0:
128,256,143355,2,0,L|128:192,3,35,2|0|0|0,0:0|0:0|0:0|0:0,0:0:0:0:
128,192,143634,2,0,L|128:128,3,35,2|0|0|0,0:0|0:0|0:0|0:0,0:0:0:0:
128,128,143913,2,0,L|128:64,3,35,2|0|0|0,0:0|0:0|0:0|0:0,0:0:0:0:
128,64,144192,5,2,0:0:0:0:
144,64,144261,1,0,0:0:0:0:
160,64,144331,1,0,0:0:0:0:
176,64,144401,1,0,0:0:0:0:
192,64,144471,1,2,0:0:0:0:
208,64,144541,1,0,0:0:0:0:
224,64,144610,1,0,0:0:0:0:
240,64,144680,1,0,0:0:0:0:
256,64,144750,1,2,0:0:0:0:
272,64,144820,1,0,0:0:0:0:
288,64,144889,1,0,0:0:0:0:
304,64,144959,1,0,0:0:0:0:
320,64,145029,1,2,0:0:0:0:
336,64,145099,1,0,0:0:0:0:
352,64,145168,1,0,0:0:0:0:
368,64,145238,1,0,0:0:0:0:
384,64,145308,5,2,0:0:0:0:
384,80,145377,1,0,0:0:0:0:
384,96,145447,1,0,0:0:0:0:
384,112,145517,1,0,0:0:0:0:
384,128,145587,1,2,0:0:0:0:
384,144,145657,1,0,0:0:0:0:
384,160,145726,1,0,0:0:0:0:
384,176,145796,1,0,0:0:0:0:
384,192,145866,1,2,0:0:0:0:
384,208,145936,1,0,0:0:0:0:
384,224,146005,1,0,0:0:0:0:
384,240,146075,1,0,0:0:0:0:
384,256,146145,1,2,0:0:0:0:
384,272,146215,1,0,0:0:0:0:
384,288,146284,1,0,0:0:0:0:
384,304,146354,1,0,0:0:0:0:
384,320,146424,6,0,L|320:320,3,35,2|0|0|0,0:0|0:0|0:0|0:0,0:0:0:0:
320,320,146703,2,0,L|256:320,3,35,2|0|0|0,0:0|0:0|0:0|0:0,0:0:0:0:
256,320,146982,2,0,L|192:320,3,35,2|0|0|0,0:0|0:0|0:0|0:0,0:0:0:0:
192,320,147261,2,0,L|128:320,3,35,2|0|0|0,0:0|0:0|0:0|0:0,0:0:0:0:
128,320,147541,6,0,L|128:256,3,35,2|0|0|0,0:0|0:0|0:0|0:0,0:0:0:0:
128,256,147820,2,0,L|128:192,3,35,2|0|0|0,0:0|0:0|0:0|0:0,0:0:0:0:
128,192,148099,2,0,L|128:128,3,35,2|0|0|0,0:0|0:0|0:0|0:0,0:0:0:0:
128,128,148378,2,0,L|128:64,3,35,2|0|0|0,0:0|0:0|0:0|0:0,0:0:0:0:
128,64,148658,5,2,0:0:0:0:
144,64,148727,1,0,0:0:0:0:
160,64,148797,1,0,0:0:0:0:
176,64,148867,1,0,0:0:0:0:
192,64,148937,1,2,0:0:0:0:
208,64,149007,1,0,0:0:0:0:
224,64,149076,1,0,0:0:0:0:
240,64,149146,1,0,0:0:0:0:
256,64,149216,1,2,0:0:0:0:
272,64,149286,1,0,0:0:0:0:
288,64,149355,1,0,0:0:0:0:
304,64,149425,1,0,0:0:0:0:
320,64,149495,1,2,0:0:0:0:
336,64,149565,1,0,0:0:0:0:
352,64,149634,1,0,0:0:0:0:
368,64,149704,1,0,0:0:0:0:
384,64,149774,5,2,0:0:0:0:
384,80,149843,1,0,0:0:0:0:
384,96,149913,1,0,0:0:0:0:
384,112,149983,1,0,0:0:0:0:
384,128,150053,1,2,0:0:0:0:
384,144,150123,1,0,0:0:0:0:
384,160,150192,1,0,0:0:0:0:
384,176,150262,1,0,0:0:0:0:
384,192,150332,1,2,0:0:0:0:
384,208,150402,1,0,0:0:0:0:
384,224,150471,1,0,0:0:0:0:
384,240,150541,1,0,0:0:0:0:
384,256,150611,1,2,0:0:0:0:
384,272,150681,1,0,0:0:0:0:
384,288,150750,1,0,0:0:0:0:
384,304,150820,1,0,0:0:0:0:
384,320,150890,6,0,L|320:320,3,35,2|0|0|0,0:0|0:0|0:0|0:0,0:0:0:0:
320,320,151169,2,0,L|256:320,3,35,2|0|0|0,0:0|0:0|0:0|0:0,0:0:0:0:
256,320,151448,2,0,L|192:320,3,35,2|0|0|0,0:0|0:0|0:0|0:0,0:0:0:0:
192,320,151727,2,0,L|128:320,3,35,2|0|0|0,0:0|0:0|0:0|0:0,0:0:0:0:
128,320,152007,6,0,L|128:256,3,35,2|0|0|0,0:0|0:0|0:0|0:0,0:0:0:0:
128,256,152286,2,0,L|128:192,3,35,2|0|0|0,0:0|0:0|0:0|0:0,0:0:0:0:
128,192,152565,2,0,L|128:128,3,35,2|0|0|0,0:0|0:0|0:0|0:0,0:0:0:0:
128,128,152844,2,0,L|128:64,3,35,2|0|0|0,0:0|0:0|0:0|0:0,0:0:0:0:
128,64,153123,5,2,0:0:0:0:
144,64,153192,1,0,0:0:0:0:
160,64,153262,1,0,0:0:0:0:
176,64,153332,1,0,0:0:0:0:
192,64,153402,1,2,0:0:0:0:
208,64,153472,1,0,0:0:0:0:
224,64,153541,1,0,0:0:0:0:
240,64,153611,1,0,0:0:0:0:
256,64,153681,1,2,0:0:0:0:
272,64,153751,1,0,0:0:0:0:
288,64,153820,1,0,0:0:0:0:
304,64,153890,1,0,0:0:0:0:
320,64,153960,1,2,0:0:0:0:
336,64,154030,1,0,0:0:0:0:
352,64,154099,1,0,0:0:0:0:
368,64,154169,1,0,0:0:0:0:
384,64,154239,5,2,0:0:0:0:
384,80,154308,1,0,0:0:0:0:
384,96,154378,1,0,0:0:0:0:
384,112,154448,1,0,0:0:0:0:
384,128,154518,1,2,0:0:0:0:
384,144,154588,1,0,0:0:0:0:
384,160,154657,1,0,0:0:0:0:
384,176,154727,1,0,0:0:0:0:
384,192,154797,1,2,0:0:0:0:
384,208,154867,1,0,0:0:0:0:
384,224,154936,1,0,0:0:0:0:
384,240,155006,1,0,0:0:0:0:
384,256,155076,1,2,0:0:0:0:
384,272,155146,1,0,0:0:0:0:
384,288,155215,1,0,0:0:0:0:
384,304,155285,1,0,0:0:0:0:
384,320,155355,6,0,L|320:320,3,35,2|0|0|0,0:0|0:0|0:0|0:0,0:0:0:0:
320,320,155634,2,0,L|256:320,3,35,2|0|0|0,0:0|0:0|0:0|0:0,0:0:0:0:
256,320,155913,2,0,L|192:320,3,35,2|0|0|0,0:0|0:0|0:0|0:0,0:0:0:0:
192,320,156192,2,0,L|128:320,3,35,2|0|0|0,0:0|0:0|0:0|0:0,0:0:0:0:
128,320,156472,6,0,L|128:256,3,35,2|0|0|0,0:0|0:0|0:0|0:0,0:0:0:0:
128,256,156751,2,0,L|128:192,3,35,2|0|0|0,0:0|0:0|0:0|0:0,0:0:0:0:
128,192,157030,2,0,L|128:128,3,35,2|0|0|0,0:0|0:0|0:0|0:0,0:0:0:0:
128,128,157309,2,0,L|128:64,3,35,2|0|0|0,0:0|0:0|0:0|0:0,0:0:0:0:
128,64,157588,5,2,0:0:0:0:
144,64,157657,1,0,0:0:0:0:
160,64,157727,1,0,0:0:0:0:
176,64,157797,1,0,0:0:0:0:
192,64,157867,1,2,0:0:0:0:
208,64,157937,1,0,0:0:0:0:
224,64,158006,1,0,0:0:0:0:
240,64,158076,1,0,0:0:0:0:
256,64,158146,1,2,0:0:0:0:
272,64,158216,1,0,0:0:0:0:
288,64,158285,1,0,0:0:0:0:
304,64,158355,1,0,0:0:0:0:
320,64,158425,1,2,0:0:0:0:
336,64,158495,1,0,0:0:0:0:
352,64,158564,1,0,0:0:0:0:
368,64,158634,1,0,0:0:0:0:
384,64,158704,5,2,0:0:0:0:
384,80,158773,1,0,0:0:0:0:
384,96,158843,1,0,0:0:0:0:
384,112,158913,1,0,0:0:0:0:
384,128,158983,1,2,0:0:0:0:
384,144,159053,1,0,0:0:0:0:
384,160,159122,1,0,0:0:0:0:
384,176,159192,1,0,0:0:0:0:
384,192,159262,1,2,0:0:0:0:
384,208,159332,1,0,0:0:0:0:
384,224,159401,1,0,0:0:0:0:
384,240,159471,1,0,0:0:0:0:
384,256,159541,1,2,0:0:0:0:
384,272,159611,1,0,0:0:0:0:
384,288,159680,1,0,0:0:0:0:
384,304,159750,1,0,0:0:0:0:
384,320,159820,6,0,L|320:320,3,35,2|0|0|0,0:0|0:0|0:0|0:0,0:0:0:0:
320,320,160099,2,0,L|256:320,3,35,2|0|0|0,0:0|0:0|0:0|0:0,0:0:0:0:
256,320,160378,2,0,L|192:320,3,35,2|0|0|0,0:0|0:0|0:0|0:0,0:0:0:0:
192,320,160657,2,0,L|128:320,3,35,2|0|0|0,0:0|0:0|0:0|0:0,0:0:0:0:
128,320,160937,6,0,L|128:256,3,35,2|0|0|0,0:0|0:0|0:0|0:0,0:0:0:0:
128,256,161216,2,0,L|128:192,3,35,2|0|0|0,0:0|0:0|0:0|0:0,0:0:0:0:
128,192,161495,2,0,L|128:128,3,35,2|0|0|0,0:0|0:0|0:0|0:0,0:0:0:0:
128,128,161774,2,0,L|128:64,3,35,2|0|0|0,0:0|0:0|0:0|0:0,0:0:0:0:
128,64,162053,5,2,0:0:0:0:
144,64,162122,1,0,0:0:0:0:
160,64,162192,1,0,0:0:0:0:
176,64,162262,1,0,0:0:0:0:
192,64,162332,1,2,0:0:0:0:
208,64,162402,1,0,0:0:0:0:
224,64,162471,1,0,0:0:0:0:
240,64,162541,1,0,0:0:0:0:
256,64,162611,1,2,0:0:0:0:
272,64,162681,1,0,0:0:0:0:
288,64,162750,1,0,0:0:0:0:
304,64,162820,1,0,0:0:0:0:
320,64,162890,1,2,0:0:0:0:
336,64,162960,1,0,0:0:0:0:
352,64,163029,1,0,0:0:0:0:
368,64,163099,1,0,0:0:0:0:
384,64,163169,5,2,0:0:0:0:
384,80,163238,1,0,0:0:0:0:
384,96,163308,1,0,0:0:0:0:
384,112,163378,1,0,0:0:0:0:
384,128,163448,1,2,0:0:0:0:
384,144,163518,1,0,0:0:0:0:
384,160,163587,1,0,0:0:0:0:
384,176,163657,1,0,0:0:0:0:
384,192,163727,1,2,0:0:0:0:
384,208,163797,1,0,0:0:0:0:
384,224,163866,1,0,0:0:0:0:
384,240,163936,1,0,0:0:0:0:
384,256,164006,1,2,0:0:0:0:
384,272,164076,1,0,0:0:0:0:
384,288,164145,1,0,0:0:0:0:
384,304,164215,1,0,0:0:0:0:
384,320,164285,6,0,L|320:320,3,35,2|0|0|0,0:0|0:0|0:0|0:0,0:0:0:0:
320,320,164564,2,0,L|256:320,3,35,2|0|0|0,0:0|0:0|0:0|0:0,0:0:0:0:
256,320,164843,2,0,L|192:320,3,35,2|0|0|0,0:0|0:0|0:0|0:0,0:0:0:0:
192,320,165122,2,0,L|128:320,3,35,2|0|0|0,0:0|0:0|0:0|0:0,0:0:0:0:
128,320,165402,6,0,L|128:256,3,35,2|0|0|0,0:0|0:0|0:0|0:0,0:0:0:0:
128,256,165681,2,0,L|128:192,3,35,2|0|0|0,0:0|0:0|0:0|0:0,0:0:0:0:
128,192,165960,2,0,L|128:128,3,35,2|0|0|0,0:0|0:0|0:0|0:0,0:0:0:0:
128,128,166239,2,0,L|128:64,3,35,2|0|0|0,0:0|0:0|0:0|0:0,0:0:0:0:
128,64,166518,5,2,0:0:0:0:
144,64,166587,1,0,0:0:0:0:
160,64,166657,1,0,0:0:0:0:
176,64,166727,1,0,0:0:0:0:
192,64,166797,1,2,0:0:0:0:
208,64,166867,1,0,0:0:0:0:
224,64,166936,1,0,0:0:0:0:
240,64,167006,1,0,0:0:0:0:
256,64,167076,1,2,0:0:0:0:
272,64,167146,1,0,0:0:0:0:
288,64,167215,1,0,0:0:0:0:
304,64,167285,1,0,0:0:0:0:
320,64,167355,1,2,0:0:0:0:
336,64,167425,1,0,0:0:0:0:
352,64,167494,1,0,0:0:0:0:
368,64,167564,1,0,0:0:0:0:
384,64,167634,5,2,0:0:0:0:
384,80,167703,1,0,0:0:0:0:
384,96,167773,1,0,0:0:0:0:
384,112,167843,1,0,0:0:0:0:
384,128,167913,1,2,0:0:0:0:
384,144,167983,1,0,0:0:0:0:
384,160,168052,1,0,0:0:0:0:
384,176,168122,1,0,0:0:0:0:
384,192,168192,1,2,0:0:0:0:
384,208,168262,1,0,0:0:0:0:
384,224,168331,1,0,0:0:0:0:
384,240,168401,1,0,0:0:0:0:
384,256,168471,1,2,0:0:0:0:
384,272,168541,1,0,0:0:0:0:
384,288,168610,1,0,0:0:0:0:
384,304,168680,1,0,0:0:0:0:
384,320,168750,6,0,L|320:320,3,35,2|0|0|0,0:0|0:0|0:0|0:0,0:0:0:0:
320,320,169029,2,0,L|256:320,3,35,2|0|0|0,0:0|0:0|0:0|0:0,0:0:0:0:
256,320,169308,2,0,L|192:320,3,35,2|0|0|0,0:0|0:0|0:0|0:0,0:0:0:0:
192,320,169587,2,0,L|128:320,3,35,2|0|0|0,0:0|0:0|0:0|0:0,0:0:0:0:
128,320,169867,6,0,L|128:256,3,35,2|0|0|0,0:0|0:0|0:0|0:0,0:0:0:0:
128,256,170146,2,0,L|128:192,3,35,2|0|0|0,0:0|0:0|0:0|0:0,0:0:0:0:
128,192,170425,2,0,L|128:128,3,35,2|0|0|0,0:0|0:0|0:0|0:0,0:0:0:0:
128,128,170704,2,0,L|128:64,3,35,2|0|0|0,0:0|0:0|0:0|0:0,0:0:0:0:
128,64,170983,5,2,0:0:0:0:
144,64,171052,1,0,0:0:0:0:
160,64,171122,1,0,0:0:0:0:
176,64,171192,1,0,0:0:0:0:
192,64,171262,1,2,0:0:0:0:
208,64,171332,1,0,0:0:0:0:
224,64,171401,1,0,0:0:0:0:
240,64,171471,1,0,0:0:0:0:
256,64,171541,1,2,0:0:0:0:
272,64,171611,1,0,0:0:0:0:
288,64,171680,1,0,0:0:0:0:
304,64,171750,1,0,0:0:0:0:
320,64,171820,1,2,0:0:0:0:
336,64,171890,1,0,0:0:0:0:
352,64,171959,1,0,0:0:0:0:
368,64,172029,1,0,0:0:0:0:
384,64,172099,5,2,0:0:0:0:
384,80,172168,1,0,0:0:0:0:
384,96,172238,1,0,0:0:0:0:
384,112,172308,1,0,0:0:0:0:
384,128,172378,1,2,0:0:0:0:
384,144,172448,1,0,0:0:0:0:
384,160,172517,1,0,0:0:0:0:
384,176,172587,1,0,0:0:0:0:
384,192,172657,1,2,0:0:0:0:
384,208,172727,1,0,0:0:0:0:
384,224,172796,1,0,0:0:0:0:
384,240,172866,1,0,0:0:0:0:
384,256,172936,1,2,0:0:0:0:
384,272,173006,1,0,0:0:0:0:
384,288,173075,1,0,0:0:0:0:
384,304,173145,1,0,0:0:0:0:
384,320,173215,6,0,L|320:320,3,35,2|0|0|0,0:0|0:0|0:0|0:0,0:0:0:0:
320,320,173494,2,0,L|256:320,3,35,2|0|0|0,0:0|0:0|0:0|0:0,0:0:0:0:
256,320,173773,2,0,L|192:320,3,35,2|0|0|0,0:0|0:0|0:0|0:0,0:0:0:0:
192,320,174052,2,0,L|128:320,3,35,2|0|0|0,0:0|0:0|0:0|0:0,0:0:0:0:
128,320,174332,6,0,L|128:256,3,35,2|0|0|0,0:0|0:0|0:0|0:0,0:0:0:0:
128,256,174611,2,0,L|128:192,3,35,2|0|0|0,0:0|0:0|0:0|0:0,0:0:0:0:
128,192,174890,2,0,L|128:128,3,35,2|0|0|0,0:0|0:0|0:0|0:0,0:0:0:0:
128,128,175169,2,0,L|128:64,3,35,2|0|0|0,0:0|0:0|0:0|0:0,0:0:0:0:
128,64,175448,5,2,0:0:0:0:
144,64,175517,1,0,0:0:0:0:
160,64,175587,1,0,0:0:0:0:
176,64,175657,1,0,0:0:0:0:
192,64,175727,1,2,0:0:0:0:
208,64,175797,1,0,0:0:0:0:
224,64,175866,1,0,0:0:0:0:
240,64,175936,1,0,0:0:0:0:
256,64,176006,1,2,0:0:0:0:
272,64,176076,1,0,0:0:0:0:
288,64,176145,1,0,0:0:0:0:
304,64,176215,1,0,0:0:0:0:
320,64,176285,1,2,0:0:0:0:
336,64,176355,1,0,0:0:0:0:
352,64,176424,1,0,0:0:0:0:
368,64,176494,1,0,0:0:0:0:
384,64,176564,5,2,0:0:0:0:
384,80,176633,1,0,0:0:0:0:
384,96,176703,1,0,0:0:0:0:
384,112,176773,1,0,0:0:0:0:
384,128,176843,1,2,0:0:0:0:
384,144,176913,1,0,0:0:0:0:
384,160,176982,1,0,0:0:0:0:
384,176,177052,1,0,0:0:0:0:
384,192,177122,1,2,0:0:0:0:
384,208,177192,1,0,0:0:0:0:
384,224,177261,1,0,0:0:0:0:
384,240,177331,1,0,0:0:0:0:
384,256,177401,1,2,0:0:0:0:
384,272,177471,1,0,0:0:0:0:
384,288,177540,1,0,0:0:0:0:
384,304,177610,1,0,0:0:0:0:
384,320,177680,6,0,L|320:320,3,35,2|0|0|0,0:0|0:0|0:0|0:0,0:0:0:0:
320,320,177959,2,0,L|256:320,3,35,2|0|0|0,0:0|0:0|0:0|0:0,0:0:0:0:
256,320,178238,2,0,L|192:320,3,35,2|0|0|0,0:0|0:0|0:0|0:0,0:0:0:0:
192,320,178517,2,0,L|128:320,3,35,2|0|0|0,0:0|0:0|0:0|0:0,0:0:0:0:
128,320,178797,6,0,L|128:256,3,35,2|0|0|0,0:0|0:0|0:0|0:0,0:0:0:0:
128,256,179076,2,0,L|128:192,3,35,2|0|0|0,0:0|0:0|0:0|0:0,0:0:0:0:
128,192,179355,2,0,L|128:128,3,35,2|0|0|0,0:0|0:0|0:0|0:0,0:0:0:0:
128,128,179634,2,0,L|128:64,3,35,2|0|0|0,0:0|0:0|0:0|0:0,0:0:0:0:
128,64,179913,5,2,0:0:0:0:
144,64,179982,1,0,0:0:0:0:
160,64,180052,1,0,0:0:0:0:
176,64,180122,1,0,0:0:0:0:
192,64,180192,1,2,0:0:0:0:
208,64,180262,1,0,0:0:0:0:
224,64,180331,1,0,0:0:0:0:
240,64,180401,1,0,0:0:0:0:
256,64,180471,1,2,0:0:0:0:
272,64,180541,1,0,0:0:0:0:
288,64,180610,1,0,0:0:0:0:
304,64,180680,1,0,0:0:0:0:
320,64,180750,1,2,0:0:0:0:
336,64,180820,1,0,0:0:0:0:
352,64,180889,1,0,0:0:0:0:
368,64,180959,1,0,0:0:0:0:
384,64,181029,5,2,0:0:0:0:
384,80,181098,1,0,0:0:0:0:
384,96,181168,1,0,0:0:0:0:
384,112,181238,1,0,0:0:0:0:
384,128,181308,1,2,0:0:0:0:
384,144,181378,1,0,0:0:0:0:
384,160,181447,1,0,0:0:0:0:
384,176,181517,1,0,0:0:0:0:
384,192,181587,1,2,0:0:0:0:
384,208,181657,1,0,0:0:0:0:
384,224,181726,1,0,0:0:0:0:
384,240,181796,1,0,0:0:0:0:
384,256,181866,1,2,0:0:0:0:
384,272,181936,1,0,0:0:0:0:
384,288,182005,1,0,0:0:0:0:
384,304,182075,1,0,0:0:0:0:
384,320,182145,6,0,L|320:320,3,35,2|0|0|0,0:0|0:0|0:0|0:0,0:0:0:0:
320,320,182424,2,0,L|256:320,3,35,2|0|0|0,0:0|0:0|0:0|0:0,0:0:0:0:
256,320,182703,2,0,L|192:320,3,35,2|0|0|0,0:0|0:0|0:0|0:0,0:0:0:0:
192,320,182982,2,0,L|128:320,3,35,2|0|0|0,0:0|0:0|0:0|0:0,0:0:0:0:
128,64,193309,5,2,0:0:0:0:
144,64,193378,1,0,0:0:0:0:
160,64,193448,1,0,0:0:0:0:
176,64,193518,1,0,0:0:0:0:
192,64,193588,1,2,0:0:0:0:
208,64,193658,1,0,0:0:0:0:
224,64,193727,1,0,0:0:0:0:
240,64,193797,1,0,0:0:0:0:
256,64,193867,1,2,0:0:0:0:
272,64,193937,1,0,0:0:0:0:
288,64,194006,1,0,0:0:0:0:
304,64,194076,1,0,0:0:0:0:
320,64,194146,1,2,0:0:0:0:
336,64,194216,1,0,0:0:0:0:
352,64,194285,1,0,0:0:0:0:
368,64,194355,1,0,0:0:0:0:
384,64,194425,5,2,0:0:0:0:
384,80,194494,1,0,0:0:0:0:
384,96,194564,1,0,0:0:0:0:
384,112,194634,1,0,0:0:0:0:
384,128,194704,1,2,0:0:0:0:
384,144,194774,1,0,0:0:0:0:
384,160,194843,1,0,0:0:0:0:
384,176,194913,1,0,0:0:0:0:
384,192,194983,1,2,0:0:0:0:
384,208,195053,1,0,0:0:0:0:
384,224,195122,1,0,0:0:0:0:
384,240,195192,1,0,0:0:0:0:
384,256,195262,1,2,0:0:0:0:
384,272,195332,1,0,0:0:0:0:
384,288,195401,1,0,0:0:0:0:
384,304,195471,1,0,0:0:0:0:
384,320,195541,6,0,L|320:320,3,35,2|0|0|0,0:0|0:0|0:0|0:0,0:0:0:0:
320,320,195820,2,0,L|256:320,3,35,2|0|0|0,0:0|0:0|0:0|0:0,0:0:0:0:
256,320,196099,2,0,L|192:320,3,35,2|0|0|0,0:0|0:0|0:0|0:0,0:0:0:0:
192,320,196378,2,0,L|128:320,3,35,2|0|0|0,0:0|0:0|0:0|0:0,0:0:0:0:
128,320,196658,6,0,L|128:256,3,35,2|0|0|0,0:0|0:0|0:0|0:0,0:0:0:0:
128,256,196937,2,0,L|128:192,3,35,2|0|0|0,0:0|0:0|0:0|0:0,0:0:0:0:
128,192,197216,2,0,L|128:128,3,35,2|0|0|0,0:0|0:0|0:0|0:0,0:0:0:0:
128,128,197495,2,0,L|128:64,3,35,2|0|0|0,0:0|0:0|0:0|0:0,0:0:0:0:
128,64,197774,5,2,0:0:0:0:
144,64,197843,1,0,0:0:0:0:
160,64,197913,1,0,0:0:0:0:
176,64,197983,1,0,0:0:0:0:
192,64,198053,1,2,0:0:0:0:
208,64,198123,1,0,0:0:0:0:
224,64,198192,1,0,0:0:0:0:
240,64,198262,1,0,0:0:0:0:
256,64,198332,1,2,0:0:0:0:
272,64,198402,1,0,0:0:0:0:
288,64,198471,1,0,0:0:0:0:
304,64,198541,1,0,0:0:0:0:
320,64,198611,1,2,0:0:0:0:
336,64,198681,1,0,0:0:0:0:
352,64,198750,1,0,0:0:0:0:
368,64,198820,1,0,0:0:0:0:
384,64,198890,5,2,0:0:0:0:
384,80,198959,1,0,0:0:0:0:
384,96,199029,1,0,0:0:0:0:
384,112,199099,1,0,0:0:0:0:
384,128,199169,1,2,0:0:0:0:
384,144,199239,1,0,0:0:0:0:
384,160,199308,1,0,0:0:0:0:
384,176,199378,1,0,0:0:0:0:
384,192,199448,1,2,0:0:0:0:
384,208,199518,1,0,0:0:0:0:
384,224,199587,1,0,0:0:0:0:
384,240,199657,1,0,0:0:0:0:
384,256,199727,1,2,0:0:0:0:
384,272,199797,1,0,0:0:0:0:
384,288,199866,1,0,0:0:0:0:
384,304,199936,1,0,0:0:0:0:
384,320,200006,6,0,L|320:320,3,35,2|0|0|0,0:0|0:0|0:0|0:0,0:0:0:0:
320,320,200285,2,0,L|256:320,3,35,2|0|0|0,0:0|0:0|0:0|0:0,0:0:0:0:
256,320,200564,2,0,L|192:320,3,35,2|0|0|0,0:0|0:0|0:0|0:0,0:0:0:0:
192,320,200843,2,0,L|128:320,3,35,2|0|0|0,0:0|0:0|0:0|0:0,0:0:0:0:
128,320,201123,6,0,L|128:256,3,35,2|0|0|0,0:0|0:0|0:0|0:0,0:0:0:0:
128,256,201402,2,0,L|128:192,3,35,2|0|0|0,0:0|0:0|0:0|0:0,0:0:0:0:
128,192,201681,2,0,L|128:128,3,35,2|0|0|0,0:0|0:0|0:0|0:0,0:0:0:0:
128,128,201960,2,0,L|128:64,3,35,2|0|0|0,0:0|0:0|0:0|0:0,0:0:0:0:
128,64,202239,5,2,0:0:0:0:
144,64,202308,1,0,0:0:0:0:
160,64,202378,1,0,0:0:0:0:
176,64,202448,1,0,0:0:0:0:
192,64,202518,1,2,0:0:0:0:
208,64,202588,1,0,0:0:0:0:
224,64,202657,1,0,0:0:0:0:
240,64,202727,1,0,0:0:0:0:
256,64,202797,1,2,0:0:0:0:
272,64,202867,1,0,0:0:0:0:
288,64,202936,1,0,0:0:0:0:
304,64,203006,1,0,0:0:0:0:
320,64,203076,1,2,0:0:0:0:
336,64,203146,1,0,0:0:0:0:
352,64,203215,1,0,0:0:0:0:
368,64,203285,1,0,0:0:0:0:
384,64,203355,5,2,0:0:0:0:
384,80,203424,1,0,0:0:0:0:
384,96,203494,1,0,0:0:0:0:
384,112,203564,1,0,0:0:0:0:
384,128,203634,1,2,0:0:0:0:
384,144,203704,1,0,0:0:0:0:
384,160,203773,1,0,0:0:0:0:
384,176,203843,1,0,0:0:0:0:
384,192,203913,1,2,0:0:0:0:
384,208,203983,1,0,0:0:0:0:
384,224,204052,1,0,0:0:0:0:
384,240,204122,1,0,0:0:0:0:
384,256,204192,1,2,0:0:0:0:
384,272,204262,1,0,0:0:0:0:
384,288,204331,1,0,0:0:0:0:
384,304,204401,1,0,0:0:0:0:
384,320,204471,6,0,L|320:320,3,35,2|0|0|0,0:0|0:0|0:0|0:0,0:0:0:0:
320,320,204750,2,0,L|256:320,3,35,2|0|0|0,0:0|0:0|0:0|0:0,0:0:0:0:
256,320,205029,2,0,L|192:320,3,35,2|0|0|0,0:0|0:0|0:0|0:0,0:0:0:0:
192,320,205308,2,0,L|128:320,3,35,2|0|0|0,0:0|0:0|0:0|0:0,0:0:0:0:
128,320,205588,6,0,L|128:256,3,35,2|0|0|0,0:0|0:0|0:0|0:0,0:0:0:0:
128,256,205867,2,0,L|128:192,3,35,2|0|0|0,0:0|0:0|0:0|0:0,0:0:0:0:
128,192,206146,2,0,L|128:128,3,35,2|0|0|0,0:0|0:0|0:0|0:0,0:0:0:0:
128,128,206425,2,0,L|128:64,3,35,2|0|0|0,0:0|0:0|0:0|0:0,0:0:0:0:
128,64,206704,5,2,0:0:0:0:
144,64,206773,1,0,0:0:0:0:
160,64,206843,1,0,0:0:0:0:
176,64,206913,1,0,0:0:0:0:
192,64,206983,1,2,0:0:0:0:
208,64,207053,1,0,0:0:0:0:
224,64,207122,1,0,0:0:0:0:
240,64,207192,1,0,0:0:0:0:
256,64,207262,1,2,0:0:0:0:
272,64,207332,1,0,0:0:0:0:
288,64,207401,1,0,0:0:0:0:
304,64,207471,1,0,0:0:0:0:
320,64,207541,1,2,0:0:0:0:
336,64,207611,1,0,0:0:0:0:
352,64,207680,1,0,0:0:0:0:
368,64,207750,1,0,0:0:0:0:
384,64,207820,5,2,0:0:0:0:
384,80,207889,1,0,0:0:0:0:
384,96,207959,1,0,0:0:0:0:
384,112,208029,1,0,0:0:0:0:
384,128,208099,1,2,0:0:0:0:
384,144,208169,1,0,0:0:0:0:
384,160,208238,1,0,0:0:0:0:
384,176,208308,1,0,0:0:0:0:
384,192,208378,1,2,0:0:0:0:
384,208,208448,1,0,0:0:0:0:
384,224,208517,1,0,0:0:0:0:
384,240,208587,1,0,0:0:0:0:
384,256,208657,1,2,0:0:0:0:
384,272,208727,1,0,0:0:0:0:
384,288,208796,1,0,0:0:0:0:
384,304,208866,1,0,0:0:0:0:
384,320,208936,6,0,L|320:320,3,35,2|0|0|0,0:0|0:0|0:0|0:0,0:0:0:0:
320,320,209215,2,0,L|256:320,3,35,2|0|0|0,0:0|0:0|0:0|0:0,0:0:0:0:
256,320,209494,2,0,L|192:320,3,35,2|0|0|0,0:0|0:0|0:0|0:0,0:0:0:0:
192,320,209773,2,0,L|128:320,3,35,2|0|0|0,0:0|0:0|0:0|0:0,0:0:0:0:
128,320,210053,6,0,L|128:256,3,35,2|0|0|0,0:0|0:0|0:0|0:0,0:0:0:0:
128,256,210332,2,0,L|128:192,3,35,2|0|0|0,0:0|0:0|0:0|0:0,0:0:0:0:
128,192,210611,2,0,L|128:128,3,35,2|0|0|0,0:0|0:0|0:0|0:0,0:0:0:0:
128,128,210890,2,0,L|128:64,3,35,2|0|0|0,0:0|0:0|0:0|0:0,0:0:0:0:
128,64,211169,5,2,0:0:0:0:
144,64,211238,1,0,0:0:0:0:
160,64,211308,1,0,0:0:0:0:
176,64,211378,1,0,0:0:0:0:
192,64,211448,1,2,0:0:0:0:
208,64,211518,1,0,0:0:0:0:
224,64,211587,1,0,0:0:0:0:
240,64,211657,1,0,0:0:0:0:
256,64,211727,1,2,0:0:0:0:
272,64,211797,1,0,0:0:0:0:
288,64,211866,1,0,0:0:0:0:
304,64,211936,1,0,0:0:0:0:
320,64,212006,1,2,0:0:0:0:
336,64,212076,1,0,0:0:0:0:
352,64,212145,1,0,0:0:0:0:
368,64,212215,1,0,0:0:0:0:
384,64,212285,5,2,0:0:0:0:
384,80,212354,1,0,0:0:0:0:
384,96,212424,1,0,0:0:0:0:
384,112,212494,1,0,0:0:0:0:
384,128,212564,1,2,0:0:0:0:
384,144,212634,1,0,0:0:0:0:
384,160,212703,1,0,0:0:0:0:
384,176,212773,1,0,0:0:0:0:
384,192,212843,1,2,0:0:0:0:
384,208,212913,1,0,0:0:0:0:
384,224,212982,1,0,0:0:0:0:
384,240,213052,1,0,0:0:0:0:
384,256,213122,1,2,0:0:0:0:
384,272,213192,1,0,0:0:0:0:
384,288,213261,1,0,0:0:0:0:
384,304,213331,1,0,0:0:0:0:
384,320,213401,6,0,L|320:320,3,35,2|0|0|0,0:0|0:0|0:0|0:0,0:0:0:0:
320,320,213680,2,0,L|256:320,3,35,2|0|0|0,0:0|0:0|0:0|0:0,0:0:0:0:
256,320,213959,2,0,L|192:320,3,35,2|0|0|0,0:0|0:0|0:0|0:0,0:0:0:0:
192,320,214238,2,0,L|128:320,3,35,2|0|0|0,0:0|0:0|0:0|0:0,0:0:0:0:
128,320,214518,6,0,L|128:256,3,35,2|0|0|0,0:0|0:0|0:0|0:0,0:0:0:0:
128,256,214797,2,0,L|128:192,3,35,2|0|0|0,0:0|0:0|0:0|0:0,0:0:0:0:
128,192,215076,2,0,L|128:128,3,35,2|0|0|0,0:0|0:0|0:0|0:0,0:0:0:0:
128,128,215355,2,0,L|128:64,3,35,2|0|0|0,0:0|0:0|0:0|0:0,0:0:0:0:
128,64,215634,5,2,0:0:0:0:
144,64,215703,1,0,0:0:0:0:
160,64,215773,1,0,0:0:0:0:
176,64,215843,1,0,0:0:0:0:
192,64,215913,1,2,0:0:0:0:
208,64,215983,1,0,0:0:0:0:
224,64,216052,1,0,0:0:0:0:
240,64,216122,1,0,0:0:0:0:
256,64,216192,1,2,0:0:0:0:
272,64,216262,1,0,0:0:0:0:
288,64,216331,1,0,0:0:0:0:
304,64,216401,1,0,0:0:0:0:
320,64,216471,1,2,0:0:0:0:
336,64,216541,1,0,0:0:0:0:
352,64,216610,1,0,0:0:0:0:
368,64,216680,1,0,0:0:0:0:
384,64,216750,5,2,0:0:0:0:
384,80,216819,1,0,0:0:0:0:
384,96,216889,1,0,0:0:0:0:
384,112,216959,1,0,0:0:0:0:
384,128,217029,1,2,0:0:0:0:
384,144,217099,1,0,0:0:0:0:
384,160,217168,1,0,0:0:0:0:
384,176,217238,1,0,0:0:0:0:
384,192,217308,1,2,0:0:0:0:
384,208,217378,1,0,0:0:0:0:
384,224,217447,1,0,0:0:0:0:
384,240,217517,1,0,0:0:0:0:
384,256,217587,1,2,0:0:0:0:
384,272,217657,1,0,0:0:0:0:
384,288,217726,1,0,0:0:0:0:
384,304,217796,1,0,0:0:0:0:
384,320,217866,6,0,L|320:320,3,35,2|0|0|0,0:0|0:0|0:0|0:0,0:0:0:0:
320,320,218145,2,0,L|256:320,3,35,2|0|0|0,0:0|0:0|0:0|0:0,0:0:0:0:
256,320,218424,2,0,L|192:320,3,35,2|0|0|0,0:0|0:0|0:0|0:0,0:0:0:0:
192,320,218703,2,0,L|128:320,3,35,2|0|0|0,0:0|0:0|0:0|0:0,0:0:0:0:
128,320,218983,6,0,L|128:256,3,35,2|0|0|0,0:0|0:0|0:0|0:0,0:0:0:0:
128,256,219262,2,0,L|128:192,3,35,2|0|0|0,0:0|0:0|0:0|0:0,0:0:0:0:
128,192,219541,2,0,L|128:128,3,35,2|0|0|0,0:0|0:0|0:0|0:0,0:0:0:0:
128,128,219820,2,0,L|128:64,3,35,2|0|0|0,0:0|0:0|0:0|0:0,0:0:0:0:
128,64,220099,5,2,0:0:0:0:
144,64,220168,1,0,0:0:0:0:
160,64,220238,1,0,0:0:0:0:
176,64,220308,1,0,0:0:0:0:
192,64,220378,1,2,0:0:0:0:
208,64,220448,1,0,0:0:0:0:
224,64,220517,1,0,0:0:0:0:
240,64,220587,1,0,0:0:0:0:
256,64,220657,1,2,0:0:0:0:
272,64,220727,1,0,0:0:0:0:
288,64,220796,1,0,0:0:0:0:
304,64,220866,1,0,0:0:0:0:
320,64,220936,1,2,0:0:0:0:
336,64,221006,1,0,0:0:0:0:
352,64,221075,1,0,0:0:0:0:
368,64,221145,1,0,0:0:0:0:
384,64,221215,5,2,0:0:0:0:
384,80,221284,1,0,0:0:0:0:
384,96,221354,1,0,0:0:0:0:
384,112,221424,1,0,0:0:0:0:
384,128,221494,1,2,0:0:0:0:
384,144,221564,1,0,0:0:0:0:
384,160,221633,1,0,0:0:0:0:
384,176,221703,1,0,0:0:0:0:
384,192,221773,1,2,0:0:0:0:
384,208,221843,1,0,0:0:0:0:
384,224,221912,1,0,0:0:0:0:
384,240,221982,1,0,0:0:0:0:
384,256,222052,1,2,0:0:0:0:
384,272,222122,1,0,0:0:0:0:
384,288,222191,1,0,0:0:0:0:
384,304,222261,1,0,0:0:0:0:
384,320,222331,6,0,L|320:320,3,35,2|0|0|0,0:0|0:0|0:0|0:0,0:0:0:0:
320,320,222610,2,0,L|256:320,3,35,2|0|0|0,0:0|0:0|0:0|0:0,0:0:0:0:
256,320,222889,2,0,L|192:320,3,35,2|0|0|0,0:0|0:0|0:0|0:0,0:0:0:0:
192,320,223168,2,0,L|128:320,3,35,2|0|0|0,0:0|0:0|0:0|0:0,0:0:0:0:
128,320,223448,6,0,L|128:256,3,35,2|0|0|0,0:0|0:0|0:0|0:0,0:0:0:0:
128,256,223727,2,0,L|128:192,3,35,2|0|0|0,0:0|0:0|0:0|0:0,0:0:0:0:
128,192,224006,2,0,L|128:128,3,35,2|0|0|0,0:0|0:0|0:0|0:0,0:0:0:0:
128,128,224285,2,0,L|128:64,3,35,2|0|0|0,0:0|0:0|0:0|0:0,0:0:0:0:
128,64,224564,5,2,0:0:0:0:
144,64,224633,1,0,0:0:0:0:
160,64,224703,1,0,0:0:0:0:
176,64,224773,1,0,0:0:0:0:
192,64,224843,1,2,0:0:0:0:
208,64,224913,1,0,0:0:0:0:
224,64,224982,1,0,0:0:0:0:
240,64,225052,1,0,0:0:0:0:
256,64,225122,1,2,0:0:0:0:
272,64,225192,1,0,0:0:0:0:
288,64,225261,1,0,0:0:0:0:
304,64,225331,1,0,0:0:0:0:
320,64,225401,1,2,0:0:0:0:
336,64,225471,1,0,0:0:0:0:
352,64,225540,1,0,0:0:0:0:
368,64,225610,1,0,0:0:0:0:
384,64,225680,5,2,0:0:0:0:
384,80,225749,1,0,0:0:0:0:
384,96,225819,1,0,0:0:0:0:
384,112,225889,1,0,0:0:0:0:
384,128,225959,1,2,0:0:0:0:
384,144,226029,1,0,0:0:0:0:
384,160,226098,1,0,0:0:0:0:
384,176,226168,1,0,0:0:0:0:
384,192,226238,1,2,0:0:0:0:
384,208,226308,1,0,0:0:0:0:
384,224,226377,1,0,0:0:0:0:
384,240,226447,1,0,0:0:0:0:
384,256,226517,1,2,0:0:0:0:
384,272,226587,1,0,0:0:0:0:
384,288,226656,1,0,0:0:0:0:
384,304,226726,1,0,0:0:0:0:
384,320,226796,6,0,L|320:320,3,35,2|0|0|0,0:0|0:0|0:0|0:0,0:0:0:0:
320,320,227075,2,0,L|256:320,3,35,2|0|0|0,0:0|0:0|0:0|0:0,0:0:0:0:
256,320,227354,2,0,L|192:320,3,35,2|0|0|0,0:0|0:0|0:0|0:0,0:0:0:0:
192,320,227633,2,0,L|128:320,3,35,2|0|0|0,0:0|0:0|0:0|0:0,0:0:0:0:
128,320,227913,6,0,L|128:256,3,35,2|0|0|0,0:0|0:0|0:0|0:0,0:0:0:0:
128,256,228192,2,0,L|128:192,3,35,2|0|0|0,0:0|0:0|0:0|0:0,0:0:0:0:
128,192,228471,2,0,L|128:128,3,35,2|0|0|0,0:0|0:0|0:0|0:0,0:0:0:0:
128,128,228750,2,0,L|128:64,3,35,2|0|0|0,0:0|0:0|0:0|0:0,0:0:0:0:
128,64,229030,5,2,0:0:0:0:
144,64,229099,1,0,0:0:0:0:
160,64,229169,1,0,0:0:0:0:
176,64,229239,1,0,0:0:0:0:
192,64,229309,1,2,0:0:0:0:
208,64,229379,1,0,0:0:0:0:
224,64,229448,1,0,0:0:0:0:
240,64,229518,1,0,0:0:0:0:
256,64,229588,1,2,0:0:0:0:
272,64,229658,1,0,0:0:0:0:
288,64,229727,1,0,0:0:0:0:
304,64,229797,1,0,0:0:0:0:
320,64,229867,1,2,0:0:0:0:
336,64,229937,1,0,0:0:0:0:
352,64,230006,1,0,0:0:0:0:
368,64,230076,1,0,0:0:0:0:
384,64,230146,5,2,0:0:0:0:
384,80,230215,1,0,0:0:0:0:
384,96,230285,1,0,0:0:0:0:
384,112,230355,1,0,0:0:0:0:
384,128,230425,1,2,0:0:0:0:
384,144,230495,1,0,0:0:0:0:
384,160,230564,1,0,0:0:0:0:
384,176,230634,1,0,0:0:0:0:
384,192,230704,1,2,0:0:0:0:
384,208,230774,1,0,0:0:0:0:
384,224,230843,1,0,0:0:0:0:
384,240,230913,1,0,0:0:0:0:
384,256,230983,1,2,0:0:0:0:
384,272,231053,1,0,0:0:0:0:
384,288,231122,1,0,0:0:0:0:
384,304,231192,1,0,0:0:0:0:
384,320,231262,6,0,L|320:320,3,35,2|0|0|0,0:0|0:0|0:0|0:0,0:0:0:0:
320,320,231541,2,0,L|256:320,3,35,2|0|0|0,0:0|0:0|0:0|0:0,0:0:0:0:
256,320,231820,2,0,L|192:320,3,35,2|0|0|0,0:0|0:0|0:0|0:0,0:0:0:0:
192,320,232099,2,0,L|128:320,3,35,2|0|0|0,0:0|0:0|0:0|0:0,0:0:0:0:
128,320,232379,6,0,L|128:256,3,35,2|0|0|0,0:0|0:0|0:0|0:0,0:0:0:0:
128,256,232658,2,0,L|128:192,3,35,2|0|0|0,0:0|0:0|0:0|0:0,0:0:0:0:
128,192,232937,2,0,L|128:128,3,35,2|0|0|0,0:0|0:0|0:0|0:0,0:0:0:0:
128,128,233216,2,0,L|128:64,3,35,2|0|0|0,0:0|0:0|0:0|0:0,0:0:0:0:
128,64,233495,5,2,0:0:0:0:
144,64,233564,1,0,0:0:0:0:
160,64,233634,1,0,0:0:0:0:
176,64,233704,1,0,0:0:0:0:
192,64,233774,1,2,0:0:0:0:
208,64,233844,1,0,0:0:0:0:
224,64,233913,1,0,0:0:0:0:
240,64,233983,1,0,0:0:0:0:
256,64,234053,1,2,0:0:0:0:
272,64,234123,1,0,0:0:0:0:
288,64,234192,1,0,0:0:0:0:
304,64,234262,1,0,0:0:0:0:
320,64,234332,1,2,0:0:0:0:
336,64,234402,1,0,0:0:0:0:
352,64,234471,1,0,0:0:0:0:
368,64,234541,1,0,0:0:0:0:
384,64,234611,5,2,0:0:0:0:
384,80,234680,1,0,0:0:0:0:
384,96,234750,1,0,0:0:0:0:
384,112,234820,1,0,0:0:0:0:
384,128,234890,1,2,0:0:0:0:
384,144,234960,1,0,0:0:0:0:
384,160,235029,1,0,0:0:0:0:
384,176,235099,1,0,0:0:0:0:
384,192,235169,1,2,0:0:0:0:
384,208,235239,1,0,0:0:0:0:
384,224,235308,1,0,0:0:0:0:
384,240,235378,1,0,0:0:0:0:
384,256,235448,1,2,0:0:0:0:
384,272,235518,1,0,0:0:0:0:
384,288,235587,1,0,0:0:0:0:
384,304,235657,1,0,0:0:0:0:
384,320,235727,6,0,L|320:320,3,35,2|0|0|0,0:0|0:0|0:0|0:0,0:0:0:0:
320,320,236006,2,0,L|256:320,3,35,2|0|0|0,0:0|0:0|0:0|0:0,0:0:0:0:
256,320,236285,2,0,L|192:320,3,35,2|0|0|0,0:0|0:0|0:0|0:0,0:0:0:0:
192,320,236564,2,0,L|128:320,3,35,2|0|0|0,0:0|0:0|0:0|0:0,0:0:0:0:
128,320,236844,6,0,L|128:256,3,35,2|0|0|0,0:0|0:0|0:0|0:0,0:0:0:0:
128,256,237123,2,0,L|128:192,3,35,2|0|0|0,0:0|0:0|0:0|0:0,0:0:0:0:
128,192,237402,2,0,L|128:128,3,35,2|0|0|0,0:0|0:0|0:0|0:0,0:0:0:0:
128,128,237681,2,0,L|128:64,3,35,2|0|0|0,0:0|0:0|0:0|0:0,0:0:0:0:
128,64,237960,5,2,0:0:0:0:
144,64,238029,1,0,0:0:0:0:
160,64,238099,1,0,0:0:0:0:
176,64,238169,1,0,0:0:0:0:
192,64,238239,1,2,0:0:0:0:
208,64,238309,1,0,0:0:0:0:
224,64,238378,1,0,0:0:0:0:
240,64,238448,1,0,0:0:0:0:
256,64,238518,1,2,0:0:0:0:
272,64,238588,1,0,0:0:0:0:
288,64,238657,1,0,0:0:0:0:
304,64,238727,1,0,0:0:0:0:
320,64,238797,1,2,0:0:0:0:
336,64,238867,1,0,0:0:0:0:
352,64,238936,1,0,0:0:0:0:
368,64,239006,1,0,0:0:0:0:
384,64,239076,5,2,0:0:0:0:
384,80,239145,1,0,0:0:0:0:
384,96,239215,1,0,0:0:0:0:
384,112,239285,1,0,0:0:0:0:
384,128,239355,1,2,0:0:0:0:
384,144,239425,1,0,0:0:0:0:
384,160,239494,1,0,0:0:0:0:
384,176,239564,1,0,0:0:0:0:
384,192,239634,1,2,0:0:0:0:
384,208,239704,1,0,0:0:0:0:
384,224,239773,1,0,0:0:0:0:
384,240,239843,1,0,0:0:0:0:
384,256,239913,1,2,0:0:0:0:
384,272,239983,1,0,0:0:0:0:
384,288,240052,1,0,0:0:0:0:
384,304,240122,1,0,0:0:0:0:
384,320,240192,6,0,L|320:320,3,35,2|0|0|0,0:0|0:0|0:0|0:0,0:0:0:0:
320,320,240471,2,0,L|256:320,3,35,2|0|0|0,0:0|0:0|0:0|0:0,0:0:0:0:
256,320,240750,2,0,L|192:320,3,35,2|0|0|0,0:0|0:0|0:0|0:0,0:0:0:0:
192,320,241029,2,0,L|128:320,3,35,2|0|0|0,0:0|0:0|0:0|0:0,0:0:0:0:
128,320,241309,6,0,L|128:256,3,35,2|0|0|0,0:0|0:0|0:0|0:0,0:0:0:0:
128,256,241588,2,0,L|128:192,3,35,2|0|0|0,0:0|0:0|0:0|0:0,0:0:0:0:
128,192,241867,2,0,L|128:128,3,35,2|0|0|0,0:0|0:0|0:0|0:0,0:0:0:0:
128,128,242146,2,0,L|128:64,3,35,2|0|0|0,0:0|0:0|0:0|0:0,0:0:0:0:
