osu file format v14

[General]
AudioFilename: atama no taisou.mp3
AudioLeadIn: 0
PreviewTime: 111690
Countdown: 1
SampleSet: None
StackLeniency: 0.7
Mode: 0
LetterboxInBreaks: 1
WidescreenStoryboard: 1

[Editor]
DistanceSpacing: 1
BeatDivisor: 2
GridSize: 8
TimelineZoom: 1

[Metadata]
Title:Burst Stream Practice Maps
TitleUnicode:Burst Stream Practice Maps
Artist:Various Artists
ArtistUnicode:Various Artists
Creator:nooblet
Version:240 BPM 8 notes
Source:
Tags:
BeatmapID:812580
BeatmapSetID:370814

[Difficulty]
HPDrainRate:0
CircleSize:4
OverallDifficulty:10
ApproachRate:9.6
SliderMultiplier:1.4
SliderTickRate:1

[Events]
//Background and Video events
//Break Periods
//Storyboard Layer 0 (Background)
//Storyboard Layer 1 (Fail)
//Storyboard Layer 2 (Pass)
//Storyboard Layer 3 (Foreground)
//Storyboard Sound Samples

[TimingPoints]
58065,250,4,2,0,100,1,0

[HitObjects]
128,64,58065,5,2,0:0:0:0:
144,64,58127,1,0,0:0:0:0:
160,64,58190,1,0,0:0:0:0:
176,64,58252,1,0,0:0:0:0:
192,64,58315,1,2,0:0:0:0:
208,64,58377,1,0,0:0:0:0:
224,64,58440,1,0,0:0:0:0:
240,64,58502,1,0,0:0:0:0:
256,64,58565,6,0,L|304:64,3,35,2|0|0|0,0:0|0:0|0:0|0:0,0:0:0:0:
320,64,58815,2,0,L|368:64,3,35,2|0|0|0,0:0|0:0|0:0|0:0,0:0:0:0:
384,64,59065,5,2,0:0:0:0:
384,80,59127,1,0,0:0:0:0:
384,96,59190,1,0,0:0:0:0:
384,112,59252,1,0,0:0:0:0:
384,128,59315,1,2,0:0:0:0:
384,144,59377,1,0,0:0:0:0:
384,160,59440,1,0,0:0:0:0:
384,176,59502,1,0,0:0:0:0:
384,192,59565,6,0,L|384:240,3,35,2|0|0|0,0:0|0:0|0:0|0:0,0:0:0:0:
384,256,59815,2,0,L|384:304,3,35,2|0|0|0,0:0|0:0|0:0|0:0,0:0:0:0:
384,320,60065,5,2,0:0:0:0:
368,320,60127,1,0,0:0:0:0:
352,320,60190,1,0,0:0:0:0:
336,320,60252,1,0,0:0:0:0:
320,320,60315,1,2,0:0:0:0:
304,320,60377,1,0,0:0:0:0:
288,320,60440,1,0,0:0:0:0:
272,320,60502,1,0,0:0:0:0:
256,320,60565,6,0,L|208:320,3,35,2|0|0|0,0:0|0:0|0:0|0:0,0:0:0:0:
192,320,60815,2,0,L|144:320,3,35,2|0|0|0,0:0|0:0|0:0|0:0,0:0:0:0:
128,320,61065,5,2,0:0:0:0:
128,304,61127,1,0,0:0:0:0:
128,288,61190,1,0,0:0:0:0:
128,272,61252,1,0,0:0:0:0:
128,256,61315,1,2,0:0:0:0:
128,240,61377,1,0,0:0:0:0:
128,224,61440,1,0,0:0:0:0:
128,207,61502,1,0,0:0:0:0:
128,192,61565,6,0,L|128:144,3,35,2|0|0|0,0:0|0:0|0:0|0:0,0:0:0:0:
128,128,61815,2,0,L|128:80,3,35,2|0|0|0,0:0|0:0|0:0|0:0,0:0:0:0:
128,64,62065,5,2,0:0:0:0:
144,64,62127,1,0,0:0:0:0:
160,64,62190,1,0,0:0:0:0:
176,64,62252,1,0,0:0:0:0:
192,64,62315,1,2,0:0:0:0:
208,64,62377,1,0,0:0:0:0:
224,64,62440,1,0,0:0:0:0:
240,64,62502,1,0,0:0:0:0:
256,64,62565,6,0,L|304:64,3,35,2|0|0|0,0:0|0:0|0:0|0:0,0:0:0:0:
320,64,62815,2,0,L|368:64,3,35,2|0|0|0,0:0|0:0|0:0|0:0,0:0:0:0:
384,64,63065,5,2,0:0:0:0:
384,80,63127,1,0,0:0:0:0:
384,96,63190,1,0,0:0:0:0:
384,112,63252,1,0,0:0:0:0:
384,128,63315,1,2,0:0:0:0:
384,144,63377,1,0,0:0:0:0:
384,160,63440,1,0,0:0:0:0:
384,176,63502,1,0,0:0:0:0:
384,192,63565,6,0,L|384:240,3,35,2|0|0|0,0:0|0:0|0:0|0:0,0:0:0:0:
384,256,63815,2,0,L|384:304,3,35,2|0|0|0,0:0|0:0|0:0|0:0,0:0:0:0:
384,320,64065,5,2,0:0:0:0:
368,320,64127,1,0,0:0:0:0:
352,320,64190,1,0,0:0:0:0:
336,320,64252,1,0,0:0:0:0:
320,320,64315,1,2,0:0:0:0:
304,320,64377,1,0,0:0:0:0:
288,320,64440,1,0,0:0:0:0:
272,320,64502,1,0,0:0:0:0:
256,320,64565,6,0,L|208:320,3,35,2|0|0|0,0:0|0:0|0:0|0:0,0:0:0:0:
192,320,64815,2,0,L|144:320,3,35,2|0|0|0,0:0|0:0|0:0|0:0,0:0:0:0:
128,320,65065,5,2,0:0:0:0:
128,304,65127,1,0,0:0:0:0:
128,288,65190,1,0,0:0:0:0:
128,272,65252,1,0,0:0:0:0:
128,256,65315,1,2,0:0:0:0:
128,240,65377,1,0,0:0:0:0:
128,224,65440,1,0,0:0:0:0:
128,207,65502,1,0,0:0:0:0:
128,192,65565,6,0,L|128:144,3,35,2|0|0|0,0:0|0:0|0:0|0:0,0:0:0:0:
128,128,65815,2,0,L|128:80,3,35,2|0|0|0,0:0|0:0|0:0|0:0,0:0:0:0:
128,64,70065,5,2,0:0:0:0:
144,64,70127,1,0,0:0:0:0:
160,64,70190,1,0,0:0:0:0:
176,64,70252,1,0,0:0:0:0:
192,64,70315,1,2,0:0:0:0:
208,64,70377,1,0,0:0:0:0:
224,64,70440,1,0,0:0:0:0:
240,64,70502,1,0,0:0:0:0:
256,64,70565,6,0,L|304:64,3,35,2|0|0|0,0:0|0:0|0:0|0:0,0:0:0:0:
320,64,70815,2,0,L|368:64,3,35,2|0|0|0,0:0|0:0|0:0|0:0,0:0:0:0:
384,64,71065,5,2,0:0:0:0:
384,80,71127,1,0,0:0:0:0:
384,96,71190,1,0,0:0:0:0:
384,112,71252,1,0,0:0:0:0:
384,128,71315,1,2,0:0:0:0:
384,144,71377,1,0,0:0:0:0:
384,160,71440,1,0,0:0:0:0:
384,176,71502,1,0,0:0:0:0:
384,192,71565,6,0,L|384:240,3,35,2|0|0|0,0:0|0:0|0:0|0:0,0:0:0:0:
384,256,71815,2,0,L|384:304,3,35,2|0|0|0,0:0|0:0|0:0|0:0,0:0:0:0:
384,320,72065,5,2,0:0:0:0:
368,320,72127,1,0,0:0:0:0:
352,320,72190,1,0,0:0:0:0:
336,320,72252,1,0,0:0:0:0:
320,320,72315,1,2,0:0:0:0:
304,320,72377,1,0,0:0:0:0:
288,320,72440,1,0,0:0:0:0:
272,320,72502,1,0,0:0:0:0:
256,320,72565,6,0,L|208:320,3,35,2|0|0|0,0:0|0:0|0:0|0:0,0:0:0:0:
192,320,72815,2,0,L|144:320,3,35,2|0|0|0,0:0|0:0|0:0|0:0,0:0:0:0:
128,320,73065,5,2,0:0:0:0:
128,304,73127,1,0,0:0:0:0:
128,288,73190,1,0,0:0:0:0:
128,272,73252,1,0,0:0:0:0:
128,256,73315,1,2,0:0:0:0:
128,240,73377,1,0,0:0:0:0:
128,224,73440,1,0,0:0:0:0:
128,207,73502,1,0,0:0:0:0:
128,192,73565,6,0,L|128:144,3,35,2|0|0|0,0:0|0:0|0:0|0:0,0:0:0:0:
128,128,73815,2,0,L|128:80,3,35,2|0|0|0,0:0|0:0|0:0|0:0,0:0:0:0:
128,64,74065,5,2,0:0:0:0:
144,64,74127,1,0,0:0:0:0:
160,64,74190,1,0,0:0:0:0:
176,64,74252,1,0,0:0:0:0:
192,64,74315,1,2,0:0:0:0:
208,64,74377,1,0,0:0:0:0:
224,64,74440,1,0,0:0:0:0:
240,64,74502,1,0,0:0:0:0:
256,64,74565,6,0,L|304:64,3,35,2|0|0|0,0:0|0:0|0:0|0:0,0:0:0:0:
320,64,74815,2,0,L|368:64,3,35,2|0|0|0,0:0|0:0|0:0|0:0,0:0:0:0:
384,64,75065,5,2,0:0:0:0:
384,80,75127,1,0,0:0:0:0:
384,96,75190,1,0,0:0:0:0:
384,112,75252,1,0,0:0:0:0:
384,128,75315,1,2,0:0:0:0:
384,144,75377,1,0,0:0:0:0:
384,160,75440,1,0,0:0:0:0:
384,176,75502,1,0,0:0:0:0:
384,192,75565,6,0,L|384:240,3,35,2|0|0|0,0:0|0:0|0:0|0:0,0:0:0:0:
384,256,75815,2,0,L|384:304,3,35,2|0|0|0,0:0|0:0|0:0|0:0,0:0:0:0:
384,320,76065,5,2,0:0:0:0:
368,320,76127,1,0,0:0:0:0:
352,320,76190,1,0,0:0:0:0:
336,320,76252,1,0,0:0:0:0:
320,320,76315,1,2,0:0:0:0:
304,320,76377,1,0,0:0:0:0:
288,320,76440,1,0,0:0:0:0:
272,320,76502,1,0,0:0:0:0:
256,320,76565,6,0,L|208:320,3,35,2|0|0|0,0:0|0:0|0:0|0:0,0:0:0:0:
192,320,76815,2,0,L|144:320,3,35,2|0|0|0,0:0|0:0|0:0|0:0,0:0:0:0:
128,320,77065,5,2,0:0:0:0:
128,304,77127,1,0,0:0:0:0:
128,288,77190,1,0,0:0:0:0:
128,272,77252,1,0,0:0:0:0:
128,256,77315,1,2,0:0:0:0:
128,240,77377,1,0,0:0:0:0:
128,224,77440,1,0,0:0:0:0:
128,207,77502,1,0,0:0:0:0:
128,192,77565,6,0,L|128:144,3,35,2|0|0|0,0:0|0:0|0:0|0:0,0:0:0:0:
128,128,77815,2,0,L|128:80,3,35,2|0|0|0,0:0|0:0|0:0|0:0,0:0:0:0:
128,64,78065,5,2,0:0:0:0:
144,64,78127,1,0,0:0:0:0:
160,64,78190,1,0,0:0:0:0:
176,64,78252,1,0,0:0:0:0:
192,64,78315,1,2,0:0:0:0:
208,64,78377,1,0,0:0:0:0:
224,64,78440,1,0,0:0:0:0:
240,64,78502,1,0,0:0:0:0:
256,64,78565,6,0,L|304:64,3,35,2|0|0|0,0:0|0:0|0:0|0:0,0:0:0:0:
320,64,78815,2,0,L|368:64,3,35,2|0|0|0,0:0|0:0|0:0|0:0,0:0:0:0:
384,64,79065,5,2,0:0:0:0:
384,80,79127,1,0,0:0:0:0:
384,96,79190,1,0,0:0:0:0:
384,112,79252,1,0,0:0:0:0:
384,128,79315,1,2,0:0:0:0:
384,144,79377,1,0,0:0:0:0:
384,160,79440,1,0,0:0:0:0:
384,176,79502,1,0,0:0:0:0:
384,192,79565,6,0,L|384:240,3,35,2|0|0|0,0:0|0:0|0:0|0:0,0:0:0:0:
384,256,79815,2,0,L|384:304,3,35,2|0|0|0,0:0|0:0|0:0|0:0,0:0:0:0:
384,320,80065,5,2,0:0:0:0:
368,320,80127,1,0,0:0:0:0:
352,320,80190,1,0,0:0:0:0:
336,320,80252,1,0,0:0:0:0:
320,320,80315,1,2,0:0:0:0:
304,320,80377,1,0,0:0:0:0:
288,320,80440,1,0,0:0:0:0:
272,320,80502,1,0,0:0:0:0:
256,320,80565,6,0,L|208:320,3,35,2|0|0|0,0:0|0:0|0:0|0:0,0:0:0:0:
192,320,80815,2,0,L|144:320,3,35,2|0|0|0,0:0|0:0|0:0|0:0,0:0:0:0:
128,320,81065,5,2,0:0:0:0:
128,304,81127,1,0,0:0:0:0:
128,288,81190,1,0,0:0:0:0:
128,272,81252,1,0,0:0:0:0:
128,256,81315,1,2,0:0:0:0:
128,240,81377,1,0,0:0:0:0:
128,224,81440,1,0,0:0:0:0:
128,207,81502,1,0,0:0:0:0:
128,192,81565,6,0,L|128:144,3,35,2|0|0|0,0:0|0:0|0:0|0:0,0:0:0:0:
128,128,81815,2,0,L|128:80,3,35,2|0|0|0,0:0|0:0|0:0|0:0,0:0:0:0:
128,64,82065,5,2,0:0:0:0:
144,64,82127,1,0,0:0:0:0:
160,64,82190,1,0,0:0:0:0:
176,64,82252,1,0,0:0:0:0:
192,64,82315,1,2,0:0:0:0:
208,64,82377,1,0,0:0:0:0:
224,64,82440,1,0,0:0:0:0:
240,64,82502,1,0,0:0:0:0:
256,64,82565,6,0,L|304:64,3,35,2|0|0|0,0:0|0:0|0:0|0:0,0:0:0:0:
320,64,82815,2,0,L|368:64,3,35,2|0|0|0,0:0|0:0|0:0|0:0,0:0:0:0:
384,64,83065,5,2,0:0:0:0:
384,80,83127,1,0,0:0:0:0:
384,96,83190,1,0,0:0:0:0:
384,112,83252,1,0,0:0:0:0:
384,128,83315,1,2,0:0:0:0:
384,144,83377,1,0,0:0:0:0:
384,160,83440,1,0,0:0:0:0:
384,176,83502,1,0,0:0:0:0:
384,192,83565,6,0,L|384:240,3,35,2|0|0|0,0:0|0:0|0:0|0:0,0:0:0:0:
384,256,83815,2,0,L|384:304,3,35,2|0|0|0,0:0|0:0|0:0|0:0,0:0:0:0:
384,320,84065,5,2,0:0:0:0:
368,320,84127,1,0,0:0:0:0:
352,320,84190,1,0,0:0:0:0:
336,320,84252,1,0,0:0:0:0:
320,320,84315,1,2,0:0:0:0:
304,320,84377,1,0,0:0:0:0:
288,320,84440,1,0,0:0:0:0:
272,320,84502,1,0,0:0:0:0:
256,320,84565,6,0,L|208:320,3,35,2|0|0|0,0:0|0:0|0:0|0:0,0:0:0:0:
192,320,84815,2,0,L|144:320,3,35,2|0|0|0,0:0|0:0|0:0|0:0,0:0:0:0:
128,320,85065,5,2,0:0:0:0:
128,304,85127,1,0,0:0:0:0:
128,288,85190,1,0,0:0:0:0:
128,272,85252,1,0,0:0:0:0:
128,256,85315,1,2,0:0:0:0:
128,240,85377,1,0,0:0:0:0:
128,224,85440,1,0,0:0:0:0:
128,207,85502,1,0,0:0:0:0:
128,192,85565,6,0,L|128:144,3,35,2|0|0|0,0:0|0:0|0:0|0:0,0:0:0:0:
128,128,85815,2,0,L|128:80,3,35,2|0|0|0,0:0|0:0|0:0|0:0,0:0:0:0:
128,64,86065,5,2,0:0:0:0:
144,64,86127,1,0,0:0:0:0:
160,64,86190,1,0,0:0:0:0:
176,64,86252,1,0,0:0:0:0:
192,64,86315,1,2,0:0:0:0:
208,64,86377,1,0,0:0:0:0:
224,64,86440,1,0,0:0:0:0:
240,64,86502,1,0,0:0:0:0:
256,64,86565,6,0,L|304:64,3,35,2|0|0|0,0:0|0:0|0:0|0:0,0:0:0:0:
320,64,86815,2,0,L|368:64,3,35,2|0|0|0,0:0|0:0|0:0|0:0,0:0:0:0:
384,64,87065,5,2,0:0:0:0:
384,80,87127,1,0,0:0:0:0:
384,96,87190,1,0,0:0:0:0:
384,112,87252,1,0,0:0:0:0:
384,128,87315,1,2,0:0:0:0:
384,144,87377,1,0,0:0:0:0:
384,160,87440,1,0,0:0:0:0:
384,176,87502,1,0,0:0:0:0:
384,192,87565,6,0,L|384:240,3,35,2|0|0|0,0:0|0:0|0:0|0:0,0:0:0:0:
384,256,87815,2,0,L|384:304,3,35,2|0|0|0,0:0|0:0|0:0|0:0,0:0:0:0:
384,320,88065,5,2,0:0:0:0:
368,320,88127,1,0,0:0:0:0:
352,320,88190,1,0,0:0:0:0:
336,320,88252,1,0,0:0:0:0:
320,320,88315,1,2,0:0:0:0:
304,320,88377,1,0,0:0:0:0:
288,320,88440,1,0,0:0:0:0:
272,320,88502,1,0,0:0:0:0:
256,320,88565,6,0,L|208:320,3,35,2|0|0|0,0:0|0:0|0:0|0:0,0:0:0:0:
192,320,88815,2,0,L|144:320,3,35,2|0|0|0,0:0|0:0|0:0|0:0,0:0:0:0:
128,320,89065,5,2,0:0:0:0:
128,304,89127,1,0,0:0:0:0:
128,288,89190,1,0,0:0:0:0:
128,272,89252,1,0,0:0:0:0:
128,256,89315,1,2,0:0:0:0:
128,240,89377,1,0,0:0:0:0:
128,224,89440,1,0,0:0:0:0:
128,207,89502,1,0,0:0:0:0:
128,192,89565,6,0,L|128:144,3,35,2|0|0|0,0:0|0:0|0:0|0:0,0:0:0:0:
128,128,89815,2,0,L|128:80,3,35,2|0|0|0,0:0|0:0|0:0|0:0,0:0:0:0:
128,64,90065,5,2,0:0:0:0:
144,64,90127,1,0,0:0:0:0:
160,64,90190,1,0,0:0:0:0:
176,64,90252,1,0,0:0:0:0:
192,64,90315,1,2,0:0:0:0:
208,64,90377,1,0,0:0:0:0:
224,64,90440,1,0,0:0:0:0:
240,64,90502,1,0,0:0:0:0:
256,64,90565,6,0,L|304:64,3,35,2|0|0|0,0:0|0:0|0:0|0:0,0:0:0:0:
320,64,90815,2,0,L|368:64,3,35,2|0|0|0,0:0|0:0|0:0|0:0,0:0:0:0:
384,64,91065,5,2,0:0:0:0:
384,80,91127,1,0,0:0:0:0:
384,96,91190,1,0,0:0:0:0:
384,112,91252,1,0,0:0:0:0:
384,128,91315,1,2,0:0:0:0:
384,144,91377,1,0,0:0:0:0:
384,160,91440,1,0,0:0:0:0:
384,176,91502,1,0,0:0:0:0:
384,192,91565,6,0,L|384:240,3,35,2|0|0|0,0:0|0:0|0:0|0:0,0:0:0:0:
384,256,91815,2,0,L|384:304,3,35,2|0|0|0,0:0|0:0|0:0|0:0,0:0:0:0:
384,320,92065,5,2,0:0:0:0:
368,320,92127,1,0,0:0:0:0:
352,320,92190,1,0,0:0:0:0:
336,320,92252,1,0,0:0:0:0:
320,320,92315,1,2,0:0:0:0:
304,320,92377,1,0,0:0:0:0:
288,320,92440,1,0,0:0:0:0:
272,320,92502,1,0,0:0:0:0:
256,320,92565,6,0,L|208:320,3,35,2|0|0|0,0:0|0:0|0:0|0:0,0:0:0:0:
192,320,92815,2,0,L|144:320,3,35,2|0|0|0,0:0|0:0|0:0|0:0,0:0:0:0:
128,320,93065,5,2,0:0:0:0:
128,304,93127,1,0,0:0:0:0:
128,288,93190,1,0,0:0:0:0:
128,272,93252,1,0,0:0:0:0:
128,256,93315,1,2,0:0:0:0:
128,240,93377,1,0,0:0:0:0:
128,224,93440,1,0,0:0:0:0:
128,207,93502,1,0,0:0:0:0:
128,192,93565,6,0,L|128:144,3,35,2|0|0|0,0:0|0:0|0:0|0:0,0:0:0:0:
128,128,93815,2,0,L|128:80,3,35,2|0|0|0,0:0|0:0|0:0|0:0,0:0:0:0:
128,64,94065,5,2,0:0:0:0:
144,64,94127,1,0,0:0:0:0:
160,64,94190,1,0,0:0:0:0:
176,64,94252,1,0,0:0:0:0:
192,64,94315,1,2,0:0:0:0:
208,64,94377,1,0,0:0:0:0:
224,64,94440,1,0,0:0:0:0:
240,64,94502,1,0,0:0:0:0:
256,64,94565,6,0,L|304:64,3,35,2|0|0|0,0:0|0:0|0:0|0:0,0:0:0:0:
320,64,94815,2,0,L|368:64,3,35,2|0|0|0,0:0|0:0|0:0|0:0,0:0:0:0:
384,64,95065,5,2,0:0:0:0:
384,80,95127,1,0,0:0:0:0:
384,96,95190,1,0,0:0:0:0:
384,112,95252,1,0,0:0:0:0:
384,128,95315,1,2,0:0:0:0:
384,144,95377,1,0,0:0:0:0:
384,160,95440,1,0,0:0:0:0:
384,176,95502,1,0,0:0:0:0:
384,192,95565,6,0,L|384:240,3,35,2|0|0|0,0:0|0:0|0:0|0:0,0:0:0:0:
384,256,95815,2,0,L|384:304,3,35,2|0|0|0,0:0|0:0|0:0|0:0,0:0:0:0:
384,320,96065,5,2,0:0:0:0:
368,320,96127,1,0,0:0:0:0:
352,320,96190,1,0,0:0:0:0:
336,320,96252,1,0,0:0:0:0:
320,320,96315,1,2,0:0:0:0:
304,320,96377,1,0,0:0:0:0:
288,320,96440,1,0,0:0:0:0:
272,320,96502,1,0,0:0:0:0:
256,320,96565,6,0,L|208:320,3,35,2|0|0|0,0:0|0:0|0:0|0:0,0:0:0:0:
192,320,96815,2,0,L|144:320,3,35,2|0|0|0,0:0|0:0|0:0|0:0,0:0:0:0:
128,320,97065,5,2,0:0:0:0:
128,304,97127,1,0,0:0:0:0:
128,288,97190,1,0,0:0:0:0:
128,272,97252,1,0,0:0:0:0:
128,256,97315,1,2,0:0:0:0:
128,240,97377,1,0,0:0:0:0:
128,224,97440,1,0,0:0:0:0:
128,207,97502,1,0,0:0:0:0:
128,192,97565,6,0,L|128:144,3,35,2|0|0|0,0:0|0:0|0:0|0:0,0:0:0:0:
128,128,97815,2,0,L|128:80,3,35,2|0|0|0,0:0|0:0|0:0|0:0,0:0:0:0:
128,64,98065,5,2,0:0:0:0:
144,64,98127,1,0,0:0:0:0:
160,64,98190,1,0,0:0:0:0:
176,64,98252,1,0,0:0:0:0:
192,64,98315,1,2,0:0:0:0:
208,64,98377,1,0,0:0:0:0:
224,64,98440,1,0,0:0:0:0:
240,64,98502,1,0,0:0:0:0:
256,64,98565,6,0,L|304:64,3,35,2|0|0|0,0:0|0:0|0:0|0:0,0:0:0:0:
320,64,98815,2,0,L|368:64,3,35,2|0|0|0,0:0|0:0|0:0|0:0,0:0:0:0:
384,64,99065,5,2,0:0:0:0:
384,80,99127,1,0,0:0:0:0:
384,96,99190,1,0,0:0:0:0:
384,112,99252,1,0,0:0:0:0:
384,128,99315,1,2,0:0:0:0:
384,144,99377,1,0,0:0:0:0:
384,160,99440,1,0,0:0:0:0:
384,176,99502,1,0,0:0:0:0:
384,192,99565,6,0,L|384:240,3,35,2|0|0|0,0:0|0:0|0:0|0:0,0:0:0:0:
384,256,99815,2,0,L|384:304,3,35,2|0|0|0,0:0|0:0|0:0|0:0,0:0:0:0:
384,320,100065,5,2,0:0:0:0:
368,320,100127,1,0,0:0:0:0:
352,320,100190,1,0,0:0:0:0:
336,320,100252,1,0,0:0:0:0:
320,320,100315,1,2,0:0:0:0:
304,320,100377,1,0,0:0:0:0:
288,320,100440,1,0,0:0:0:0:
272,320,100502,1,0,0:0:0:0:
256,320,100565,6,0,L|208:320,3,35,2|0|0|0,0:0|0:0|0:0|0:0,0:0:0:0:
192,320,100815,2,0,L|144:320,3,35,2|0|0|0,0:0|0:0|0:0|0:0,0:0:0:0:
128,320,101065,5,2,0:0:0:0:
128,304,101127,1,0,0:0:0:0:
128,288,101190,1,0,0:0:0:0:
128,272,101252,1,0,0:0:0:0:
128,256,101315,1,2,0:0:0:0:
128,240,101377,1,0,0:0:0:0:
128,224,101440,1,0,0:0:0:0:
128,207,101502,1,0,0:0:0:0:
128,192,101565,6,0,L|128:144,3,35,2|0|0|0,0:0|0:0|0:0|0:0,0:0:0:0:
128,128,101815,2,0,L|128:80,3,35,2|0|0|0,0:0|0:0|0:0|0:0,0:0:0:0:
128,64,102065,5,2,0:0:0:0:
144,64,102127,1,0,0:0:0:0:
160,64,102190,1,0,0:0:0:0:
176,64,102252,1,0,0:0:0:0:
192,64,102315,1,2,0:0:0:0:
208,64,102377,1,0,0:0:0:0:
224,64,102440,1,0,0:0:0:0:
240,64,102502,1,0,0:0:0:0:
256,64,102565,6,0,L|304:64,3,35,2|0|0|0,0:0|0:0|0:0|0:0,0:0:0:0:
320,64,102815,2,0,L|368:64,3,35,2|0|0|0,0:0|0:0|0:0|0:0,0:0:0:0:
384,64,103065,5,2,0:0:0:0:
384,80,103127,1,0,0:0:0:0:
384,96,103190,1,0,0:0:0:0:
384,112,103252,1,0,0:0:0:0:
384,128,103315,1,2,0:0:0:0:
384,144,103377,1,0,0:0:0:0:
384,160,103440,1,0,0:0:0:0:
384,176,103502,1,0,0:0:0:0:
384,192,103565,6,0,L|384:240,3,35,2|0|0|0,0:0|0:0|0:0|0:0,0:0:0:0:
384,256,103815,2,0,L|384:304,3,35,2|0|0|0,0:0|0:0|0:0|0:0,0:0:0:0:
384,320,104065,5,2,0:0:0:0:
368,320,104127,1,0,0:0:0:0:
352,320,104190,1,0,0:0:0:0:
336,320,104252,1,0,0:0:0:0:
320,320,104315,1,2,0:0:0:0:
304,320,104377,1,0,0:0:0:0:
288,320,104440,1,0,0:0:0:0:
272,320,104502,1,0,0:0:0:0:
256,320,104565,6,0,L|208:320,3,35,2|0|0|0,0:0|0:0|0:0|0:0,0:0:0:0:
192,320,104815,2,0,L|144:320,3,35,2|0|0|0,0:0|0:0|0:0|0:0,0:0:0:0:
128,320,105065,5,2,0:0:0:0:
128,304,105127,1,0,0:0:0:0:
128,288,105190,1,0,0:0:0:0:
128,272,105252,1,0,0:0:0:0:
128,256,105315,1,2,0:0:0:0:
128,240,105377,1,0,0:0:0:0:
128,224,105440,1,0,0:0:0:0:
128,207,105502,1,0,0:0:0:0:
128,192,105565,6,0,L|128:144,3,35,2|0|0|0,0:0|0:0|0:0|0:0,0:0:0:0:
128,128,105815,2,0,L|128:80,3,35,2|0|0|0,0:0|0:0|0:0|0:0,0:0:0:0:
128,64,106065,5,2,0:0:0:0:
144,64,106127,1,0,0:0:0:0:
160,64,106190,1,0,0:0:0:0:
176,64,106252,1,0,0:0:0:0:
192,64,106315,1,2,0:0:0:0:
208,64,106377,1,0,0:0:0:0:
224,64,106440,1,0,0:0:0:0:
240,64,106502,1,0,0:0:0:0:
256,64,106565,6,0,L|304:64,3,35,2|0|0|0,0:0|0:0|0:0|0:0,0:0:0:0:
320,64,106815,2,0,L|368:64,3,35,2|0|0|0,0:0|0:0|0:0|0:0,0:0:0:0:
384,64,107065,5,2,0:0:0:0:
384,80,107127,1,0,0:0:0:0:
384,96,107190,1,0,0:0:0:0:
384,112,107252,1,0,0:0:0:0:
384,128,107315,1,2,0:0:0:0:
384,144,107377,1,0,0:0:0:0:
384,160,107440,1,0,0:0:0:0:
384,176,107502,1,0,0:0:0:0:
384,192,107565,6,0,L|384:240,3,35,2|0|0|0,0:0|0:0|0:0|0:0,0:0:0:0:
384,256,107815,2,0,L|384:304,3,35,2|0|0|0,0:0|0:0|0:0|0:0,0:0:0:0:
384,320,108065,5,2,0:0:0:0:
368,320,108127,1,0,0:0:0:0:
352,320,108190,1,0,0:0:0:0:
336,320,108252,1,0,0:0:0:0:
320,320,108315,1,2,0:0:0:0:
304,320,108377,1,0,0:0:0:0:
288,320,108440,1,0,0:0:0:0:
272,320,108502,1,0,0:0:0:0:
256,320,108565,6,0,L|208:320,3,35,2|0|0|0,0:0|0:0|0:0|0:0,0:0:0:0:
192,320,108815,2,0,L|144:320,3,35,2|0|0|0,0:0|0:0|0:0|0:0,0:0:0:0:
128,320,109065,5,2,0:0:0:0:
128,304,109127,1,0,0:0:0:0:
128,288,109190,1,0,0:0:0:0:
128,272,109252,1,0,0:0:0:0:
128,256,109315,1,2,0:0:0:0:
128,240,109377,1,0,0:0:0:0:
128,224,109440,1,0,0:0:0:0:
128,207,109502,1,0,0:0:0:0:
128,192,109565,6,0,L|128:144,3,35,2|0|0|0,0:0|0:0|0:0|0:0,0:0:0:0:
128,128,109815,2,0,L|128:80,3,35,2|0|0|0,0:0|0:0|0:0|0:0,0:0:0:0:
128,64,110065,5,2,0:0:0:0:
144,64,110127,1,0,0:0:0:0:
160,64,110190,1,0,0:0:0:0:
176,64,110252,1,0,0:0:0:0:
192,64,110315,1,2,0:0:0:0:
208,64,110377,1,0,0:0:0:0:
224,64,110440,1,0,0:0:0:0:
240,64,110502,1,0,0:0:0:0:
256,64,110565,6,0,L|304:64,3,35,2|0|0|0,0:0|0:0|0:0|0:0,0:0:0:0:
320,64,110815,2,0,L|368:64,3,35,2|0|0|0,0:0|0:0|0:0|0:0,0:0:0:0:
384,64,111065,5,2,0:0:0:0:
384,80,111127,1,0,0:0:0:0:
384,96,111190,1,0,0:0:0:0:
384,112,111252,1,0,0:0:0:0:
384,128,111315,1,2,0:0:0:0:
384,144,111377,1,0,0:0:0:0:
384,160,111440,1,0,0:0:0:0:
384,176,111502,1,0,0:0:0:0:
384,192,111565,6,0,L|384:240,3,35,2|0|0|0,0:0|0:0|0:0|0:0,0:0:0:0:
384,256,111815,2,0,L|384:304,3,35,2|0|0|0,0:0|0:0|0:0|0:0,0:0:0:0:
384,320,112065,5,2,0:0:0:0:
368,320,112127,1,0,0:0:0:0:
352,320,112190,1,0,0:0:0:0:
336,320,112252,1,0,0:0:0:0:
320,320,112315,1,2,0:0:0:0:
304,320,112377,1,0,0:0:0:0:
288,320,112440,1,0,0:0:0:0:
272,320,112502,1,0,0:0:0:0:
256,320,112565,6,0,L|208:320,3,35,2|0|0|0,0:0|0:0|0:0|0:0,0:0:0:0:
192,320,112815,2,0,L|144:320,3,35,2|0|0|0,0:0|0:0|0:0|0:0,0:0:0:0:
128,320,113065,5,2,0:0:0:0:
128,304,113127,1,0,0:0:0:0:
128,288,113190,1,0,0:0:0:0:
128,272,113252,1,0,0:0:0:0:
128,256,113315,1,2,0:0:0:0:
128,240,113377,1,0,0:0:0:0:
128,224,113440,1,0,0:0:0:0:
128,207,113502,1,0,0:0:0:0:
128,192,113565,6,0,L|128:144,3,35,2|0|0|0,0:0|0:0|0:0|0:0,0:0:0:0:
128,128,113815,2,0,L|128:80,3,35,2|0|0|0,0:0|0:0|0:0|0:0,0:0:0:0:
128,64,114065,5,2,0:0:0:0:
144,64,114127,1,0,0:0:0:0:
160,64,114190,1,0,0:0:0:0:
176,64,114252,1,0,0:0:0:0:
192,64,114315,1,2,0:0:0:0:
208,64,114377,1,0,0:0:0:0:
224,64,114440,1,0,0:0:0:0:
240,64,114502,1,0,0:0:0:0:
256,64,114565,6,0,L|304:64,3,35,2|0|0|0,0:0|0:0|0:0|0:0,0:0:0:0:
320,64,114815,2,0,L|368:64,3,35,2|0|0|0,0:0|0:0|0:0|0:0,0:0:0:0:
384,64,115065,5,2,0:0:0:0:
384,80,115127,1,0,0:0:0:0:
384,96,115190,1,0,0:0:0:0:
384,112,115252,1,0,0:0:0:0:
384,128,115315,1,2,0:0:0:0:
384,144,115377,1,0,0:0:0:0:
384,160,115440,1,0,0:0:0:0:
384,176,115502,1,0,0:0:0:0:
384,192,115565,6,0,L|384:240,3,35,2|0|0|0,0:0|0:0|0:0|0:0,0:0:0:0:
384,256,115815,2,0,L|384:304,3,35,2|0|0|0,0:0|0:0|0:0|0:0,0:0:0:0:
384,320,116065,5,2,0:0:0:0:
368,320,116127,1,0,0:0:0:0:
352,320,116190,1,0,0:0:0:0:
336,320,116252,1,0,0:0:0:0:
320,320,116315,1,2,0:0:0:0:
304,320,116377,1,0,0:0:0:0:
288,320,116440,1,0,0:0:0:0:
272,320,116502,1,0,0:0:0:0:
256,320,116565,6,0,L|208:320,3,35,2|0|0|0,0:0|0:0|0:0|0:0,0:0:0:0:
192,320,116815,2,0,L|144:320,3,35,2|0|0|0,0:0|0:0|0:0|0:0,0:0:0:0:
128,320,117065,5,2,0:0:0:0:
128,304,117127,1,0,0:0:0:0:
128,288,117190,1,0,0:0:0:0:
128,272,117252,1,0,0:0:0:0:
128,256,117315,1,2,0:0:0:0:
128,240,117377,1,0,0:0:0:0:
128,224,117440,1,0,0:0:0:0:
128,207,117502,1,0,0:0:0:0:
128,192,117565,6,0,L|128:144,3,35,2|0|0|0,0:0|0:0|0:0|0:0,0:0:0:0:
128,128,117815,2,0,L|128:80,3,35,2|0|0|0,0:0|0:0|0:0|0:0,0:0:0:0:
128,64,118065,5,2,0:0:0:0:
144,64,118127,1,0,0:0:0:0:
160,64,118190,1,0,0:0:0:0:
176,64,118252,1,0,0:0:0:0:
192,64,118315,1,2,0:0:0:0:
208,64,118377,1,0,0:0:0:0:
224,64,118440,1,0,0:0:0:0:
240,64,118502,1,0,0:0:0:0:
256,64,118565,6,0,L|304:64,3,35,2|0|0|0,0:0|0:0|0:0|0:0,0:0:0:0:
320,64,118815,2,0,L|368:64,3,35,2|0|0|0,0:0|0:0|0:0|0:0,0:0:0:0:
384,64,119065,5,2,0:0:0:0:
384,80,119127,1,0,0:0:0:0:
384,96,119190,1,0,0:0:0:0:
384,112,119252,1,0,0:0:0:0:
384,128,119315,1,2,0:0:0:0:
384,144,119377,1,0,0:0:0:0:
384,160,119440,1,0,0:0:0:0:
384,176,119502,1,0,0:0:0:0:
384,192,119565,6,0,L|384:240,3,35,2|0|0|0,0:0|0:0|0:0|0:0,0:0:0:0:
384,256,119815,2,0,L|384:304,3,35,2|0|0|0,0:0|0:0|0:0|0:0,0:0:0:0:
384,320,120065,5,2,0:0:0:0:
368,320,120127,1,0,0:0:0:0:
352,320,120190,1,0,0:0:0:0:
336,320,120252,1,0,0:0:0:0:
320,320,120315,1,2,0:0:0:0:
304,320,120377,1,0,0:0:0:0:
288,320,120440,1,0,0:0:0:0:
272,320,120502,1,0,0:0:0:0:
256,320,120565,6,0,L|208:320,3,35,2|0|0|0,0:0|0:0|0:0|0:0,0:0:0:0:
192,320,120815,2,0,L|144:320,3,35,2|0|0|0,0:0|0:0|0:0|0:0,0:0:0:0:
128,320,121065,5,2,0:0:0:0:
128,304,121127,1,0,0:0:0:0:
128,288,121190,1,0,0:0:0:0:
128,272,121252,1,0,0:0:0:0:
128,256,121315,1,2,0:0:0:0:
128,240,121377,1,0,0:0:0:0:
128,224,121440,1,0,0:0:0:0:
128,207,121502,1,0,0:0:0:0:
128,192,121565,6,0,L|128:144,3,35,2|0|0|0,0:0|0:0|0:0|0:0,0:0:0:0:
128,128,121815,2,0,L|128:80,3,35,2|0|0|0,0:0|0:0|0:0|0:0,0:0:0:0:
128,64,122065,5,2,0:0:0:0:
144,64,122127,1,0,0:0:0:0:
160,64,122190,1,0,0:0:0:0:
176,64,122252,1,0,0:0:0:0:
192,64,122315,1,2,0:0:0:0:
208,64,122377,1,0,0:0:0:0:
224,64,122440,1,0,0:0:0:0:
240,64,122502,1,0,0:0:0:0:
256,64,122565,6,0,L|304:64,3,35,2|0|0|0,0:0|0:0|0:0|0:0,0:0:0:0:
320,64,122815,2,0,L|368:64,3,35,2|0|0|0,0:0|0:0|0:0|0:0,0:0:0:0:
384,64,123065,5,2,0:0:0:0:
384,80,123127,1,0,0:0:0:0:
384,96,123190,1,0,0:0:0:0:
384,112,123252,1,0,0:0:0:0:
384,128,123315,1,2,0:0:0:0:
384,144,123377,1,0,0:0:0:0:
384,160,123440,1,0,0:0:0:0:
384,176,123502,1,0,0:0:0:0:
384,192,123565,6,0,L|384:240,3,35,2|0|0|0,0:0|0:0|0:0|0:0,0:0:0:0:
384,256,123815,2,0,L|384:304,3,35,2|0|0|0,0:0|0:0|0:0|0:0,0:0:0:0:
384,320,124065,5,2,0:0:0:0:
368,320,124127,1,0,0:0:0:0:
352,320,124190,1,0,0:0:0:0:
336,320,124252,1,0,0:0:0:0:
320,320,124315,1,2,0:0:0:0:
304,320,124377,1,0,0:0:0:0:
288,320,124440,1,0,0:0:0:0:
272,320,124502,1,0,0:0:0:0:
256,320,124565,6,0,L|208:320,3,35,2|0|0|0,0:0|0:0|0:0|0:0,0:0:0:0:
192,320,124815,2,0,L|144:320,3,35,2|0|0|0,0:0|0:0|0:0|0:0,0:0:0:0:
128,320,125065,5,2,0:0:0:0:
128,304,125127,1,0,0:0:0:0:
128,288,125190,1,0,0:0:0:0:
128,272,125252,1,0,0:0:0:0:
128,256,125315,1,2,0:0:0:0:
128,240,125377,1,0,0:0:0:0:
128,224,125440,1,0,0:0:0:0:
128,207,125502,1,0,0:0:0:0:
128,192,125565,6,0,L|128:144,3,35,2|0|0|0,0:0|0:0|0:0|0:0,0:0:0:0:
128,128,125815,2,0,L|128:80,3,35,2|0|0|0,0:0|0:0|0:0|0:0,0:0:0:0:
128,64,126065,5,2,0:0:0:0:
144,64,126127,1,0,0:0:0:0:
160,64,126190,1,0,0:0:0:0:
176,64,126252,1,0,0:0:0:0:
192,64,126315,1,2,0:0:0:0:
208,64,126377,1,0,0:0:0:0:
224,64,126440,1,0,0:0:0:0:
240,64,126502,1,0,0:0:0:0:
256,64,126565,6,0,L|304:64,3,35,2|0|0|0,0:0|0:0|0:0|0:0,0:0:0:0:
320,64,126815,2,0,L|368:64,3,35,2|0|0|0,0:0|0:0|0:0|0:0,0:0:0:0:
384,64,127065,5,2,0:0:0:0:
384,80,127127,1,0,0:0:0:0:
384,96,127190,1,0,0:0:0:0:
384,112,127252,1,0,0:0:0:0:
384,128,127315,1,2,0:0:0:0:
384,144,127377,1,0,0:0:0:0:
384,160,127440,1,0,0:0:0:0:
384,176,127502,1,0,0:0:0:0:
384,192,127565,6,0,L|384:240,3,35,2|0|0|0,0:0|0:0|0:0|0:0,0:0:0:0:
384,256,127815,2,0,L|384:304,3,35,2|0|0|0,0:0|0:0|0:0|0:0,0:0:0:0:
384,320,128065,5,2,0:0:0:0:
368,320,128127,1,0,0:0:0:0:
352,320,128190,1,0,0:0:0:0:
336,320,128252,1,0,0:0:0:0:
320,320,128315,1,2,0:0:0:0:
304,320,128377,1,0,0:0:0:0:
288,320,128440,1,0,0:0:0:0:
272,320,128502,1,0,0:0:0:0:
256,320,128565,6,0,L|208:320,3,35,2|0|0|0,0:0|0:0|0:0|0:0,0:0:0:0:
192,320,128815,2,0,L|144:320,3,35,2|0|0|0,0:0|0:0|0:0|0:0,0:0:0:0:
128,320,129065,5,2,0:0:0:0:
128,304,129127,1,0,0:0:0:0:
128,288,129190,1,0,0:0:0:0:
128,272,129252,1,0,0:0:0:0:
128,256,129315,1,2,0:0:0:0:
128,240,129377,1,0,0:0:0:0:
128,224,129440,1,0,0:0:0:0:
128,207,129502,1,0,0:0:0:0:
128,192,129565,6,0,L|128:144,3,35,2|0|0|0,0:0|0:0|0:0|0:0,0:0:0:0:
128,128,129815,2,0,L|128:80,3,35,2|0|0|0,0:0|0:0|0:0|0:0,0:0:0:0:
128,64,130065,5,2,0:0:0:0:
144,64,130127,1,0,0:0:0:0:
160,64,130190,1,0,0:0:0:0:
176,64,130252,1,0,0:0:0:0:
192,64,130315,1,2,0:0:0:0:
208,64,130377,1,0,0:0:0:0:
224,64,130440,1,0,0:0:0:0:
240,64,130502,1,0,0:0:0:0:
256,64,130565,6,0,L|304:64,3,35,2|0|0|0,0:0|0:0|0:0|0:0,0:0:0:0:
320,64,130815,2,0,L|368:64,3,35,2|0|0|0,0:0|0:0|0:0|0:0,0:0:0:0:
384,64,131065,5,2,0:0:0:0:
384,80,131127,1,0,0:0:0:0:
384,96,131190,1,0,0:0:0:0:
384,112,131252,1,0,0:0:0:0:
384,128,131315,1,2,0:0:0:0:
384,144,131377,1,0,0:0:0:0:
384,160,131440,1,0,0:0:0:0:
384,176,131502,1,0,0:0:0:0:
384,192,131565,6,0,L|384:240,3,35,2|0|0|0,0:0|0:0|0:0|0:0,0:0:0:0:
384,256,131815,2,0,L|384:304,3,35,2|0|0|0,0:0|0:0|0:0|0:0,0:0:0:0:
384,320,132065,5,2,0:0:0:0:
368,320,132127,1,0,0:0:0:0:
352,320,132190,1,0,0:0:0:0:
336,320,132252,1,0,0:0:0:0:
320,320,132315,1,2,0:0:0:0:
304,320,132377,1,0,0:0:0:0:
288,320,132440,1,0,0:0:0:0:
272,320,132502,1,0,0:0:0:0:
256,320,132565,6,0,L|208:320,3,35,2|0|0|0,0:0|0:0|0:0|0:0,0:0:0:0:
192,320,132815,2,0,L|144:320,3,35,2|0|0|0,0:0|0:0|0:0|0:0,0:0:0:0:
128,320,133065,5,2,0:0:0:0:
128,304,133127,1,0,0:0:0:0:
128,288,133190,1,0,0:0:0:0:
128,272,133252,1,0,0:0:0:0:
128,256,133315,1,2,0:0:0:0:
128,240,133377,1,0,0:0:0:0:
128,224,133440,1,0,0:0:0:0:
128,207,133502,1,0,0:0:0:0:
128,192,133565,6,0,L|128:144,3,35,2|0|0|0,0:0|0:0|0:0|0:0,0:0:0:0:
128,128,133815,2,0,L|128:80,3,35,2|0|0|0,0:0|0:0|0:0|0:0,0:0:0:0:
128,64,134065,5,2,0:0:0:0:
144,64,134127,1,0,0:0:0:0:
160,64,134190,1,0,0:0:0:0:
176,64,134252,1,0,0:0:0:0:
192,64,134315,1,2,0:0:0:0:
208,64,134377,1,0,0:0:0:0:
224,64,134440,1,0,0:0:0:0:
240,64,134502,1,0,0:0:0:0:
256,64,134565,6,0,L|304:64,3,35,2|0|0|0,0:0|0:0|0:0|0:0,0:0:0:0:
320,64,134815,2,0,L|368:64,3,35,2|0|0|0,0:0|0:0|0:0|0:0,0:0:0:0:
384,64,135065,5,2,0:0:0:0:
384,80,135127,1,0,0:0:0:0:
384,96,135190,1,0,0:0:0:0:
384,112,135252,1,0,0:0:0:0:
384,128,135315,1,2,0:0:0:0:
384,144,135377,1,0,0:0:0:0:
384,160,135440,1,0,0:0:0:0:
384,176,135502,1,0,0:0:0:0:
384,192,135565,6,0,L|384:240,3,35,2|0|0|0,0:0|0:0|0:0|0:0,0:0:0:0:
384,256,135815,2,0,L|384:304,3,35,2|0|0|0,0:0|0:0|0:0|0:0,0:0:0:0:
384,320,136065,5,2,0:0:0:0:
368,320,136127,1,0,0:0:0:0:
352,320,136190,1,0,0:0:0:0:
336,320,136252,1,0,0:0:0:0:
320,320,136315,1,2,0:0:0:0:
304,320,136377,1,0,0:0:0:0:
288,320,136440,1,0,0:0:0:0:
272,320,136502,1,0,0:0:0:0:
256,320,136565,6,0,L|208:320,3,35,2|0|0|0,0:0|0:0|0:0|0:0,0:0:0:0:
192,320,136815,2,0,L|144:320,3,35,2|0|0|0,0:0|0:0|0:0|0:0,0:0:0:0:
128,320,137065,5,2,0:0:0:0:
128,304,137127,1,0,0:0:0:0:
128,288,137190,1,0,0:0:0:0:
128,272,137252,1,0,0:0:0:0:
128,256,137315,1,2,0:0:0:0:
128,240,137377,1,0,0:0:0:0:
128,224,137440,1,0,0:0:0:0:
128,207,137502,1,0,0:0:0:0:
128,192,137565,6,0,L|128:144,3,35,2|0|0|0,0:0|0:0|0:0|0:0,0:0:0:0:
128,128,137815,2,0,L|128:80,3,35,2|0|0|0,0:0|0:0|0:0|0:0,0:0:0:0:
128,64,138065,5,2,0:0:0:0:
144,64,138127,1,0,0:0:0:0:
160,64,138190,1,0,0:0:0:0:
176,64,138252,1,0,0:0:0:0:
192,64,138315,1,2,0:0:0:0:
208,64,138377,1,0,0:0:0:0:
224,64,138440,1,0,0:0:0:0:
240,64,138502,1,0,0:0:0:0:
256,64,138565,6,0,L|304:64,3,35,2|0|0|0,0:0|0:0|0:0|0:0,0:0:0:0:
320,64,138815,2,0,L|368:64,3,35,2|0|0|0,0:0|0:0|0:0|0:0,0:0:0:0:
384,64,139065,5,2,0:0:0:0:
384,80,139127,1,0,0:0:0:0:
384,96,139190,1,0,0:0:0:0:
384,112,139252,1,0,0:0:0:0:
384,128,139315,1,2,0:0:0:0:
384,144,139377,1,0,0:0:0:0:
384,160,139440,1,0,0:0:0:0:
384,176,139502,1,0,0:0:0:0:
384,192,139565,6,0,L|384:240,3,35,2|0|0|0,0:0|0:0|0:0|0:0,0:0:0:0:
384,256,139815,2,0,L|384:304,3,35,2|0|0|0,0:0|0:0|0:0|0:0,0:0:0:0:
384,320,140065,5,2,0:0:0:0:
368,320,140127,1,0,0:0:0:0:
352,320,140190,1,0,0:0:0:0:
336,320,140252,1,0,0:0:0:0:
320,320,140315,1,2,0:0:0:0:
304,320,140377,1,0,0:0:0:0:
288,320,140440,1,0,0:0:0:0:
272,320,140502,1,0,0:0:0:0:
256,320,140565,6,0,L|208:320,3,35,2|0|0|0,0:0|0:0|0:0|0:0,0:0:0:0:
192,320,140815,2,0,L|144:320,3,35,2|0|0|0,0:0|0:0|0:0|0:0,0:0:0:0:
128,320,141065,5,2,0:0:0:0:
128,304,141127,1,0,0:0:0:0:
128,288,141190,1,0,0:0:0:0:
128,272,141252,1,0,0:0:0:0:
128,256,141315,1,2,0:0:0:0:
128,240,141377,1,0,0:0:0:0:
128,224,141440,1,0,0:0:0:0:
128,207,141502,1,0,0:0:0:0:
128,192,141565,6,0,L|128:144,3,35,2|0|0|0,0:0|0:0|0:0|0:0,0:0:0:0:
128,128,141815,2,0,L|128:80,3,35,2|0|0|0,0:0|0:0|0:0|0:0,0:0:0:0:
128,64,142065,5,2,0:0:0:0:
144,64,142127,1,0,0:0:0:0:
160,64,142190,1,0,0:0:0:0:
176,64,142252,1,0,0:0:0:0:
192,64,142315,1,2,0:0:0:0:
208,64,142377,1,0,0:0:0:0:
224,64,142440,1,0,0:0:0:0:
240,64,142502,1,0,0:0:0:0:
256,64,142565,6,0,L|304:64,3,35,2|0|0|0,0:0|0:0|0:0|0:0,0:0:0:0:
320,64,142815,2,0,L|368:64,3,35,2|0|0|0,0:0|0:0|0:0|0:0,0:0:0:0:
384,64,143065,5,2,0:0:0:0:
384,80,143127,1,0,0:0:0:0:
384,96,143190,1,0,0:0:0:0:
384,112,143252,1,0,0:0:0:0:
384,128,143315,1,2,0:0:0:0:
384,144,143377,1,0,0:0:0:0:
384,160,143440,1,0,0:0:0:0:
384,176,143502,1,0,0:0:0:0:
384,192,143565,6,0,L|384:240,3,35,2|0|0|0,0:0|0:0|0:0|0:0,0:0:0:0:
384,256,143815,2,0,L|384:304,3,35,2|0|0|0,0:0|0:0|0:0|0:0,0:0:0:0:
384,320,144065,5,2,0:0:0:0:
368,320,144127,1,0,0:0:0:0:
352,320,144190,1,0,0:0:0:0:
336,320,144252,1,0,0:0:0:0:
320,320,144315,1,2,0:0:0:0:
304,320,144377,1,0,0:0:0:0:
288,320,144440,1,0,0:0:0:0:
272,320,144502,1,0,0:0:0:0:
256,320,144565,6,0,L|208:320,3,35,2|0|0|0,0:0|0:0|0:0|0:0,0:0:0:0:
192,320,144815,2,0,L|144:320,3,35,2|0|0|0,0:0|0:0|0:0|0:0,0:0:0:0:
128,320,145065,5,2,0:0:0:0:
128,304,145127,1,0,0:0:0:0:
128,288,145190,1,0,0:0:0:0:
128,272,145252,1,0,0:0:0:0:
128,256,145315,1,2,0:0:0:0:
128,240,145377,1,0,0:0:0:0:
128,224,145440,1,0,0:0:0:0:
128,207,145502,1,0,0:0:0:0:
128,192,145565,6,0,L|128:144,3,35,2|0|0|0,0:0|0:0|0:0|0:0,0:0:0:0:
128,128,145815,2,0,L|128:80,3,35,2|0|0|0,0:0|0:0|0:0|0:0,0:0:0:0:
128,64,146065,5,2,0:0:0:0:
144,64,146127,1,0,0:0:0:0:
160,64,146190,1,0,0:0:0:0:
176,64,146252,1,0,0:0:0:0:
192,64,146315,1,2,0:0:0:0:
208,64,146377,1,0,0:0:0:0:
224,64,146440,1,0,0:0:0:0:
240,64,146502,1,0,0:0:0:0:
256,64,146565,6,0,L|304:64,3,35,2|0|0|0,0:0|0:0|0:0|0:0,0:0:0:0:
320,64,146815,2,0,L|368:64,3,35,2|0|0|0,0:0|0:0|0:0|0:0,0:0:0:0:
384,64,147065,5,2,0:0:0:0:
384,80,147127,1,0,0:0:0:0:
384,96,147190,1,0,0:0:0:0:
384,112,147252,1,0,0:0:0:0:
384,128,147315,1,2,0:0:0:0:
384,144,147377,1,0,0:0:0:0:
384,160,147440,1,0,0:0:0:0:
384,176,147502,1,0,0:0:0:0:
384,192,147565,6,0,L|384:240,3,35,2|0|0|0,0:0|0:0|0:0|0:0,0:0:0:0:
384,256,147815,2,0,L|384:304,3,35,2|0|0|0,0:0|0:0|0:0|0:0,0:0:0:0:
384,320,148065,5,2,0:0:0:0:
368,320,148127,1,0,0:0:0:0:
352,320,148190,1,0,0:0:0:0:
336,320,148252,1,0,0:0:0:0:
320,320,148315,1,2,0:0:0:0:
304,320,148377,1,0,0:0:0:0:
288,320,148440,1,0,0:0:0:0:
272,320,148502,1,0,0:0:0:0:
256,320,148565,6,0,L|208:320,3,35,2|0|0|0,0:0|0:0|0:0|0:0,0:0:0:0:
192,320,148815,2,0,L|144:320,3,35,2|0|0|0,0:0|0:0|0:0|0:0,0:0:0:0:
128,320,149065,5,2,0:0:0:0:
128,304,149127,1,0,0:0:0:0:
128,288,149190,1,0,0:0:0:0:
128,272,149252,1,0,0:0:0:0:
128,256,149315,1,2,0:0:0:0:
128,240,149377,1,0,0:0:0:0:
128,224,149440,1,0,0:0:0:0:
128,207,149502,1,0,0:0:0:0:
128,192,149565,6,0,L|128:144,3,35,2|0|0|0,0:0|0:0|0:0|0:0,0:0:0:0:
128,128,149815,2,0,L|128:80,3,35,2|0|0|0,0:0|0:0|0:0|0:0,0:0:0:0:
128,64,150065,5,2,0:0:0:0:
144,64,150127,1,0,0:0:0:0:
160,64,150190,1,0,0:0:0:0:
176,64,150252,1,0,0:0:0:0:
192,64,150315,1,2,0:0:0:0:
208,64,150377,1,0,0:0:0:0:
224,64,150440,1,0,0:0:0:0:
240,64,150502,1,0,0:0:0:0:
256,64,150565,6,0,L|304:64,3,35,2|0|0|0,0:0|0:0|0:0|0:0,0:0:0:0:
320,64,150815,2,0,L|368:64,3,35,2|0|0|0,0:0|0:0|0:0|0:0,0:0:0:0:
384,64,151065,5,2,0:0:0:0:
384,80,151127,1,0,0:0:0:0:
384,96,151190,1,0,0:0:0:0:
384,112,151252,1,0,0:0:0:0:
384,128,151315,1,2,0:0:0:0:
384,144,151377,1,0,0:0:0:0:
384,160,151440,1,0,0:0:0:0:
384,176,151502,1,0,0:0:0:0:
384,192,151565,6,0,L|384:240,3,35,2|0|0|0,0:0|0:0|0:0|0:0,0:0:0:0:
384,256,151815,2,0,L|384:304,3,35,2|0|0|0,0:0|0:0|0:0|0:0,0:0:0:0:
384,320,152065,5,2,0:0:0:0:
368,320,152127,1,0,0:0:0:0:
352,320,152190,1,0,0:0:0:0:
336,320,152252,1,0,0:0:0:0:
320,320,152315,1,2,0:0:0:0:
304,320,152377,1,0,0:0:0:0:
288,320,152440,1,0,0:0:0:0:
272,320,152502,1,0,0:0:0:0:
256,320,152565,6,0,L|208:320,3,35,2|0|0|0,0:0|0:0|0:0|0:0,0:0:0:0:
192,320,152815,2,0,L|144:320,3,35,2|0|0|0,0:0|0:0|0:0|0:0,0:0:0:0:
128,320,153065,5,2,0:0:0:0:
128,304,153127,1,0,0:0:0:0:
128,288,153190,1,0,0:0:0:0:
128,272,153252,1,0,0:0:0:0:
128,256,153315,1,2,0:0:0:0:
128,240,153377,1,0,0:0:0:0:
128,224,153440,1,0,0:0:0:0:
128,207,153502,1,0,0:0:0:0:
128,192,153565,6,0,L|128:144,3,35,2|0|0|0,0:0|0:0|0:0|0:0,0:0:0:0:
128,128,153815,2,0,L|128:80,3,35,2|0|0|0,0:0|0:0|0:0|0:0,0:0:0:0:
128,64,154065,5,2,0:0:0:0:
144,64,154127,1,0,0:0:0:0:
160,64,154190,1,0,0:0:0:0:
176,64,154252,1,0,0:0:0:0:
192,64,154315,1,2,0:0:0:0:
208,64,154377,1,0,0:0:0:0:
224,64,154440,1,0,0:0:0:0:
240,64,154502,1,0,0:0:0:0:
256,64,154565,6,0,L|304:64,3,35,2|0|0|0,0:0|0:0|0:0|0:0,0:0:0:0:
320,64,154815,2,0,L|368:64,3,35,2|0|0|0,0:0|0:0|0:0|0:0,0:0:0:0:
384,64,155065,5,2,0:0:0:0:
384,80,155127,1,0,0:0:0:0:
384,96,155190,1,0,0:0:0:0:
384,112,155252,1,0,0:0:0:0:
384,128,155315,1,2,0:0:0:0:
384,144,155377,1,0,0:0:0:0:
384,160,155440,1,0,0:0:0:0:
384,176,155502,1,0,0:0:0:0:
384,192,155565,6,0,L|384:240,3,35,2|0|0|0,0:0|0:0|0:0|0:0,0:0:0:0:
384,256,155815,2,0,L|384:304,3,35,2|0|0|0,0:0|0:0|0:0|0:0,0:0:0:0:
384,320,156065,5,2,0:0:0:0:
