osu file format v14

[General]
AudioFilename: Butterfly.mp3
AudioLeadIn: 0
PreviewTime: 81043
Countdown: 1
SampleSet: None
StackLeniency: 0.7
Mode: 0
LetterboxInBreaks: 1
WidescreenStoryboard: 0

[Editor]
DistanceSpacing: 1.5
BeatDivisor: 4
GridSize: 8
TimelineZoom: 1.8

[Metadata]
Title:Burst Stream Practice Maps
TitleUnicode:Burst Stream Practice Maps
Artist:Various Artists
ArtistUnicode:Various Artists
Creator:nooblet
Version:220 BPM base
Source:
Tags:
BeatmapID:812577
BeatmapSetID:370814

[Difficulty]
HPDrainRate:0
CircleSize:4
OverallDifficulty:10
ApproachRate:9.4
SliderMultiplier:1.4
SliderTickRate:1

[Events]
//Background and Video events
//Break Periods
//Storyboard Layer 0 (Background)
//Storyboard Layer 1 (Fail)
//Storyboard Layer 2 (Pass)
//Storyboard Layer 3 (Foreground)
//Storyboard Sound Samples

[TimingPoints]
1406.65509215016,272.727272727273,4,2,0,100,1,0

[HitObjects]
128,64,1406,5,2,0:0:0:0:
144,64,1474,1,0,0:0:0:0:
160,64,1543,1,0,0:0:0:0:
176,64,1611,1,0,0:0:0:0:
192,64,1679,1,2,0:0:0:0:
208,64,1747,1,0,0:0:0:0:
224,64,1815,1,0,0:0:0:0:
240,64,1883,1,0,0:0:0:0:
255,64,1952,5,2,0:0:0:0:
272,64,2020,1,0,0:0:0:0:
288,64,2089,1,0,0:0:0:0:
304,64,2157,1,0,0:0:0:0:
320,64,2225,1,2,0:0:0:0:
336,64,2293,1,0,0:0:0:0:
352,64,2361,1,0,0:0:0:0:
368,64,2429,1,0,0:0:0:0:
384,64,2497,5,2,0:0:0:0:
384,80,2565,1,0,0:0:0:0:
384,96,2634,1,0,0:0:0:0:
384,112,2702,1,0,0:0:0:0:
384,128,2770,1,2,0:0:0:0:
384,144,2838,1,0,0:0:0:0:
384,160,2906,1,0,0:0:0:0:
384,176,2974,1,0,0:0:0:0:
384,191,3043,5,2,0:0:0:0:
384,208,3111,1,0,0:0:0:0:
384,224,3180,1,0,0:0:0:0:
384,240,3248,1,0,0:0:0:0:
384,256,3316,1,2,0:0:0:0:
384,272,3384,1,0,0:0:0:0:
384,288,3452,1,0,0:0:0:0:
384,304,3520,1,0,0:0:0:0:
384,320,3588,5,2,0:0:0:0:
368,320,3656,1,0,0:0:0:0:
352,320,3725,1,0,0:0:0:0:
336,320,3793,1,0,0:0:0:0:
320,320,3861,1,2,0:0:0:0:
304,320,3929,1,0,0:0:0:0:
288,320,3997,1,0,0:0:0:0:
272,320,4065,1,0,0:0:0:0:
257,320,4134,5,2,0:0:0:0:
240,320,4202,1,0,0:0:0:0:
224,320,4271,1,0,0:0:0:0:
208,320,4339,1,0,0:0:0:0:
192,320,4407,1,2,0:0:0:0:
176,320,4475,1,0,0:0:0:0:
160,320,4543,1,0,0:0:0:0:
144,320,4611,1,0,0:0:0:0:
128,320,4679,5,2,0:0:0:0:
128,304,4747,1,0,0:0:0:0:
128,288,4816,1,0,0:0:0:0:
128,272,4884,1,0,0:0:0:0:
128,256,4952,1,2,0:0:0:0:
128,240,5020,1,0,0:0:0:0:
128,224,5088,1,0,0:0:0:0:
128,208,5156,1,0,0:0:0:0:
128,192,5225,5,2,0:0:0:0:
128,176,5293,1,0,0:0:0:0:
128,160,5362,1,0,0:0:0:0:
128,144,5430,1,0,0:0:0:0:
128,128,5498,1,2,0:0:0:0:
128,112,5566,1,0,0:0:0:0:
128,96,5634,1,0,0:0:0:0:
128,80,5702,1,0,0:0:0:0:
