osu file format v14

[General]
AudioFilename: Butterfly.mp3
AudioLeadIn: 0
PreviewTime: 81043
Countdown: 1
SampleSet: None
StackLeniency: 0.7
Mode: 0
LetterboxInBreaks: 1
WidescreenStoryboard: 1

[Editor]
DistanceSpacing: 1.5
BeatDivisor: 1
GridSize: 8
TimelineZoom: 1.6

[Metadata]
Title:Burst Stream Practice Maps
TitleUnicode:Burst Stream Practice Maps
Artist:Various Artists
ArtistUnicode:Various Artists
Creator:nooblet
Version:220 BPM 8 notes
Source:
Tags:
BeatmapID:812576
BeatmapSetID:370814

[Difficulty]
HPDrainRate:0
CircleSize:4
OverallDifficulty:10
ApproachRate:9.4
SliderMultiplier:1.4
SliderTickRate:1

[Events]
//Background and Video events
//Break Periods
//Storyboard Layer 0 (Background)
//Storyboard Layer 1 (Fail)
//Storyboard Layer 2 (Pass)
//Storyboard Layer 3 (Foreground)
//Storyboard Sound Samples

[TimingPoints]
1406.65509215016,272.727272727273,4,2,0,100,1,0

[HitObjects]
128,64,1406,5,2,0:0:0:0:
144,64,1474,1,0,0:0:0:0:
160,64,1543,1,0,0:0:0:0:
176,64,1611,1,0,0:0:0:0:
192,64,1679,1,2,0:0:0:0:
208,64,1747,1,0,0:0:0:0:
224,64,1815,1,0,0:0:0:0:
240,64,1883,1,0,0:0:0:0:
264,64,1952,6,0,L|304:64,3,35,2|0|0|0,0:0|0:0|0:0|0:0,0:0:0:0:
320,64,2224,2,0,L|360:64,3,35,2|0|0|0,0:0|0:0|0:0|0:0,0:0:0:0:
384,64,2497,5,2,0:0:0:0:
384,80,2565,1,0,0:0:0:0:
384,96,2634,1,0,0:0:0:0:
384,112,2702,1,0,0:0:0:0:
384,128,2770,1,2,0:0:0:0:
384,144,2838,1,0,0:0:0:0:
384,160,2906,1,0,0:0:0:0:
384,176,2974,1,0,0:0:0:0:
384,200,3043,6,0,L|384:240,3,35,2|0|0|0,0:0|0:0|0:0|0:0,0:0:0:0:
384,256,3315,2,0,L|384:296,3,35,2|0|0|0,0:0|0:0|0:0|0:0,0:0:0:0:
384,320,3588,5,2,0:0:0:0:
368,320,3656,1,0,0:0:0:0:
352,320,3725,1,0,0:0:0:0:
336,320,3793,1,0,0:0:0:0:
320,320,3861,1,2,0:0:0:0:
304,320,3929,1,0,0:0:0:0:
288,320,3997,1,0,0:0:0:0:
272,320,4065,1,0,0:0:0:0:
248,320,4134,6,0,L|208:320,3,35,2|0|0|0,0:0|0:0|0:0|0:0,0:0:0:0:
192,320,4406,2,0,L|152:320,3,35,2|0|0|0,0:0|0:0|0:0|0:0,0:0:0:0:
128,320,4679,5,2,0:0:0:0:
128,304,4747,1,0,0:0:0:0:
128,288,4816,1,0,0:0:0:0:
128,272,4884,1,0,0:0:0:0:
128,256,4952,1,2,0:0:0:0:
128,240,5020,1,0,0:0:0:0:
128,224,5088,1,0,0:0:0:0:
128,207,5156,1,0,0:0:0:0:
128,184,5225,6,0,L|128:144,3,35,2|0|0|0,0:0|0:0|0:0|0:0,0:0:0:0:
128,128,5497,2,0,L|128:88,3,35,2|0|0|0,0:0|0:0|0:0|0:0,0:0:0:0:
128,64,5770,5,2,0:0:0:0:
144,64,5838,1,0,0:0:0:0:
160,64,5907,1,0,0:0:0:0:
176,64,5975,1,0,0:0:0:0:
192,64,6043,1,2,0:0:0:0:
208,64,6111,1,0,0:0:0:0:
224,64,6179,1,0,0:0:0:0:
240,64,6247,1,0,0:0:0:0:
264,64,6316,6,0,L|304:64,3,35,2|0|0|0,0:0|0:0|0:0|0:0,0:0:0:0:
320,64,6588,2,0,L|360:64,3,35,2|0|0|0,0:0|0:0|0:0|0:0,0:0:0:0:
384,64,6861,5,2,0:0:0:0:
384,80,6929,1,0,0:0:0:0:
384,96,6998,1,0,0:0:0:0:
384,112,7066,1,0,0:0:0:0:
384,128,7134,1,2,0:0:0:0:
384,144,7202,1,0,0:0:0:0:
384,160,7270,1,0,0:0:0:0:
384,176,7338,1,0,0:0:0:0:
384,200,7407,6,0,L|384:240,3,35,2|0|0|0,0:0|0:0|0:0|0:0,0:0:0:0:
384,256,7679,2,0,L|384:296,3,35,2|0|0|0,0:0|0:0|0:0|0:0,0:0:0:0:
384,320,7952,5,2,0:0:0:0:
368,320,8020,1,0,0:0:0:0:
352,320,8089,1,0,0:0:0:0:
336,320,8157,1,0,0:0:0:0:
320,320,8225,1,2,0:0:0:0:
304,320,8293,1,0,0:0:0:0:
288,320,8361,1,0,0:0:0:0:
272,320,8429,1,0,0:0:0:0:
248,320,8498,6,0,L|208:320,3,35,2|0|0|0,0:0|0:0|0:0|0:0,0:0:0:0:
192,320,8770,2,0,L|152:320,3,35,2|0|0|0,0:0|0:0|0:0|0:0,0:0:0:0:
128,320,9043,5,2,0:0:0:0:
128,304,9111,1,0,0:0:0:0:
128,288,9180,1,0,0:0:0:0:
128,272,9248,1,0,0:0:0:0:
128,256,9316,1,2,0:0:0:0:
128,240,9384,1,0,0:0:0:0:
128,224,9452,1,0,0:0:0:0:
128,207,9520,1,0,0:0:0:0:
128,184,9589,6,0,L|128:144,3,35,2|0|0|0,0:0|0:0|0:0|0:0,0:0:0:0:
128,128,9861,2,0,L|128:88,3,35,2|0|0|0,0:0|0:0|0:0|0:0,0:0:0:0:
128,64,10133,5,2,0:0:0:0:
144,64,10201,1,0,0:0:0:0:
160,64,10270,1,0,0:0:0:0:
176,64,10338,1,0,0:0:0:0:
192,64,10406,1,2,0:0:0:0:
208,64,10474,1,0,0:0:0:0:
224,64,10542,1,0,0:0:0:0:
240,64,10610,1,0,0:0:0:0:
264,64,10679,6,0,L|304:64,3,35,2|0|0|0,0:0|0:0|0:0|0:0,0:0:0:0:
320,64,10951,2,0,L|360:64,3,35,2|0|0|0,0:0|0:0|0:0|0:0,0:0:0:0:
384,64,11224,5,2,0:0:0:0:
384,80,11292,1,0,0:0:0:0:
384,96,11361,1,0,0:0:0:0:
384,112,11429,1,0,0:0:0:0:
384,128,11497,1,2,0:0:0:0:
384,144,11565,1,0,0:0:0:0:
384,160,11633,1,0,0:0:0:0:
384,176,11701,1,0,0:0:0:0:
384,200,11770,6,0,L|384:240,3,35,2|0|0|0,0:0|0:0|0:0|0:0,0:0:0:0:
384,256,12042,2,0,L|384:296,3,35,2|0|0|0,0:0|0:0|0:0|0:0,0:0:0:0:
384,320,12315,5,2,0:0:0:0:
368,320,12383,1,0,0:0:0:0:
352,320,12452,1,0,0:0:0:0:
336,320,12520,1,0,0:0:0:0:
320,320,12588,1,2,0:0:0:0:
304,320,12656,1,0,0:0:0:0:
288,320,12724,1,0,0:0:0:0:
272,320,12792,1,0,0:0:0:0:
248,320,12861,6,0,L|208:320,3,35,2|0|0|0,0:0|0:0|0:0|0:0,0:0:0:0:
192,320,13133,2,0,L|152:320,3,35,2|0|0|0,0:0|0:0|0:0|0:0,0:0:0:0:
128,320,13406,5,2,0:0:0:0:
128,304,13474,1,0,0:0:0:0:
128,288,13543,1,0,0:0:0:0:
128,272,13611,1,0,0:0:0:0:
128,256,13679,1,2,0:0:0:0:
128,240,13747,1,0,0:0:0:0:
128,224,13815,1,0,0:0:0:0:
128,207,13883,1,0,0:0:0:0:
128,184,13952,6,0,L|128:144,3,35,2|0|0|0,0:0|0:0|0:0|0:0,0:0:0:0:
128,128,14224,2,0,L|128:88,3,35,2|0|0|0,0:0|0:0|0:0|0:0,0:0:0:0:
128,64,14497,5,2,0:0:0:0:
144,64,14565,1,0,0:0:0:0:
160,64,14634,1,0,0:0:0:0:
176,64,14702,1,0,0:0:0:0:
192,64,14770,1,2,0:0:0:0:
208,64,14838,1,0,0:0:0:0:
224,64,14906,1,0,0:0:0:0:
240,64,14974,1,0,0:0:0:0:
264,64,15043,6,0,L|304:64,3,35,2|0|0|0,0:0|0:0|0:0|0:0,0:0:0:0:
320,64,15315,2,0,L|360:64,3,35,2|0|0|0,0:0|0:0|0:0|0:0,0:0:0:0:
384,64,15588,5,2,0:0:0:0:
384,80,15656,1,0,0:0:0:0:
384,96,15725,1,0,0:0:0:0:
384,112,15793,1,0,0:0:0:0:
384,128,15861,1,2,0:0:0:0:
384,144,15929,1,0,0:0:0:0:
384,160,15997,1,0,0:0:0:0:
384,176,16065,1,0,0:0:0:0:
384,200,16134,6,0,L|384:240,3,35,2|0|0|0,0:0|0:0|0:0|0:0,0:0:0:0:
384,256,16406,2,0,L|384:296,3,35,2|0|0|0,0:0|0:0|0:0|0:0,0:0:0:0:
384,320,16679,5,2,0:0:0:0:
368,320,16747,1,0,0:0:0:0:
352,320,16816,1,0,0:0:0:0:
336,320,16884,1,0,0:0:0:0:
320,320,16952,1,2,0:0:0:0:
304,320,17020,1,0,0:0:0:0:
288,320,17088,1,0,0:0:0:0:
272,320,17156,1,0,0:0:0:0:
248,320,17225,6,0,L|208:320,3,35,2|0|0|0,0:0|0:0|0:0|0:0,0:0:0:0:
192,320,17497,2,0,L|152:320,3,35,2|0|0|0,0:0|0:0|0:0|0:0,0:0:0:0:
128,320,17770,5,2,0:0:0:0:
128,304,17838,1,0,0:0:0:0:
128,288,17907,1,0,0:0:0:0:
128,272,17975,1,0,0:0:0:0:
128,256,18043,1,2,0:0:0:0:
128,240,18111,1,0,0:0:0:0:
128,224,18179,1,0,0:0:0:0:
128,207,18247,1,0,0:0:0:0:
128,184,18316,6,0,L|128:144,3,35,2|0|0|0,0:0|0:0|0:0|0:0,0:0:0:0:
128,128,18588,2,0,L|128:88,3,35,2|0|0|0,0:0|0:0|0:0|0:0,0:0:0:0:
128,64,18861,5,2,0:0:0:0:
144,64,18929,1,0,0:0:0:0:
160,64,18998,1,0,0:0:0:0:
176,64,19066,1,0,0:0:0:0:
192,64,19134,1,2,0:0:0:0:
208,64,19202,1,0,0:0:0:0:
224,64,19270,1,0,0:0:0:0:
240,64,19338,1,0,0:0:0:0:
264,64,19407,6,0,L|304:64,3,35,2|0|0|0,0:0|0:0|0:0|0:0,0:0:0:0:
320,64,19679,2,0,L|360:64,3,35,2|0|0|0,0:0|0:0|0:0|0:0,0:0:0:0:
384,64,19952,5,2,0:0:0:0:
384,80,20020,1,0,0:0:0:0:
384,96,20089,1,0,0:0:0:0:
384,112,20157,1,0,0:0:0:0:
384,128,20225,1,2,0:0:0:0:
384,144,20293,1,0,0:0:0:0:
384,160,20361,1,0,0:0:0:0:
384,176,20429,1,0,0:0:0:0:
384,200,20498,6,0,L|384:240,3,35,2|0|0|0,0:0|0:0|0:0|0:0,0:0:0:0:
384,256,20770,2,0,L|384:296,3,35,2|0|0|0,0:0|0:0|0:0|0:0,0:0:0:0:
384,320,21043,5,2,0:0:0:0:
368,320,21111,1,0,0:0:0:0:
352,320,21180,1,0,0:0:0:0:
336,320,21248,1,0,0:0:0:0:
320,320,21316,1,2,0:0:0:0:
304,320,21384,1,0,0:0:0:0:
288,320,21452,1,0,0:0:0:0:
272,320,21520,1,0,0:0:0:0:
248,320,21589,6,0,L|208:320,3,35,2|0|0|0,0:0|0:0|0:0|0:0,0:0:0:0:
192,320,21861,2,0,L|152:320,3,35,2|0|0|0,0:0|0:0|0:0|0:0,0:0:0:0:
128,320,22134,5,2,0:0:0:0:
128,304,22202,1,0,0:0:0:0:
128,288,22271,1,0,0:0:0:0:
128,272,22339,1,0,0:0:0:0:
128,256,22407,1,2,0:0:0:0:
128,240,22475,1,0,0:0:0:0:
128,224,22543,1,0,0:0:0:0:
128,207,22611,1,0,0:0:0:0:
128,184,22680,6,0,L|128:144,3,35,2|0|0|0,0:0|0:0|0:0|0:0,0:0:0:0:
128,128,22952,2,0,L|128:88,3,35,2|0|0|0,0:0|0:0|0:0|0:0,0:0:0:0:
128,64,23225,5,2,0:0:0:0:
144,64,23293,1,0,0:0:0:0:
160,64,23362,1,0,0:0:0:0:
176,64,23430,1,0,0:0:0:0:
192,64,23498,1,2,0:0:0:0:
208,64,23566,1,0,0:0:0:0:
224,64,23634,1,0,0:0:0:0:
240,64,23702,1,0,0:0:0:0:
264,64,23771,6,0,L|304:64,3,35,2|0|0|0,0:0|0:0|0:0|0:0,0:0:0:0:
320,64,24043,2,0,L|360:64,3,35,2|0|0|0,0:0|0:0|0:0|0:0,0:0:0:0:
384,64,24316,5,2,0:0:0:0:
384,80,24384,1,0,0:0:0:0:
384,96,24453,1,0,0:0:0:0:
384,112,24521,1,0,0:0:0:0:
384,128,24589,1,2,0:0:0:0:
384,144,24657,1,0,0:0:0:0:
384,160,24725,1,0,0:0:0:0:
384,176,24793,1,0,0:0:0:0:
384,200,24862,6,0,L|384:240,3,35,2|0|0|0,0:0|0:0|0:0|0:0,0:0:0:0:
384,256,25134,2,0,L|384:296,3,35,2|0|0|0,0:0|0:0|0:0|0:0,0:0:0:0:
384,320,25407,5,2,0:0:0:0:
368,320,25475,1,0,0:0:0:0:
352,320,25544,1,0,0:0:0:0:
336,320,25612,1,0,0:0:0:0:
320,320,25680,1,2,0:0:0:0:
304,320,25748,1,0,0:0:0:0:
288,320,25816,1,0,0:0:0:0:
272,320,25884,1,0,0:0:0:0:
248,320,25953,6,0,L|208:320,3,35,2|0|0|0,0:0|0:0|0:0|0:0,0:0:0:0:
192,320,26225,2,0,L|152:320,3,35,2|0|0|0,0:0|0:0|0:0|0:0,0:0:0:0:
128,320,26498,5,2,0:0:0:0:
128,304,26566,1,0,0:0:0:0:
128,288,26635,1,0,0:0:0:0:
128,272,26703,1,0,0:0:0:0:
128,256,26771,1,2,0:0:0:0:
128,240,26839,1,0,0:0:0:0:
128,224,26907,1,0,0:0:0:0:
128,207,26975,1,0,0:0:0:0:
128,184,27044,6,0,L|128:144,3,35,2|0|0|0,0:0|0:0|0:0|0:0,0:0:0:0:
128,128,27316,2,0,L|128:88,3,35,2|0|0|0,0:0|0:0|0:0|0:0,0:0:0:0:
128,64,27588,5,2,0:0:0:0:
144,64,27656,1,0,0:0:0:0:
160,64,27725,1,0,0:0:0:0:
176,64,27793,1,0,0:0:0:0:
192,64,27861,1,2,0:0:0:0:
208,64,27929,1,0,0:0:0:0:
224,64,27997,1,0,0:0:0:0:
240,64,28065,1,0,0:0:0:0:
264,64,28134,6,0,L|304:64,3,35,2|0|0|0,0:0|0:0|0:0|0:0,0:0:0:0:
320,64,28406,2,0,L|360:64,3,35,2|0|0|0,0:0|0:0|0:0|0:0,0:0:0:0:
384,64,28679,5,2,0:0:0:0:
384,80,28747,1,0,0:0:0:0:
384,96,28816,1,0,0:0:0:0:
384,112,28884,1,0,0:0:0:0:
384,128,28952,1,2,0:0:0:0:
384,144,29020,1,0,0:0:0:0:
384,160,29088,1,0,0:0:0:0:
384,176,29156,1,0,0:0:0:0:
384,200,29225,6,0,L|384:240,3,35,2|0|0|0,0:0|0:0|0:0|0:0,0:0:0:0:
384,256,29497,2,0,L|384:296,3,35,2|0|0|0,0:0|0:0|0:0|0:0,0:0:0:0:
384,320,29770,5,2,0:0:0:0:
368,320,29838,1,0,0:0:0:0:
352,320,29907,1,0,0:0:0:0:
336,320,29975,1,0,0:0:0:0:
320,320,30043,1,2,0:0:0:0:
304,320,30111,1,0,0:0:0:0:
288,320,30179,1,0,0:0:0:0:
272,320,30247,1,0,0:0:0:0:
248,320,30316,6,0,L|208:320,3,35,2|0|0|0,0:0|0:0|0:0|0:0,0:0:0:0:
192,320,30588,2,0,L|152:320,3,35,2|0|0|0,0:0|0:0|0:0|0:0,0:0:0:0:
128,320,30861,5,2,0:0:0:0:
128,304,30929,1,0,0:0:0:0:
128,288,30998,1,0,0:0:0:0:
128,272,31066,1,0,0:0:0:0:
128,256,31134,1,2,0:0:0:0:
128,240,31202,1,0,0:0:0:0:
128,224,31270,1,0,0:0:0:0:
128,207,31338,1,0,0:0:0:0:
128,184,31407,6,0,L|128:144,3,35,2|0|0|0,0:0|0:0|0:0|0:0,0:0:0:0:
128,128,31679,2,0,L|128:88,3,35,2|0|0|0,0:0|0:0|0:0|0:0,0:0:0:0:
128,64,31952,5,2,0:0:0:0:
144,64,32020,1,0,0:0:0:0:
160,64,32089,1,0,0:0:0:0:
176,64,32157,1,0,0:0:0:0:
192,64,32225,1,2,0:0:0:0:
208,64,32293,1,0,0:0:0:0:
224,64,32361,1,0,0:0:0:0:
240,64,32429,1,0,0:0:0:0:
264,64,32498,6,0,L|304:64,3,35,2|0|0|0,0:0|0:0|0:0|0:0,0:0:0:0:
320,64,32770,2,0,L|360:64,3,35,2|0|0|0,0:0|0:0|0:0|0:0,0:0:0:0:
384,64,33043,5,2,0:0:0:0:
384,80,33111,1,0,0:0:0:0:
384,96,33180,1,0,0:0:0:0:
384,112,33248,1,0,0:0:0:0:
384,128,33316,1,2,0:0:0:0:
384,144,33384,1,0,0:0:0:0:
384,160,33452,1,0,0:0:0:0:
384,176,33520,1,0,0:0:0:0:
384,200,33589,6,0,L|384:240,3,35,2|0|0|0,0:0|0:0|0:0|0:0,0:0:0:0:
384,256,33861,2,0,L|384:296,3,35,2|0|0|0,0:0|0:0|0:0|0:0,0:0:0:0:
384,320,34134,5,2,0:0:0:0:
368,320,34202,1,0,0:0:0:0:
352,320,34271,1,0,0:0:0:0:
336,320,34339,1,0,0:0:0:0:
320,320,34407,1,2,0:0:0:0:
304,320,34475,1,0,0:0:0:0:
288,320,34543,1,0,0:0:0:0:
272,320,34611,1,0,0:0:0:0:
248,320,34680,6,0,L|208:320,3,35,2|0|0|0,0:0|0:0|0:0|0:0,0:0:0:0:
192,320,34952,2,0,L|152:320,3,35,2|0|0|0,0:0|0:0|0:0|0:0,0:0:0:0:
128,320,35225,5,2,0:0:0:0:
128,304,35293,1,0,0:0:0:0:
128,288,35362,1,0,0:0:0:0:
128,272,35430,1,0,0:0:0:0:
128,256,35498,1,2,0:0:0:0:
128,240,35566,1,0,0:0:0:0:
128,224,35634,1,0,0:0:0:0:
128,207,35702,1,0,0:0:0:0:
128,184,35771,6,0,L|128:144,3,35,2|0|0|0,0:0|0:0|0:0|0:0,0:0:0:0:
128,128,36043,2,0,L|128:88,3,35,2|0|0|0,0:0|0:0|0:0|0:0,0:0:0:0:
128,64,36315,5,2,0:0:0:0:
144,64,36383,1,0,0:0:0:0:
160,64,36452,1,0,0:0:0:0:
176,64,36520,1,0,0:0:0:0:
192,64,36588,1,2,0:0:0:0:
208,64,36656,1,0,0:0:0:0:
224,64,36724,1,0,0:0:0:0:
240,64,36792,1,0,0:0:0:0:
264,64,36861,6,0,L|304:64,3,35,2|0|0|0,0:0|0:0|0:0|0:0,0:0:0:0:
320,64,37133,2,0,L|360:64,3,35,2|0|0|0,0:0|0:0|0:0|0:0,0:0:0:0:
384,64,37406,5,2,0:0:0:0:
384,80,37474,1,0,0:0:0:0:
384,96,37543,1,0,0:0:0:0:
384,112,37611,1,0,0:0:0:0:
384,128,37679,1,2,0:0:0:0:
384,144,37747,1,0,0:0:0:0:
384,160,37815,1,0,0:0:0:0:
384,176,37883,1,0,0:0:0:0:
384,200,37952,6,0,L|384:240,3,35,2|0|0|0,0:0|0:0|0:0|0:0,0:0:0:0:
384,256,38224,2,0,L|384:296,3,35,2|0|0|0,0:0|0:0|0:0|0:0,0:0:0:0:
384,320,38497,5,2,0:0:0:0:
368,320,38565,1,0,0:0:0:0:
352,320,38634,1,0,0:0:0:0:
336,320,38702,1,0,0:0:0:0:
320,320,38770,1,2,0:0:0:0:
304,320,38838,1,0,0:0:0:0:
288,320,38906,1,0,0:0:0:0:
272,320,38974,1,0,0:0:0:0:
248,320,39043,6,0,L|208:320,3,35,2|0|0|0,0:0|0:0|0:0|0:0,0:0:0:0:
192,320,39315,2,0,L|152:320,3,35,2|0|0|0,0:0|0:0|0:0|0:0,0:0:0:0:
128,320,39588,5,2,0:0:0:0:
128,304,39656,1,0,0:0:0:0:
128,288,39725,1,0,0:0:0:0:
128,272,39793,1,0,0:0:0:0:
128,256,39861,1,2,0:0:0:0:
128,240,39929,1,0,0:0:0:0:
128,224,39997,1,0,0:0:0:0:
128,207,40065,1,0,0:0:0:0:
128,184,40134,6,0,L|128:144,3,35,2|0|0|0,0:0|0:0|0:0|0:0,0:0:0:0:
128,128,40406,2,0,L|128:88,3,35,2|0|0|0,0:0|0:0|0:0|0:0,0:0:0:0:
128,64,40679,5,2,0:0:0:0:
144,64,40747,1,0,0:0:0:0:
160,64,40816,1,0,0:0:0:0:
176,64,40884,1,0,0:0:0:0:
192,64,40952,1,2,0:0:0:0:
208,64,41020,1,0,0:0:0:0:
224,64,41088,1,0,0:0:0:0:
240,64,41156,1,0,0:0:0:0:
264,64,41225,6,0,L|304:64,3,35,2|0|0|0,0:0|0:0|0:0|0:0,0:0:0:0:
320,64,41497,2,0,L|360:64,3,35,2|0|0|0,0:0|0:0|0:0|0:0,0:0:0:0:
384,64,41770,5,2,0:0:0:0:
384,80,41838,1,0,0:0:0:0:
384,96,41907,1,0,0:0:0:0:
384,112,41975,1,0,0:0:0:0:
384,128,42043,1,2,0:0:0:0:
384,144,42111,1,0,0:0:0:0:
384,160,42179,1,0,0:0:0:0:
384,176,42247,1,0,0:0:0:0:
384,200,42316,6,0,L|384:240,3,35,2|0|0|0,0:0|0:0|0:0|0:0,0:0:0:0:
384,256,42588,2,0,L|384:296,3,35,2|0|0|0,0:0|0:0|0:0|0:0,0:0:0:0:
384,320,42861,5,2,0:0:0:0:
368,320,42929,1,0,0:0:0:0:
352,320,42998,1,0,0:0:0:0:
336,320,43066,1,0,0:0:0:0:
320,320,43134,1,2,0:0:0:0:
304,320,43202,1,0,0:0:0:0:
288,320,43270,1,0,0:0:0:0:
272,320,43338,1,0,0:0:0:0:
248,320,43407,6,0,L|208:320,3,35,2|0|0|0,0:0|0:0|0:0|0:0,0:0:0:0:
192,320,43679,2,0,L|152:320,3,35,2|0|0|0,0:0|0:0|0:0|0:0,0:0:0:0:
128,320,43952,5,2,0:0:0:0:
128,304,44020,1,0,0:0:0:0:
128,288,44089,1,0,0:0:0:0:
128,272,44157,1,0,0:0:0:0:
128,256,44225,1,2,0:0:0:0:
128,240,44293,1,0,0:0:0:0:
128,224,44361,1,0,0:0:0:0:
128,207,44429,1,0,0:0:0:0:
128,184,44498,6,0,L|128:144,3,35,2|0|0|0,0:0|0:0|0:0|0:0,0:0:0:0:
128,128,44770,2,0,L|128:88,3,35,2|0|0|0,0:0|0:0|0:0|0:0,0:0:0:0:
128,64,45042,5,2,0:0:0:0:
144,64,45110,1,0,0:0:0:0:
160,64,45179,1,0,0:0:0:0:
176,64,45247,1,0,0:0:0:0:
192,64,45315,1,2,0:0:0:0:
208,64,45383,1,0,0:0:0:0:
224,64,45451,1,0,0:0:0:0:
240,64,45519,1,0,0:0:0:0:
264,64,45588,6,0,L|304:64,3,35,2|0|0|0,0:0|0:0|0:0|0:0,0:0:0:0:
320,64,45860,2,0,L|360:64,3,35,2|0|0|0,0:0|0:0|0:0|0:0,0:0:0:0:
384,64,46133,5,2,0:0:0:0:
384,80,46201,1,0,0:0:0:0:
384,96,46270,1,0,0:0:0:0:
384,112,46338,1,0,0:0:0:0:
384,128,46406,1,2,0:0:0:0:
384,144,46474,1,0,0:0:0:0:
384,160,46542,1,0,0:0:0:0:
384,176,46610,1,0,0:0:0:0:
384,200,46679,6,0,L|384:240,3,35,2|0|0|0,0:0|0:0|0:0|0:0,0:0:0:0:
384,256,46951,2,0,L|384:296,3,35,2|0|0|0,0:0|0:0|0:0|0:0,0:0:0:0:
384,320,47224,5,2,0:0:0:0:
368,320,47292,1,0,0:0:0:0:
352,320,47361,1,0,0:0:0:0:
336,320,47429,1,0,0:0:0:0:
320,320,47497,1,2,0:0:0:0:
304,320,47565,1,0,0:0:0:0:
288,320,47633,1,0,0:0:0:0:
272,320,47701,1,0,0:0:0:0:
248,320,47770,6,0,L|208:320,3,35,2|0|0|0,0:0|0:0|0:0|0:0,0:0:0:0:
192,320,48042,2,0,L|152:320,3,35,2|0|0|0,0:0|0:0|0:0|0:0,0:0:0:0:
128,320,48315,5,2,0:0:0:0:
128,304,48383,1,0,0:0:0:0:
128,288,48452,1,0,0:0:0:0:
128,272,48520,1,0,0:0:0:0:
128,256,48588,1,2,0:0:0:0:
128,240,48656,1,0,0:0:0:0:
128,224,48724,1,0,0:0:0:0:
128,207,48792,1,0,0:0:0:0:
128,184,48861,6,0,L|128:144,3,35,2|0|0|0,0:0|0:0|0:0|0:0,0:0:0:0:
128,128,49133,2,0,L|128:88,3,35,2|0|0|0,0:0|0:0|0:0|0:0,0:0:0:0:
128,64,49406,5,2,0:0:0:0:
144,64,49474,1,0,0:0:0:0:
160,64,49543,1,0,0:0:0:0:
176,64,49611,1,0,0:0:0:0:
192,64,49679,1,2,0:0:0:0:
208,64,49747,1,0,0:0:0:0:
224,64,49815,1,0,0:0:0:0:
240,64,49883,1,0,0:0:0:0:
264,64,49952,6,0,L|304:64,3,35,2|0|0|0,0:0|0:0|0:0|0:0,0:0:0:0:
320,64,50224,2,0,L|360:64,3,35,2|0|0|0,0:0|0:0|0:0|0:0,0:0:0:0:
384,64,50497,5,2,0:0:0:0:
384,80,50565,1,0,0:0:0:0:
384,96,50634,1,0,0:0:0:0:
384,112,50702,1,0,0:0:0:0:
384,128,50770,1,2,0:0:0:0:
384,144,50838,1,0,0:0:0:0:
384,160,50906,1,0,0:0:0:0:
384,176,50974,1,0,0:0:0:0:
384,200,51043,6,0,L|384:240,3,35,2|0|0|0,0:0|0:0|0:0|0:0,0:0:0:0:
384,256,51315,2,0,L|384:296,3,35,2|0|0|0,0:0|0:0|0:0|0:0,0:0:0:0:
384,320,51588,5,2,0:0:0:0:
368,320,51656,1,0,0:0:0:0:
352,320,51725,1,0,0:0:0:0:
336,320,51793,1,0,0:0:0:0:
320,320,51861,1,2,0:0:0:0:
304,320,51929,1,0,0:0:0:0:
288,320,51997,1,0,0:0:0:0:
272,320,52065,1,0,0:0:0:0:
248,320,52134,6,0,L|208:320,3,35,2|0|0|0,0:0|0:0|0:0|0:0,0:0:0:0:
192,320,52406,2,0,L|152:320,3,35,2|0|0|0,0:0|0:0|0:0|0:0,0:0:0:0:
128,320,52679,5,2,0:0:0:0:
128,304,52747,1,0,0:0:0:0:
128,288,52816,1,0,0:0:0:0:
128,272,52884,1,0,0:0:0:0:
128,256,52952,1,2,0:0:0:0:
128,240,53020,1,0,0:0:0:0:
128,224,53088,1,0,0:0:0:0:
128,207,53156,1,0,0:0:0:0:
128,184,53225,6,0,L|128:144,3,35,2|0|0|0,0:0|0:0|0:0|0:0,0:0:0:0:
128,128,53497,2,0,L|128:88,3,35,2|0|0|0,0:0|0:0|0:0|0:0,0:0:0:0:
128,64,53770,5,2,0:0:0:0:
144,64,53838,1,0,0:0:0:0:
160,64,53907,1,0,0:0:0:0:
176,64,53975,1,0,0:0:0:0:
192,64,54043,1,2,0:0:0:0:
208,64,54111,1,0,0:0:0:0:
224,64,54179,1,0,0:0:0:0:
240,64,54247,1,0,0:0:0:0:
264,64,54316,6,0,L|304:64,3,35,2|0|0|0,0:0|0:0|0:0|0:0,0:0:0:0:
320,64,54588,2,0,L|360:64,3,35,2|0|0|0,0:0|0:0|0:0|0:0,0:0:0:0:
384,64,54861,5,2,0:0:0:0:
384,80,54929,1,0,0:0:0:0:
384,96,54998,1,0,0:0:0:0:
384,112,55066,1,0,0:0:0:0:
384,128,55134,1,2,0:0:0:0:
384,144,55202,1,0,0:0:0:0:
384,160,55270,1,0,0:0:0:0:
384,176,55338,1,0,0:0:0:0:
384,200,55407,6,0,L|384:240,3,35,2|0|0|0,0:0|0:0|0:0|0:0,0:0:0:0:
384,256,55679,2,0,L|384:296,3,35,2|0|0|0,0:0|0:0|0:0|0:0,0:0:0:0:
384,320,55952,5,2,0:0:0:0:
368,320,56020,1,0,0:0:0:0:
352,320,56089,1,0,0:0:0:0:
336,320,56157,1,0,0:0:0:0:
320,320,56225,1,2,0:0:0:0:
304,320,56293,1,0,0:0:0:0:
288,320,56361,1,0,0:0:0:0:
272,320,56429,1,0,0:0:0:0:
248,320,56498,6,0,L|208:320,3,35,2|0|0|0,0:0|0:0|0:0|0:0,0:0:0:0:
192,320,56770,2,0,L|152:320,3,35,2|0|0|0,0:0|0:0|0:0|0:0,0:0:0:0:
128,320,57043,5,2,0:0:0:0:
128,304,57111,1,0,0:0:0:0:
128,288,57180,1,0,0:0:0:0:
128,272,57248,1,0,0:0:0:0:
128,256,57316,1,2,0:0:0:0:
128,240,57384,1,0,0:0:0:0:
128,224,57452,1,0,0:0:0:0:
128,207,57520,1,0,0:0:0:0:
128,184,57589,6,0,L|128:144,3,35,2|0|0|0,0:0|0:0|0:0|0:0,0:0:0:0:
128,128,57861,2,0,L|128:88,3,35,2|0|0|0,0:0|0:0|0:0|0:0,0:0:0:0:
128,64,58134,5,2,0:0:0:0:
144,64,58202,1,0,0:0:0:0:
160,64,58271,1,0,0:0:0:0:
176,64,58339,1,0,0:0:0:0:
192,64,58407,1,2,0:0:0:0:
208,64,58475,1,0,0:0:0:0:
224,64,58543,1,0,0:0:0:0:
240,64,58611,1,0,0:0:0:0:
264,64,58680,6,0,L|304:64,3,35,2|0|0|0,0:0|0:0|0:0|0:0,0:0:0:0:
320,64,58952,2,0,L|360:64,3,35,2|0|0|0,0:0|0:0|0:0|0:0,0:0:0:0:
384,64,59225,5,2,0:0:0:0:
384,80,59293,1,0,0:0:0:0:
384,96,59362,1,0,0:0:0:0:
384,112,59430,1,0,0:0:0:0:
384,128,59498,1,2,0:0:0:0:
384,144,59566,1,0,0:0:0:0:
384,160,59634,1,0,0:0:0:0:
384,176,59702,1,0,0:0:0:0:
384,200,59771,6,0,L|384:240,3,35,2|0|0|0,0:0|0:0|0:0|0:0,0:0:0:0:
384,256,60043,2,0,L|384:296,3,35,2|0|0|0,0:0|0:0|0:0|0:0,0:0:0:0:
384,320,60316,5,2,0:0:0:0:
368,320,60384,1,0,0:0:0:0:
352,320,60453,1,0,0:0:0:0:
336,320,60521,1,0,0:0:0:0:
320,320,60589,1,2,0:0:0:0:
304,320,60657,1,0,0:0:0:0:
288,320,60725,1,0,0:0:0:0:
272,320,60793,1,0,0:0:0:0:
248,320,60862,6,0,L|208:320,3,35,2|0|0|0,0:0|0:0|0:0|0:0,0:0:0:0:
192,320,61134,2,0,L|152:320,3,35,2|0|0|0,0:0|0:0|0:0|0:0,0:0:0:0:
128,320,61407,5,2,0:0:0:0:
128,304,61475,1,0,0:0:0:0:
128,288,61544,1,0,0:0:0:0:
128,272,61612,1,0,0:0:0:0:
128,256,61680,1,2,0:0:0:0:
128,240,61748,1,0,0:0:0:0:
128,224,61816,1,0,0:0:0:0:
128,207,61884,1,0,0:0:0:0:
128,184,61953,6,0,L|128:144,3,35,2|0|0|0,0:0|0:0|0:0|0:0,0:0:0:0:
128,128,62225,2,0,L|128:88,3,35,2|0|0|0,0:0|0:0|0:0|0:0,0:0:0:0:
128,64,62497,5,2,0:0:0:0:
144,64,62565,1,0,0:0:0:0:
160,64,62634,1,0,0:0:0:0:
176,64,62702,1,0,0:0:0:0:
192,64,62770,1,2,0:0:0:0:
208,64,62838,1,0,0:0:0:0:
224,64,62906,1,0,0:0:0:0:
240,64,62974,1,0,0:0:0:0:
264,64,63043,6,0,L|304:64,3,35,2|0|0|0,0:0|0:0|0:0|0:0,0:0:0:0:
320,64,63315,2,0,L|360:64,3,35,2|0|0|0,0:0|0:0|0:0|0:0,0:0:0:0:
384,64,63588,5,2,0:0:0:0:
384,80,63656,1,0,0:0:0:0:
384,96,63725,1,0,0:0:0:0:
384,112,63793,1,0,0:0:0:0:
384,128,63861,1,2,0:0:0:0:
384,144,63929,1,0,0:0:0:0:
384,160,63997,1,0,0:0:0:0:
384,176,64065,1,0,0:0:0:0:
384,200,64134,6,0,L|384:240,3,35,2|0|0|0,0:0|0:0|0:0|0:0,0:0:0:0:
384,256,64406,2,0,L|384:296,3,35,2|0|0|0,0:0|0:0|0:0|0:0,0:0:0:0:
384,320,64679,5,2,0:0:0:0:
368,320,64747,1,0,0:0:0:0:
352,320,64816,1,0,0:0:0:0:
336,320,64884,1,0,0:0:0:0:
320,320,64952,1,2,0:0:0:0:
304,320,65020,1,0,0:0:0:0:
288,320,65088,1,0,0:0:0:0:
272,320,65156,1,0,0:0:0:0:
248,320,65225,6,0,L|208:320,3,35,2|0|0|0,0:0|0:0|0:0|0:0,0:0:0:0:
192,320,65497,2,0,L|152:320,3,35,2|0|0|0,0:0|0:0|0:0|0:0,0:0:0:0:
128,320,65770,5,2,0:0:0:0:
128,304,65838,1,0,0:0:0:0:
128,288,65907,1,0,0:0:0:0:
128,272,65975,1,0,0:0:0:0:
128,256,66043,1,2,0:0:0:0:
128,240,66111,1,0,0:0:0:0:
128,224,66179,1,0,0:0:0:0:
128,207,66247,1,0,0:0:0:0:
128,184,66316,6,0,L|128:144,3,35,2|0|0|0,0:0|0:0|0:0|0:0,0:0:0:0:
128,128,66588,2,0,L|128:88,3,35,2|0|0|0,0:0|0:0|0:0|0:0,0:0:0:0:
128,64,66861,5,2,0:0:0:0:
144,64,66929,1,0,0:0:0:0:
160,64,66998,1,0,0:0:0:0:
176,64,67066,1,0,0:0:0:0:
192,64,67134,1,2,0:0:0:0:
208,64,67202,1,0,0:0:0:0:
224,64,67270,1,0,0:0:0:0:
240,64,67338,1,0,0:0:0:0:
264,64,67407,6,0,L|304:64,3,35,2|0|0|0,0:0|0:0|0:0|0:0,0:0:0:0:
320,64,67679,2,0,L|360:64,3,35,2|0|0|0,0:0|0:0|0:0|0:0,0:0:0:0:
384,64,67952,5,2,0:0:0:0:
384,80,68020,1,0,0:0:0:0:
384,96,68089,1,0,0:0:0:0:
384,112,68157,1,0,0:0:0:0:
384,128,68225,1,2,0:0:0:0:
384,144,68293,1,0,0:0:0:0:
384,160,68361,1,0,0:0:0:0:
384,176,68429,1,0,0:0:0:0:
384,200,68498,6,0,L|384:240,3,35,2|0|0|0,0:0|0:0|0:0|0:0,0:0:0:0:
384,256,68770,2,0,L|384:296,3,35,2|0|0|0,0:0|0:0|0:0|0:0,0:0:0:0:
384,320,69043,5,2,0:0:0:0:
368,320,69111,1,0,0:0:0:0:
352,320,69180,1,0,0:0:0:0:
336,320,69248,1,0,0:0:0:0:
320,320,69316,1,2,0:0:0:0:
304,320,69384,1,0,0:0:0:0:
288,320,69452,1,0,0:0:0:0:
272,320,69520,1,0,0:0:0:0:
248,320,69589,6,0,L|208:320,3,35,2|0|0|0,0:0|0:0|0:0|0:0,0:0:0:0:
192,320,69861,2,0,L|152:320,3,35,2|0|0|0,0:0|0:0|0:0|0:0,0:0:0:0:
128,320,70134,5,2,0:0:0:0:
128,304,70202,1,0,0:0:0:0:
128,288,70271,1,0,0:0:0:0:
128,272,70339,1,0,0:0:0:0:
128,256,70407,1,2,0:0:0:0:
128,240,70475,1,0,0:0:0:0:
128,224,70543,1,0,0:0:0:0:
128,207,70611,1,0,0:0:0:0:
128,184,70680,6,0,L|128:144,3,35,2|0|0|0,0:0|0:0|0:0|0:0,0:0:0:0:
128,128,70952,2,0,L|128:88,3,35,2|0|0|0,0:0|0:0|0:0|0:0,0:0:0:0:
128,64,71224,5,2,0:0:0:0:
144,64,71292,1,0,0:0:0:0:
160,64,71361,1,0,0:0:0:0:
176,64,71429,1,0,0:0:0:0:
192,64,71497,1,2,0:0:0:0:
208,64,71565,1,0,0:0:0:0:
224,64,71633,1,0,0:0:0:0:
240,64,71701,1,0,0:0:0:0:
264,64,71770,6,0,L|304:64,3,35,2|0|0|0,0:0|0:0|0:0|0:0,0:0:0:0:
320,64,72042,2,0,L|360:64,3,35,2|0|0|0,0:0|0:0|0:0|0:0,0:0:0:0:
384,64,72315,5,2,0:0:0:0:
384,80,72383,1,0,0:0:0:0:
384,96,72452,1,0,0:0:0:0:
384,112,72520,1,0,0:0:0:0:
384,128,72588,1,2,0:0:0:0:
384,144,72656,1,0,0:0:0:0:
384,160,72724,1,0,0:0:0:0:
384,176,72792,1,0,0:0:0:0:
384,200,72861,6,0,L|384:240,3,35,2|0|0|0,0:0|0:0|0:0|0:0,0:0:0:0:
384,256,73133,2,0,L|384:296,3,35,2|0|0|0,0:0|0:0|0:0|0:0,0:0:0:0:
384,320,73406,5,2,0:0:0:0:
368,320,73474,1,0,0:0:0:0:
352,320,73543,1,0,0:0:0:0:
336,320,73611,1,0,0:0:0:0:
320,320,73679,1,2,0:0:0:0:
304,320,73747,1,0,0:0:0:0:
288,320,73815,1,0,0:0:0:0:
272,320,73883,1,0,0:0:0:0:
248,320,73952,6,0,L|208:320,3,35,2|0|0|0,0:0|0:0|0:0|0:0,0:0:0:0:
192,320,74224,2,0,L|152:320,3,35,2|0|0|0,0:0|0:0|0:0|0:0,0:0:0:0:
128,320,74497,5,2,0:0:0:0:
128,304,74565,1,0,0:0:0:0:
128,288,74634,1,0,0:0:0:0:
128,272,74702,1,0,0:0:0:0:
128,256,74770,1,2,0:0:0:0:
128,240,74838,1,0,0:0:0:0:
128,224,74906,1,0,0:0:0:0:
128,207,74974,1,0,0:0:0:0:
128,184,75043,6,0,L|128:144,3,35,2|0|0|0,0:0|0:0|0:0|0:0,0:0:0:0:
128,128,75315,2,0,L|128:88,3,35,2|0|0|0,0:0|0:0|0:0|0:0,0:0:0:0:
128,64,75588,5,2,0:0:0:0:
144,64,75656,1,0,0:0:0:0:
160,64,75725,1,0,0:0:0:0:
176,64,75793,1,0,0:0:0:0:
192,64,75861,1,2,0:0:0:0:
208,64,75929,1,0,0:0:0:0:
224,64,75997,1,0,0:0:0:0:
240,64,76065,1,0,0:0:0:0:
264,64,76134,6,0,L|304:64,3,35,2|0|0|0,0:0|0:0|0:0|0:0,0:0:0:0:
320,64,76406,2,0,L|360:64,3,35,2|0|0|0,0:0|0:0|0:0|0:0,0:0:0:0:
384,64,76679,5,2,0:0:0:0:
384,80,76747,1,0,0:0:0:0:
384,96,76816,1,0,0:0:0:0:
384,112,76884,1,0,0:0:0:0:
384,128,76952,1,2,0:0:0:0:
384,144,77020,1,0,0:0:0:0:
384,160,77088,1,0,0:0:0:0:
384,176,77156,1,0,0:0:0:0:
384,200,77225,6,0,L|384:240,3,35,2|0|0|0,0:0|0:0|0:0|0:0,0:0:0:0:
384,256,77497,2,0,L|384:296,3,35,2|0|0|0,0:0|0:0|0:0|0:0,0:0:0:0:
384,320,77770,5,2,0:0:0:0:
368,320,77838,1,0,0:0:0:0:
352,320,77907,1,0,0:0:0:0:
336,320,77975,1,0,0:0:0:0:
320,320,78043,1,2,0:0:0:0:
304,320,78111,1,0,0:0:0:0:
288,320,78179,1,0,0:0:0:0:
272,320,78247,1,0,0:0:0:0:
248,320,78316,6,0,L|208:320,3,35,2|0|0|0,0:0|0:0|0:0|0:0,0:0:0:0:
192,320,78588,2,0,L|152:320,3,35,2|0|0|0,0:0|0:0|0:0|0:0,0:0:0:0:
128,320,78861,5,2,0:0:0:0:
128,304,78929,1,0,0:0:0:0:
128,288,78998,1,0,0:0:0:0:
128,272,79066,1,0,0:0:0:0:
128,256,79134,1,2,0:0:0:0:
128,240,79202,1,0,0:0:0:0:
128,224,79270,1,0,0:0:0:0:
128,207,79338,1,0,0:0:0:0:
128,184,79407,6,0,L|128:144,3,35,2|0|0|0,0:0|0:0|0:0|0:0,0:0:0:0:
128,128,79679,2,0,L|128:88,3,35,2|0|0|0,0:0|0:0|0:0|0:0,0:0:0:0:
128,64,79951,5,2,0:0:0:0:
144,64,80019,1,0,0:0:0:0:
160,64,80088,1,0,0:0:0:0:
176,64,80156,1,0,0:0:0:0:
192,64,80224,1,2,0:0:0:0:
208,64,80292,1,0,0:0:0:0:
224,64,80360,1,0,0:0:0:0:
240,64,80428,1,0,0:0:0:0:
264,64,80497,6,0,L|304:64,3,35,2|0|0|0,0:0|0:0|0:0|0:0,0:0:0:0:
320,64,80769,2,0,L|360:64,3,35,2|0|0|0,0:0|0:0|0:0|0:0,0:0:0:0:
384,64,81042,5,2,0:0:0:0:
384,80,81110,1,0,0:0:0:0:
384,96,81179,1,0,0:0:0:0:
384,112,81247,1,0,0:0:0:0:
384,128,81315,1,2,0:0:0:0:
384,144,81383,1,0,0:0:0:0:
384,160,81451,1,0,0:0:0:0:
384,176,81519,1,0,0:0:0:0:
384,200,81588,6,0,L|384:240,3,35,2|0|0|0,0:0|0:0|0:0|0:0,0:0:0:0:
384,256,81860,2,0,L|384:296,3,35,2|0|0|0,0:0|0:0|0:0|0:0,0:0:0:0:
384,320,82133,5,2,0:0:0:0:
368,320,82201,1,0,0:0:0:0:
352,320,82270,1,0,0:0:0:0:
336,320,82338,1,0,0:0:0:0:
320,320,82406,1,2,0:0:0:0:
304,320,82474,1,0,0:0:0:0:
288,320,82542,1,0,0:0:0:0:
272,320,82610,1,0,0:0:0:0:
248,320,82679,6,0,L|208:320,3,35,2|0|0|0,0:0|0:0|0:0|0:0,0:0:0:0:
192,320,82951,2,0,L|152:320,3,35,2|0|0|0,0:0|0:0|0:0|0:0,0:0:0:0:
128,320,83224,5,2,0:0:0:0:
128,304,83292,1,0,0:0:0:0:
128,288,83361,1,0,0:0:0:0:
128,272,83429,1,0,0:0:0:0:
128,256,83497,1,2,0:0:0:0:
128,240,83565,1,0,0:0:0:0:
128,224,83633,1,0,0:0:0:0:
128,207,83701,1,0,0:0:0:0:
128,184,83770,6,0,L|128:144,3,35,2|0|0|0,0:0|0:0|0:0|0:0,0:0:0:0:
128,128,84042,2,0,L|128:88,3,35,2|0|0|0,0:0|0:0|0:0|0:0,0:0:0:0:
128,64,84315,5,2,0:0:0:0:
144,64,84383,1,0,0:0:0:0:
160,64,84452,1,0,0:0:0:0:
176,64,84520,1,0,0:0:0:0:
192,64,84588,1,2,0:0:0:0:
208,64,84656,1,0,0:0:0:0:
224,64,84724,1,0,0:0:0:0:
240,64,84792,1,0,0:0:0:0:
264,64,84861,6,0,L|304:64,3,35,2|0|0|0,0:0|0:0|0:0|0:0,0:0:0:0:
320,64,85133,2,0,L|360:64,3,35,2|0|0|0,0:0|0:0|0:0|0:0,0:0:0:0:
384,64,85406,5,2,0:0:0:0:
384,80,85474,1,0,0:0:0:0:
384,96,85543,1,0,0:0:0:0:
384,112,85611,1,0,0:0:0:0:
384,128,85679,1,2,0:0:0:0:
384,144,85747,1,0,0:0:0:0:
384,160,85815,1,0,0:0:0:0:
384,176,85883,1,0,0:0:0:0:
384,200,85952,6,0,L|384:240,3,35,2|0|0|0,0:0|0:0|0:0|0:0,0:0:0:0:
384,256,86224,2,0,L|384:296,3,35,2|0|0|0,0:0|0:0|0:0|0:0,0:0:0:0:
384,320,86497,5,2,0:0:0:0:
368,320,86565,1,0,0:0:0:0:
352,320,86634,1,0,0:0:0:0:
336,320,86702,1,0,0:0:0:0:
320,320,86770,1,2,0:0:0:0:
304,320,86838,1,0,0:0:0:0:
288,320,86906,1,0,0:0:0:0:
272,320,86974,1,0,0:0:0:0:
248,320,87043,6,0,L|208:320,3,35,2|0|0|0,0:0|0:0|0:0|0:0,0:0:0:0:
192,320,87315,2,0,L|152:320,3,35,2|0|0|0,0:0|0:0|0:0|0:0,0:0:0:0:
128,320,87588,5,2,0:0:0:0:
128,304,87656,1,0,0:0:0:0:
128,288,87725,1,0,0:0:0:0:
128,272,87793,1,0,0:0:0:0:
128,256,87861,1,2,0:0:0:0:
128,240,87929,1,0,0:0:0:0:
128,224,87997,1,0,0:0:0:0:
128,207,88065,1,0,0:0:0:0:
128,184,88134,6,0,L|128:144,3,35,2|0|0|0,0:0|0:0|0:0|0:0,0:0:0:0:
128,128,88406,2,0,L|128:88,3,35,2|0|0|0,0:0|0:0|0:0|0:0,0:0:0:0:
128,64,88679,5,2,0:0:0:0:
144,64,88747,1,0,0:0:0:0:
160,64,88816,1,0,0:0:0:0:
176,64,88884,1,0,0:0:0:0:
192,64,88952,1,2,0:0:0:0:
208,64,89020,1,0,0:0:0:0:
224,64,89088,1,0,0:0:0:0:
240,64,89156,1,0,0:0:0:0:
264,64,89225,6,0,L|304:64,3,35,2|0|0|0,0:0|0:0|0:0|0:0,0:0:0:0:
320,64,89497,2,0,L|360:64,3,35,2|0|0|0,0:0|0:0|0:0|0:0,0:0:0:0:
384,64,89770,5,2,0:0:0:0:
384,80,89838,1,0,0:0:0:0:
384,96,89907,1,0,0:0:0:0:
384,112,89975,1,0,0:0:0:0:
384,128,90043,1,2,0:0:0:0:
384,144,90111,1,0,0:0:0:0:
384,160,90179,1,0,0:0:0:0:
384,176,90247,1,0,0:0:0:0:
384,200,90316,6,0,L|384:240,3,35,2|0|0|0,0:0|0:0|0:0|0:0,0:0:0:0:
384,256,90588,2,0,L|384:296,3,35,2|0|0|0,0:0|0:0|0:0|0:0,0:0:0:0:
384,320,90861,5,2,0:0:0:0:
368,320,90929,1,0,0:0:0:0:
352,320,90998,1,0,0:0:0:0:
336,320,91066,1,0,0:0:0:0:
320,320,91134,1,2,0:0:0:0:
304,320,91202,1,0,0:0:0:0:
288,320,91270,1,0,0:0:0:0:
272,320,91338,1,0,0:0:0:0:
248,320,91407,6,0,L|208:320,3,35,2|0|0|0,0:0|0:0|0:0|0:0,0:0:0:0:
192,320,91679,2,0,L|152:320,3,35,2|0|0|0,0:0|0:0|0:0|0:0,0:0:0:0:
128,320,91952,5,2,0:0:0:0:
128,304,92020,1,0,0:0:0:0:
128,288,92089,1,0,0:0:0:0:
128,272,92157,1,0,0:0:0:0:
128,256,92225,1,2,0:0:0:0:
128,240,92293,1,0,0:0:0:0:
128,224,92361,1,0,0:0:0:0:
128,207,92429,1,0,0:0:0:0:
128,184,92498,6,0,L|128:144,3,35,2|0|0|0,0:0|0:0|0:0|0:0,0:0:0:0:
128,128,92770,2,0,L|128:88,3,35,2|0|0|0,0:0|0:0|0:0|0:0,0:0:0:0:
128,64,93043,5,2,0:0:0:0:
144,64,93111,1,0,0:0:0:0:
160,64,93180,1,0,0:0:0:0:
176,64,93248,1,0,0:0:0:0:
192,64,93316,1,2,0:0:0:0:
208,64,93384,1,0,0:0:0:0:
224,64,93452,1,0,0:0:0:0:
240,64,93520,1,0,0:0:0:0:
264,64,93589,6,0,L|304:64,3,35,2|0|0|0,0:0|0:0|0:0|0:0,0:0:0:0:
320,64,93861,2,0,L|360:64,3,35,2|0|0|0,0:0|0:0|0:0|0:0,0:0:0:0:
384,64,94134,5,2,0:0:0:0:
384,80,94202,1,0,0:0:0:0:
384,96,94271,1,0,0:0:0:0:
384,112,94339,1,0,0:0:0:0:
384,128,94407,1,2,0:0:0:0:
384,144,94475,1,0,0:0:0:0:
384,160,94543,1,0,0:0:0:0:
384,176,94611,1,0,0:0:0:0:
384,200,94680,6,0,L|384:240,3,35,2|0|0|0,0:0|0:0|0:0|0:0,0:0:0:0:
384,256,94952,2,0,L|384:296,3,35,2|0|0|0,0:0|0:0|0:0|0:0,0:0:0:0:
384,320,95225,5,2,0:0:0:0:
368,320,95293,1,0,0:0:0:0:
352,320,95362,1,0,0:0:0:0:
336,320,95430,1,0,0:0:0:0:
320,320,95498,1,2,0:0:0:0:
304,320,95566,1,0,0:0:0:0:
288,320,95634,1,0,0:0:0:0:
272,320,95702,1,0,0:0:0:0:
248,320,95771,6,0,L|208:320,3,35,2|0|0|0,0:0|0:0|0:0|0:0,0:0:0:0:
192,320,96043,2,0,L|152:320,3,35,2|0|0|0,0:0|0:0|0:0|0:0,0:0:0:0:
128,320,96316,5,2,0:0:0:0:
128,304,96384,1,0,0:0:0:0:
128,288,96453,1,0,0:0:0:0:
128,272,96521,1,0,0:0:0:0:
128,256,96589,1,2,0:0:0:0:
128,240,96657,1,0,0:0:0:0:
128,224,96725,1,0,0:0:0:0:
128,207,96793,1,0,0:0:0:0:
128,184,96862,6,0,L|128:144,3,35,2|0|0|0,0:0|0:0|0:0|0:0,0:0:0:0:
128,128,97134,2,0,L|128:88,3,35,2|0|0|0,0:0|0:0|0:0|0:0,0:0:0:0:
128,64,97406,5,2,0:0:0:0:
144,64,97474,1,0,0:0:0:0:
160,64,97543,1,0,0:0:0:0:
176,64,97611,1,0,0:0:0:0:
192,64,97679,1,2,0:0:0:0:
208,64,97747,1,0,0:0:0:0:
224,64,97815,1,0,0:0:0:0:
240,64,97883,1,0,0:0:0:0:
264,64,97952,6,0,L|304:64,3,35,2|0|0|0,0:0|0:0|0:0|0:0,0:0:0:0:
320,64,98224,2,0,L|360:64,3,35,2|0|0|0,0:0|0:0|0:0|0:0,0:0:0:0:
384,64,98497,5,2,0:0:0:0:
384,80,98565,1,0,0:0:0:0:
384,96,98634,1,0,0:0:0:0:
384,112,98702,1,0,0:0:0:0:
384,128,98770,1,2,0:0:0:0:
384,144,98838,1,0,0:0:0:0:
384,160,98906,1,0,0:0:0:0:
384,176,98974,1,0,0:0:0:0:
384,200,99043,6,0,L|384:240,3,35,2|0|0|0,0:0|0:0|0:0|0:0,0:0:0:0:
384,256,99315,2,0,L|384:296,3,35,2|0|0|0,0:0|0:0|0:0|0:0,0:0:0:0:
384,320,99588,5,2,0:0:0:0:
368,320,99656,1,0,0:0:0:0:
352,320,99725,1,0,0:0:0:0:
336,320,99793,1,0,0:0:0:0:
320,320,99861,1,2,0:0:0:0:
304,320,99929,1,0,0:0:0:0:
288,320,99997,1,0,0:0:0:0:
272,320,100065,1,0,0:0:0:0:
248,320,100134,6,0,L|208:320,3,35,2|0|0|0,0:0|0:0|0:0|0:0,0:0:0:0:
192,320,100406,2,0,L|152:320,3,35,2|0|0|0,0:0|0:0|0:0|0:0,0:0:0:0:
128,320,100679,5,2,0:0:0:0:
128,304,100747,1,0,0:0:0:0:
128,288,100816,1,0,0:0:0:0:
128,272,100884,1,0,0:0:0:0:
128,256,100952,1,2,0:0:0:0:
128,240,101020,1,0,0:0:0:0:
128,224,101088,1,0,0:0:0:0:
128,207,101156,1,0,0:0:0:0:
128,184,101225,6,0,L|128:144,3,35,2|0|0|0,0:0|0:0|0:0|0:0,0:0:0:0:
128,128,101497,2,0,L|128:88,3,35,2|0|0|0,0:0|0:0|0:0|0:0,0:0:0:0:
128,64,101770,5,2,0:0:0:0:
144,64,101838,1,0,0:0:0:0:
160,64,101907,1,0,0:0:0:0:
176,64,101975,1,0,0:0:0:0:
192,64,102043,1,2,0:0:0:0:
208,64,102111,1,0,0:0:0:0:
224,64,102179,1,0,0:0:0:0:
240,64,102247,1,0,0:0:0:0:
264,64,102316,6,0,L|304:64,3,35,2|0|0|0,0:0|0:0|0:0|0:0,0:0:0:0:
320,64,102588,2,0,L|360:64,3,35,2|0|0|0,0:0|0:0|0:0|0:0,0:0:0:0:
384,64,102861,5,2,0:0:0:0:
384,80,102929,1,0,0:0:0:0:
384,96,102998,1,0,0:0:0:0:
384,112,103066,1,0,0:0:0:0:
384,128,103134,1,2,0:0:0:0:
384,144,103202,1,0,0:0:0:0:
384,160,103270,1,0,0:0:0:0:
384,176,103338,1,0,0:0:0:0:
384,200,103407,6,0,L|384:240,3,35,2|0|0|0,0:0|0:0|0:0|0:0,0:0:0:0:
384,256,103679,2,0,L|384:296,3,35,2|0|0|0,0:0|0:0|0:0|0:0,0:0:0:0:
384,320,103952,5,2,0:0:0:0:
368,320,104020,1,0,0:0:0:0:
352,320,104089,1,0,0:0:0:0:
336,320,104157,1,0,0:0:0:0:
320,320,104225,1,2,0:0:0:0:
304,320,104293,1,0,0:0:0:0:
288,320,104361,1,0,0:0:0:0:
272,320,104429,1,0,0:0:0:0:
248,320,104498,6,0,L|208:320,3,35,2|0|0|0,0:0|0:0|0:0|0:0,0:0:0:0:
192,320,104770,2,0,L|152:320,3,35,2|0|0|0,0:0|0:0|0:0|0:0,0:0:0:0:
128,320,105043,5,2,0:0:0:0:
128,304,105111,1,0,0:0:0:0:
128,288,105180,1,0,0:0:0:0:
128,272,105248,1,0,0:0:0:0:
128,256,105316,1,2,0:0:0:0:
128,240,105384,1,0,0:0:0:0:
128,224,105452,1,0,0:0:0:0:
128,207,105520,1,0,0:0:0:0:
128,184,105589,6,0,L|128:144,3,35,2|0|0|0,0:0|0:0|0:0|0:0,0:0:0:0:
128,128,105861,2,0,L|128:88,3,35,2|0|0|0,0:0|0:0|0:0|0:0,0:0:0:0:
128,64,106133,5,2,0:0:0:0:
144,64,106201,1,0,0:0:0:0:
160,64,106270,1,0,0:0:0:0:
176,64,106338,1,0,0:0:0:0:
192,64,106406,1,2,0:0:0:0:
208,64,106474,1,0,0:0:0:0:
224,64,106542,1,0,0:0:0:0:
240,64,106610,1,0,0:0:0:0:
264,64,106679,6,0,L|304:64,3,35,2|0|0|0,0:0|0:0|0:0|0:0,0:0:0:0:
320,64,106951,2,0,L|360:64,3,35,2|0|0|0,0:0|0:0|0:0|0:0,0:0:0:0:
384,64,107224,5,2,0:0:0:0:
384,80,107292,1,0,0:0:0:0:
384,96,107361,1,0,0:0:0:0:
384,112,107429,1,0,0:0:0:0:
384,128,107497,1,2,0:0:0:0:
384,144,107565,1,0,0:0:0:0:
384,160,107633,1,0,0:0:0:0:
384,176,107701,1,0,0:0:0:0:
384,200,107770,6,0,L|384:240,3,35,2|0|0|0,0:0|0:0|0:0|0:0,0:0:0:0:
384,256,108042,2,0,L|384:296,3,35,2|0|0|0,0:0|0:0|0:0|0:0,0:0:0:0:
384,320,108315,5,2,0:0:0:0:
368,320,108383,1,0,0:0:0:0:
352,320,108452,1,0,0:0:0:0:
336,320,108520,1,0,0:0:0:0:
320,320,108588,1,2,0:0:0:0:
304,320,108656,1,0,0:0:0:0:
288,320,108724,1,0,0:0:0:0:
272,320,108792,1,0,0:0:0:0:
248,320,108861,6,0,L|208:320,3,35,2|0|0|0,0:0|0:0|0:0|0:0,0:0:0:0:
192,320,109133,2,0,L|152:320,3,35,2|0|0|0,0:0|0:0|0:0|0:0,0:0:0:0:
128,320,109406,5,2,0:0:0:0:
128,304,109474,1,0,0:0:0:0:
128,288,109543,1,0,0:0:0:0:
128,272,109611,1,0,0:0:0:0:
128,256,109679,1,2,0:0:0:0:
128,240,109747,1,0,0:0:0:0:
128,224,109815,1,0,0:0:0:0:
128,207,109883,1,0,0:0:0:0:
128,184,109952,6,0,L|128:144,3,35,2|0|0|0,0:0|0:0|0:0|0:0,0:0:0:0:
128,128,110224,2,0,L|128:88,3,35,2|0|0|0,0:0|0:0|0:0|0:0,0:0:0:0:
128,64,110497,5,2,0:0:0:0:
144,64,110565,1,0,0:0:0:0:
160,64,110634,1,0,0:0:0:0:
176,64,110702,1,0,0:0:0:0:
192,64,110770,1,2,0:0:0:0:
208,64,110838,1,0,0:0:0:0:
224,64,110906,1,0,0:0:0:0:
240,64,110974,1,0,0:0:0:0:
264,64,111043,6,0,L|304:64,3,35,2|0|0|0,0:0|0:0|0:0|0:0,0:0:0:0:
320,64,111315,2,0,L|360:64,3,35,2|0|0|0,0:0|0:0|0:0|0:0,0:0:0:0:
384,64,111588,5,2,0:0:0:0:
384,80,111656,1,0,0:0:0:0:
384,96,111725,1,0,0:0:0:0:
384,112,111793,1,0,0:0:0:0:
384,128,111861,1,2,0:0:0:0:
384,144,111929,1,0,0:0:0:0:
384,160,111997,1,0,0:0:0:0:
384,176,112065,1,0,0:0:0:0:
384,200,112134,6,0,L|384:240,3,35,2|0|0|0,0:0|0:0|0:0|0:0,0:0:0:0:
384,256,112406,2,0,L|384:296,3,35,2|0|0|0,0:0|0:0|0:0|0:0,0:0:0:0:
384,320,112679,5,2,0:0:0:0:
368,320,112747,1,0,0:0:0:0:
352,320,112816,1,0,0:0:0:0:
336,320,112884,1,0,0:0:0:0:
320,320,112952,1,2,0:0:0:0:
304,320,113020,1,0,0:0:0:0:
288,320,113088,1,0,0:0:0:0:
272,320,113156,1,0,0:0:0:0:
248,320,113225,6,0,L|208:320,3,35,2|0|0|0,0:0|0:0|0:0|0:0,0:0:0:0:
192,320,113497,2,0,L|152:320,3,35,2|0|0|0,0:0|0:0|0:0|0:0,0:0:0:0:
128,320,113770,5,2,0:0:0:0:
128,304,113838,1,0,0:0:0:0:
128,288,113907,1,0,0:0:0:0:
128,272,113975,1,0,0:0:0:0:
128,256,114043,1,2,0:0:0:0:
128,240,114111,1,0,0:0:0:0:
128,224,114179,1,0,0:0:0:0:
128,207,114247,1,0,0:0:0:0:
128,184,114316,6,0,L|128:144,3,35,2|0|0|0,0:0|0:0|0:0|0:0,0:0:0:0:
128,128,114588,2,0,L|128:88,3,35,2|0|0|0,0:0|0:0|0:0|0:0,0:0:0:0:
128,64,114861,5,2,0:0:0:0:
144,64,114929,1,0,0:0:0:0:
160,64,114998,1,0,0:0:0:0:
176,64,115066,1,0,0:0:0:0:
192,64,115134,1,2,0:0:0:0:
208,64,115202,1,0,0:0:0:0:
224,64,115270,1,0,0:0:0:0:
240,64,115338,1,0,0:0:0:0:
264,64,115407,6,0,L|304:64,3,35,2|0|0|0,0:0|0:0|0:0|0:0,0:0:0:0:
320,64,115679,2,0,L|360:64,3,35,2|0|0|0,0:0|0:0|0:0|0:0,0:0:0:0:
384,64,115952,5,2,0:0:0:0:
384,80,116020,1,0,0:0:0:0:
384,96,116089,1,0,0:0:0:0:
384,112,116157,1,0,0:0:0:0:
384,128,116225,1,2,0:0:0:0:
384,144,116293,1,0,0:0:0:0:
384,160,116361,1,0,0:0:0:0:
384,176,116429,1,0,0:0:0:0:
384,200,116498,6,0,L|384:240,3,35,2|0|0|0,0:0|0:0|0:0|0:0,0:0:0:0:
384,256,116770,2,0,L|384:296,3,35,2|0|0|0,0:0|0:0|0:0|0:0,0:0:0:0:
384,320,117043,5,2,0:0:0:0:
368,320,117111,1,0,0:0:0:0:
352,320,117180,1,0,0:0:0:0:
336,320,117248,1,0,0:0:0:0:
320,320,117316,1,2,0:0:0:0:
304,320,117384,1,0,0:0:0:0:
288,320,117452,1,0,0:0:0:0:
272,320,117520,1,0,0:0:0:0:
248,320,117589,6,0,L|208:320,3,35,2|0|0|0,0:0|0:0|0:0|0:0,0:0:0:0:
192,320,117861,2,0,L|152:320,3,35,2|0|0|0,0:0|0:0|0:0|0:0,0:0:0:0:
128,320,118133,5,2,0:0:0:0:
128,304,118201,1,0,0:0:0:0:
128,288,118270,1,0,0:0:0:0:
128,272,118338,1,0,0:0:0:0:
128,256,118406,1,2,0:0:0:0:
128,240,118474,1,0,0:0:0:0:
128,224,118542,1,0,0:0:0:0:
128,208,118610,1,0,0:0:0:0:
128,184,118679,6,0,L|128:144,3,35,2|0|0|0,0:0|0:0|0:0|0:0,0:0:0:0:
128,128,118951,2,0,L|128:88,3,35,2|0|0|0,0:0|0:0|0:0|0:0,0:0:0:0:
128,64,119224,5,2,0:0:0:0:
