osu file format v14

[General]
AudioFilename: Butterfly.mp3
AudioLeadIn: 0
PreviewTime: 81043
Countdown: 1
SampleSet: None
StackLeniency: 0.7
Mode: 0
LetterboxInBreaks: 1
WidescreenStoryboard: 1

[Editor]
DistanceSpacing: 1.5
BeatDivisor: 1
GridSize: 8
TimelineZoom: 1

[Metadata]
Title:Burst Stream Practice Maps
TitleUnicode:Burst Stream Practice Maps
Artist:Various Artists
ArtistUnicode:Various Artists
Creator:nooblet
Version:220 BPM 32 notes
Source:
Tags:
BeatmapID:812575
BeatmapSetID:370814

[Difficulty]
HPDrainRate:0
CircleSize:4
OverallDifficulty:10
ApproachRate:9.4
SliderMultiplier:1.4
SliderTickRate:1

[Events]
//Background and Video events
//Break Periods
//Storyboard Layer 0 (Background)
//Storyboard Layer 1 (Fail)
//Storyboard Layer 2 (Pass)
//Storyboard Layer 3 (Foreground)
//Storyboard Sound Samples

[TimingPoints]
1406.65509215016,272.727272727273,4,2,0,100,1,0

[HitObjects]
128,64,1406,5,2,0:0:0:0:
144,64,1474,1,0,0:0:0:0:
160,64,1543,1,0,0:0:0:0:
176,64,1611,1,0,0:0:0:0:
192,64,1679,1,2,0:0:0:0:
208,64,1747,1,0,0:0:0:0:
224,64,1815,1,0,0:0:0:0:
240,64,1883,1,0,0:0:0:0:
255,64,1952,5,2,0:0:0:0:
272,64,2020,1,0,0:0:0:0:
288,64,2089,1,0,0:0:0:0:
304,64,2157,1,0,0:0:0:0:
320,64,2225,1,2,0:0:0:0:
336,64,2293,1,0,0:0:0:0:
352,64,2361,1,0,0:0:0:0:
368,64,2429,1,0,0:0:0:0:
384,64,2497,5,2,0:0:0:0:
384,80,2565,1,0,0:0:0:0:
384,96,2634,1,0,0:0:0:0:
384,112,2702,1,0,0:0:0:0:
384,128,2770,1,2,0:0:0:0:
384,144,2838,1,0,0:0:0:0:
384,160,2906,1,0,0:0:0:0:
384,176,2974,1,0,0:0:0:0:
384,191,3043,5,2,0:0:0:0:
384,208,3111,1,0,0:0:0:0:
384,224,3180,1,0,0:0:0:0:
384,240,3248,1,0,0:0:0:0:
384,256,3316,1,2,0:0:0:0:
384,272,3384,1,0,0:0:0:0:
384,288,3452,1,0,0:0:0:0:
384,304,3520,1,0,0:0:0:0:
384,320,3588,6,0,L|336:320,3,35,2|0|0|0,0:0|0:0|0:0|0:0,0:0:0:0:
320,320,3861,2,0,L|272:320,3,35,2|0|0|0,0:0|0:0|0:0|0:0,0:0:0:0:
257,320,4133,6,0,L|209:320,3,35,2|0|0|0,0:0|0:0|0:0|0:0,0:0:0:0:
193,320,4406,2,0,L|145:320,3,35,2|0|0|0,0:0|0:0|0:0|0:0,0:0:0:0:
128,320,4679,6,0,L|128:272,3,35,2|0|0|0,0:0|0:0|0:0|0:0,0:0:0:0:
128,256,4952,2,0,L|128:208,3,35,2|0|0|0,0:0|0:0|0:0|0:0,0:0:0:0:
128,193,5224,6,0,L|128:145,3,35,2|0|0|0,0:0|0:0|0:0|0:0,0:0:0:0:
128,128,5497,2,0,L|128:81,3,35,2|0|0|0,0:0|0:0|0:0|0:0,0:0:0:0:
128,64,5770,5,2,0:0:0:0:
144,64,5838,1,0,0:0:0:0:
160,64,5907,1,0,0:0:0:0:
176,64,5975,1,0,0:0:0:0:
192,64,6043,1,2,0:0:0:0:
208,64,6111,1,0,0:0:0:0:
224,64,6179,1,0,0:0:0:0:
240,64,6247,1,0,0:0:0:0:
255,64,6316,5,2,0:0:0:0:
272,64,6384,1,0,0:0:0:0:
288,64,6453,1,0,0:0:0:0:
304,64,6521,1,0,0:0:0:0:
320,64,6589,1,2,0:0:0:0:
336,64,6657,1,0,0:0:0:0:
352,64,6725,1,0,0:0:0:0:
368,64,6793,1,0,0:0:0:0:
384,64,6861,5,2,0:0:0:0:
384,80,6929,1,0,0:0:0:0:
384,96,6998,1,0,0:0:0:0:
384,112,7066,1,0,0:0:0:0:
384,128,7134,1,2,0:0:0:0:
384,144,7202,1,0,0:0:0:0:
384,160,7270,1,0,0:0:0:0:
384,176,7338,1,0,0:0:0:0:
384,191,7407,5,2,0:0:0:0:
384,208,7475,1,0,0:0:0:0:
384,224,7544,1,0,0:0:0:0:
384,240,7612,1,0,0:0:0:0:
384,256,7680,1,2,0:0:0:0:
384,272,7748,1,0,0:0:0:0:
384,288,7816,1,0,0:0:0:0:
384,304,7884,1,0,0:0:0:0:
384,320,7952,6,0,L|336:320,3,35,2|0|0|0,0:0|0:0|0:0|0:0,0:0:0:0:
320,320,8225,2,0,L|272:320,3,35,2|0|0|0,0:0|0:0|0:0|0:0,0:0:0:0:
257,320,8497,6,0,L|209:320,3,35,2|0|0|0,0:0|0:0|0:0|0:0,0:0:0:0:
193,320,8770,2,0,L|145:320,3,35,2|0|0|0,0:0|0:0|0:0|0:0,0:0:0:0:
128,320,9043,6,0,L|128:272,3,35,2|0|0|0,0:0|0:0|0:0|0:0,0:0:0:0:
128,256,9316,2,0,L|128:208,3,35,2|0|0|0,0:0|0:0|0:0|0:0,0:0:0:0:
128,193,9588,6,0,L|128:145,3,35,2|0|0|0,0:0|0:0|0:0|0:0,0:0:0:0:
128,128,9861,2,0,L|128:81,3,35,2|0|0|0,0:0|0:0|0:0|0:0,0:0:0:0:
128,64,10133,5,2,0:0:0:0:
144,64,10201,1,0,0:0:0:0:
160,64,10270,1,0,0:0:0:0:
176,64,10338,1,0,0:0:0:0:
192,64,10406,1,2,0:0:0:0:
208,64,10474,1,0,0:0:0:0:
224,64,10542,1,0,0:0:0:0:
240,64,10610,1,0,0:0:0:0:
255,64,10679,5,2,0:0:0:0:
272,64,10747,1,0,0:0:0:0:
288,64,10816,1,0,0:0:0:0:
304,64,10884,1,0,0:0:0:0:
320,64,10952,1,2,0:0:0:0:
336,64,11020,1,0,0:0:0:0:
352,64,11088,1,0,0:0:0:0:
368,64,11156,1,0,0:0:0:0:
384,64,11224,5,2,0:0:0:0:
384,80,11292,1,0,0:0:0:0:
384,96,11361,1,0,0:0:0:0:
384,112,11429,1,0,0:0:0:0:
384,128,11497,1,2,0:0:0:0:
384,144,11565,1,0,0:0:0:0:
384,160,11633,1,0,0:0:0:0:
384,176,11701,1,0,0:0:0:0:
384,191,11770,5,2,0:0:0:0:
384,208,11838,1,0,0:0:0:0:
384,224,11907,1,0,0:0:0:0:
384,240,11975,1,0,0:0:0:0:
384,256,12043,1,2,0:0:0:0:
384,272,12111,1,0,0:0:0:0:
384,288,12179,1,0,0:0:0:0:
384,304,12247,1,0,0:0:0:0:
384,320,12315,6,0,L|336:320,3,35,2|0|0|0,0:0|0:0|0:0|0:0,0:0:0:0:
320,320,12588,2,0,L|272:320,3,35,2|0|0|0,0:0|0:0|0:0|0:0,0:0:0:0:
257,320,12860,6,0,L|209:320,3,35,2|0|0|0,0:0|0:0|0:0|0:0,0:0:0:0:
193,320,13133,2,0,L|145:320,3,35,2|0|0|0,0:0|0:0|0:0|0:0,0:0:0:0:
128,320,13406,6,0,L|128:272,3,35,2|0|0|0,0:0|0:0|0:0|0:0,0:0:0:0:
128,256,13679,2,0,L|128:208,3,35,2|0|0|0,0:0|0:0|0:0|0:0,0:0:0:0:
128,193,13951,6,0,L|128:145,3,35,2|0|0|0,0:0|0:0|0:0|0:0,0:0:0:0:
128,128,14224,2,0,L|128:81,3,35,2|0|0|0,0:0|0:0|0:0|0:0,0:0:0:0:
128,64,14497,5,2,0:0:0:0:
144,64,14565,1,0,0:0:0:0:
160,64,14634,1,0,0:0:0:0:
176,64,14702,1,0,0:0:0:0:
192,64,14770,1,2,0:0:0:0:
208,64,14838,1,0,0:0:0:0:
224,64,14906,1,0,0:0:0:0:
240,64,14974,1,0,0:0:0:0:
255,64,15043,5,2,0:0:0:0:
272,64,15111,1,0,0:0:0:0:
288,64,15180,1,0,0:0:0:0:
304,64,15248,1,0,0:0:0:0:
320,64,15316,1,2,0:0:0:0:
336,64,15384,1,0,0:0:0:0:
352,64,15452,1,0,0:0:0:0:
368,64,15520,1,0,0:0:0:0:
384,64,15588,5,2,0:0:0:0:
384,80,15656,1,0,0:0:0:0:
384,96,15725,1,0,0:0:0:0:
384,112,15793,1,0,0:0:0:0:
384,128,15861,1,2,0:0:0:0:
384,144,15929,1,0,0:0:0:0:
384,160,15997,1,0,0:0:0:0:
384,176,16065,1,0,0:0:0:0:
384,191,16134,5,2,0:0:0:0:
384,208,16202,1,0,0:0:0:0:
384,224,16271,1,0,0:0:0:0:
384,240,16339,1,0,0:0:0:0:
384,256,16407,1,2,0:0:0:0:
384,272,16475,1,0,0:0:0:0:
384,288,16543,1,0,0:0:0:0:
384,304,16611,1,0,0:0:0:0:
384,320,16679,6,0,L|336:320,3,35,2|0|0|0,0:0|0:0|0:0|0:0,0:0:0:0:
320,320,16952,2,0,L|272:320,3,35,2|0|0|0,0:0|0:0|0:0|0:0,0:0:0:0:
257,320,17224,6,0,L|209:320,3,35,2|0|0|0,0:0|0:0|0:0|0:0,0:0:0:0:
193,320,17497,2,0,L|145:320,3,35,2|0|0|0,0:0|0:0|0:0|0:0,0:0:0:0:
128,320,17770,6,0,L|128:272,3,35,2|0|0|0,0:0|0:0|0:0|0:0,0:0:0:0:
128,256,18043,2,0,L|128:208,3,35,2|0|0|0,0:0|0:0|0:0|0:0,0:0:0:0:
128,193,18315,6,0,L|128:145,3,35,2|0|0|0,0:0|0:0|0:0|0:0,0:0:0:0:
128,128,18588,2,0,L|128:81,3,35,2|0|0|0,0:0|0:0|0:0|0:0,0:0:0:0:
128,64,18861,5,2,0:0:0:0:
144,64,18929,1,0,0:0:0:0:
160,64,18998,1,0,0:0:0:0:
176,64,19066,1,0,0:0:0:0:
192,64,19134,1,2,0:0:0:0:
208,64,19202,1,0,0:0:0:0:
224,64,19270,1,0,0:0:0:0:
240,64,19338,1,0,0:0:0:0:
255,64,19407,5,2,0:0:0:0:
272,64,19475,1,0,0:0:0:0:
288,64,19544,1,0,0:0:0:0:
304,64,19612,1,0,0:0:0:0:
320,64,19680,1,2,0:0:0:0:
336,64,19748,1,0,0:0:0:0:
352,64,19816,1,0,0:0:0:0:
368,64,19884,1,0,0:0:0:0:
384,64,19952,5,2,0:0:0:0:
384,80,20020,1,0,0:0:0:0:
384,96,20089,1,0,0:0:0:0:
384,112,20157,1,0,0:0:0:0:
384,128,20225,1,2,0:0:0:0:
384,144,20293,1,0,0:0:0:0:
384,160,20361,1,0,0:0:0:0:
384,176,20429,1,0,0:0:0:0:
384,191,20498,5,2,0:0:0:0:
384,208,20566,1,0,0:0:0:0:
384,224,20635,1,0,0:0:0:0:
384,240,20703,1,0,0:0:0:0:
384,256,20771,1,2,0:0:0:0:
384,272,20839,1,0,0:0:0:0:
384,288,20907,1,0,0:0:0:0:
384,304,20975,1,0,0:0:0:0:
384,320,21043,6,0,L|336:320,3,35,2|0|0|0,0:0|0:0|0:0|0:0,0:0:0:0:
320,320,21316,2,0,L|272:320,3,35,2|0|0|0,0:0|0:0|0:0|0:0,0:0:0:0:
257,320,21588,6,0,L|209:320,3,35,2|0|0|0,0:0|0:0|0:0|0:0,0:0:0:0:
193,320,21861,2,0,L|145:320,3,35,2|0|0|0,0:0|0:0|0:0|0:0,0:0:0:0:
128,320,22134,6,0,L|128:272,3,35,2|0|0|0,0:0|0:0|0:0|0:0,0:0:0:0:
128,256,22407,2,0,L|128:208,3,35,2|0|0|0,0:0|0:0|0:0|0:0,0:0:0:0:
128,193,22679,6,0,L|128:145,3,35,2|0|0|0,0:0|0:0|0:0|0:0,0:0:0:0:
128,128,22952,2,0,L|128:81,3,35,2|0|0|0,0:0|0:0|0:0|0:0,0:0:0:0:
128,64,23225,5,2,0:0:0:0:
144,64,23293,1,0,0:0:0:0:
160,64,23362,1,0,0:0:0:0:
176,64,23430,1,0,0:0:0:0:
192,64,23498,1,2,0:0:0:0:
208,64,23566,1,0,0:0:0:0:
224,64,23634,1,0,0:0:0:0:
240,64,23702,1,0,0:0:0:0:
255,64,23771,5,2,0:0:0:0:
272,64,23839,1,0,0:0:0:0:
288,64,23908,1,0,0:0:0:0:
304,64,23976,1,0,0:0:0:0:
320,64,24044,1,2,0:0:0:0:
336,64,24112,1,0,0:0:0:0:
352,64,24180,1,0,0:0:0:0:
368,64,24248,1,0,0:0:0:0:
384,64,24316,5,2,0:0:0:0:
384,80,24384,1,0,0:0:0:0:
384,96,24453,1,0,0:0:0:0:
384,112,24521,1,0,0:0:0:0:
384,128,24589,1,2,0:0:0:0:
384,144,24657,1,0,0:0:0:0:
384,160,24725,1,0,0:0:0:0:
384,176,24793,1,0,0:0:0:0:
384,191,24862,5,2,0:0:0:0:
384,208,24930,1,0,0:0:0:0:
384,224,24999,1,0,0:0:0:0:
384,240,25067,1,0,0:0:0:0:
384,256,25135,1,2,0:0:0:0:
384,272,25203,1,0,0:0:0:0:
384,288,25271,1,0,0:0:0:0:
384,304,25339,1,0,0:0:0:0:
384,320,25407,6,0,L|336:320,3,35,2|0|0|0,0:0|0:0|0:0|0:0,0:0:0:0:
320,320,25680,2,0,L|272:320,3,35,2|0|0|0,0:0|0:0|0:0|0:0,0:0:0:0:
257,320,25952,6,0,L|209:320,3,35,2|0|0|0,0:0|0:0|0:0|0:0,0:0:0:0:
193,320,26225,2,0,L|145:320,3,35,2|0|0|0,0:0|0:0|0:0|0:0,0:0:0:0:
128,320,26498,6,0,L|128:272,3,35,2|0|0|0,0:0|0:0|0:0|0:0,0:0:0:0:
128,256,26771,2,0,L|128:208,3,35,2|0|0|0,0:0|0:0|0:0|0:0,0:0:0:0:
128,193,27043,6,0,L|128:145,3,35,2|0|0|0,0:0|0:0|0:0|0:0,0:0:0:0:
128,128,27316,2,0,L|128:81,3,35,2|0|0|0,0:0|0:0|0:0|0:0,0:0:0:0:
128,64,27588,5,2,0:0:0:0:
144,64,27656,1,0,0:0:0:0:
160,64,27725,1,0,0:0:0:0:
176,64,27793,1,0,0:0:0:0:
192,64,27861,1,2,0:0:0:0:
208,64,27929,1,0,0:0:0:0:
224,64,27997,1,0,0:0:0:0:
240,64,28065,1,0,0:0:0:0:
255,64,28134,5,2,0:0:0:0:
272,64,28202,1,0,0:0:0:0:
288,64,28271,1,0,0:0:0:0:
304,64,28339,1,0,0:0:0:0:
320,64,28407,1,2,0:0:0:0:
336,64,28475,1,0,0:0:0:0:
352,64,28543,1,0,0:0:0:0:
368,64,28611,1,0,0:0:0:0:
384,64,28679,5,2,0:0:0:0:
384,80,28747,1,0,0:0:0:0:
384,96,28816,1,0,0:0:0:0:
384,112,28884,1,0,0:0:0:0:
384,128,28952,1,2,0:0:0:0:
384,144,29020,1,0,0:0:0:0:
384,160,29088,1,0,0:0:0:0:
384,176,29156,1,0,0:0:0:0:
384,191,29225,5,2,0:0:0:0:
384,208,29293,1,0,0:0:0:0:
384,224,29362,1,0,0:0:0:0:
384,240,29430,1,0,0:0:0:0:
384,256,29498,1,2,0:0:0:0:
384,272,29566,1,0,0:0:0:0:
384,288,29634,1,0,0:0:0:0:
384,304,29702,1,0,0:0:0:0:
384,320,29770,6,0,L|336:320,3,35,2|0|0|0,0:0|0:0|0:0|0:0,0:0:0:0:
320,320,30043,2,0,L|272:320,3,35,2|0|0|0,0:0|0:0|0:0|0:0,0:0:0:0:
257,320,30315,6,0,L|209:320,3,35,2|0|0|0,0:0|0:0|0:0|0:0,0:0:0:0:
193,320,30588,2,0,L|145:320,3,35,2|0|0|0,0:0|0:0|0:0|0:0,0:0:0:0:
128,320,30861,6,0,L|128:272,3,35,2|0|0|0,0:0|0:0|0:0|0:0,0:0:0:0:
128,256,31134,2,0,L|128:208,3,35,2|0|0|0,0:0|0:0|0:0|0:0,0:0:0:0:
128,193,31406,6,0,L|128:145,3,35,2|0|0|0,0:0|0:0|0:0|0:0,0:0:0:0:
128,128,31679,2,0,L|128:81,3,35,2|0|0|0,0:0|0:0|0:0|0:0,0:0:0:0:
128,64,31952,5,2,0:0:0:0:
144,64,32020,1,0,0:0:0:0:
160,64,32089,1,0,0:0:0:0:
176,64,32157,1,0,0:0:0:0:
192,64,32225,1,2,0:0:0:0:
208,64,32293,1,0,0:0:0:0:
224,64,32361,1,0,0:0:0:0:
240,64,32429,1,0,0:0:0:0:
255,64,32498,5,2,0:0:0:0:
272,64,32566,1,0,0:0:0:0:
288,64,32635,1,0,0:0:0:0:
304,64,32703,1,0,0:0:0:0:
320,64,32771,1,2,0:0:0:0:
336,64,32839,1,0,0:0:0:0:
352,64,32907,1,0,0:0:0:0:
368,64,32975,1,0,0:0:0:0:
384,64,33043,5,2,0:0:0:0:
384,80,33111,1,0,0:0:0:0:
384,96,33180,1,0,0:0:0:0:
384,112,33248,1,0,0:0:0:0:
384,128,33316,1,2,0:0:0:0:
384,144,33384,1,0,0:0:0:0:
384,160,33452,1,0,0:0:0:0:
384,176,33520,1,0,0:0:0:0:
384,191,33589,5,2,0:0:0:0:
384,208,33657,1,0,0:0:0:0:
384,224,33726,1,0,0:0:0:0:
384,240,33794,1,0,0:0:0:0:
384,256,33862,1,2,0:0:0:0:
384,272,33930,1,0,0:0:0:0:
384,288,33998,1,0,0:0:0:0:
384,304,34066,1,0,0:0:0:0:
384,320,34134,6,0,L|336:320,3,35,2|0|0|0,0:0|0:0|0:0|0:0,0:0:0:0:
320,320,34407,2,0,L|272:320,3,35,2|0|0|0,0:0|0:0|0:0|0:0,0:0:0:0:
257,320,34679,6,0,L|209:320,3,35,2|0|0|0,0:0|0:0|0:0|0:0,0:0:0:0:
193,320,34952,2,0,L|145:320,3,35,2|0|0|0,0:0|0:0|0:0|0:0,0:0:0:0:
128,320,35225,6,0,L|128:272,3,35,2|0|0|0,0:0|0:0|0:0|0:0,0:0:0:0:
128,256,35498,2,0,L|128:208,3,35,2|0|0|0,0:0|0:0|0:0|0:0,0:0:0:0:
128,193,35770,6,0,L|128:145,3,35,2|0|0|0,0:0|0:0|0:0|0:0,0:0:0:0:
128,128,36043,2,0,L|128:81,3,35,2|0|0|0,0:0|0:0|0:0|0:0,0:0:0:0:
128,64,36315,5,2,0:0:0:0:
144,64,36383,1,0,0:0:0:0:
160,64,36452,1,0,0:0:0:0:
176,64,36520,1,0,0:0:0:0:
192,64,36588,1,2,0:0:0:0:
208,64,36656,1,0,0:0:0:0:
224,64,36724,1,0,0:0:0:0:
240,64,36792,1,0,0:0:0:0:
255,64,36861,5,2,0:0:0:0:
272,64,36929,1,0,0:0:0:0:
288,64,36998,1,0,0:0:0:0:
304,64,37066,1,0,0:0:0:0:
320,64,37134,1,2,0:0:0:0:
336,64,37202,1,0,0:0:0:0:
352,64,37270,1,0,0:0:0:0:
368,64,37338,1,0,0:0:0:0:
384,64,37406,5,2,0:0:0:0:
384,80,37474,1,0,0:0:0:0:
384,96,37543,1,0,0:0:0:0:
384,112,37611,1,0,0:0:0:0:
384,128,37679,1,2,0:0:0:0:
384,144,37747,1,0,0:0:0:0:
384,160,37815,1,0,0:0:0:0:
384,176,37883,1,0,0:0:0:0:
384,191,37952,5,2,0:0:0:0:
384,208,38020,1,0,0:0:0:0:
384,224,38089,1,0,0:0:0:0:
384,240,38157,1,0,0:0:0:0:
384,256,38225,1,2,0:0:0:0:
384,272,38293,1,0,0:0:0:0:
384,288,38361,1,0,0:0:0:0:
384,304,38429,1,0,0:0:0:0:
384,320,38497,6,0,L|336:320,3,35,2|0|0|0,0:0|0:0|0:0|0:0,0:0:0:0:
320,320,38770,2,0,L|272:320,3,35,2|0|0|0,0:0|0:0|0:0|0:0,0:0:0:0:
257,320,39042,6,0,L|209:320,3,35,2|0|0|0,0:0|0:0|0:0|0:0,0:0:0:0:
193,320,39315,2,0,L|145:320,3,35,2|0|0|0,0:0|0:0|0:0|0:0,0:0:0:0:
128,320,39588,6,0,L|128:272,3,35,2|0|0|0,0:0|0:0|0:0|0:0,0:0:0:0:
128,256,39861,2,0,L|128:208,3,35,2|0|0|0,0:0|0:0|0:0|0:0,0:0:0:0:
128,193,40133,6,0,L|128:145,3,35,2|0|0|0,0:0|0:0|0:0|0:0,0:0:0:0:
128,128,40406,2,0,L|128:81,3,35,2|0|0|0,0:0|0:0|0:0|0:0,0:0:0:0:
128,64,40679,5,2,0:0:0:0:
144,64,40747,1,0,0:0:0:0:
160,64,40816,1,0,0:0:0:0:
176,64,40884,1,0,0:0:0:0:
192,64,40952,1,2,0:0:0:0:
208,64,41020,1,0,0:0:0:0:
224,64,41088,1,0,0:0:0:0:
240,64,41156,1,0,0:0:0:0:
255,64,41225,5,2,0:0:0:0:
272,64,41293,1,0,0:0:0:0:
288,64,41362,1,0,0:0:0:0:
304,64,41430,1,0,0:0:0:0:
320,64,41498,1,2,0:0:0:0:
336,64,41566,1,0,0:0:0:0:
352,64,41634,1,0,0:0:0:0:
368,64,41702,1,0,0:0:0:0:
384,64,41770,5,2,0:0:0:0:
384,80,41838,1,0,0:0:0:0:
384,96,41907,1,0,0:0:0:0:
384,112,41975,1,0,0:0:0:0:
384,128,42043,1,2,0:0:0:0:
384,144,42111,1,0,0:0:0:0:
384,160,42179,1,0,0:0:0:0:
384,176,42247,1,0,0:0:0:0:
384,191,42316,5,2,0:0:0:0:
384,208,42384,1,0,0:0:0:0:
384,224,42453,1,0,0:0:0:0:
384,240,42521,1,0,0:0:0:0:
384,256,42589,1,2,0:0:0:0:
384,272,42657,1,0,0:0:0:0:
384,288,42725,1,0,0:0:0:0:
384,304,42793,1,0,0:0:0:0:
384,320,42861,6,0,L|336:320,3,35,2|0|0|0,0:0|0:0|0:0|0:0,0:0:0:0:
320,320,43134,2,0,L|272:320,3,35,2|0|0|0,0:0|0:0|0:0|0:0,0:0:0:0:
257,320,43406,6,0,L|209:320,3,35,2|0|0|0,0:0|0:0|0:0|0:0,0:0:0:0:
193,320,43679,2,0,L|145:320,3,35,2|0|0|0,0:0|0:0|0:0|0:0,0:0:0:0:
128,320,43952,6,0,L|128:272,3,35,2|0|0|0,0:0|0:0|0:0|0:0,0:0:0:0:
128,256,44225,2,0,L|128:208,3,35,2|0|0|0,0:0|0:0|0:0|0:0,0:0:0:0:
128,193,44497,6,0,L|128:145,3,35,2|0|0|0,0:0|0:0|0:0|0:0,0:0:0:0:
128,128,44770,2,0,L|128:81,3,35,2|0|0|0,0:0|0:0|0:0|0:0,0:0:0:0:
128,64,45043,5,2,0:0:0:0:
144,64,45111,1,0,0:0:0:0:
160,64,45180,1,0,0:0:0:0:
176,64,45248,1,0,0:0:0:0:
192,64,45316,1,2,0:0:0:0:
208,64,45384,1,0,0:0:0:0:
224,64,45452,1,0,0:0:0:0:
240,64,45520,1,0,0:0:0:0:
255,64,45589,5,2,0:0:0:0:
272,64,45657,1,0,0:0:0:0:
288,64,45726,1,0,0:0:0:0:
304,64,45794,1,0,0:0:0:0:
320,64,45862,1,2,0:0:0:0:
336,64,45930,1,0,0:0:0:0:
352,64,45998,1,0,0:0:0:0:
368,64,46066,1,0,0:0:0:0:
384,64,46134,5,2,0:0:0:0:
384,80,46202,1,0,0:0:0:0:
384,96,46271,1,0,0:0:0:0:
384,112,46339,1,0,0:0:0:0:
384,128,46407,1,2,0:0:0:0:
384,144,46475,1,0,0:0:0:0:
384,160,46543,1,0,0:0:0:0:
384,176,46611,1,0,0:0:0:0:
384,191,46680,5,2,0:0:0:0:
384,208,46748,1,0,0:0:0:0:
384,224,46817,1,0,0:0:0:0:
384,240,46885,1,0,0:0:0:0:
384,256,46953,1,2,0:0:0:0:
384,272,47021,1,0,0:0:0:0:
384,288,47089,1,0,0:0:0:0:
384,304,47157,1,0,0:0:0:0:
384,320,47225,6,0,L|336:320,3,35,2|0|0|0,0:0|0:0|0:0|0:0,0:0:0:0:
320,320,47498,2,0,L|272:320,3,35,2|0|0|0,0:0|0:0|0:0|0:0,0:0:0:0:
257,320,47770,6,0,L|209:320,3,35,2|0|0|0,0:0|0:0|0:0|0:0,0:0:0:0:
193,320,48043,2,0,L|145:320,3,35,2|0|0|0,0:0|0:0|0:0|0:0,0:0:0:0:
128,320,48316,6,0,L|128:272,3,35,2|0|0|0,0:0|0:0|0:0|0:0,0:0:0:0:
128,256,48589,2,0,L|128:208,3,35,2|0|0|0,0:0|0:0|0:0|0:0,0:0:0:0:
128,193,48861,6,0,L|128:145,3,35,2|0|0|0,0:0|0:0|0:0|0:0,0:0:0:0:
128,128,49134,2,0,L|128:81,3,35,2|0|0|0,0:0|0:0|0:0|0:0,0:0:0:0:
128,64,49407,5,2,0:0:0:0:
144,64,49475,1,0,0:0:0:0:
160,64,49544,1,0,0:0:0:0:
176,64,49612,1,0,0:0:0:0:
192,64,49680,1,2,0:0:0:0:
208,64,49748,1,0,0:0:0:0:
224,64,49816,1,0,0:0:0:0:
240,64,49884,1,0,0:0:0:0:
255,64,49953,5,2,0:0:0:0:
272,64,50021,1,0,0:0:0:0:
288,64,50090,1,0,0:0:0:0:
304,64,50158,1,0,0:0:0:0:
320,64,50226,1,2,0:0:0:0:
336,64,50294,1,0,0:0:0:0:
352,64,50362,1,0,0:0:0:0:
368,64,50430,1,0,0:0:0:0:
384,64,50498,5,2,0:0:0:0:
384,80,50566,1,0,0:0:0:0:
384,96,50635,1,0,0:0:0:0:
384,112,50703,1,0,0:0:0:0:
384,128,50771,1,2,0:0:0:0:
384,144,50839,1,0,0:0:0:0:
384,160,50907,1,0,0:0:0:0:
384,176,50975,1,0,0:0:0:0:
384,191,51044,5,2,0:0:0:0:
384,208,51112,1,0,0:0:0:0:
384,224,51181,1,0,0:0:0:0:
384,240,51249,1,0,0:0:0:0:
384,256,51317,1,2,0:0:0:0:
384,272,51385,1,0,0:0:0:0:
384,288,51453,1,0,0:0:0:0:
384,304,51521,1,0,0:0:0:0:
384,320,51589,6,0,L|336:320,3,35,2|0|0|0,0:0|0:0|0:0|0:0,0:0:0:0:
320,320,51862,2,0,L|272:320,3,35,2|0|0|0,0:0|0:0|0:0|0:0,0:0:0:0:
257,320,52134,6,0,L|209:320,3,35,2|0|0|0,0:0|0:0|0:0|0:0,0:0:0:0:
193,320,52407,2,0,L|145:320,3,35,2|0|0|0,0:0|0:0|0:0|0:0,0:0:0:0:
128,320,52680,6,0,L|128:272,3,35,2|0|0|0,0:0|0:0|0:0|0:0,0:0:0:0:
128,256,52953,2,0,L|128:208,3,35,2|0|0|0,0:0|0:0|0:0|0:0,0:0:0:0:
128,193,53225,6,0,L|128:145,3,35,2|0|0|0,0:0|0:0|0:0|0:0,0:0:0:0:
128,128,53498,2,0,L|128:81,3,35,2|0|0|0,0:0|0:0|0:0|0:0,0:0:0:0:
128,64,53770,5,2,0:0:0:0:
144,64,53838,1,0,0:0:0:0:
160,64,53907,1,0,0:0:0:0:
176,64,53975,1,0,0:0:0:0:
192,64,54043,1,2,0:0:0:0:
208,64,54111,1,0,0:0:0:0:
224,64,54179,1,0,0:0:0:0:
240,64,54247,1,0,0:0:0:0:
255,64,54316,5,2,0:0:0:0:
272,64,54384,1,0,0:0:0:0:
288,64,54453,1,0,0:0:0:0:
304,64,54521,1,0,0:0:0:0:
320,64,54589,1,2,0:0:0:0:
336,64,54657,1,0,0:0:0:0:
352,64,54725,1,0,0:0:0:0:
368,64,54793,1,0,0:0:0:0:
384,64,54861,5,2,0:0:0:0:
384,80,54929,1,0,0:0:0:0:
384,96,54998,1,0,0:0:0:0:
384,112,55066,1,0,0:0:0:0:
384,128,55134,1,2,0:0:0:0:
384,144,55202,1,0,0:0:0:0:
384,160,55270,1,0,0:0:0:0:
384,176,55338,1,0,0:0:0:0:
384,191,55407,5,2,0:0:0:0:
384,208,55475,1,0,0:0:0:0:
384,224,55544,1,0,0:0:0:0:
384,240,55612,1,0,0:0:0:0:
384,256,55680,1,2,0:0:0:0:
384,272,55748,1,0,0:0:0:0:
384,288,55816,1,0,0:0:0:0:
384,304,55884,1,0,0:0:0:0:
384,320,55952,6,0,L|336:320,3,35,2|0|0|0,0:0|0:0|0:0|0:0,0:0:0:0:
320,320,56225,2,0,L|272:320,3,35,2|0|0|0,0:0|0:0|0:0|0:0,0:0:0:0:
257,320,56497,6,0,L|209:320,3,35,2|0|0|0,0:0|0:0|0:0|0:0,0:0:0:0:
193,320,56770,2,0,L|145:320,3,35,2|0|0|0,0:0|0:0|0:0|0:0,0:0:0:0:
128,320,57043,6,0,L|128:272,3,35,2|0|0|0,0:0|0:0|0:0|0:0,0:0:0:0:
128,256,57316,2,0,L|128:208,3,35,2|0|0|0,0:0|0:0|0:0|0:0,0:0:0:0:
128,193,57588,6,0,L|128:145,3,35,2|0|0|0,0:0|0:0|0:0|0:0,0:0:0:0:
128,128,57861,2,0,L|128:81,3,35,2|0|0|0,0:0|0:0|0:0|0:0,0:0:0:0:
128,64,58134,5,2,0:0:0:0:
144,64,58202,1,0,0:0:0:0:
160,64,58271,1,0,0:0:0:0:
176,64,58339,1,0,0:0:0:0:
192,64,58407,1,2,0:0:0:0:
208,64,58475,1,0,0:0:0:0:
224,64,58543,1,0,0:0:0:0:
240,64,58611,1,0,0:0:0:0:
255,64,58680,5,2,0:0:0:0:
272,64,58748,1,0,0:0:0:0:
288,64,58817,1,0,0:0:0:0:
304,64,58885,1,0,0:0:0:0:
320,64,58953,1,2,0:0:0:0:
336,64,59021,1,0,0:0:0:0:
352,64,59089,1,0,0:0:0:0:
368,64,59157,1,0,0:0:0:0:
384,64,59225,5,2,0:0:0:0:
384,80,59293,1,0,0:0:0:0:
384,96,59362,1,0,0:0:0:0:
384,112,59430,1,0,0:0:0:0:
384,128,59498,1,2,0:0:0:0:
384,144,59566,1,0,0:0:0:0:
384,160,59634,1,0,0:0:0:0:
384,176,59702,1,0,0:0:0:0:
384,191,59771,5,2,0:0:0:0:
384,208,59839,1,0,0:0:0:0:
384,224,59908,1,0,0:0:0:0:
384,240,59976,1,0,0:0:0:0:
384,256,60044,1,2,0:0:0:0:
384,272,60112,1,0,0:0:0:0:
384,288,60180,1,0,0:0:0:0:
384,304,60248,1,0,0:0:0:0:
384,320,60316,6,0,L|336:320,3,35,2|0|0|0,0:0|0:0|0:0|0:0,0:0:0:0:
320,320,60589,2,0,L|272:320,3,35,2|0|0|0,0:0|0:0|0:0|0:0,0:0:0:0:
257,320,60861,6,0,L|209:320,3,35,2|0|0|0,0:0|0:0|0:0|0:0,0:0:0:0:
193,320,61134,2,0,L|145:320,3,35,2|0|0|0,0:0|0:0|0:0|0:0,0:0:0:0:
128,320,61407,6,0,L|128:272,3,35,2|0|0|0,0:0|0:0|0:0|0:0,0:0:0:0:
128,256,61680,2,0,L|128:208,3,35,2|0|0|0,0:0|0:0|0:0|0:0,0:0:0:0:
128,193,61952,6,0,L|128:145,3,35,2|0|0|0,0:0|0:0|0:0|0:0,0:0:0:0:
128,128,62225,2,0,L|128:81,3,35,2|0|0|0,0:0|0:0|0:0|0:0,0:0:0:0:
128,64,62497,5,2,0:0:0:0:
144,64,62565,1,0,0:0:0:0:
160,64,62634,1,0,0:0:0:0:
176,64,62702,1,0,0:0:0:0:
192,64,62770,1,2,0:0:0:0:
208,64,62838,1,0,0:0:0:0:
224,64,62906,1,0,0:0:0:0:
240,64,62974,1,0,0:0:0:0:
255,64,63043,5,2,0:0:0:0:
272,64,63111,1,0,0:0:0:0:
288,64,63180,1,0,0:0:0:0:
304,64,63248,1,0,0:0:0:0:
320,64,63316,1,2,0:0:0:0:
336,64,63384,1,0,0:0:0:0:
352,64,63452,1,0,0:0:0:0:
368,64,63520,1,0,0:0:0:0:
384,64,63588,5,2,0:0:0:0:
384,80,63656,1,0,0:0:0:0:
384,96,63725,1,0,0:0:0:0:
384,112,63793,1,0,0:0:0:0:
384,128,63861,1,2,0:0:0:0:
384,144,63929,1,0,0:0:0:0:
384,160,63997,1,0,0:0:0:0:
384,176,64065,1,0,0:0:0:0:
384,191,64134,5,2,0:0:0:0:
384,208,64202,1,0,0:0:0:0:
384,224,64271,1,0,0:0:0:0:
384,240,64339,1,0,0:0:0:0:
384,256,64407,1,2,0:0:0:0:
384,272,64475,1,0,0:0:0:0:
384,288,64543,1,0,0:0:0:0:
384,304,64611,1,0,0:0:0:0:
384,320,64679,6,0,L|336:320,3,35,2|0|0|0,0:0|0:0|0:0|0:0,0:0:0:0:
320,320,64952,2,0,L|272:320,3,35,2|0|0|0,0:0|0:0|0:0|0:0,0:0:0:0:
257,320,65224,6,0,L|209:320,3,35,2|0|0|0,0:0|0:0|0:0|0:0,0:0:0:0:
193,320,65497,2,0,L|145:320,3,35,2|0|0|0,0:0|0:0|0:0|0:0,0:0:0:0:
128,320,65770,6,0,L|128:272,3,35,2|0|0|0,0:0|0:0|0:0|0:0,0:0:0:0:
128,256,66043,2,0,L|128:208,3,35,2|0|0|0,0:0|0:0|0:0|0:0,0:0:0:0:
128,193,66315,6,0,L|128:145,3,35,2|0|0|0,0:0|0:0|0:0|0:0,0:0:0:0:
128,128,66588,2,0,L|128:81,3,35,2|0|0|0,0:0|0:0|0:0|0:0,0:0:0:0:
128,64,66861,5,2,0:0:0:0:
144,64,66929,1,0,0:0:0:0:
160,64,66998,1,0,0:0:0:0:
176,64,67066,1,0,0:0:0:0:
192,64,67134,1,2,0:0:0:0:
208,64,67202,1,0,0:0:0:0:
224,64,67270,1,0,0:0:0:0:
240,64,67338,1,0,0:0:0:0:
255,64,67407,5,2,0:0:0:0:
272,64,67475,1,0,0:0:0:0:
288,64,67544,1,0,0:0:0:0:
304,64,67612,1,0,0:0:0:0:
320,64,67680,1,2,0:0:0:0:
336,64,67748,1,0,0:0:0:0:
352,64,67816,1,0,0:0:0:0:
368,64,67884,1,0,0:0:0:0:
384,64,67952,5,2,0:0:0:0:
384,80,68020,1,0,0:0:0:0:
384,96,68089,1,0,0:0:0:0:
384,112,68157,1,0,0:0:0:0:
384,128,68225,1,2,0:0:0:0:
384,144,68293,1,0,0:0:0:0:
384,160,68361,1,0,0:0:0:0:
384,176,68429,1,0,0:0:0:0:
384,191,68498,5,2,0:0:0:0:
384,208,68566,1,0,0:0:0:0:
384,224,68635,1,0,0:0:0:0:
384,240,68703,1,0,0:0:0:0:
384,256,68771,1,2,0:0:0:0:
384,272,68839,1,0,0:0:0:0:
384,288,68907,1,0,0:0:0:0:
384,304,68975,1,0,0:0:0:0:
384,320,69043,6,0,L|336:320,3,35,2|0|0|0,0:0|0:0|0:0|0:0,0:0:0:0:
320,320,69316,2,0,L|272:320,3,35,2|0|0|0,0:0|0:0|0:0|0:0,0:0:0:0:
257,320,69588,6,0,L|209:320,3,35,2|0|0|0,0:0|0:0|0:0|0:0,0:0:0:0:
193,320,69861,2,0,L|145:320,3,35,2|0|0|0,0:0|0:0|0:0|0:0,0:0:0:0:
128,320,70134,6,0,L|128:272,3,35,2|0|0|0,0:0|0:0|0:0|0:0,0:0:0:0:
128,256,70407,2,0,L|128:208,3,35,2|0|0|0,0:0|0:0|0:0|0:0,0:0:0:0:
128,193,70679,6,0,L|128:145,3,35,2|0|0|0,0:0|0:0|0:0|0:0,0:0:0:0:
128,128,70952,2,0,L|128:81,3,35,2|0|0|0,0:0|0:0|0:0|0:0,0:0:0:0:
128,64,71224,5,2,0:0:0:0:
144,64,71292,1,0,0:0:0:0:
160,64,71361,1,0,0:0:0:0:
176,64,71429,1,0,0:0:0:0:
192,64,71497,1,2,0:0:0:0:
208,64,71565,1,0,0:0:0:0:
224,64,71633,1,0,0:0:0:0:
240,64,71701,1,0,0:0:0:0:
255,64,71770,5,2,0:0:0:0:
272,64,71838,1,0,0:0:0:0:
288,64,71907,1,0,0:0:0:0:
304,64,71975,1,0,0:0:0:0:
320,64,72043,1,2,0:0:0:0:
336,64,72111,1,0,0:0:0:0:
352,64,72179,1,0,0:0:0:0:
368,64,72247,1,0,0:0:0:0:
384,64,72315,5,2,0:0:0:0:
384,80,72383,1,0,0:0:0:0:
384,96,72452,1,0,0:0:0:0:
384,112,72520,1,0,0:0:0:0:
384,128,72588,1,2,0:0:0:0:
384,144,72656,1,0,0:0:0:0:
384,160,72724,1,0,0:0:0:0:
384,176,72792,1,0,0:0:0:0:
384,191,72861,5,2,0:0:0:0:
384,208,72929,1,0,0:0:0:0:
384,224,72998,1,0,0:0:0:0:
384,240,73066,1,0,0:0:0:0:
384,256,73134,1,2,0:0:0:0:
384,272,73202,1,0,0:0:0:0:
384,288,73270,1,0,0:0:0:0:
384,304,73338,1,0,0:0:0:0:
384,320,73406,6,0,L|336:320,3,35,2|0|0|0,0:0|0:0|0:0|0:0,0:0:0:0:
320,320,73679,2,0,L|272:320,3,35,2|0|0|0,0:0|0:0|0:0|0:0,0:0:0:0:
257,320,73951,6,0,L|209:320,3,35,2|0|0|0,0:0|0:0|0:0|0:0,0:0:0:0:
193,320,74224,2,0,L|145:320,3,35,2|0|0|0,0:0|0:0|0:0|0:0,0:0:0:0:
128,320,74497,6,0,L|128:272,3,35,2|0|0|0,0:0|0:0|0:0|0:0,0:0:0:0:
128,256,74770,2,0,L|128:208,3,35,2|0|0|0,0:0|0:0|0:0|0:0,0:0:0:0:
128,193,75042,6,0,L|128:145,3,35,2|0|0|0,0:0|0:0|0:0|0:0,0:0:0:0:
128,128,75315,2,0,L|128:81,3,35,2|0|0|0,0:0|0:0|0:0|0:0,0:0:0:0:
128,64,75588,5,2,0:0:0:0:
144,64,75656,1,0,0:0:0:0:
160,64,75725,1,0,0:0:0:0:
176,64,75793,1,0,0:0:0:0:
192,64,75861,1,2,0:0:0:0:
208,64,75929,1,0,0:0:0:0:
224,64,75997,1,0,0:0:0:0:
240,64,76065,1,0,0:0:0:0:
255,64,76134,5,2,0:0:0:0:
272,64,76202,1,0,0:0:0:0:
288,64,76271,1,0,0:0:0:0:
304,64,76339,1,0,0:0:0:0:
320,64,76407,1,2,0:0:0:0:
336,64,76475,1,0,0:0:0:0:
352,64,76543,1,0,0:0:0:0:
368,64,76611,1,0,0:0:0:0:
384,64,76679,5,2,0:0:0:0:
384,80,76747,1,0,0:0:0:0:
384,96,76816,1,0,0:0:0:0:
384,112,76884,1,0,0:0:0:0:
384,128,76952,1,2,0:0:0:0:
384,144,77020,1,0,0:0:0:0:
384,160,77088,1,0,0:0:0:0:
384,176,77156,1,0,0:0:0:0:
384,191,77225,5,2,0:0:0:0:
384,208,77293,1,0,0:0:0:0:
384,224,77362,1,0,0:0:0:0:
384,240,77430,1,0,0:0:0:0:
384,256,77498,1,2,0:0:0:0:
384,272,77566,1,0,0:0:0:0:
384,288,77634,1,0,0:0:0:0:
384,304,77702,1,0,0:0:0:0:
384,320,77770,6,0,L|336:320,3,35,2|0|0|0,0:0|0:0|0:0|0:0,0:0:0:0:
320,320,78043,2,0,L|272:320,3,35,2|0|0|0,0:0|0:0|0:0|0:0,0:0:0:0:
257,320,78315,6,0,L|209:320,3,35,2|0|0|0,0:0|0:0|0:0|0:0,0:0:0:0:
193,320,78588,2,0,L|145:320,3,35,2|0|0|0,0:0|0:0|0:0|0:0,0:0:0:0:
128,320,78861,6,0,L|128:272,3,35,2|0|0|0,0:0|0:0|0:0|0:0,0:0:0:0:
128,256,79134,2,0,L|128:208,3,35,2|0|0|0,0:0|0:0|0:0|0:0,0:0:0:0:
128,193,79406,6,0,L|128:145,3,35,2|0|0|0,0:0|0:0|0:0|0:0,0:0:0:0:
128,128,79679,2,0,L|128:81,3,35,2|0|0|0,0:0|0:0|0:0|0:0,0:0:0:0:
128,64,79952,5,2,0:0:0:0:
144,64,80020,1,0,0:0:0:0:
160,64,80089,1,0,0:0:0:0:
176,64,80157,1,0,0:0:0:0:
192,64,80225,1,2,0:0:0:0:
208,64,80293,1,0,0:0:0:0:
224,64,80361,1,0,0:0:0:0:
240,64,80429,1,0,0:0:0:0:
255,64,80498,5,2,0:0:0:0:
272,64,80566,1,0,0:0:0:0:
288,64,80635,1,0,0:0:0:0:
304,64,80703,1,0,0:0:0:0:
320,64,80771,1,2,0:0:0:0:
336,64,80839,1,0,0:0:0:0:
352,64,80907,1,0,0:0:0:0:
368,64,80975,1,0,0:0:0:0:
384,64,81043,5,2,0:0:0:0:
384,80,81111,1,0,0:0:0:0:
384,96,81180,1,0,0:0:0:0:
384,112,81248,1,0,0:0:0:0:
384,128,81316,1,2,0:0:0:0:
384,144,81384,1,0,0:0:0:0:
384,160,81452,1,0,0:0:0:0:
384,176,81520,1,0,0:0:0:0:
384,191,81589,5,2,0:0:0:0:
384,208,81657,1,0,0:0:0:0:
384,224,81726,1,0,0:0:0:0:
384,240,81794,1,0,0:0:0:0:
384,256,81862,1,2,0:0:0:0:
384,272,81930,1,0,0:0:0:0:
384,288,81998,1,0,0:0:0:0:
384,304,82066,1,0,0:0:0:0:
384,320,82134,6,0,L|336:320,3,35,2|0|0|0,0:0|0:0|0:0|0:0,0:0:0:0:
320,320,82407,2,0,L|272:320,3,35,2|0|0|0,0:0|0:0|0:0|0:0,0:0:0:0:
257,320,82679,6,0,L|209:320,3,35,2|0|0|0,0:0|0:0|0:0|0:0,0:0:0:0:
193,320,82952,2,0,L|145:320,3,35,2|0|0|0,0:0|0:0|0:0|0:0,0:0:0:0:
128,320,83225,6,0,L|128:272,3,35,2|0|0|0,0:0|0:0|0:0|0:0,0:0:0:0:
128,256,83498,2,0,L|128:208,3,35,2|0|0|0,0:0|0:0|0:0|0:0,0:0:0:0:
128,193,83770,6,0,L|128:145,3,35,2|0|0|0,0:0|0:0|0:0|0:0,0:0:0:0:
128,128,84043,2,0,L|128:81,3,35,2|0|0|0,0:0|0:0|0:0|0:0,0:0:0:0:
128,64,84316,5,2,0:0:0:0:
144,64,84384,1,0,0:0:0:0:
160,64,84453,1,0,0:0:0:0:
176,64,84521,1,0,0:0:0:0:
192,64,84589,1,2,0:0:0:0:
208,64,84657,1,0,0:0:0:0:
224,64,84725,1,0,0:0:0:0:
240,64,84793,1,0,0:0:0:0:
255,64,84862,5,2,0:0:0:0:
272,64,84930,1,0,0:0:0:0:
288,64,84999,1,0,0:0:0:0:
304,64,85067,1,0,0:0:0:0:
320,64,85135,1,2,0:0:0:0:
336,64,85203,1,0,0:0:0:0:
352,64,85271,1,0,0:0:0:0:
368,64,85339,1,0,0:0:0:0:
384,64,85407,5,2,0:0:0:0:
384,80,85475,1,0,0:0:0:0:
384,96,85544,1,0,0:0:0:0:
384,112,85612,1,0,0:0:0:0:
384,128,85680,1,2,0:0:0:0:
384,144,85748,1,0,0:0:0:0:
384,160,85816,1,0,0:0:0:0:
384,176,85884,1,0,0:0:0:0:
384,191,85953,5,2,0:0:0:0:
384,208,86021,1,0,0:0:0:0:
384,224,86090,1,0,0:0:0:0:
384,240,86158,1,0,0:0:0:0:
384,256,86226,1,2,0:0:0:0:
384,272,86294,1,0,0:0:0:0:
384,288,86362,1,0,0:0:0:0:
384,304,86430,1,0,0:0:0:0:
384,320,86498,6,0,L|336:320,3,35,2|0|0|0,0:0|0:0|0:0|0:0,0:0:0:0:
320,320,86771,2,0,L|272:320,3,35,2|0|0|0,0:0|0:0|0:0|0:0,0:0:0:0:
257,320,87043,6,0,L|209:320,3,35,2|0|0|0,0:0|0:0|0:0|0:0,0:0:0:0:
193,320,87316,2,0,L|145:320,3,35,2|0|0|0,0:0|0:0|0:0|0:0,0:0:0:0:
128,320,87589,6,0,L|128:272,3,35,2|0|0|0,0:0|0:0|0:0|0:0,0:0:0:0:
128,256,87862,2,0,L|128:208,3,35,2|0|0|0,0:0|0:0|0:0|0:0,0:0:0:0:
128,193,88134,6,0,L|128:145,3,35,2|0|0|0,0:0|0:0|0:0|0:0,0:0:0:0:
128,128,88407,2,0,L|128:81,3,35,2|0|0|0,0:0|0:0|0:0|0:0,0:0:0:0:
128,64,88679,5,2,0:0:0:0:
144,64,88747,1,0,0:0:0:0:
160,64,88816,1,0,0:0:0:0:
176,64,88884,1,0,0:0:0:0:
192,64,88952,1,2,0:0:0:0:
208,64,89020,1,0,0:0:0:0:
224,64,89088,1,0,0:0:0:0:
240,64,89156,1,0,0:0:0:0:
255,64,89225,5,2,0:0:0:0:
272,64,89293,1,0,0:0:0:0:
288,64,89362,1,0,0:0:0:0:
304,64,89430,1,0,0:0:0:0:
320,64,89498,1,2,0:0:0:0:
336,64,89566,1,0,0:0:0:0:
352,64,89634,1,0,0:0:0:0:
368,64,89702,1,0,0:0:0:0:
384,64,89770,5,2,0:0:0:0:
384,80,89838,1,0,0:0:0:0:
384,96,89907,1,0,0:0:0:0:
384,112,89975,1,0,0:0:0:0:
384,128,90043,1,2,0:0:0:0:
384,144,90111,1,0,0:0:0:0:
384,160,90179,1,0,0:0:0:0:
384,176,90247,1,0,0:0:0:0:
384,191,90316,5,2,0:0:0:0:
384,208,90384,1,0,0:0:0:0:
384,224,90453,1,0,0:0:0:0:
384,240,90521,1,0,0:0:0:0:
384,256,90589,1,2,0:0:0:0:
384,272,90657,1,0,0:0:0:0:
384,288,90725,1,0,0:0:0:0:
384,304,90793,1,0,0:0:0:0:
384,320,90861,6,0,L|336:320,3,35,2|0|0|0,0:0|0:0|0:0|0:0,0:0:0:0:
320,320,91134,2,0,L|272:320,3,35,2|0|0|0,0:0|0:0|0:0|0:0,0:0:0:0:
257,320,91406,6,0,L|209:320,3,35,2|0|0|0,0:0|0:0|0:0|0:0,0:0:0:0:
193,320,91679,2,0,L|145:320,3,35,2|0|0|0,0:0|0:0|0:0|0:0,0:0:0:0:
128,320,91952,6,0,L|128:272,3,35,2|0|0|0,0:0|0:0|0:0|0:0,0:0:0:0:
128,256,92225,2,0,L|128:208,3,35,2|0|0|0,0:0|0:0|0:0|0:0,0:0:0:0:
128,193,92497,6,0,L|128:145,3,35,2|0|0|0,0:0|0:0|0:0|0:0,0:0:0:0:
128,128,92770,2,0,L|128:81,3,35,2|0|0|0,0:0|0:0|0:0|0:0,0:0:0:0:
128,64,93043,5,2,0:0:0:0:
144,64,93111,1,0,0:0:0:0:
160,64,93180,1,0,0:0:0:0:
176,64,93248,1,0,0:0:0:0:
192,64,93316,1,2,0:0:0:0:
208,64,93384,1,0,0:0:0:0:
224,64,93452,1,0,0:0:0:0:
240,64,93520,1,0,0:0:0:0:
255,64,93589,5,2,0:0:0:0:
272,64,93657,1,0,0:0:0:0:
288,64,93726,1,0,0:0:0:0:
304,64,93794,1,0,0:0:0:0:
320,64,93862,1,2,0:0:0:0:
336,64,93930,1,0,0:0:0:0:
352,64,93998,1,0,0:0:0:0:
368,64,94066,1,0,0:0:0:0:
384,64,94134,5,2,0:0:0:0:
384,80,94202,1,0,0:0:0:0:
384,96,94271,1,0,0:0:0:0:
384,112,94339,1,0,0:0:0:0:
384,128,94407,1,2,0:0:0:0:
384,144,94475,1,0,0:0:0:0:
384,160,94543,1,0,0:0:0:0:
384,176,94611,1,0,0:0:0:0:
384,191,94680,5,2,0:0:0:0:
384,208,94748,1,0,0:0:0:0:
384,224,94817,1,0,0:0:0:0:
384,240,94885,1,0,0:0:0:0:
384,256,94953,1,2,0:0:0:0:
384,272,95021,1,0,0:0:0:0:
384,288,95089,1,0,0:0:0:0:
384,304,95157,1,0,0:0:0:0:
384,320,95225,6,0,L|336:320,3,35,2|0|0|0,0:0|0:0|0:0|0:0,0:0:0:0:
320,320,95498,2,0,L|272:320,3,35,2|0|0|0,0:0|0:0|0:0|0:0,0:0:0:0:
257,320,95770,6,0,L|209:320,3,35,2|0|0|0,0:0|0:0|0:0|0:0,0:0:0:0:
193,320,96043,2,0,L|145:320,3,35,2|0|0|0,0:0|0:0|0:0|0:0,0:0:0:0:
128,320,96316,6,0,L|128:272,3,35,2|0|0|0,0:0|0:0|0:0|0:0,0:0:0:0:
128,256,96589,2,0,L|128:208,3,35,2|0|0|0,0:0|0:0|0:0|0:0,0:0:0:0:
128,193,96861,6,0,L|128:145,3,35,2|0|0|0,0:0|0:0|0:0|0:0,0:0:0:0:
128,128,97134,2,0,L|128:81,3,35,2|0|0|0,0:0|0:0|0:0|0:0,0:0:0:0:
128,64,97406,5,2,0:0:0:0:
144,64,97474,1,0,0:0:0:0:
160,64,97543,1,0,0:0:0:0:
176,64,97611,1,0,0:0:0:0:
192,64,97679,1,2,0:0:0:0:
208,64,97747,1,0,0:0:0:0:
224,64,97815,1,0,0:0:0:0:
240,64,97883,1,0,0:0:0:0:
255,64,97952,5,2,0:0:0:0:
272,64,98020,1,0,0:0:0:0:
288,64,98089,1,0,0:0:0:0:
304,64,98157,1,0,0:0:0:0:
320,64,98225,1,2,0:0:0:0:
336,64,98293,1,0,0:0:0:0:
352,64,98361,1,0,0:0:0:0:
368,64,98429,1,0,0:0:0:0:
384,64,98497,5,2,0:0:0:0:
384,80,98565,1,0,0:0:0:0:
384,96,98634,1,0,0:0:0:0:
384,112,98702,1,0,0:0:0:0:
384,128,98770,1,2,0:0:0:0:
384,144,98838,1,0,0:0:0:0:
384,160,98906,1,0,0:0:0:0:
384,176,98974,1,0,0:0:0:0:
384,191,99043,5,2,0:0:0:0:
384,208,99111,1,0,0:0:0:0:
384,224,99180,1,0,0:0:0:0:
384,240,99248,1,0,0:0:0:0:
384,256,99316,1,2,0:0:0:0:
384,272,99384,1,0,0:0:0:0:
384,288,99452,1,0,0:0:0:0:
384,304,99520,1,0,0:0:0:0:
384,320,99588,6,0,L|336:320,3,35,2|0|0|0,0:0|0:0|0:0|0:0,0:0:0:0:
320,320,99861,2,0,L|272:320,3,35,2|0|0|0,0:0|0:0|0:0|0:0,0:0:0:0:
257,320,100133,6,0,L|209:320,3,35,2|0|0|0,0:0|0:0|0:0|0:0,0:0:0:0:
193,320,100406,2,0,L|145:320,3,35,2|0|0|0,0:0|0:0|0:0|0:0,0:0:0:0:
128,320,100679,6,0,L|128:272,3,35,2|0|0|0,0:0|0:0|0:0|0:0,0:0:0:0:
128,256,100952,2,0,L|128:208,3,35,2|0|0|0,0:0|0:0|0:0|0:0,0:0:0:0:
128,193,101224,6,0,L|128:145,3,35,2|0|0|0,0:0|0:0|0:0|0:0,0:0:0:0:
128,128,101497,2,0,L|128:81,3,35,2|0|0|0,0:0|0:0|0:0|0:0,0:0:0:0:
128,64,101770,5,2,0:0:0:0:
144,64,101838,1,0,0:0:0:0:
160,64,101907,1,0,0:0:0:0:
176,64,101975,1,0,0:0:0:0:
192,64,102043,1,2,0:0:0:0:
208,64,102111,1,0,0:0:0:0:
224,64,102179,1,0,0:0:0:0:
240,64,102247,1,0,0:0:0:0:
255,64,102316,5,2,0:0:0:0:
272,64,102384,1,0,0:0:0:0:
288,64,102453,1,0,0:0:0:0:
304,64,102521,1,0,0:0:0:0:
320,64,102589,1,2,0:0:0:0:
336,64,102657,1,0,0:0:0:0:
352,64,102725,1,0,0:0:0:0:
368,64,102793,1,0,0:0:0:0:
384,64,102861,5,2,0:0:0:0:
384,80,102929,1,0,0:0:0:0:
384,96,102998,1,0,0:0:0:0:
384,112,103066,1,0,0:0:0:0:
384,128,103134,1,2,0:0:0:0:
384,144,103202,1,0,0:0:0:0:
384,160,103270,1,0,0:0:0:0:
384,176,103338,1,0,0:0:0:0:
384,191,103407,5,2,0:0:0:0:
384,208,103475,1,0,0:0:0:0:
384,224,103544,1,0,0:0:0:0:
384,240,103612,1,0,0:0:0:0:
384,256,103680,1,2,0:0:0:0:
384,272,103748,1,0,0:0:0:0:
384,288,103816,1,0,0:0:0:0:
384,304,103884,1,0,0:0:0:0:
384,320,103952,6,0,L|336:320,3,35,2|0|0|0,0:0|0:0|0:0|0:0,0:0:0:0:
320,320,104225,2,0,L|272:320,3,35,2|0|0|0,0:0|0:0|0:0|0:0,0:0:0:0:
257,320,104497,6,0,L|209:320,3,35,2|0|0|0,0:0|0:0|0:0|0:0,0:0:0:0:
193,320,104770,2,0,L|145:320,3,35,2|0|0|0,0:0|0:0|0:0|0:0,0:0:0:0:
128,320,105043,6,0,L|128:272,3,35,2|0|0|0,0:0|0:0|0:0|0:0,0:0:0:0:
128,256,105316,2,0,L|128:208,3,35,2|0|0|0,0:0|0:0|0:0|0:0,0:0:0:0:
128,193,105588,6,0,L|128:145,3,35,2|0|0|0,0:0|0:0|0:0|0:0,0:0:0:0:
128,128,105861,2,0,L|128:81,3,35,2|0|0|0,0:0|0:0|0:0|0:0,0:0:0:0:
128,64,106133,5,2,0:0:0:0:
144,64,106201,1,0,0:0:0:0:
160,64,106270,1,0,0:0:0:0:
176,64,106338,1,0,0:0:0:0:
192,64,106406,1,2,0:0:0:0:
208,64,106474,1,0,0:0:0:0:
224,64,106542,1,0,0:0:0:0:
240,64,106610,1,0,0:0:0:0:
255,64,106679,5,2,0:0:0:0:
272,64,106747,1,0,0:0:0:0:
288,64,106816,1,0,0:0:0:0:
304,64,106884,1,0,0:0:0:0:
320,64,106952,1,2,0:0:0:0:
336,64,107020,1,0,0:0:0:0:
352,64,107088,1,0,0:0:0:0:
368,64,107156,1,0,0:0:0:0:
384,64,107224,5,2,0:0:0:0:
384,80,107292,1,0,0:0:0:0:
384,96,107361,1,0,0:0:0:0:
384,112,107429,1,0,0:0:0:0:
384,128,107497,1,2,0:0:0:0:
384,144,107565,1,0,0:0:0:0:
384,160,107633,1,0,0:0:0:0:
384,176,107701,1,0,0:0:0:0:
384,191,107770,5,2,0:0:0:0:
384,208,107838,1,0,0:0:0:0:
384,224,107907,1,0,0:0:0:0:
384,240,107975,1,0,0:0:0:0:
384,256,108043,1,2,0:0:0:0:
384,272,108111,1,0,0:0:0:0:
384,288,108179,1,0,0:0:0:0:
384,304,108247,1,0,0:0:0:0:
384,320,108315,6,0,L|336:320,3,35,2|0|0|0,0:0|0:0|0:0|0:0,0:0:0:0:
320,320,108588,2,0,L|272:320,3,35,2|0|0|0,0:0|0:0|0:0|0:0,0:0:0:0:
257,320,108860,6,0,L|209:320,3,35,2|0|0|0,0:0|0:0|0:0|0:0,0:0:0:0:
193,320,109133,2,0,L|145:320,3,35,2|0|0|0,0:0|0:0|0:0|0:0,0:0:0:0:
128,320,109406,6,0,L|128:272,3,35,2|0|0|0,0:0|0:0|0:0|0:0,0:0:0:0:
128,256,109679,2,0,L|128:208,3,35,2|0|0|0,0:0|0:0|0:0|0:0,0:0:0:0:
128,193,109951,6,0,L|128:145,3,35,2|0|0|0,0:0|0:0|0:0|0:0,0:0:0:0:
128,128,110224,2,0,L|128:81,3,35,2|0|0|0,0:0|0:0|0:0|0:0,0:0:0:0:
128,64,110497,5,2,0:0:0:0:
144,64,110565,1,0,0:0:0:0:
160,64,110634,1,0,0:0:0:0:
176,64,110702,1,0,0:0:0:0:
192,64,110770,1,2,0:0:0:0:
208,64,110838,1,0,0:0:0:0:
224,64,110906,1,0,0:0:0:0:
240,64,110974,1,0,0:0:0:0:
255,64,111043,5,2,0:0:0:0:
272,64,111111,1,0,0:0:0:0:
288,64,111180,1,0,0:0:0:0:
304,64,111248,1,0,0:0:0:0:
320,64,111316,1,2,0:0:0:0:
336,64,111384,1,0,0:0:0:0:
352,64,111452,1,0,0:0:0:0:
368,64,111520,1,0,0:0:0:0:
384,64,111588,5,2,0:0:0:0:
384,80,111656,1,0,0:0:0:0:
384,96,111725,1,0,0:0:0:0:
384,112,111793,1,0,0:0:0:0:
384,128,111861,1,2,0:0:0:0:
384,144,111929,1,0,0:0:0:0:
384,160,111997,1,0,0:0:0:0:
384,176,112065,1,0,0:0:0:0:
384,191,112134,5,2,0:0:0:0:
384,208,112202,1,0,0:0:0:0:
384,224,112271,1,0,0:0:0:0:
384,240,112339,1,0,0:0:0:0:
384,256,112407,1,2,0:0:0:0:
384,272,112475,1,0,0:0:0:0:
384,288,112543,1,0,0:0:0:0:
384,304,112611,1,0,0:0:0:0:
384,320,112679,6,0,L|336:320,3,35,2|0|0|0,0:0|0:0|0:0|0:0,0:0:0:0:
320,320,112952,2,0,L|272:320,3,35,2|0|0|0,0:0|0:0|0:0|0:0,0:0:0:0:
257,320,113224,6,0,L|209:320,3,35,2|0|0|0,0:0|0:0|0:0|0:0,0:0:0:0:
193,320,113497,2,0,L|145:320,3,35,2|0|0|0,0:0|0:0|0:0|0:0,0:0:0:0:
128,320,113770,6,0,L|128:272,3,35,2|0|0|0,0:0|0:0|0:0|0:0,0:0:0:0:
128,256,114043,2,0,L|128:208,3,35,2|0|0|0,0:0|0:0|0:0|0:0,0:0:0:0:
128,193,114315,6,0,L|128:145,3,35,2|0|0|0,0:0|0:0|0:0|0:0,0:0:0:0:
128,128,114588,2,0,L|128:81,3,35,2|0|0|0,0:0|0:0|0:0|0:0,0:0:0:0:
128,64,114861,5,2,0:0:0:0:
144,64,114929,1,0,0:0:0:0:
160,64,114998,1,0,0:0:0:0:
176,64,115066,1,0,0:0:0:0:
192,64,115134,1,2,0:0:0:0:
208,64,115202,1,0,0:0:0:0:
224,64,115270,1,0,0:0:0:0:
240,64,115338,1,0,0:0:0:0:
255,64,115407,5,2,0:0:0:0:
272,64,115475,1,0,0:0:0:0:
288,64,115544,1,0,0:0:0:0:
304,64,115612,1,0,0:0:0:0:
320,64,115680,1,2,0:0:0:0:
336,64,115748,1,0,0:0:0:0:
352,64,115816,1,0,0:0:0:0:
368,64,115884,1,0,0:0:0:0:
384,64,115952,5,2,0:0:0:0:
384,80,116020,1,0,0:0:0:0:
384,96,116089,1,0,0:0:0:0:
384,112,116157,1,0,0:0:0:0:
384,128,116225,1,2,0:0:0:0:
384,144,116293,1,0,0:0:0:0:
384,160,116361,1,0,0:0:0:0:
384,176,116429,1,0,0:0:0:0:
384,191,116498,5,2,0:0:0:0:
384,208,116566,1,0,0:0:0:0:
384,224,116635,1,0,0:0:0:0:
384,240,116703,1,0,0:0:0:0:
384,256,116771,1,2,0:0:0:0:
384,272,116839,1,0,0:0:0:0:
384,288,116907,1,0,0:0:0:0:
384,304,116975,1,0,0:0:0:0:
384,320,117043,6,0,L|336:320,3,35,2|0|0|0,0:0|0:0|0:0|0:0,0:0:0:0:
320,320,117316,2,0,L|272:320,3,35,2|0|0|0,0:0|0:0|0:0|0:0,0:0:0:0:
257,320,117588,6,0,L|209:320,3,35,2|0|0|0,0:0|0:0|0:0|0:0,0:0:0:0:
193,320,117861,2,0,L|145:320,3,35,2|0|0|0,0:0|0:0|0:0|0:0,0:0:0:0:
128,320,118134,6,0,L|128:272,3,35,2|0|0|0,0:0|0:0|0:0|0:0,0:0:0:0:
128,256,118407,2,0,L|128:208,3,35,2|0|0|0,0:0|0:0|0:0|0:0,0:0:0:0:
128,193,118679,6,0,L|128:145,3,35,2|0|0|0,0:0|0:0|0:0|0:0,0:0:0:0:
128,128,118952,2,0,L|128:81,3,35,2|0|0|0,0:0|0:0|0:0|0:0,0:0:0:0:
128,64,119225,5,2,0:0:0:0:
