osu file format v14

[General]
AudioFilename: Butterfly.mp3
AudioLeadIn: 0
PreviewTime: 81043
Countdown: 1
SampleSet: None
StackLeniency: 0.7
Mode: 0
LetterboxInBreaks: 1
WidescreenStoryboard: 1

[Editor]
DistanceSpacing: 1.5
BeatDivisor: 1
GridSize: 8
TimelineZoom: 1.1

[Metadata]
Title:Burst Stream Practice Maps
TitleUnicode:Burst Stream Practice Maps
Artist:Various Artists
ArtistUnicode:Various Artists
Creator:nooblet
Version:220 BPM 16 notes
Source:
Tags:
BeatmapID:812574
BeatmapSetID:370814

[Difficulty]
HPDrainRate:0
CircleSize:4
OverallDifficulty:10
ApproachRate:9.4
SliderMultiplier:1.4
SliderTickRate:1

[Events]
//Background and Video events
//Break Periods
//Storyboard Layer 0 (Background)
//Storyboard Layer 1 (Fail)
//Storyboard Layer 2 (Pass)
//Storyboard Layer 3 (Foreground)
//Storyboard Sound Samples

[TimingPoints]
1406.65509215016,272.727272727273,4,2,0,100,1,0

[HitObjects]
128,64,1406,5,2,0:0:0:0:
144,64,1474,1,0,0:0:0:0:
160,64,1543,1,0,0:0:0:0:
176,64,1611,1,0,0:0:0:0:
192,64,1679,1,2,0:0:0:0:
208,64,1747,1,0,0:0:0:0:
224,64,1815,1,0,0:0:0:0:
240,64,1883,1,0,0:0:0:0:
255,64,1952,5,2,0:0:0:0:
272,64,2020,1,0,0:0:0:0:
288,64,2089,1,0,0:0:0:0:
304,64,2157,1,0,0:0:0:0:
320,64,2225,1,2,0:0:0:0:
336,64,2293,1,0,0:0:0:0:
352,64,2361,1,0,0:0:0:0:
368,64,2429,1,0,0:0:0:0:
384,64,2497,6,0,L|384:112,3,35,2|0|0|0,0:0|0:0|0:0|0:0,0:0:0:0:
384,128,2770,2,0,L|384:176,3,35,2|0|0|0,0:0|0:0|0:0|0:0,0:0:0:0:
384,191,3043,6,0,L|384:239,3,35,2|0|0|0,0:0|0:0|0:0|0:0,0:0:0:0:
384,255,3316,2,0,L|384:303,3,35,2|0|0|0,0:0|0:0|0:0|0:0,0:0:0:0:
384,320,3588,5,2,0:0:0:0:
368,320,3656,1,0,0:0:0:0:
352,320,3725,1,0,0:0:0:0:
336,320,3793,1,0,0:0:0:0:
320,320,3861,1,2,0:0:0:0:
304,320,3929,1,0,0:0:0:0:
288,320,3997,1,0,0:0:0:0:
272,320,4065,1,0,0:0:0:0:
257,320,4134,5,2,0:0:0:0:
240,320,4202,1,0,0:0:0:0:
224,320,4271,1,0,0:0:0:0:
208,320,4339,1,0,0:0:0:0:
192,320,4407,1,2,0:0:0:0:
176,320,4475,1,0,0:0:0:0:
160,320,4543,1,0,0:0:0:0:
144,320,4611,1,0,0:0:0:0:
128,320,4679,6,0,L|128:272,3,35,2|0|0|0,0:0|0:0|0:0|0:0,0:0:0:0:
128,256,4952,2,0,L|128:208,3,35,2|0|0|0,0:0|0:0|0:0|0:0,0:0:0:0:
128,193,5225,6,0,L|128:145,3,35,2|0|0|0,0:0|0:0|0:0|0:0,0:0:0:0:
128,129,5498,2,0,L|128:81,3,35,2|0|0|0,0:0|0:0|0:0|0:0,0:0:0:0:
128,64,5770,5,2,0:0:0:0:
144,64,5838,1,0,0:0:0:0:
160,64,5907,1,0,0:0:0:0:
176,64,5975,1,0,0:0:0:0:
192,64,6043,1,2,0:0:0:0:
208,64,6111,1,0,0:0:0:0:
224,64,6179,1,0,0:0:0:0:
240,64,6247,1,0,0:0:0:0:
255,64,6316,5,2,0:0:0:0:
272,64,6384,1,0,0:0:0:0:
288,64,6453,1,0,0:0:0:0:
304,64,6521,1,0,0:0:0:0:
320,64,6589,1,2,0:0:0:0:
336,64,6657,1,0,0:0:0:0:
352,64,6725,1,0,0:0:0:0:
368,64,6793,1,0,0:0:0:0:
384,64,6861,6,0,L|384:112,3,35,2|0|0|0,0:0|0:0|0:0|0:0,0:0:0:0:
384,128,7134,2,0,L|384:176,3,35,2|0|0|0,0:0|0:0|0:0|0:0,0:0:0:0:
384,191,7407,6,0,L|384:239,3,35,2|0|0|0,0:0|0:0|0:0|0:0,0:0:0:0:
384,255,7680,2,0,L|384:303,3,35,2|0|0|0,0:0|0:0|0:0|0:0,0:0:0:0:
384,320,7952,5,2,0:0:0:0:
368,320,8020,1,0,0:0:0:0:
352,320,8089,1,0,0:0:0:0:
336,320,8157,1,0,0:0:0:0:
320,320,8225,1,2,0:0:0:0:
304,320,8293,1,0,0:0:0:0:
288,320,8361,1,0,0:0:0:0:
272,320,8429,1,0,0:0:0:0:
257,320,8498,5,2,0:0:0:0:
240,320,8566,1,0,0:0:0:0:
224,320,8635,1,0,0:0:0:0:
208,320,8703,1,0,0:0:0:0:
192,320,8771,1,2,0:0:0:0:
176,320,8839,1,0,0:0:0:0:
160,320,8907,1,0,0:0:0:0:
144,320,8975,1,0,0:0:0:0:
128,320,9043,6,0,L|128:272,3,35,2|0|0|0,0:0|0:0|0:0|0:0,0:0:0:0:
128,256,9316,2,0,L|128:208,3,35,2|0|0|0,0:0|0:0|0:0|0:0,0:0:0:0:
128,193,9589,6,0,L|128:145,3,35,2|0|0|0,0:0|0:0|0:0|0:0,0:0:0:0:
128,129,9862,2,0,L|128:81,3,35,2|0|0|0,0:0|0:0|0:0|0:0,0:0:0:0:
128,64,10133,5,2,0:0:0:0:
144,64,10201,1,0,0:0:0:0:
160,64,10270,1,0,0:0:0:0:
176,64,10338,1,0,0:0:0:0:
192,64,10406,1,2,0:0:0:0:
208,64,10474,1,0,0:0:0:0:
224,64,10542,1,0,0:0:0:0:
240,64,10610,1,0,0:0:0:0:
255,64,10679,5,2,0:0:0:0:
272,64,10747,1,0,0:0:0:0:
288,64,10816,1,0,0:0:0:0:
304,64,10884,1,0,0:0:0:0:
320,64,10952,1,2,0:0:0:0:
336,64,11020,1,0,0:0:0:0:
352,64,11088,1,0,0:0:0:0:
368,64,11156,1,0,0:0:0:0:
384,64,11224,6,0,L|384:112,3,35,2|0|0|0,0:0|0:0|0:0|0:0,0:0:0:0:
384,128,11497,2,0,L|384:176,3,35,2|0|0|0,0:0|0:0|0:0|0:0,0:0:0:0:
384,191,11770,6,0,L|384:239,3,35,2|0|0|0,0:0|0:0|0:0|0:0,0:0:0:0:
384,255,12043,2,0,L|384:303,3,35,2|0|0|0,0:0|0:0|0:0|0:0,0:0:0:0:
384,320,12315,5,2,0:0:0:0:
368,320,12383,1,0,0:0:0:0:
352,320,12452,1,0,0:0:0:0:
336,320,12520,1,0,0:0:0:0:
320,320,12588,1,2,0:0:0:0:
304,320,12656,1,0,0:0:0:0:
288,320,12724,1,0,0:0:0:0:
272,320,12792,1,0,0:0:0:0:
257,320,12861,5,2,0:0:0:0:
240,320,12929,1,0,0:0:0:0:
224,320,12998,1,0,0:0:0:0:
208,320,13066,1,0,0:0:0:0:
192,320,13134,1,2,0:0:0:0:
176,320,13202,1,0,0:0:0:0:
160,320,13270,1,0,0:0:0:0:
144,320,13338,1,0,0:0:0:0:
128,320,13406,6,0,L|128:272,3,35,2|0|0|0,0:0|0:0|0:0|0:0,0:0:0:0:
128,256,13679,2,0,L|128:208,3,35,2|0|0|0,0:0|0:0|0:0|0:0,0:0:0:0:
128,193,13952,6,0,L|128:145,3,35,2|0|0|0,0:0|0:0|0:0|0:0,0:0:0:0:
128,129,14225,2,0,L|128:81,3,35,2|0|0|0,0:0|0:0|0:0|0:0,0:0:0:0:
128,64,14497,5,2,0:0:0:0:
144,64,14565,1,0,0:0:0:0:
160,64,14634,1,0,0:0:0:0:
176,64,14702,1,0,0:0:0:0:
192,64,14770,1,2,0:0:0:0:
208,64,14838,1,0,0:0:0:0:
224,64,14906,1,0,0:0:0:0:
240,64,14974,1,0,0:0:0:0:
255,64,15043,5,2,0:0:0:0:
272,64,15111,1,0,0:0:0:0:
288,64,15180,1,0,0:0:0:0:
304,64,15248,1,0,0:0:0:0:
320,64,15316,1,2,0:0:0:0:
336,64,15384,1,0,0:0:0:0:
352,64,15452,1,0,0:0:0:0:
368,64,15520,1,0,0:0:0:0:
384,64,15588,6,0,L|384:112,3,35,2|0|0|0,0:0|0:0|0:0|0:0,0:0:0:0:
384,128,15861,2,0,L|384:176,3,35,2|0|0|0,0:0|0:0|0:0|0:0,0:0:0:0:
384,191,16134,6,0,L|384:239,3,35,2|0|0|0,0:0|0:0|0:0|0:0,0:0:0:0:
384,255,16407,2,0,L|384:303,3,35,2|0|0|0,0:0|0:0|0:0|0:0,0:0:0:0:
384,320,16679,5,2,0:0:0:0:
368,320,16747,1,0,0:0:0:0:
352,320,16816,1,0,0:0:0:0:
336,320,16884,1,0,0:0:0:0:
320,320,16952,1,2,0:0:0:0:
304,320,17020,1,0,0:0:0:0:
288,320,17088,1,0,0:0:0:0:
272,320,17156,1,0,0:0:0:0:
257,320,17225,5,2,0:0:0:0:
240,320,17293,1,0,0:0:0:0:
224,320,17362,1,0,0:0:0:0:
208,320,17430,1,0,0:0:0:0:
192,320,17498,1,2,0:0:0:0:
176,320,17566,1,0,0:0:0:0:
160,320,17634,1,0,0:0:0:0:
144,320,17702,1,0,0:0:0:0:
128,320,17770,6,0,L|128:272,3,35,2|0|0|0,0:0|0:0|0:0|0:0,0:0:0:0:
128,256,18043,2,0,L|128:208,3,35,2|0|0|0,0:0|0:0|0:0|0:0,0:0:0:0:
128,193,18316,6,0,L|128:145,3,35,2|0|0|0,0:0|0:0|0:0|0:0,0:0:0:0:
128,129,18589,2,0,L|128:81,3,35,2|0|0|0,0:0|0:0|0:0|0:0,0:0:0:0:
128,64,18861,5,2,0:0:0:0:
144,64,18929,1,0,0:0:0:0:
160,64,18998,1,0,0:0:0:0:
176,64,19066,1,0,0:0:0:0:
192,64,19134,1,2,0:0:0:0:
208,64,19202,1,0,0:0:0:0:
224,64,19270,1,0,0:0:0:0:
240,64,19338,1,0,0:0:0:0:
255,64,19407,5,2,0:0:0:0:
272,64,19475,1,0,0:0:0:0:
288,64,19544,1,0,0:0:0:0:
304,64,19612,1,0,0:0:0:0:
320,64,19680,1,2,0:0:0:0:
336,64,19748,1,0,0:0:0:0:
352,64,19816,1,0,0:0:0:0:
368,64,19884,1,0,0:0:0:0:
384,64,19952,6,0,L|384:112,3,35,2|0|0|0,0:0|0:0|0:0|0:0,0:0:0:0:
384,128,20225,2,0,L|384:176,3,35,2|0|0|0,0:0|0:0|0:0|0:0,0:0:0:0:
384,191,20498,6,0,L|384:239,3,35,2|0|0|0,0:0|0:0|0:0|0:0,0:0:0:0:
384,255,20771,2,0,L|384:303,3,35,2|0|0|0,0:0|0:0|0:0|0:0,0:0:0:0:
384,320,21043,5,2,0:0:0:0:
368,320,21111,1,0,0:0:0:0:
352,320,21180,1,0,0:0:0:0:
336,320,21248,1,0,0:0:0:0:
320,320,21316,1,2,0:0:0:0:
304,320,21384,1,0,0:0:0:0:
288,320,21452,1,0,0:0:0:0:
272,320,21520,1,0,0:0:0:0:
257,320,21589,5,2,0:0:0:0:
240,320,21657,1,0,0:0:0:0:
224,320,21726,1,0,0:0:0:0:
208,320,21794,1,0,0:0:0:0:
192,320,21862,1,2,0:0:0:0:
176,320,21930,1,0,0:0:0:0:
160,320,21998,1,0,0:0:0:0:
144,320,22066,1,0,0:0:0:0:
128,320,22134,6,0,L|128:272,3,35,2|0|0|0,0:0|0:0|0:0|0:0,0:0:0:0:
128,256,22407,2,0,L|128:208,3,35,2|0|0|0,0:0|0:0|0:0|0:0,0:0:0:0:
128,193,22680,6,0,L|128:145,3,35,2|0|0|0,0:0|0:0|0:0|0:0,0:0:0:0:
128,129,22953,2,0,L|128:81,3,35,2|0|0|0,0:0|0:0|0:0|0:0,0:0:0:0:
128,64,23225,5,2,0:0:0:0:
144,64,23293,1,0,0:0:0:0:
160,64,23362,1,0,0:0:0:0:
176,64,23430,1,0,0:0:0:0:
192,64,23498,1,2,0:0:0:0:
208,64,23566,1,0,0:0:0:0:
224,64,23634,1,0,0:0:0:0:
240,64,23702,1,0,0:0:0:0:
255,64,23771,5,2,0:0:0:0:
272,64,23839,1,0,0:0:0:0:
288,64,23908,1,0,0:0:0:0:
304,64,23976,1,0,0:0:0:0:
320,64,24044,1,2,0:0:0:0:
336,64,24112,1,0,0:0:0:0:
352,64,24180,1,0,0:0:0:0:
368,64,24248,1,0,0:0:0:0:
384,64,24316,6,0,L|384:112,3,35,2|0|0|0,0:0|0:0|0:0|0:0,0:0:0:0:
384,128,24589,2,0,L|384:176,3,35,2|0|0|0,0:0|0:0|0:0|0:0,0:0:0:0:
384,191,24862,6,0,L|384:239,3,35,2|0|0|0,0:0|0:0|0:0|0:0,0:0:0:0:
384,255,25135,2,0,L|384:303,3,35,2|0|0|0,0:0|0:0|0:0|0:0,0:0:0:0:
384,320,25407,5,2,0:0:0:0:
368,320,25475,1,0,0:0:0:0:
352,320,25544,1,0,0:0:0:0:
336,320,25612,1,0,0:0:0:0:
320,320,25680,1,2,0:0:0:0:
304,320,25748,1,0,0:0:0:0:
288,320,25816,1,0,0:0:0:0:
272,320,25884,1,0,0:0:0:0:
257,320,25953,5,2,0:0:0:0:
240,320,26021,1,0,0:0:0:0:
224,320,26090,1,0,0:0:0:0:
208,320,26158,1,0,0:0:0:0:
192,320,26226,1,2,0:0:0:0:
176,320,26294,1,0,0:0:0:0:
160,320,26362,1,0,0:0:0:0:
144,320,26430,1,0,0:0:0:0:
128,320,26498,6,0,L|128:272,3,35,2|0|0|0,0:0|0:0|0:0|0:0,0:0:0:0:
128,256,26771,2,0,L|128:208,3,35,2|0|0|0,0:0|0:0|0:0|0:0,0:0:0:0:
128,193,27044,6,0,L|128:145,3,35,2|0|0|0,0:0|0:0|0:0|0:0,0:0:0:0:
128,129,27317,2,0,L|128:81,3,35,2|0|0|0,0:0|0:0|0:0|0:0,0:0:0:0:
128,64,27588,5,2,0:0:0:0:
144,64,27656,1,0,0:0:0:0:
160,64,27725,1,0,0:0:0:0:
176,64,27793,1,0,0:0:0:0:
192,64,27861,1,2,0:0:0:0:
208,64,27929,1,0,0:0:0:0:
224,64,27997,1,0,0:0:0:0:
240,64,28065,1,0,0:0:0:0:
255,64,28134,5,2,0:0:0:0:
272,64,28202,1,0,0:0:0:0:
288,64,28271,1,0,0:0:0:0:
304,64,28339,1,0,0:0:0:0:
320,64,28407,1,2,0:0:0:0:
336,64,28475,1,0,0:0:0:0:
352,64,28543,1,0,0:0:0:0:
368,64,28611,1,0,0:0:0:0:
384,64,28679,6,0,L|384:112,3,35,2|0|0|0,0:0|0:0|0:0|0:0,0:0:0:0:
384,128,28952,2,0,L|384:176,3,35,2|0|0|0,0:0|0:0|0:0|0:0,0:0:0:0:
384,191,29225,6,0,L|384:239,3,35,2|0|0|0,0:0|0:0|0:0|0:0,0:0:0:0:
384,255,29498,2,0,L|384:303,3,35,2|0|0|0,0:0|0:0|0:0|0:0,0:0:0:0:
384,320,29770,5,2,0:0:0:0:
368,320,29838,1,0,0:0:0:0:
352,320,29907,1,0,0:0:0:0:
336,320,29975,1,0,0:0:0:0:
320,320,30043,1,2,0:0:0:0:
304,320,30111,1,0,0:0:0:0:
288,320,30179,1,0,0:0:0:0:
272,320,30247,1,0,0:0:0:0:
257,320,30316,5,2,0:0:0:0:
240,320,30384,1,0,0:0:0:0:
224,320,30453,1,0,0:0:0:0:
208,320,30521,1,0,0:0:0:0:
192,320,30589,1,2,0:0:0:0:
176,320,30657,1,0,0:0:0:0:
160,320,30725,1,0,0:0:0:0:
144,320,30793,1,0,0:0:0:0:
128,320,30861,6,0,L|128:272,3,35,2|0|0|0,0:0|0:0|0:0|0:0,0:0:0:0:
128,256,31134,2,0,L|128:208,3,35,2|0|0|0,0:0|0:0|0:0|0:0,0:0:0:0:
128,193,31407,6,0,L|128:145,3,35,2|0|0|0,0:0|0:0|0:0|0:0,0:0:0:0:
128,129,31680,2,0,L|128:81,3,35,2|0|0|0,0:0|0:0|0:0|0:0,0:0:0:0:
128,64,31952,5,2,0:0:0:0:
144,64,32020,1,0,0:0:0:0:
160,64,32089,1,0,0:0:0:0:
176,64,32157,1,0,0:0:0:0:
192,64,32225,1,2,0:0:0:0:
208,64,32293,1,0,0:0:0:0:
224,64,32361,1,0,0:0:0:0:
240,64,32429,1,0,0:0:0:0:
255,64,32498,5,2,0:0:0:0:
272,64,32566,1,0,0:0:0:0:
288,64,32635,1,0,0:0:0:0:
304,64,32703,1,0,0:0:0:0:
320,64,32771,1,2,0:0:0:0:
336,64,32839,1,0,0:0:0:0:
352,64,32907,1,0,0:0:0:0:
368,64,32975,1,0,0:0:0:0:
384,64,33043,6,0,L|384:112,3,35,2|0|0|0,0:0|0:0|0:0|0:0,0:0:0:0:
384,128,33316,2,0,L|384:176,3,35,2|0|0|0,0:0|0:0|0:0|0:0,0:0:0:0:
384,191,33589,6,0,L|384:239,3,35,2|0|0|0,0:0|0:0|0:0|0:0,0:0:0:0:
384,255,33862,2,0,L|384:303,3,35,2|0|0|0,0:0|0:0|0:0|0:0,0:0:0:0:
384,320,34134,5,2,0:0:0:0:
368,320,34202,1,0,0:0:0:0:
352,320,34271,1,0,0:0:0:0:
336,320,34339,1,0,0:0:0:0:
320,320,34407,1,2,0:0:0:0:
304,320,34475,1,0,0:0:0:0:
288,320,34543,1,0,0:0:0:0:
272,320,34611,1,0,0:0:0:0:
257,320,34680,5,2,0:0:0:0:
240,320,34748,1,0,0:0:0:0:
224,320,34817,1,0,0:0:0:0:
208,320,34885,1,0,0:0:0:0:
192,320,34953,1,2,0:0:0:0:
176,320,35021,1,0,0:0:0:0:
160,320,35089,1,0,0:0:0:0:
144,320,35157,1,0,0:0:0:0:
128,320,35225,6,0,L|128:272,3,35,2|0|0|0,0:0|0:0|0:0|0:0,0:0:0:0:
128,256,35498,2,0,L|128:208,3,35,2|0|0|0,0:0|0:0|0:0|0:0,0:0:0:0:
128,193,35771,6,0,L|128:145,3,35,2|0|0|0,0:0|0:0|0:0|0:0,0:0:0:0:
128,129,36044,2,0,L|128:81,3,35,2|0|0|0,0:0|0:0|0:0|0:0,0:0:0:0:
128,64,36315,5,2,0:0:0:0:
144,64,36383,1,0,0:0:0:0:
160,64,36452,1,0,0:0:0:0:
176,64,36520,1,0,0:0:0:0:
192,64,36588,1,2,0:0:0:0:
208,64,36656,1,0,0:0:0:0:
224,64,36724,1,0,0:0:0:0:
240,64,36792,1,0,0:0:0:0:
255,64,36861,5,2,0:0:0:0:
272,64,36929,1,0,0:0:0:0:
288,64,36998,1,0,0:0:0:0:
304,64,37066,1,0,0:0:0:0:
320,64,37134,1,2,0:0:0:0:
336,64,37202,1,0,0:0:0:0:
352,64,37270,1,0,0:0:0:0:
368,64,37338,1,0,0:0:0:0:
384,64,37406,6,0,L|384:112,3,35,2|0|0|0,0:0|0:0|0:0|0:0,0:0:0:0:
384,128,37679,2,0,L|384:176,3,35,2|0|0|0,0:0|0:0|0:0|0:0,0:0:0:0:
384,191,37952,6,0,L|384:239,3,35,2|0|0|0,0:0|0:0|0:0|0:0,0:0:0:0:
384,255,38225,2,0,L|384:303,3,35,2|0|0|0,0:0|0:0|0:0|0:0,0:0:0:0:
384,320,38497,5,2,0:0:0:0:
368,320,38565,1,0,0:0:0:0:
352,320,38634,1,0,0:0:0:0:
336,320,38702,1,0,0:0:0:0:
320,320,38770,1,2,0:0:0:0:
304,320,38838,1,0,0:0:0:0:
288,320,38906,1,0,0:0:0:0:
272,320,38974,1,0,0:0:0:0:
257,320,39043,5,2,0:0:0:0:
240,320,39111,1,0,0:0:0:0:
224,320,39180,1,0,0:0:0:0:
208,320,39248,1,0,0:0:0:0:
192,320,39316,1,2,0:0:0:0:
176,320,39384,1,0,0:0:0:0:
160,320,39452,1,0,0:0:0:0:
144,320,39520,1,0,0:0:0:0:
128,320,39588,6,0,L|128:272,3,35,2|0|0|0,0:0|0:0|0:0|0:0,0:0:0:0:
128,256,39861,2,0,L|128:208,3,35,2|0|0|0,0:0|0:0|0:0|0:0,0:0:0:0:
128,193,40134,6,0,L|128:145,3,35,2|0|0|0,0:0|0:0|0:0|0:0,0:0:0:0:
128,129,40407,2,0,L|128:81,3,35,2|0|0|0,0:0|0:0|0:0|0:0,0:0:0:0:
128,64,40679,5,2,0:0:0:0:
144,64,40747,1,0,0:0:0:0:
160,64,40816,1,0,0:0:0:0:
176,64,40884,1,0,0:0:0:0:
192,64,40952,1,2,0:0:0:0:
208,64,41020,1,0,0:0:0:0:
224,64,41088,1,0,0:0:0:0:
240,64,41156,1,0,0:0:0:0:
255,64,41225,5,2,0:0:0:0:
272,64,41293,1,0,0:0:0:0:
288,64,41362,1,0,0:0:0:0:
304,64,41430,1,0,0:0:0:0:
320,64,41498,1,2,0:0:0:0:
336,64,41566,1,0,0:0:0:0:
352,64,41634,1,0,0:0:0:0:
368,64,41702,1,0,0:0:0:0:
384,64,41770,6,0,L|384:112,3,35,2|0|0|0,0:0|0:0|0:0|0:0,0:0:0:0:
384,128,42043,2,0,L|384:176,3,35,2|0|0|0,0:0|0:0|0:0|0:0,0:0:0:0:
384,191,42316,6,0,L|384:239,3,35,2|0|0|0,0:0|0:0|0:0|0:0,0:0:0:0:
384,255,42589,2,0,L|384:303,3,35,2|0|0|0,0:0|0:0|0:0|0:0,0:0:0:0:
384,320,42861,5,2,0:0:0:0:
368,320,42929,1,0,0:0:0:0:
352,320,42998,1,0,0:0:0:0:
336,320,43066,1,0,0:0:0:0:
320,320,43134,1,2,0:0:0:0:
304,320,43202,1,0,0:0:0:0:
288,320,43270,1,0,0:0:0:0:
272,320,43338,1,0,0:0:0:0:
257,320,43407,5,2,0:0:0:0:
240,320,43475,1,0,0:0:0:0:
224,320,43544,1,0,0:0:0:0:
208,320,43612,1,0,0:0:0:0:
192,320,43680,1,2,0:0:0:0:
176,320,43748,1,0,0:0:0:0:
160,320,43816,1,0,0:0:0:0:
144,320,43884,1,0,0:0:0:0:
128,320,43952,6,0,L|128:272,3,35,2|0|0|0,0:0|0:0|0:0|0:0,0:0:0:0:
128,256,44225,2,0,L|128:208,3,35,2|0|0|0,0:0|0:0|0:0|0:0,0:0:0:0:
128,193,44498,6,0,L|128:145,3,35,2|0|0|0,0:0|0:0|0:0|0:0,0:0:0:0:
128,129,44771,2,0,L|128:81,3,35,2|0|0|0,0:0|0:0|0:0|0:0,0:0:0:0:
128,64,45042,5,2,0:0:0:0:
144,64,45110,1,0,0:0:0:0:
160,64,45179,1,0,0:0:0:0:
176,64,45247,1,0,0:0:0:0:
192,64,45315,1,2,0:0:0:0:
208,64,45383,1,0,0:0:0:0:
224,64,45451,1,0,0:0:0:0:
240,64,45519,1,0,0:0:0:0:
255,64,45588,5,2,0:0:0:0:
272,64,45656,1,0,0:0:0:0:
288,64,45725,1,0,0:0:0:0:
304,64,45793,1,0,0:0:0:0:
320,64,45861,1,2,0:0:0:0:
336,64,45929,1,0,0:0:0:0:
352,64,45997,1,0,0:0:0:0:
368,64,46065,1,0,0:0:0:0:
384,64,46133,6,0,L|384:112,3,35,2|0|0|0,0:0|0:0|0:0|0:0,0:0:0:0:
384,128,46406,2,0,L|384:176,3,35,2|0|0|0,0:0|0:0|0:0|0:0,0:0:0:0:
384,191,46679,6,0,L|384:239,3,35,2|0|0|0,0:0|0:0|0:0|0:0,0:0:0:0:
384,255,46952,2,0,L|384:303,3,35,2|0|0|0,0:0|0:0|0:0|0:0,0:0:0:0:
384,320,47224,5,2,0:0:0:0:
368,320,47292,1,0,0:0:0:0:
352,320,47361,1,0,0:0:0:0:
336,320,47429,1,0,0:0:0:0:
320,320,47497,1,2,0:0:0:0:
304,320,47565,1,0,0:0:0:0:
288,320,47633,1,0,0:0:0:0:
272,320,47701,1,0,0:0:0:0:
257,320,47770,5,2,0:0:0:0:
240,320,47838,1,0,0:0:0:0:
224,320,47907,1,0,0:0:0:0:
208,320,47975,1,0,0:0:0:0:
192,320,48043,1,2,0:0:0:0:
176,320,48111,1,0,0:0:0:0:
160,320,48179,1,0,0:0:0:0:
144,320,48247,1,0,0:0:0:0:
128,320,48315,6,0,L|128:272,3,35,2|0|0|0,0:0|0:0|0:0|0:0,0:0:0:0:
128,256,48588,2,0,L|128:208,3,35,2|0|0|0,0:0|0:0|0:0|0:0,0:0:0:0:
128,193,48861,6,0,L|128:145,3,35,2|0|0|0,0:0|0:0|0:0|0:0,0:0:0:0:
128,129,49134,2,0,L|128:81,3,35,2|0|0|0,0:0|0:0|0:0|0:0,0:0:0:0:
128,64,49406,5,2,0:0:0:0:
144,64,49474,1,0,0:0:0:0:
160,64,49543,1,0,0:0:0:0:
176,64,49611,1,0,0:0:0:0:
192,64,49679,1,2,0:0:0:0:
208,64,49747,1,0,0:0:0:0:
224,64,49815,1,0,0:0:0:0:
240,64,49883,1,0,0:0:0:0:
255,64,49952,5,2,0:0:0:0:
272,64,50020,1,0,0:0:0:0:
288,64,50089,1,0,0:0:0:0:
304,64,50157,1,0,0:0:0:0:
320,64,50225,1,2,0:0:0:0:
336,64,50293,1,0,0:0:0:0:
352,64,50361,1,0,0:0:0:0:
368,64,50429,1,0,0:0:0:0:
384,64,50497,6,0,L|384:112,3,35,2|0|0|0,0:0|0:0|0:0|0:0,0:0:0:0:
384,128,50770,2,0,L|384:176,3,35,2|0|0|0,0:0|0:0|0:0|0:0,0:0:0:0:
384,191,51043,6,0,L|384:239,3,35,2|0|0|0,0:0|0:0|0:0|0:0,0:0:0:0:
384,255,51316,2,0,L|384:303,3,35,2|0|0|0,0:0|0:0|0:0|0:0,0:0:0:0:
384,320,51588,5,2,0:0:0:0:
368,320,51656,1,0,0:0:0:0:
352,320,51725,1,0,0:0:0:0:
336,320,51793,1,0,0:0:0:0:
320,320,51861,1,2,0:0:0:0:
304,320,51929,1,0,0:0:0:0:
288,320,51997,1,0,0:0:0:0:
272,320,52065,1,0,0:0:0:0:
257,320,52134,5,2,0:0:0:0:
240,320,52202,1,0,0:0:0:0:
224,320,52271,1,0,0:0:0:0:
208,320,52339,1,0,0:0:0:0:
192,320,52407,1,2,0:0:0:0:
176,320,52475,1,0,0:0:0:0:
160,320,52543,1,0,0:0:0:0:
144,320,52611,1,0,0:0:0:0:
128,320,52679,6,0,L|128:272,3,35,2|0|0|0,0:0|0:0|0:0|0:0,0:0:0:0:
128,256,52952,2,0,L|128:208,3,35,2|0|0|0,0:0|0:0|0:0|0:0,0:0:0:0:
128,193,53225,6,0,L|128:145,3,35,2|0|0|0,0:0|0:0|0:0|0:0,0:0:0:0:
128,129,53498,2,0,L|128:81,3,35,2|0|0|0,0:0|0:0|0:0|0:0,0:0:0:0:
128,64,53770,5,2,0:0:0:0:
144,64,53838,1,0,0:0:0:0:
160,64,53907,1,0,0:0:0:0:
176,64,53975,1,0,0:0:0:0:
192,64,54043,1,2,0:0:0:0:
208,64,54111,1,0,0:0:0:0:
224,64,54179,1,0,0:0:0:0:
240,64,54247,1,0,0:0:0:0:
255,64,54316,5,2,0:0:0:0:
272,64,54384,1,0,0:0:0:0:
288,64,54453,1,0,0:0:0:0:
304,64,54521,1,0,0:0:0:0:
320,64,54589,1,2,0:0:0:0:
336,64,54657,1,0,0:0:0:0:
352,64,54725,1,0,0:0:0:0:
368,64,54793,1,0,0:0:0:0:
384,64,54861,6,0,L|384:112,3,35,2|0|0|0,0:0|0:0|0:0|0:0,0:0:0:0:
384,128,55134,2,0,L|384:176,3,35,2|0|0|0,0:0|0:0|0:0|0:0,0:0:0:0:
384,191,55407,6,0,L|384:239,3,35,2|0|0|0,0:0|0:0|0:0|0:0,0:0:0:0:
384,255,55680,2,0,L|384:303,3,35,2|0|0|0,0:0|0:0|0:0|0:0,0:0:0:0:
384,320,55952,5,2,0:0:0:0:
368,320,56020,1,0,0:0:0:0:
352,320,56089,1,0,0:0:0:0:
336,320,56157,1,0,0:0:0:0:
320,320,56225,1,2,0:0:0:0:
304,320,56293,1,0,0:0:0:0:
288,320,56361,1,0,0:0:0:0:
272,320,56429,1,0,0:0:0:0:
257,320,56498,5,2,0:0:0:0:
240,320,56566,1,0,0:0:0:0:
224,320,56635,1,0,0:0:0:0:
208,320,56703,1,0,0:0:0:0:
192,320,56771,1,2,0:0:0:0:
176,320,56839,1,0,0:0:0:0:
160,320,56907,1,0,0:0:0:0:
144,320,56975,1,0,0:0:0:0:
128,320,57043,6,0,L|128:272,3,35,2|0|0|0,0:0|0:0|0:0|0:0,0:0:0:0:
128,256,57316,2,0,L|128:208,3,35,2|0|0|0,0:0|0:0|0:0|0:0,0:0:0:0:
128,193,57589,6,0,L|128:145,3,35,2|0|0|0,0:0|0:0|0:0|0:0,0:0:0:0:
128,129,57862,2,0,L|128:81,3,35,2|0|0|0,0:0|0:0|0:0|0:0,0:0:0:0:
128,64,58134,5,2,0:0:0:0:
144,64,58202,1,0,0:0:0:0:
160,64,58271,1,0,0:0:0:0:
176,64,58339,1,0,0:0:0:0:
192,64,58407,1,2,0:0:0:0:
208,64,58475,1,0,0:0:0:0:
224,64,58543,1,0,0:0:0:0:
240,64,58611,1,0,0:0:0:0:
255,64,58680,5,2,0:0:0:0:
272,64,58748,1,0,0:0:0:0:
288,64,58817,1,0,0:0:0:0:
304,64,58885,1,0,0:0:0:0:
320,64,58953,1,2,0:0:0:0:
336,64,59021,1,0,0:0:0:0:
352,64,59089,1,0,0:0:0:0:
368,64,59157,1,0,0:0:0:0:
384,64,59225,6,0,L|384:112,3,35,2|0|0|0,0:0|0:0|0:0|0:0,0:0:0:0:
384,128,59498,2,0,L|384:176,3,35,2|0|0|0,0:0|0:0|0:0|0:0,0:0:0:0:
384,191,59771,6,0,L|384:239,3,35,2|0|0|0,0:0|0:0|0:0|0:0,0:0:0:0:
384,255,60044,2,0,L|384:303,3,35,2|0|0|0,0:0|0:0|0:0|0:0,0:0:0:0:
384,320,60316,5,2,0:0:0:0:
368,320,60384,1,0,0:0:0:0:
352,320,60453,1,0,0:0:0:0:
336,320,60521,1,0,0:0:0:0:
320,320,60589,1,2,0:0:0:0:
304,320,60657,1,0,0:0:0:0:
288,320,60725,1,0,0:0:0:0:
272,320,60793,1,0,0:0:0:0:
257,320,60862,5,2,0:0:0:0:
240,320,60930,1,0,0:0:0:0:
224,320,60999,1,0,0:0:0:0:
208,320,61067,1,0,0:0:0:0:
192,320,61135,1,2,0:0:0:0:
176,320,61203,1,0,0:0:0:0:
160,320,61271,1,0,0:0:0:0:
144,320,61339,1,0,0:0:0:0:
128,320,61407,6,0,L|128:272,3,35,2|0|0|0,0:0|0:0|0:0|0:0,0:0:0:0:
128,256,61680,2,0,L|128:208,3,35,2|0|0|0,0:0|0:0|0:0|0:0,0:0:0:0:
128,193,61953,6,0,L|128:145,3,35,2|0|0|0,0:0|0:0|0:0|0:0,0:0:0:0:
128,129,62226,2,0,L|128:81,3,35,2|0|0|0,0:0|0:0|0:0|0:0,0:0:0:0:
128,64,62497,5,2,0:0:0:0:
144,64,62565,1,0,0:0:0:0:
160,64,62634,1,0,0:0:0:0:
176,64,62702,1,0,0:0:0:0:
192,64,62770,1,2,0:0:0:0:
208,64,62838,1,0,0:0:0:0:
224,64,62906,1,0,0:0:0:0:
240,64,62974,1,0,0:0:0:0:
255,64,63043,5,2,0:0:0:0:
272,64,63111,1,0,0:0:0:0:
288,64,63180,1,0,0:0:0:0:
304,64,63248,1,0,0:0:0:0:
320,64,63316,1,2,0:0:0:0:
336,64,63384,1,0,0:0:0:0:
352,64,63452,1,0,0:0:0:0:
368,64,63520,1,0,0:0:0:0:
384,64,63588,6,0,L|384:112,3,35,2|0|0|0,0:0|0:0|0:0|0:0,0:0:0:0:
384,128,63861,2,0,L|384:176,3,35,2|0|0|0,0:0|0:0|0:0|0:0,0:0:0:0:
384,191,64134,6,0,L|384:239,3,35,2|0|0|0,0:0|0:0|0:0|0:0,0:0:0:0:
384,255,64407,2,0,L|384:303,3,35,2|0|0|0,0:0|0:0|0:0|0:0,0:0:0:0:
384,320,64679,5,2,0:0:0:0:
368,320,64747,1,0,0:0:0:0:
352,320,64816,1,0,0:0:0:0:
336,320,64884,1,0,0:0:0:0:
320,320,64952,1,2,0:0:0:0:
304,320,65020,1,0,0:0:0:0:
288,320,65088,1,0,0:0:0:0:
272,320,65156,1,0,0:0:0:0:
257,320,65225,5,2,0:0:0:0:
240,320,65293,1,0,0:0:0:0:
224,320,65362,1,0,0:0:0:0:
208,320,65430,1,0,0:0:0:0:
192,320,65498,1,2,0:0:0:0:
176,320,65566,1,0,0:0:0:0:
160,320,65634,1,0,0:0:0:0:
144,320,65702,1,0,0:0:0:0:
128,320,65770,6,0,L|128:272,3,35,2|0|0|0,0:0|0:0|0:0|0:0,0:0:0:0:
128,256,66043,2,0,L|128:208,3,35,2|0|0|0,0:0|0:0|0:0|0:0,0:0:0:0:
128,193,66316,6,0,L|128:145,3,35,2|0|0|0,0:0|0:0|0:0|0:0,0:0:0:0:
128,129,66589,2,0,L|128:81,3,35,2|0|0|0,0:0|0:0|0:0|0:0,0:0:0:0:
128,64,66861,5,2,0:0:0:0:
144,64,66929,1,0,0:0:0:0:
160,64,66998,1,0,0:0:0:0:
176,64,67066,1,0,0:0:0:0:
192,64,67134,1,2,0:0:0:0:
208,64,67202,1,0,0:0:0:0:
224,64,67270,1,0,0:0:0:0:
240,64,67338,1,0,0:0:0:0:
255,64,67407,5,2,0:0:0:0:
272,64,67475,1,0,0:0:0:0:
288,64,67544,1,0,0:0:0:0:
304,64,67612,1,0,0:0:0:0:
320,64,67680,1,2,0:0:0:0:
336,64,67748,1,0,0:0:0:0:
352,64,67816,1,0,0:0:0:0:
368,64,67884,1,0,0:0:0:0:
384,64,67952,6,0,L|384:112,3,35,2|0|0|0,0:0|0:0|0:0|0:0,0:0:0:0:
384,128,68225,2,0,L|384:176,3,35,2|0|0|0,0:0|0:0|0:0|0:0,0:0:0:0:
384,191,68498,6,0,L|384:239,3,35,2|0|0|0,0:0|0:0|0:0|0:0,0:0:0:0:
384,255,68771,2,0,L|384:303,3,35,2|0|0|0,0:0|0:0|0:0|0:0,0:0:0:0:
384,320,69043,5,2,0:0:0:0:
368,320,69111,1,0,0:0:0:0:
352,320,69180,1,0,0:0:0:0:
336,320,69248,1,0,0:0:0:0:
320,320,69316,1,2,0:0:0:0:
304,320,69384,1,0,0:0:0:0:
288,320,69452,1,0,0:0:0:0:
272,320,69520,1,0,0:0:0:0:
257,320,69589,5,2,0:0:0:0:
240,320,69657,1,0,0:0:0:0:
224,320,69726,1,0,0:0:0:0:
208,320,69794,1,0,0:0:0:0:
192,320,69862,1,2,0:0:0:0:
176,320,69930,1,0,0:0:0:0:
160,320,69998,1,0,0:0:0:0:
144,320,70066,1,0,0:0:0:0:
128,320,70134,6,0,L|128:272,3,35,2|0|0|0,0:0|0:0|0:0|0:0,0:0:0:0:
128,256,70407,2,0,L|128:208,3,35,2|0|0|0,0:0|0:0|0:0|0:0,0:0:0:0:
128,193,70680,6,0,L|128:145,3,35,2|0|0|0,0:0|0:0|0:0|0:0,0:0:0:0:
128,129,70953,2,0,L|128:81,3,35,2|0|0|0,0:0|0:0|0:0|0:0,0:0:0:0:
128,64,71224,5,2,0:0:0:0:
144,64,71292,1,0,0:0:0:0:
160,64,71361,1,0,0:0:0:0:
176,64,71429,1,0,0:0:0:0:
192,64,71497,1,2,0:0:0:0:
208,64,71565,1,0,0:0:0:0:
224,64,71633,1,0,0:0:0:0:
240,64,71701,1,0,0:0:0:0:
255,64,71770,5,2,0:0:0:0:
272,64,71838,1,0,0:0:0:0:
288,64,71907,1,0,0:0:0:0:
304,64,71975,1,0,0:0:0:0:
320,64,72043,1,2,0:0:0:0:
336,64,72111,1,0,0:0:0:0:
352,64,72179,1,0,0:0:0:0:
368,64,72247,1,0,0:0:0:0:
384,64,72315,6,0,L|384:112,3,35,2|0|0|0,0:0|0:0|0:0|0:0,0:0:0:0:
384,128,72588,2,0,L|384:176,3,35,2|0|0|0,0:0|0:0|0:0|0:0,0:0:0:0:
384,191,72861,6,0,L|384:239,3,35,2|0|0|0,0:0|0:0|0:0|0:0,0:0:0:0:
384,255,73134,2,0,L|384:303,3,35,2|0|0|0,0:0|0:0|0:0|0:0,0:0:0:0:
384,320,73406,5,2,0:0:0:0:
368,320,73474,1,0,0:0:0:0:
352,320,73543,1,0,0:0:0:0:
336,320,73611,1,0,0:0:0:0:
320,320,73679,1,2,0:0:0:0:
304,320,73747,1,0,0:0:0:0:
288,320,73815,1,0,0:0:0:0:
272,320,73883,1,0,0:0:0:0:
257,320,73952,5,2,0:0:0:0:
240,320,74020,1,0,0:0:0:0:
224,320,74089,1,0,0:0:0:0:
208,320,74157,1,0,0:0:0:0:
192,320,74225,1,2,0:0:0:0:
176,320,74293,1,0,0:0:0:0:
160,320,74361,1,0,0:0:0:0:
144,320,74429,1,0,0:0:0:0:
128,320,74497,6,0,L|128:272,3,35,2|0|0|0,0:0|0:0|0:0|0:0,0:0:0:0:
128,256,74770,2,0,L|128:208,3,35,2|0|0|0,0:0|0:0|0:0|0:0,0:0:0:0:
128,193,75043,6,0,L|128:145,3,35,2|0|0|0,0:0|0:0|0:0|0:0,0:0:0:0:
128,129,75316,2,0,L|128:81,3,35,2|0|0|0,0:0|0:0|0:0|0:0,0:0:0:0:
128,64,75588,5,2,0:0:0:0:
144,64,75656,1,0,0:0:0:0:
160,64,75725,1,0,0:0:0:0:
176,64,75793,1,0,0:0:0:0:
192,64,75861,1,2,0:0:0:0:
208,64,75929,1,0,0:0:0:0:
224,64,75997,1,0,0:0:0:0:
240,64,76065,1,0,0:0:0:0:
255,64,76134,5,2,0:0:0:0:
272,64,76202,1,0,0:0:0:0:
288,64,76271,1,0,0:0:0:0:
304,64,76339,1,0,0:0:0:0:
320,64,76407,1,2,0:0:0:0:
336,64,76475,1,0,0:0:0:0:
352,64,76543,1,0,0:0:0:0:
368,64,76611,1,0,0:0:0:0:
384,64,76679,6,0,L|384:112,3,35,2|0|0|0,0:0|0:0|0:0|0:0,0:0:0:0:
384,128,76952,2,0,L|384:176,3,35,2|0|0|0,0:0|0:0|0:0|0:0,0:0:0:0:
384,191,77225,6,0,L|384:239,3,35,2|0|0|0,0:0|0:0|0:0|0:0,0:0:0:0:
384,255,77498,2,0,L|384:303,3,35,2|0|0|0,0:0|0:0|0:0|0:0,0:0:0:0:
384,320,77770,5,2,0:0:0:0:
368,320,77838,1,0,0:0:0:0:
352,320,77907,1,0,0:0:0:0:
336,320,77975,1,0,0:0:0:0:
320,320,78043,1,2,0:0:0:0:
304,320,78111,1,0,0:0:0:0:
288,320,78179,1,0,0:0:0:0:
272,320,78247,1,0,0:0:0:0:
257,320,78316,5,2,0:0:0:0:
240,320,78384,1,0,0:0:0:0:
224,320,78453,1,0,0:0:0:0:
208,320,78521,1,0,0:0:0:0:
192,320,78589,1,2,0:0:0:0:
176,320,78657,1,0,0:0:0:0:
160,320,78725,1,0,0:0:0:0:
144,320,78793,1,0,0:0:0:0:
128,320,78861,6,0,L|128:272,3,35,2|0|0|0,0:0|0:0|0:0|0:0,0:0:0:0:
128,256,79134,2,0,L|128:208,3,35,2|0|0|0,0:0|0:0|0:0|0:0,0:0:0:0:
128,193,79407,6,0,L|128:145,3,35,2|0|0|0,0:0|0:0|0:0|0:0,0:0:0:0:
128,129,79680,2,0,L|128:81,3,35,2|0|0|0,0:0|0:0|0:0|0:0,0:0:0:0:
128,64,79951,5,2,0:0:0:0:
144,64,80019,1,0,0:0:0:0:
160,64,80088,1,0,0:0:0:0:
176,64,80156,1,0,0:0:0:0:
192,64,80224,1,2,0:0:0:0:
208,64,80292,1,0,0:0:0:0:
224,64,80360,1,0,0:0:0:0:
240,64,80428,1,0,0:0:0:0:
255,64,80497,5,2,0:0:0:0:
272,64,80565,1,0,0:0:0:0:
288,64,80634,1,0,0:0:0:0:
304,64,80702,1,0,0:0:0:0:
320,64,80770,1,2,0:0:0:0:
336,64,80838,1,0,0:0:0:0:
352,64,80906,1,0,0:0:0:0:
368,64,80974,1,0,0:0:0:0:
384,64,81042,6,0,L|384:112,3,35,2|0|0|0,0:0|0:0|0:0|0:0,0:0:0:0:
384,128,81315,2,0,L|384:176,3,35,2|0|0|0,0:0|0:0|0:0|0:0,0:0:0:0:
384,191,81588,6,0,L|384:239,3,35,2|0|0|0,0:0|0:0|0:0|0:0,0:0:0:0:
384,255,81861,2,0,L|384:303,3,35,2|0|0|0,0:0|0:0|0:0|0:0,0:0:0:0:
384,320,82133,5,2,0:0:0:0:
368,320,82201,1,0,0:0:0:0:
352,320,82270,1,0,0:0:0:0:
336,320,82338,1,0,0:0:0:0:
320,320,82406,1,2,0:0:0:0:
304,320,82474,1,0,0:0:0:0:
288,320,82542,1,0,0:0:0:0:
272,320,82610,1,0,0:0:0:0:
257,320,82679,5,2,0:0:0:0:
240,320,82747,1,0,0:0:0:0:
224,320,82816,1,0,0:0:0:0:
208,320,82884,1,0,0:0:0:0:
192,320,82952,1,2,0:0:0:0:
176,320,83020,1,0,0:0:0:0:
160,320,83088,1,0,0:0:0:0:
144,320,83156,1,0,0:0:0:0:
128,320,83224,6,0,L|128:272,3,35,2|0|0|0,0:0|0:0|0:0|0:0,0:0:0:0:
128,256,83497,2,0,L|128:208,3,35,2|0|0|0,0:0|0:0|0:0|0:0,0:0:0:0:
128,193,83770,6,0,L|128:145,3,35,2|0|0|0,0:0|0:0|0:0|0:0,0:0:0:0:
128,129,84043,2,0,L|128:81,3,35,2|0|0|0,0:0|0:0|0:0|0:0,0:0:0:0:
128,64,84315,5,2,0:0:0:0:
144,64,84383,1,0,0:0:0:0:
160,64,84452,1,0,0:0:0:0:
176,64,84520,1,0,0:0:0:0:
192,64,84588,1,2,0:0:0:0:
208,64,84656,1,0,0:0:0:0:
224,64,84724,1,0,0:0:0:0:
240,64,84792,1,0,0:0:0:0:
255,64,84861,5,2,0:0:0:0:
272,64,84929,1,0,0:0:0:0:
288,64,84998,1,0,0:0:0:0:
304,64,85066,1,0,0:0:0:0:
320,64,85134,1,2,0:0:0:0:
336,64,85202,1,0,0:0:0:0:
352,64,85270,1,0,0:0:0:0:
368,64,85338,1,0,0:0:0:0:
384,64,85406,6,0,L|384:112,3,35,2|0|0|0,0:0|0:0|0:0|0:0,0:0:0:0:
384,128,85679,2,0,L|384:176,3,35,2|0|0|0,0:0|0:0|0:0|0:0,0:0:0:0:
384,191,85952,6,0,L|384:239,3,35,2|0|0|0,0:0|0:0|0:0|0:0,0:0:0:0:
384,255,86225,2,0,L|384:303,3,35,2|0|0|0,0:0|0:0|0:0|0:0,0:0:0:0:
384,320,86497,5,2,0:0:0:0:
368,320,86565,1,0,0:0:0:0:
352,320,86634,1,0,0:0:0:0:
336,320,86702,1,0,0:0:0:0:
320,320,86770,1,2,0:0:0:0:
304,320,86838,1,0,0:0:0:0:
288,320,86906,1,0,0:0:0:0:
272,320,86974,1,0,0:0:0:0:
257,320,87043,5,2,0:0:0:0:
240,320,87111,1,0,0:0:0:0:
224,320,87180,1,0,0:0:0:0:
208,320,87248,1,0,0:0:0:0:
192,320,87316,1,2,0:0:0:0:
176,320,87384,1,0,0:0:0:0:
160,320,87452,1,0,0:0:0:0:
144,320,87520,1,0,0:0:0:0:
128,320,87588,6,0,L|128:272,3,35,2|0|0|0,0:0|0:0|0:0|0:0,0:0:0:0:
128,256,87861,2,0,L|128:208,3,35,2|0|0|0,0:0|0:0|0:0|0:0,0:0:0:0:
128,193,88134,6,0,L|128:145,3,35,2|0|0|0,0:0|0:0|0:0|0:0,0:0:0:0:
128,129,88407,2,0,L|128:81,3,35,2|0|0|0,0:0|0:0|0:0|0:0,0:0:0:0:
128,64,88679,5,2,0:0:0:0:
144,64,88747,1,0,0:0:0:0:
160,64,88816,1,0,0:0:0:0:
176,64,88884,1,0,0:0:0:0:
192,64,88952,1,2,0:0:0:0:
208,64,89020,1,0,0:0:0:0:
224,64,89088,1,0,0:0:0:0:
240,64,89156,1,0,0:0:0:0:
255,64,89225,5,2,0:0:0:0:
272,64,89293,1,0,0:0:0:0:
288,64,89362,1,0,0:0:0:0:
304,64,89430,1,0,0:0:0:0:
320,64,89498,1,2,0:0:0:0:
336,64,89566,1,0,0:0:0:0:
352,64,89634,1,0,0:0:0:0:
368,64,89702,1,0,0:0:0:0:
384,64,89770,6,0,L|384:112,3,35,2|0|0|0,0:0|0:0|0:0|0:0,0:0:0:0:
384,128,90043,2,0,L|384:176,3,35,2|0|0|0,0:0|0:0|0:0|0:0,0:0:0:0:
384,191,90316,6,0,L|384:239,3,35,2|0|0|0,0:0|0:0|0:0|0:0,0:0:0:0:
384,255,90589,2,0,L|384:303,3,35,2|0|0|0,0:0|0:0|0:0|0:0,0:0:0:0:
384,320,90861,5,2,0:0:0:0:
368,320,90929,1,0,0:0:0:0:
352,320,90998,1,0,0:0:0:0:
336,320,91066,1,0,0:0:0:0:
320,320,91134,1,2,0:0:0:0:
304,320,91202,1,0,0:0:0:0:
288,320,91270,1,0,0:0:0:0:
272,320,91338,1,0,0:0:0:0:
257,320,91407,5,2,0:0:0:0:
240,320,91475,1,0,0:0:0:0:
224,320,91544,1,0,0:0:0:0:
208,320,91612,1,0,0:0:0:0:
192,320,91680,1,2,0:0:0:0:
176,320,91748,1,0,0:0:0:0:
160,320,91816,1,0,0:0:0:0:
144,320,91884,1,0,0:0:0:0:
128,320,91952,6,0,L|128:272,3,35,2|0|0|0,0:0|0:0|0:0|0:0,0:0:0:0:
128,256,92225,2,0,L|128:208,3,35,2|0|0|0,0:0|0:0|0:0|0:0,0:0:0:0:
128,193,92498,6,0,L|128:145,3,35,2|0|0|0,0:0|0:0|0:0|0:0,0:0:0:0:
128,129,92771,2,0,L|128:81,3,35,2|0|0|0,0:0|0:0|0:0|0:0,0:0:0:0:
128,64,93043,5,2,0:0:0:0:
144,64,93111,1,0,0:0:0:0:
160,64,93180,1,0,0:0:0:0:
176,64,93248,1,0,0:0:0:0:
192,64,93316,1,2,0:0:0:0:
208,64,93384,1,0,0:0:0:0:
224,64,93452,1,0,0:0:0:0:
240,64,93520,1,0,0:0:0:0:
255,64,93589,5,2,0:0:0:0:
272,64,93657,1,0,0:0:0:0:
288,64,93726,1,0,0:0:0:0:
304,64,93794,1,0,0:0:0:0:
320,64,93862,1,2,0:0:0:0:
336,64,93930,1,0,0:0:0:0:
352,64,93998,1,0,0:0:0:0:
368,64,94066,1,0,0:0:0:0:
384,64,94134,6,0,L|384:112,3,35,2|0|0|0,0:0|0:0|0:0|0:0,0:0:0:0:
384,128,94407,2,0,L|384:176,3,35,2|0|0|0,0:0|0:0|0:0|0:0,0:0:0:0:
384,191,94680,6,0,L|384:239,3,35,2|0|0|0,0:0|0:0|0:0|0:0,0:0:0:0:
384,255,94953,2,0,L|384:303,3,35,2|0|0|0,0:0|0:0|0:0|0:0,0:0:0:0:
384,320,95225,5,2,0:0:0:0:
368,320,95293,1,0,0:0:0:0:
352,320,95362,1,0,0:0:0:0:
336,320,95430,1,0,0:0:0:0:
320,320,95498,1,2,0:0:0:0:
304,320,95566,1,0,0:0:0:0:
288,320,95634,1,0,0:0:0:0:
272,320,95702,1,0,0:0:0:0:
257,320,95771,5,2,0:0:0:0:
240,320,95839,1,0,0:0:0:0:
224,320,95908,1,0,0:0:0:0:
208,320,95976,1,0,0:0:0:0:
192,320,96044,1,2,0:0:0:0:
176,320,96112,1,0,0:0:0:0:
160,320,96180,1,0,0:0:0:0:
144,320,96248,1,0,0:0:0:0:
128,320,96316,6,0,L|128:272,3,35,2|0|0|0,0:0|0:0|0:0|0:0,0:0:0:0:
128,256,96589,2,0,L|128:208,3,35,2|0|0|0,0:0|0:0|0:0|0:0,0:0:0:0:
128,193,96862,6,0,L|128:145,3,35,2|0|0|0,0:0|0:0|0:0|0:0,0:0:0:0:
128,129,97135,2,0,L|128:81,3,35,2|0|0|0,0:0|0:0|0:0|0:0,0:0:0:0:
128,64,97406,5,2,0:0:0:0:
144,64,97474,1,0,0:0:0:0:
160,64,97543,1,0,0:0:0:0:
176,64,97611,1,0,0:0:0:0:
192,64,97679,1,2,0:0:0:0:
208,64,97747,1,0,0:0:0:0:
224,64,97815,1,0,0:0:0:0:
240,64,97883,1,0,0:0:0:0:
255,64,97952,5,2,0:0:0:0:
272,64,98020,1,0,0:0:0:0:
288,64,98089,1,0,0:0:0:0:
304,64,98157,1,0,0:0:0:0:
320,64,98225,1,2,0:0:0:0:
336,64,98293,1,0,0:0:0:0:
352,64,98361,1,0,0:0:0:0:
368,64,98429,1,0,0:0:0:0:
384,64,98497,6,0,L|384:112,3,35,2|0|0|0,0:0|0:0|0:0|0:0,0:0:0:0:
384,128,98770,2,0,L|384:176,3,35,2|0|0|0,0:0|0:0|0:0|0:0,0:0:0:0:
384,191,99043,6,0,L|384:239,3,35,2|0|0|0,0:0|0:0|0:0|0:0,0:0:0:0:
384,255,99316,2,0,L|384:303,3,35,2|0|0|0,0:0|0:0|0:0|0:0,0:0:0:0:
384,320,99588,5,2,0:0:0:0:
368,320,99656,1,0,0:0:0:0:
352,320,99725,1,0,0:0:0:0:
336,320,99793,1,0,0:0:0:0:
320,320,99861,1,2,0:0:0:0:
304,320,99929,1,0,0:0:0:0:
288,320,99997,1,0,0:0:0:0:
272,320,100065,1,0,0:0:0:0:
257,320,100134,5,2,0:0:0:0:
240,320,100202,1,0,0:0:0:0:
224,320,100271,1,0,0:0:0:0:
208,320,100339,1,0,0:0:0:0:
192,320,100407,1,2,0:0:0:0:
176,320,100475,1,0,0:0:0:0:
160,320,100543,1,0,0:0:0:0:
144,320,100611,1,0,0:0:0:0:
128,320,100679,6,0,L|128:272,3,35,2|0|0|0,0:0|0:0|0:0|0:0,0:0:0:0:
128,256,100952,2,0,L|128:208,3,35,2|0|0|0,0:0|0:0|0:0|0:0,0:0:0:0:
128,193,101225,6,0,L|128:145,3,35,2|0|0|0,0:0|0:0|0:0|0:0,0:0:0:0:
128,129,101498,2,0,L|128:81,3,35,2|0|0|0,0:0|0:0|0:0|0:0,0:0:0:0:
128,64,101770,5,2,0:0:0:0:
144,64,101838,1,0,0:0:0:0:
160,64,101907,1,0,0:0:0:0:
176,64,101975,1,0,0:0:0:0:
192,64,102043,1,2,0:0:0:0:
208,64,102111,1,0,0:0:0:0:
224,64,102179,1,0,0:0:0:0:
240,64,102247,1,0,0:0:0:0:
255,64,102316,5,2,0:0:0:0:
272,64,102384,1,0,0:0:0:0:
288,64,102453,1,0,0:0:0:0:
304,64,102521,1,0,0:0:0:0:
320,64,102589,1,2,0:0:0:0:
336,64,102657,1,0,0:0:0:0:
352,64,102725,1,0,0:0:0:0:
368,64,102793,1,0,0:0:0:0:
384,64,102861,6,0,L|384:112,3,35,2|0|0|0,0:0|0:0|0:0|0:0,0:0:0:0:
384,128,103134,2,0,L|384:176,3,35,2|0|0|0,0:0|0:0|0:0|0:0,0:0:0:0:
384,191,103407,6,0,L|384:239,3,35,2|0|0|0,0:0|0:0|0:0|0:0,0:0:0:0:
384,255,103680,2,0,L|384:303,3,35,2|0|0|0,0:0|0:0|0:0|0:0,0:0:0:0:
384,320,103952,5,2,0:0:0:0:
368,320,104020,1,0,0:0:0:0:
352,320,104089,1,0,0:0:0:0:
336,320,104157,1,0,0:0:0:0:
320,320,104225,1,2,0:0:0:0:
304,320,104293,1,0,0:0:0:0:
288,320,104361,1,0,0:0:0:0:
272,320,104429,1,0,0:0:0:0:
257,320,104498,5,2,0:0:0:0:
240,320,104566,1,0,0:0:0:0:
224,320,104635,1,0,0:0:0:0:
208,320,104703,1,0,0:0:0:0:
192,320,104771,1,2,0:0:0:0:
176,320,104839,1,0,0:0:0:0:
160,320,104907,1,0,0:0:0:0:
144,320,104975,1,0,0:0:0:0:
128,320,105043,6,0,L|128:272,3,35,2|0|0|0,0:0|0:0|0:0|0:0,0:0:0:0:
128,256,105316,2,0,L|128:208,3,35,2|0|0|0,0:0|0:0|0:0|0:0,0:0:0:0:
128,193,105589,6,0,L|128:145,3,35,2|0|0|0,0:0|0:0|0:0|0:0,0:0:0:0:
128,129,105862,2,0,L|128:81,3,35,2|0|0|0,0:0|0:0|0:0|0:0,0:0:0:0:
128,64,106133,5,2,0:0:0:0:
144,64,106201,1,0,0:0:0:0:
160,64,106270,1,0,0:0:0:0:
176,64,106338,1,0,0:0:0:0:
192,64,106406,1,2,0:0:0:0:
208,64,106474,1,0,0:0:0:0:
224,64,106542,1,0,0:0:0:0:
240,64,106610,1,0,0:0:0:0:
255,64,106679,5,2,0:0:0:0:
272,64,106747,1,0,0:0:0:0:
288,64,106816,1,0,0:0:0:0:
304,64,106884,1,0,0:0:0:0:
320,64,106952,1,2,0:0:0:0:
336,64,107020,1,0,0:0:0:0:
352,64,107088,1,0,0:0:0:0:
368,64,107156,1,0,0:0:0:0:
384,64,107224,6,0,L|384:112,3,35,2|0|0|0,0:0|0:0|0:0|0:0,0:0:0:0:
384,128,107497,2,0,L|384:176,3,35,2|0|0|0,0:0|0:0|0:0|0:0,0:0:0:0:
384,191,107770,6,0,L|384:239,3,35,2|0|0|0,0:0|0:0|0:0|0:0,0:0:0:0:
384,255,108043,2,0,L|384:303,3,35,2|0|0|0,0:0|0:0|0:0|0:0,0:0:0:0:
384,320,108315,5,2,0:0:0:0:
368,320,108383,1,0,0:0:0:0:
352,320,108452,1,0,0:0:0:0:
336,320,108520,1,0,0:0:0:0:
320,320,108588,1,2,0:0:0:0:
304,320,108656,1,0,0:0:0:0:
288,320,108724,1,0,0:0:0:0:
272,320,108792,1,0,0:0:0:0:
257,320,108861,5,2,0:0:0:0:
240,320,108929,1,0,0:0:0:0:
224,320,108998,1,0,0:0:0:0:
208,320,109066,1,0,0:0:0:0:
192,320,109134,1,2,0:0:0:0:
176,320,109202,1,0,0:0:0:0:
160,320,109270,1,0,0:0:0:0:
144,320,109338,1,0,0:0:0:0:
128,320,109406,6,0,L|128:272,3,35,2|0|0|0,0:0|0:0|0:0|0:0,0:0:0:0:
128,256,109679,2,0,L|128:208,3,35,2|0|0|0,0:0|0:0|0:0|0:0,0:0:0:0:
128,193,109952,6,0,L|128:145,3,35,2|0|0|0,0:0|0:0|0:0|0:0,0:0:0:0:
128,129,110225,2,0,L|128:81,3,35,2|0|0|0,0:0|0:0|0:0|0:0,0:0:0:0:
128,64,110497,5,2,0:0:0:0:
144,64,110565,1,0,0:0:0:0:
160,64,110634,1,0,0:0:0:0:
176,64,110702,1,0,0:0:0:0:
192,64,110770,1,2,0:0:0:0:
208,64,110838,1,0,0:0:0:0:
224,64,110906,1,0,0:0:0:0:
240,64,110974,1,0,0:0:0:0:
255,64,111043,5,2,0:0:0:0:
272,64,111111,1,0,0:0:0:0:
288,64,111180,1,0,0:0:0:0:
304,64,111248,1,0,0:0:0:0:
320,64,111316,1,2,0:0:0:0:
336,64,111384,1,0,0:0:0:0:
352,64,111452,1,0,0:0:0:0:
368,64,111520,1,0,0:0:0:0:
384,64,111588,6,0,L|384:112,3,35,2|0|0|0,0:0|0:0|0:0|0:0,0:0:0:0:
384,128,111861,2,0,L|384:176,3,35,2|0|0|0,0:0|0:0|0:0|0:0,0:0:0:0:
384,191,112134,6,0,L|384:239,3,35,2|0|0|0,0:0|0:0|0:0|0:0,0:0:0:0:
384,255,112407,2,0,L|384:303,3,35,2|0|0|0,0:0|0:0|0:0|0:0,0:0:0:0:
384,320,112679,5,2,0:0:0:0:
368,320,112747,1,0,0:0:0:0:
352,320,112816,1,0,0:0:0:0:
336,320,112884,1,0,0:0:0:0:
320,320,112952,1,2,0:0:0:0:
304,320,113020,1,0,0:0:0:0:
288,320,113088,1,0,0:0:0:0:
272,320,113156,1,0,0:0:0:0:
257,320,113225,5,2,0:0:0:0:
240,320,113293,1,0,0:0:0:0:
224,320,113362,1,0,0:0:0:0:
208,320,113430,1,0,0:0:0:0:
192,320,113498,1,2,0:0:0:0:
176,320,113566,1,0,0:0:0:0:
160,320,113634,1,0,0:0:0:0:
144,320,113702,1,0,0:0:0:0:
128,320,113770,6,0,L|128:272,3,35,2|0|0|0,0:0|0:0|0:0|0:0,0:0:0:0:
128,256,114043,2,0,L|128:208,3,35,2|0|0|0,0:0|0:0|0:0|0:0,0:0:0:0:
128,193,114316,6,0,L|128:145,3,35,2|0|0|0,0:0|0:0|0:0|0:0,0:0:0:0:
128,129,114589,2,0,L|128:81,3,35,2|0|0|0,0:0|0:0|0:0|0:0,0:0:0:0:
128,64,114861,5,2,0:0:0:0:
144,64,114929,1,0,0:0:0:0:
160,64,114998,1,0,0:0:0:0:
176,64,115066,1,0,0:0:0:0:
192,64,115134,1,2,0:0:0:0:
208,64,115202,1,0,0:0:0:0:
224,64,115270,1,0,0:0:0:0:
240,64,115338,1,0,0:0:0:0:
255,64,115407,5,2,0:0:0:0:
272,64,115475,1,0,0:0:0:0:
288,64,115544,1,0,0:0:0:0:
304,64,115612,1,0,0:0:0:0:
320,64,115680,1,2,0:0:0:0:
336,64,115748,1,0,0:0:0:0:
352,64,115816,1,0,0:0:0:0:
368,64,115884,1,0,0:0:0:0:
384,64,115952,6,0,L|384:112,3,35,2|0|0|0,0:0|0:0|0:0|0:0,0:0:0:0:
384,128,116225,2,0,L|384:176,3,35,2|0|0|0,0:0|0:0|0:0|0:0,0:0:0:0:
384,191,116498,6,0,L|384:239,3,35,2|0|0|0,0:0|0:0|0:0|0:0,0:0:0:0:
384,255,116771,2,0,L|384:303,3,35,2|0|0|0,0:0|0:0|0:0|0:0,0:0:0:0:
384,320,117043,5,2,0:0:0:0:
368,320,117111,1,0,0:0:0:0:
352,320,117180,1,0,0:0:0:0:
336,320,117248,1,0,0:0:0:0:
320,320,117316,1,2,0:0:0:0:
304,320,117384,1,0,0:0:0:0:
288,320,117452,1,0,0:0:0:0:
272,320,117520,1,0,0:0:0:0:
257,320,117589,5,2,0:0:0:0:
240,320,117657,1,0,0:0:0:0:
224,320,117726,1,0,0:0:0:0:
208,320,117794,1,0,0:0:0:0:
192,320,117862,1,2,0:0:0:0:
176,320,117930,1,0,0:0:0:0:
160,320,117998,1,0,0:0:0:0:
144,320,118066,1,0,0:0:0:0:
128,320,118133,6,0,L|128:272,3,35,2|0|0|0,0:0|0:0|0:0|0:0,0:0:0:0:
128,256,118406,2,0,L|128:208,3,35,2|0|0|0,0:0|0:0|0:0|0:0,0:0:0:0:
128,193,118679,6,0,L|128:145,3,35,2|0|0|0,0:0|0:0|0:0|0:0,0:0:0:0:
128,129,118952,2,0,L|128:81,3,35,2|0|0|0,0:0|0:0|0:0|0:0,0:0:0:0:
128,64,119224,5,2,0:0:0:0:
