osu file format v14

[General]
AudioFilename: Neurotoxin180bpm.mp3
AudioLeadIn: 0
PreviewTime: -1
Countdown: 1
SampleSet: None
StackLeniency: 0.7
Mode: 0
LetterboxInBreaks: 1
WidescreenStoryboard: 1

[Editor]
DistanceSpacing: 1.5
BeatDivisor: 1
GridSize: 8
TimelineZoom: 1

[Metadata]
Title:Burst Stream Practice Maps
TitleUnicode:Burst Stream Practice Maps
Artist:Various Artists
ArtistUnicode:Various Artists
Creator:nooblet
Version:180 BPM 8 notes
Source:
Tags:
BeatmapID:812564
BeatmapSetID:370814

[Difficulty]
HPDrainRate:0
CircleSize:4
OverallDifficulty:10
ApproachRate:9
SliderMultiplier:1.4
SliderTickRate:1

[Events]
//Background and Video events
//Break Periods
//Storyboard Layer 0 (Background)
//Storyboard Layer 1 (Fail)
//Storyboard Layer 2 (Pass)
//Storyboard Layer 3 (Foreground)
//Storyboard Sound Samples

[TimingPoints]
7038,333.333333333333,4,2,0,100,1,0

[HitObjects]
128,64,7037,5,2,0:0:0:0:
144,64,7121,1,0,0:0:0:0:
160,64,7204,1,0,0:0:0:0:
176,64,7287,1,0,0:0:0:0:
192,64,7371,1,2,0:0:0:0:
208,64,7455,1,0,0:0:0:0:
224,64,7538,1,0,0:0:0:0:
240,64,7621,1,0,0:0:0:0:
256,64,7704,6,0,L|304:64,3,35,2|0|0|0,0:0|0:0|0:0|0:0,0:0:0:0:
320,64,8037,2,0,L|368:64,3,35,2|0|0|0,0:0|0:0|0:0|0:0,0:0:0:0:
384,64,8371,5,2,0:0:0:0:
384,80,8455,1,0,0:0:0:0:
384,96,8538,1,0,0:0:0:0:
384,112,8621,1,0,0:0:0:0:
384,128,8705,1,2,0:0:0:0:
384,144,8789,1,0,0:0:0:0:
384,160,8872,1,0,0:0:0:0:
384,176,8955,1,0,0:0:0:0:
384,192,9038,6,0,L|384:240,3,35,2|0|0|0,0:0|0:0|0:0|0:0,0:0:0:0:
384,256,9371,2,0,L|384:304,3,35,2|0|0|0,0:0|0:0|0:0|0:0,0:0:0:0:
384,320,9704,5,2,0:0:0:0:
368,320,9788,1,0,0:0:0:0:
352,320,9871,1,0,0:0:0:0:
336,320,9954,1,0,0:0:0:0:
320,320,10038,1,2,0:0:0:0:
304,320,10122,1,0,0:0:0:0:
288,320,10205,1,0,0:0:0:0:
272,320,10288,1,0,0:0:0:0:
256,320,10371,6,0,L|208:320,3,35,2|0|0|0,0:0|0:0|0:0|0:0,0:0:0:0:
192,320,10704,2,0,L|144:320,3,35,2|0|0|0,0:0|0:0|0:0|0:0,0:0:0:0:
128,320,11038,5,2,0:0:0:0:
128,304,11122,1,0,0:0:0:0:
128,288,11205,1,0,0:0:0:0:
128,272,11288,1,0,0:0:0:0:
128,256,11372,1,2,0:0:0:0:
128,240,11456,1,0,0:0:0:0:
128,224,11539,1,0,0:0:0:0:
128,207,11622,1,0,0:0:0:0:
128,192,11705,6,0,L|128:144,3,35,2|0|0|0,0:0|0:0|0:0|0:0,0:0:0:0:
128,128,12038,2,0,L|128:80,3,35,2|0|0|0,0:0|0:0|0:0|0:0,0:0:0:0:
128,64,12371,5,2,0:0:0:0:
144,64,12455,1,0,0:0:0:0:
160,64,12538,1,0,0:0:0:0:
176,64,12621,1,0,0:0:0:0:
192,64,12705,1,2,0:0:0:0:
208,64,12789,1,0,0:0:0:0:
224,64,12872,1,0,0:0:0:0:
240,64,12955,1,0,0:0:0:0:
256,64,13038,6,0,L|304:64,3,35,2|0|0|0,0:0|0:0|0:0|0:0,0:0:0:0:
320,64,13371,2,0,L|368:64,3,35,2|0|0|0,0:0|0:0|0:0|0:0,0:0:0:0:
384,64,13705,5,2,0:0:0:0:
384,80,13789,1,0,0:0:0:0:
384,96,13872,1,0,0:0:0:0:
384,112,13955,1,0,0:0:0:0:
384,128,14039,1,2,0:0:0:0:
384,144,14123,1,0,0:0:0:0:
384,160,14206,1,0,0:0:0:0:
384,176,14289,1,0,0:0:0:0:
384,192,14372,6,0,L|384:240,3,35,2|0|0|0,0:0|0:0|0:0|0:0,0:0:0:0:
384,256,14705,2,0,L|384:304,3,35,2|0|0|0,0:0|0:0|0:0|0:0,0:0:0:0:
384,320,15038,5,2,0:0:0:0:
368,320,15122,1,0,0:0:0:0:
352,320,15205,1,0,0:0:0:0:
336,320,15288,1,0,0:0:0:0:
320,320,15372,1,2,0:0:0:0:
304,320,15456,1,0,0:0:0:0:
288,320,15539,1,0,0:0:0:0:
272,320,15622,1,0,0:0:0:0:
256,320,15705,6,0,L|208:320,3,35,2|0|0|0,0:0|0:0|0:0|0:0,0:0:0:0:
192,320,16038,2,0,L|144:320,3,35,2|0|0|0,0:0|0:0|0:0|0:0,0:0:0:0:
128,320,16372,5,2,0:0:0:0:
128,304,16456,1,0,0:0:0:0:
128,288,16539,1,0,0:0:0:0:
128,272,16622,1,0,0:0:0:0:
128,256,16706,1,2,0:0:0:0:
128,240,16790,1,0,0:0:0:0:
128,224,16873,1,0,0:0:0:0:
128,207,16956,1,0,0:0:0:0:
128,192,17039,6,0,L|128:144,3,35,2|0|0|0,0:0|0:0|0:0|0:0,0:0:0:0:
128,128,17372,2,0,L|128:80,3,35,2|0|0|0,0:0|0:0|0:0|0:0,0:0:0:0:
128,64,17704,5,2,0:0:0:0:
144,64,17788,1,0,0:0:0:0:
160,64,17871,1,0,0:0:0:0:
176,64,17954,1,0,0:0:0:0:
192,64,18038,1,2,0:0:0:0:
208,64,18122,1,0,0:0:0:0:
224,64,18205,1,0,0:0:0:0:
240,64,18288,1,0,0:0:0:0:
256,64,18371,6,0,L|304:64,3,35,2|0|0|0,0:0|0:0|0:0|0:0,0:0:0:0:
320,64,18704,2,0,L|368:64,3,35,2|0|0|0,0:0|0:0|0:0|0:0,0:0:0:0:
384,64,19038,5,2,0:0:0:0:
384,80,19122,1,0,0:0:0:0:
384,96,19205,1,0,0:0:0:0:
384,112,19288,1,0,0:0:0:0:
384,128,19372,1,2,0:0:0:0:
384,144,19456,1,0,0:0:0:0:
384,160,19539,1,0,0:0:0:0:
384,176,19622,1,0,0:0:0:0:
384,192,19705,6,0,L|384:240,3,35,2|0|0|0,0:0|0:0|0:0|0:0,0:0:0:0:
384,256,20038,2,0,L|384:304,3,35,2|0|0|0,0:0|0:0|0:0|0:0,0:0:0:0:
384,320,20371,5,2,0:0:0:0:
368,320,20455,1,0,0:0:0:0:
352,320,20538,1,0,0:0:0:0:
336,320,20621,1,0,0:0:0:0:
320,320,20705,1,2,0:0:0:0:
304,320,20789,1,0,0:0:0:0:
288,320,20872,1,0,0:0:0:0:
272,320,20955,1,0,0:0:0:0:
256,320,21038,6,0,L|208:320,3,35,2|0|0|0,0:0|0:0|0:0|0:0,0:0:0:0:
192,320,21371,2,0,L|144:320,3,35,2|0|0|0,0:0|0:0|0:0|0:0,0:0:0:0:
128,320,21705,5,2,0:0:0:0:
128,304,21789,1,0,0:0:0:0:
128,288,21872,1,0,0:0:0:0:
128,272,21955,1,0,0:0:0:0:
128,256,22039,1,2,0:0:0:0:
128,240,22123,1,0,0:0:0:0:
128,224,22206,1,0,0:0:0:0:
128,207,22289,1,0,0:0:0:0:
128,192,22372,6,0,L|128:144,3,35,2|0|0|0,0:0|0:0|0:0|0:0,0:0:0:0:
128,128,22705,2,0,L|128:80,3,35,2|0|0|0,0:0|0:0|0:0|0:0,0:0:0:0:
128,64,23037,5,2,0:0:0:0:
144,64,23121,1,0,0:0:0:0:
160,64,23204,1,0,0:0:0:0:
176,64,23287,1,0,0:0:0:0:
192,64,23371,1,2,0:0:0:0:
208,64,23455,1,0,0:0:0:0:
224,64,23538,1,0,0:0:0:0:
240,64,23621,1,0,0:0:0:0:
256,64,23704,6,0,L|304:64,3,35,2|0|0|0,0:0|0:0|0:0|0:0,0:0:0:0:
320,64,24037,2,0,L|368:64,3,35,2|0|0|0,0:0|0:0|0:0|0:0,0:0:0:0:
384,64,24371,5,2,0:0:0:0:
384,80,24455,1,0,0:0:0:0:
384,96,24538,1,0,0:0:0:0:
384,112,24621,1,0,0:0:0:0:
384,128,24705,1,2,0:0:0:0:
384,144,24789,1,0,0:0:0:0:
384,160,24872,1,0,0:0:0:0:
384,176,24955,1,0,0:0:0:0:
384,192,25038,6,0,L|384:240,3,35,2|0|0|0,0:0|0:0|0:0|0:0,0:0:0:0:
384,256,25371,2,0,L|384:304,3,35,2|0|0|0,0:0|0:0|0:0|0:0,0:0:0:0:
384,320,25704,5,2,0:0:0:0:
368,320,25788,1,0,0:0:0:0:
352,320,25871,1,0,0:0:0:0:
336,320,25954,1,0,0:0:0:0:
320,320,26038,1,2,0:0:0:0:
304,320,26122,1,0,0:0:0:0:
288,320,26205,1,0,0:0:0:0:
272,320,26288,1,0,0:0:0:0:
256,320,26371,6,0,L|208:320,3,35,2|0|0|0,0:0|0:0|0:0|0:0,0:0:0:0:
192,320,26704,2,0,L|144:320,3,35,2|0|0|0,0:0|0:0|0:0|0:0,0:0:0:0:
128,320,27038,5,2,0:0:0:0:
128,304,27122,1,0,0:0:0:0:
128,288,27205,1,0,0:0:0:0:
128,272,27288,1,0,0:0:0:0:
128,256,27372,1,2,0:0:0:0:
128,240,27456,1,0,0:0:0:0:
128,224,27539,1,0,0:0:0:0:
128,207,27622,1,0,0:0:0:0:
128,192,27705,6,0,L|128:144,3,35,2|0|0|0,0:0|0:0|0:0|0:0,0:0:0:0:
128,128,28038,2,0,L|128:80,3,35,2|0|0|0,0:0|0:0|0:0|0:0,0:0:0:0:
128,64,28371,5,2,0:0:0:0:
144,64,28455,1,0,0:0:0:0:
160,64,28538,1,0,0:0:0:0:
176,64,28621,1,0,0:0:0:0:
192,64,28705,1,2,0:0:0:0:
208,64,28789,1,0,0:0:0:0:
224,64,28872,1,0,0:0:0:0:
240,64,28955,1,0,0:0:0:0:
256,64,29038,6,0,L|304:64,3,35,2|0|0|0,0:0|0:0|0:0|0:0,0:0:0:0:
320,64,29371,2,0,L|368:64,3,35,2|0|0|0,0:0|0:0|0:0|0:0,0:0:0:0:
384,64,29705,5,2,0:0:0:0:
384,80,29789,1,0,0:0:0:0:
384,96,29872,1,0,0:0:0:0:
384,112,29955,1,0,0:0:0:0:
384,128,30039,1,2,0:0:0:0:
384,144,30123,1,0,0:0:0:0:
384,160,30206,1,0,0:0:0:0:
384,176,30289,1,0,0:0:0:0:
384,192,30372,6,0,L|384:240,3,35,2|0|0|0,0:0|0:0|0:0|0:0,0:0:0:0:
384,256,30705,2,0,L|384:304,3,35,2|0|0|0,0:0|0:0|0:0|0:0,0:0:0:0:
384,320,31038,5,2,0:0:0:0:
368,320,31122,1,0,0:0:0:0:
352,320,31205,1,0,0:0:0:0:
336,320,31288,1,0,0:0:0:0:
320,320,31372,1,2,0:0:0:0:
304,320,31456,1,0,0:0:0:0:
288,320,31539,1,0,0:0:0:0:
272,320,31622,1,0,0:0:0:0:
256,320,31705,6,0,L|208:320,3,35,2|0|0|0,0:0|0:0|0:0|0:0,0:0:0:0:
192,320,32038,2,0,L|144:320,3,35,2|0|0|0,0:0|0:0|0:0|0:0,0:0:0:0:
128,320,32372,5,2,0:0:0:0:
128,304,32456,1,0,0:0:0:0:
128,288,32539,1,0,0:0:0:0:
128,272,32622,1,0,0:0:0:0:
128,256,32706,1,2,0:0:0:0:
128,240,32790,1,0,0:0:0:0:
128,224,32873,1,0,0:0:0:0:
128,207,32956,1,0,0:0:0:0:
128,192,33039,6,0,L|128:144,3,35,2|0|0|0,0:0|0:0|0:0|0:0,0:0:0:0:
128,128,33372,2,0,L|128:80,3,35,2|0|0|0,0:0|0:0|0:0|0:0,0:0:0:0:
128,64,33705,5,2,0:0:0:0:
144,64,33789,1,0,0:0:0:0:
160,64,33872,1,0,0:0:0:0:
176,64,33955,1,0,0:0:0:0:
192,64,34039,1,2,0:0:0:0:
208,64,34123,1,0,0:0:0:0:
224,64,34206,1,0,0:0:0:0:
240,64,34289,1,0,0:0:0:0:
256,64,34372,6,0,L|304:64,3,35,2|0|0|0,0:0|0:0|0:0|0:0,0:0:0:0:
320,64,34705,2,0,L|368:64,3,35,2|0|0|0,0:0|0:0|0:0|0:0,0:0:0:0:
384,64,35039,5,2,0:0:0:0:
384,80,35123,1,0,0:0:0:0:
384,96,35206,1,0,0:0:0:0:
384,112,35289,1,0,0:0:0:0:
384,128,35373,1,2,0:0:0:0:
384,144,35457,1,0,0:0:0:0:
384,160,35540,1,0,0:0:0:0:
384,176,35623,1,0,0:0:0:0:
384,192,35706,6,0,L|384:240,3,35,2|0|0|0,0:0|0:0|0:0|0:0,0:0:0:0:
384,256,36039,2,0,L|384:304,3,35,2|0|0|0,0:0|0:0|0:0|0:0,0:0:0:0:
384,320,36372,5,2,0:0:0:0:
368,320,36456,1,0,0:0:0:0:
352,320,36539,1,0,0:0:0:0:
336,320,36622,1,0,0:0:0:0:
320,320,36706,1,2,0:0:0:0:
304,320,36790,1,0,0:0:0:0:
288,320,36873,1,0,0:0:0:0:
272,320,36956,1,0,0:0:0:0:
256,320,37039,6,0,L|208:320,3,35,2|0|0|0,0:0|0:0|0:0|0:0,0:0:0:0:
192,320,37372,2,0,L|144:320,3,35,2|0|0|0,0:0|0:0|0:0|0:0,0:0:0:0:
128,320,37706,5,2,0:0:0:0:
128,304,37790,1,0,0:0:0:0:
128,288,37873,1,0,0:0:0:0:
128,272,37956,1,0,0:0:0:0:
128,256,38040,1,2,0:0:0:0:
128,240,38124,1,0,0:0:0:0:
128,224,38207,1,0,0:0:0:0:
128,207,38290,1,0,0:0:0:0:
128,192,38373,6,0,L|128:144,3,35,2|0|0|0,0:0|0:0|0:0|0:0,0:0:0:0:
128,128,38706,2,0,L|128:80,3,35,2|0|0|0,0:0|0:0|0:0|0:0,0:0:0:0:
128,64,41704,5,2,0:0:0:0:
144,64,41788,1,0,0:0:0:0:
160,64,41871,1,0,0:0:0:0:
176,64,41954,1,0,0:0:0:0:
192,64,42038,1,2,0:0:0:0:
208,64,42122,1,0,0:0:0:0:
224,64,42205,1,0,0:0:0:0:
240,64,42288,1,0,0:0:0:0:
256,64,42371,6,0,L|304:64,3,35,2|0|0|0,0:0|0:0|0:0|0:0,0:0:0:0:
320,64,42704,2,0,L|368:64,3,35,2|0|0|0,0:0|0:0|0:0|0:0,0:0:0:0:
384,64,43038,5,2,0:0:0:0:
384,80,43122,1,0,0:0:0:0:
384,96,43205,1,0,0:0:0:0:
384,112,43288,1,0,0:0:0:0:
384,128,43372,1,2,0:0:0:0:
384,144,43456,1,0,0:0:0:0:
384,160,43539,1,0,0:0:0:0:
384,176,43622,1,0,0:0:0:0:
384,192,43705,6,0,L|384:240,3,35,2|0|0|0,0:0|0:0|0:0|0:0,0:0:0:0:
384,256,44038,2,0,L|384:304,3,35,2|0|0|0,0:0|0:0|0:0|0:0,0:0:0:0:
384,320,44371,5,2,0:0:0:0:
368,320,44455,1,0,0:0:0:0:
352,320,44538,1,0,0:0:0:0:
336,320,44621,1,0,0:0:0:0:
320,320,44705,1,2,0:0:0:0:
304,320,44789,1,0,0:0:0:0:
288,320,44872,1,0,0:0:0:0:
272,320,44955,1,0,0:0:0:0:
256,320,45038,6,0,L|208:320,3,35,2|0|0|0,0:0|0:0|0:0|0:0,0:0:0:0:
192,320,45371,2,0,L|144:320,3,35,2|0|0|0,0:0|0:0|0:0|0:0,0:0:0:0:
128,320,45705,5,2,0:0:0:0:
128,304,45789,1,0,0:0:0:0:
128,288,45872,1,0,0:0:0:0:
128,272,45955,1,0,0:0:0:0:
128,256,46039,1,2,0:0:0:0:
128,240,46123,1,0,0:0:0:0:
128,224,46206,1,0,0:0:0:0:
128,207,46289,1,0,0:0:0:0:
128,192,46372,6,0,L|128:144,3,35,2|0|0|0,0:0|0:0|0:0|0:0,0:0:0:0:
128,128,46705,2,0,L|128:80,3,35,2|0|0|0,0:0|0:0|0:0|0:0,0:0:0:0:
128,64,47037,5,2,0:0:0:0:
144,64,47121,1,0,0:0:0:0:
160,64,47204,1,0,0:0:0:0:
176,64,47287,1,0,0:0:0:0:
192,64,47371,1,2,0:0:0:0:
208,64,47455,1,0,0:0:0:0:
224,64,47538,1,0,0:0:0:0:
240,64,47621,1,0,0:0:0:0:
256,64,47704,6,0,L|304:64,3,35,2|0|0|0,0:0|0:0|0:0|0:0,0:0:0:0:
320,64,48037,2,0,L|368:64,3,35,2|0|0|0,0:0|0:0|0:0|0:0,0:0:0:0:
384,64,48371,5,2,0:0:0:0:
384,80,48455,1,0,0:0:0:0:
384,96,48538,1,0,0:0:0:0:
384,112,48621,1,0,0:0:0:0:
384,128,48705,1,2,0:0:0:0:
384,144,48789,1,0,0:0:0:0:
384,160,48872,1,0,0:0:0:0:
384,176,48955,1,0,0:0:0:0:
384,192,49038,6,0,L|384:240,3,35,2|0|0|0,0:0|0:0|0:0|0:0,0:0:0:0:
384,256,49371,2,0,L|384:304,3,35,2|0|0|0,0:0|0:0|0:0|0:0,0:0:0:0:
384,320,49704,5,2,0:0:0:0:
368,320,49788,1,0,0:0:0:0:
352,320,49871,1,0,0:0:0:0:
336,320,49954,1,0,0:0:0:0:
320,320,50038,1,2,0:0:0:0:
304,320,50122,1,0,0:0:0:0:
288,320,50205,1,0,0:0:0:0:
272,320,50288,1,0,0:0:0:0:
256,320,50371,6,0,L|208:320,3,35,2|0|0|0,0:0|0:0|0:0|0:0,0:0:0:0:
192,320,50704,2,0,L|144:320,3,35,2|0|0|0,0:0|0:0|0:0|0:0,0:0:0:0:
128,320,51038,5,2,0:0:0:0:
128,304,51122,1,0,0:0:0:0:
128,288,51205,1,0,0:0:0:0:
128,272,51288,1,0,0:0:0:0:
128,256,51372,1,2,0:0:0:0:
128,240,51456,1,0,0:0:0:0:
128,224,51539,1,0,0:0:0:0:
128,207,51622,1,0,0:0:0:0:
128,192,51705,6,0,L|128:144,3,35,2|0|0|0,0:0|0:0|0:0|0:0,0:0:0:0:
128,128,52038,2,0,L|128:80,3,35,2|0|0|0,0:0|0:0|0:0|0:0,0:0:0:0:
128,64,52370,5,2,0:0:0:0:
144,64,52454,1,0,0:0:0:0:
160,64,52537,1,0,0:0:0:0:
176,64,52620,1,0,0:0:0:0:
192,64,52704,1,2,0:0:0:0:
208,64,52788,1,0,0:0:0:0:
224,64,52871,1,0,0:0:0:0:
240,64,52954,1,0,0:0:0:0:
256,64,53037,6,0,L|304:64,3,35,2|0|0|0,0:0|0:0|0:0|0:0,0:0:0:0:
320,64,53370,2,0,L|368:64,3,35,2|0|0|0,0:0|0:0|0:0|0:0,0:0:0:0:
384,64,53704,5,2,0:0:0:0:
384,80,53788,1,0,0:0:0:0:
384,96,53871,1,0,0:0:0:0:
384,112,53954,1,0,0:0:0:0:
384,128,54038,1,2,0:0:0:0:
384,144,54122,1,0,0:0:0:0:
384,160,54205,1,0,0:0:0:0:
384,176,54288,1,0,0:0:0:0:
384,192,54371,6,0,L|384:240,3,35,2|0|0|0,0:0|0:0|0:0|0:0,0:0:0:0:
384,256,54704,2,0,L|384:304,3,35,2|0|0|0,0:0|0:0|0:0|0:0,0:0:0:0:
384,320,55037,5,2,0:0:0:0:
368,320,55121,1,0,0:0:0:0:
352,320,55204,1,0,0:0:0:0:
336,320,55287,1,0,0:0:0:0:
320,320,55371,1,2,0:0:0:0:
304,320,55455,1,0,0:0:0:0:
288,320,55538,1,0,0:0:0:0:
272,320,55621,1,0,0:0:0:0:
256,320,55704,6,0,L|208:320,3,35,2|0|0|0,0:0|0:0|0:0|0:0,0:0:0:0:
192,320,56037,2,0,L|144:320,3,35,2|0|0|0,0:0|0:0|0:0|0:0,0:0:0:0:
128,320,56371,5,2,0:0:0:0:
128,304,56455,1,0,0:0:0:0:
128,288,56538,1,0,0:0:0:0:
128,272,56621,1,0,0:0:0:0:
128,256,56705,1,2,0:0:0:0:
128,240,56789,1,0,0:0:0:0:
128,224,56872,1,0,0:0:0:0:
128,207,56955,1,0,0:0:0:0:
128,192,57038,6,0,L|128:144,3,35,2|0|0|0,0:0|0:0|0:0|0:0,0:0:0:0:
128,128,57371,2,0,L|128:80,3,35,2|0|0|0,0:0|0:0|0:0|0:0,0:0:0:0:
128,64,57704,5,2,0:0:0:0:
144,64,57788,1,0,0:0:0:0:
160,64,57871,1,0,0:0:0:0:
176,64,57954,1,0,0:0:0:0:
192,64,58038,1,2,0:0:0:0:
208,64,58122,1,0,0:0:0:0:
224,64,58205,1,0,0:0:0:0:
240,64,58288,1,0,0:0:0:0:
256,64,58371,6,0,L|304:64,3,35,2|0|0|0,0:0|0:0|0:0|0:0,0:0:0:0:
320,64,58704,2,0,L|368:64,3,35,2|0|0|0,0:0|0:0|0:0|0:0,0:0:0:0:
384,64,59038,5,2,0:0:0:0:
384,80,59122,1,0,0:0:0:0:
384,96,59205,1,0,0:0:0:0:
384,112,59288,1,0,0:0:0:0:
384,128,59372,1,2,0:0:0:0:
384,144,59456,1,0,0:0:0:0:
384,160,59539,1,0,0:0:0:0:
384,176,59622,1,0,0:0:0:0:
384,192,59705,6,0,L|384:240,3,35,2|0|0|0,0:0|0:0|0:0|0:0,0:0:0:0:
384,256,60038,2,0,L|384:304,3,35,2|0|0|0,0:0|0:0|0:0|0:0,0:0:0:0:
384,320,60371,5,2,0:0:0:0:
368,320,60455,1,0,0:0:0:0:
352,320,60538,1,0,0:0:0:0:
336,320,60621,1,0,0:0:0:0:
320,320,60705,1,2,0:0:0:0:
304,320,60789,1,0,0:0:0:0:
288,320,60872,1,0,0:0:0:0:
272,320,60955,1,0,0:0:0:0:
256,320,61038,6,0,L|208:320,3,35,2|0|0|0,0:0|0:0|0:0|0:0,0:0:0:0:
192,320,61371,2,0,L|144:320,3,35,2|0|0|0,0:0|0:0|0:0|0:0,0:0:0:0:
128,320,61705,5,2,0:0:0:0:
128,304,61789,1,0,0:0:0:0:
128,288,61872,1,0,0:0:0:0:
128,272,61955,1,0,0:0:0:0:
128,256,62039,1,2,0:0:0:0:
128,240,62123,1,0,0:0:0:0:
128,224,62206,1,0,0:0:0:0:
128,207,62289,1,0,0:0:0:0:
128,192,62372,6,0,L|128:144,3,35,2|0|0|0,0:0|0:0|0:0|0:0,0:0:0:0:
128,128,62705,2,0,L|128:80,3,35,2|0|0|0,0:0|0:0|0:0|0:0,0:0:0:0:
128,64,63037,5,2,0:0:0:0:
144,64,63121,1,0,0:0:0:0:
160,64,63204,1,0,0:0:0:0:
176,64,63287,1,0,0:0:0:0:
192,64,63371,1,2,0:0:0:0:
208,64,63455,1,0,0:0:0:0:
224,64,63538,1,0,0:0:0:0:
240,64,63621,1,0,0:0:0:0:
256,64,63704,6,0,L|304:64,3,35,2|0|0|0,0:0|0:0|0:0|0:0,0:0:0:0:
320,64,64037,2,0,L|368:64,3,35,2|0|0|0,0:0|0:0|0:0|0:0,0:0:0:0:
384,64,64371,5,2,0:0:0:0:
384,80,64455,1,0,0:0:0:0:
384,96,64538,1,0,0:0:0:0:
384,112,64621,1,0,0:0:0:0:
384,128,64705,1,2,0:0:0:0:
384,144,64789,1,0,0:0:0:0:
384,160,64872,1,0,0:0:0:0:
384,176,64955,1,0,0:0:0:0:
384,192,65038,6,0,L|384:240,3,35,2|0|0|0,0:0|0:0|0:0|0:0,0:0:0:0:
384,256,65371,2,0,L|384:304,3,35,2|0|0|0,0:0|0:0|0:0|0:0,0:0:0:0:
384,320,65704,5,2,0:0:0:0:
368,320,65788,1,0,0:0:0:0:
352,320,65871,1,0,0:0:0:0:
336,320,65954,1,0,0:0:0:0:
320,320,66038,1,2,0:0:0:0:
304,320,66122,1,0,0:0:0:0:
288,320,66205,1,0,0:0:0:0:
272,320,66288,1,0,0:0:0:0:
256,320,66371,6,0,L|208:320,3,35,2|0|0|0,0:0|0:0|0:0|0:0,0:0:0:0:
192,320,66704,2,0,L|144:320,3,35,2|0|0|0,0:0|0:0|0:0|0:0,0:0:0:0:
128,320,67038,5,2,0:0:0:0:
128,304,67122,1,0,0:0:0:0:
128,288,67205,1,0,0:0:0:0:
128,272,67288,1,0,0:0:0:0:
128,256,67372,1,2,0:0:0:0:
128,240,67456,1,0,0:0:0:0:
128,224,67539,1,0,0:0:0:0:
128,207,67622,1,0,0:0:0:0:
128,192,67705,6,0,L|128:144,3,35,2|0|0|0,0:0|0:0|0:0|0:0,0:0:0:0:
128,128,68038,2,0,L|128:80,3,35,2|0|0|0,0:0|0:0|0:0|0:0,0:0:0:0:
128,64,68370,5,2,0:0:0:0:
144,64,68454,1,0,0:0:0:0:
160,64,68537,1,0,0:0:0:0:
176,64,68620,1,0,0:0:0:0:
192,64,68704,1,2,0:0:0:0:
208,64,68788,1,0,0:0:0:0:
224,64,68871,1,0,0:0:0:0:
240,64,68954,1,0,0:0:0:0:
256,64,69037,6,0,L|304:64,3,35,2|0|0|0,0:0|0:0|0:0|0:0,0:0:0:0:
320,64,69370,2,0,L|368:64,3,35,2|0|0|0,0:0|0:0|0:0|0:0,0:0:0:0:
384,64,69704,5,2,0:0:0:0:
384,80,69788,1,0,0:0:0:0:
384,96,69871,1,0,0:0:0:0:
384,112,69954,1,0,0:0:0:0:
384,128,70038,1,2,0:0:0:0:
384,144,70122,1,0,0:0:0:0:
384,160,70205,1,0,0:0:0:0:
384,176,70288,1,0,0:0:0:0:
384,192,70371,6,0,L|384:240,3,35,2|0|0|0,0:0|0:0|0:0|0:0,0:0:0:0:
384,256,70704,2,0,L|384:304,3,35,2|0|0|0,0:0|0:0|0:0|0:0,0:0:0:0:
384,320,71037,5,2,0:0:0:0:
368,320,71121,1,0,0:0:0:0:
352,320,71204,1,0,0:0:0:0:
336,320,71287,1,0,0:0:0:0:
320,320,71371,1,2,0:0:0:0:
304,320,71455,1,0,0:0:0:0:
288,320,71538,1,0,0:0:0:0:
272,320,71621,1,0,0:0:0:0:
256,320,71704,6,0,L|208:320,3,35,2|0|0|0,0:0|0:0|0:0|0:0,0:0:0:0:
192,320,72037,2,0,L|144:320,3,35,2|0|0|0,0:0|0:0|0:0|0:0,0:0:0:0:
128,320,72371,5,2,0:0:0:0:
128,304,72455,1,0,0:0:0:0:
128,288,72538,1,0,0:0:0:0:
128,272,72621,1,0,0:0:0:0:
128,256,72705,1,2,0:0:0:0:
128,240,72789,1,0,0:0:0:0:
128,224,72872,1,0,0:0:0:0:
128,207,72955,1,0,0:0:0:0:
128,192,73038,6,0,L|128:144,3,35,2|0|0|0,0:0|0:0|0:0|0:0,0:0:0:0:
128,128,73371,2,0,L|128:80,3,35,2|0|0|0,0:0|0:0|0:0|0:0,0:0:0:0:
128,64,73703,5,2,0:0:0:0:
144,64,73787,1,0,0:0:0:0:
160,64,73870,1,0,0:0:0:0:
176,64,73953,1,0,0:0:0:0:
192,64,74037,1,2,0:0:0:0:
208,64,74121,1,0,0:0:0:0:
224,64,74204,1,0,0:0:0:0:
240,64,74287,1,0,0:0:0:0:
256,64,74370,6,0,L|304:64,3,35,2|0|0|0,0:0|0:0|0:0|0:0,0:0:0:0:
320,64,74703,2,0,L|368:64,3,35,2|0|0|0,0:0|0:0|0:0|0:0,0:0:0:0:
384,64,75037,5,2,0:0:0:0:
384,80,75121,1,0,0:0:0:0:
384,96,75204,1,0,0:0:0:0:
384,112,75287,1,0,0:0:0:0:
384,128,75371,1,2,0:0:0:0:
384,144,75455,1,0,0:0:0:0:
384,160,75538,1,0,0:0:0:0:
384,176,75621,1,0,0:0:0:0:
384,192,75704,6,0,L|384:240,3,35,2|0|0|0,0:0|0:0|0:0|0:0,0:0:0:0:
384,256,76037,2,0,L|384:304,3,35,2|0|0|0,0:0|0:0|0:0|0:0,0:0:0:0:
384,320,76370,5,2,0:0:0:0:
368,320,76454,1,0,0:0:0:0:
352,320,76537,1,0,0:0:0:0:
336,320,76620,1,0,0:0:0:0:
320,320,76704,1,2,0:0:0:0:
304,320,76788,1,0,0:0:0:0:
288,320,76871,1,0,0:0:0:0:
272,320,76954,1,0,0:0:0:0:
256,320,77037,6,0,L|208:320,3,35,2|0|0|0,0:0|0:0|0:0|0:0,0:0:0:0:
192,320,77370,2,0,L|144:320,3,35,2|0|0|0,0:0|0:0|0:0|0:0,0:0:0:0:
128,320,77704,5,2,0:0:0:0:
128,304,77788,1,0,0:0:0:0:
128,288,77871,1,0,0:0:0:0:
128,272,77954,1,0,0:0:0:0:
128,256,78038,1,2,0:0:0:0:
128,240,78122,1,0,0:0:0:0:
128,224,78205,1,0,0:0:0:0:
128,207,78288,1,0,0:0:0:0:
128,192,78371,6,0,L|128:144,3,35,2|0|0|0,0:0|0:0|0:0|0:0,0:0:0:0:
128,128,78704,2,0,L|128:80,3,35,2|0|0|0,0:0|0:0|0:0|0:0,0:0:0:0:
128,64,79037,5,2,0:0:0:0:
144,64,79121,1,0,0:0:0:0:
160,64,79204,1,0,0:0:0:0:
176,64,79287,1,0,0:0:0:0:
192,64,79371,1,2,0:0:0:0:
208,64,79455,1,0,0:0:0:0:
224,64,79538,1,0,0:0:0:0:
240,64,79621,1,0,0:0:0:0:
256,64,79704,6,0,L|304:64,3,35,2|0|0|0,0:0|0:0|0:0|0:0,0:0:0:0:
320,64,80037,2,0,L|368:64,3,35,2|0|0|0,0:0|0:0|0:0|0:0,0:0:0:0:
384,64,80371,5,2,0:0:0:0:
384,80,80455,1,0,0:0:0:0:
384,96,80538,1,0,0:0:0:0:
384,112,80621,1,0,0:0:0:0:
384,128,80705,1,2,0:0:0:0:
384,144,80789,1,0,0:0:0:0:
384,160,80872,1,0,0:0:0:0:
384,176,80955,1,0,0:0:0:0:
384,192,81038,6,0,L|384:240,3,35,2|0|0|0,0:0|0:0|0:0|0:0,0:0:0:0:
384,256,81371,2,0,L|384:304,3,35,2|0|0|0,0:0|0:0|0:0|0:0,0:0:0:0:
384,320,81704,5,2,0:0:0:0:
368,320,81788,1,0,0:0:0:0:
352,320,81871,1,0,0:0:0:0:
336,320,81954,1,0,0:0:0:0:
320,320,82038,1,2,0:0:0:0:
304,320,82122,1,0,0:0:0:0:
288,320,82205,1,0,0:0:0:0:
272,320,82288,1,0,0:0:0:0:
256,320,82371,6,0,L|208:320,3,35,2|0|0|0,0:0|0:0|0:0|0:0,0:0:0:0:
192,320,82704,2,0,L|144:320,3,35,2|0|0|0,0:0|0:0|0:0|0:0,0:0:0:0:
128,320,83038,5,2,0:0:0:0:
128,304,83122,1,0,0:0:0:0:
128,288,83205,1,0,0:0:0:0:
128,272,83288,1,0,0:0:0:0:
128,256,83372,1,2,0:0:0:0:
128,240,83456,1,0,0:0:0:0:
128,224,83539,1,0,0:0:0:0:
128,207,83622,1,0,0:0:0:0:
128,192,83705,6,0,L|128:144,3,35,2|0|0|0,0:0|0:0|0:0|0:0,0:0:0:0:
128,128,84038,2,0,L|128:80,3,35,2|0|0|0,0:0|0:0|0:0|0:0,0:0:0:0:
128,64,84370,5,2,0:0:0:0:
144,64,84454,1,0,0:0:0:0:
160,64,84537,1,0,0:0:0:0:
176,64,84620,1,0,0:0:0:0:
192,64,84704,1,2,0:0:0:0:
208,64,84788,1,0,0:0:0:0:
224,64,84871,1,0,0:0:0:0:
240,64,84954,1,0,0:0:0:0:
256,64,85037,6,0,L|304:64,3,35,2|0|0|0,0:0|0:0|0:0|0:0,0:0:0:0:
320,64,85370,2,0,L|368:64,3,35,2|0|0|0,0:0|0:0|0:0|0:0,0:0:0:0:
384,64,85704,5,2,0:0:0:0:
384,80,85788,1,0,0:0:0:0:
384,96,85871,1,0,0:0:0:0:
384,112,85954,1,0,0:0:0:0:
384,128,86038,1,2,0:0:0:0:
384,144,86122,1,0,0:0:0:0:
384,160,86205,1,0,0:0:0:0:
384,176,86288,1,0,0:0:0:0:
384,192,86371,6,0,L|384:240,3,35,2|0|0|0,0:0|0:0|0:0|0:0,0:0:0:0:
384,256,86704,2,0,L|384:304,3,35,2|0|0|0,0:0|0:0|0:0|0:0,0:0:0:0:
384,320,87037,5,2,0:0:0:0:
368,320,87121,1,0,0:0:0:0:
352,320,87204,1,0,0:0:0:0:
336,320,87287,1,0,0:0:0:0:
320,320,87371,1,2,0:0:0:0:
304,320,87455,1,0,0:0:0:0:
288,320,87538,1,0,0:0:0:0:
272,320,87621,1,0,0:0:0:0:
256,320,87704,6,0,L|208:320,3,35,2|0|0|0,0:0|0:0|0:0|0:0,0:0:0:0:
192,320,88037,2,0,L|144:320,3,35,2|0|0|0,0:0|0:0|0:0|0:0,0:0:0:0:
128,320,88371,5,2,0:0:0:0:
128,304,88455,1,0,0:0:0:0:
128,288,88538,1,0,0:0:0:0:
128,272,88621,1,0,0:0:0:0:
128,256,88705,1,2,0:0:0:0:
128,240,88789,1,0,0:0:0:0:
128,224,88872,1,0,0:0:0:0:
128,207,88955,1,0,0:0:0:0:
128,192,89038,6,0,L|128:144,3,35,2|0|0|0,0:0|0:0|0:0|0:0,0:0:0:0:
128,128,89371,2,0,L|128:80,3,35,2|0|0|0,0:0|0:0|0:0|0:0,0:0:0:0:
128,64,89703,5,2,0:0:0:0:
144,64,89787,1,0,0:0:0:0:
160,64,89870,1,0,0:0:0:0:
176,64,89953,1,0,0:0:0:0:
192,64,90037,1,2,0:0:0:0:
208,64,90121,1,0,0:0:0:0:
224,64,90204,1,0,0:0:0:0:
240,64,90287,1,0,0:0:0:0:
256,64,90370,6,0,L|304:64,3,35,2|0|0|0,0:0|0:0|0:0|0:0,0:0:0:0:
320,64,90703,2,0,L|368:64,3,35,2|0|0|0,0:0|0:0|0:0|0:0,0:0:0:0:
384,64,91037,5,2,0:0:0:0:
384,80,91121,1,0,0:0:0:0:
384,96,91204,1,0,0:0:0:0:
384,112,91287,1,0,0:0:0:0:
384,128,91371,1,2,0:0:0:0:
384,144,91455,1,0,0:0:0:0:
384,160,91538,1,0,0:0:0:0:
384,176,91621,1,0,0:0:0:0:
384,192,91704,6,0,L|384:240,3,35,2|0|0|0,0:0|0:0|0:0|0:0,0:0:0:0:
384,256,92037,2,0,L|384:304,3,35,2|0|0|0,0:0|0:0|0:0|0:0,0:0:0:0:
384,320,92370,5,2,0:0:0:0:
368,320,92454,1,0,0:0:0:0:
352,320,92537,1,0,0:0:0:0:
336,320,92620,1,0,0:0:0:0:
320,320,92704,1,2,0:0:0:0:
304,320,92788,1,0,0:0:0:0:
288,320,92871,1,0,0:0:0:0:
272,320,92954,1,0,0:0:0:0:
256,320,93037,6,0,L|208:320,3,35,2|0|0|0,0:0|0:0|0:0|0:0,0:0:0:0:
192,320,93370,2,0,L|144:320,3,35,2|0|0|0,0:0|0:0|0:0|0:0,0:0:0:0:
128,320,93704,5,2,0:0:0:0:
128,304,93788,1,0,0:0:0:0:
128,288,93871,1,0,0:0:0:0:
128,272,93954,1,0,0:0:0:0:
128,256,94038,1,2,0:0:0:0:
128,240,94122,1,0,0:0:0:0:
128,224,94205,1,0,0:0:0:0:
128,207,94288,1,0,0:0:0:0:
128,192,94371,6,0,L|128:144,3,35,2|0|0|0,0:0|0:0|0:0|0:0,0:0:0:0:
128,128,94704,2,0,L|128:80,3,35,2|0|0|0,0:0|0:0|0:0|0:0,0:0:0:0:
128,64,95037,5,2,0:0:0:0:
144,64,95121,1,0,0:0:0:0:
160,64,95204,1,0,0:0:0:0:
176,64,95287,1,0,0:0:0:0:
192,64,95371,1,2,0:0:0:0:
208,64,95455,1,0,0:0:0:0:
224,64,95538,1,0,0:0:0:0:
240,64,95621,1,0,0:0:0:0:
256,64,95704,6,0,L|304:64,3,35,2|0|0|0,0:0|0:0|0:0|0:0,0:0:0:0:
320,64,96037,2,0,L|368:64,3,35,2|0|0|0,0:0|0:0|0:0|0:0,0:0:0:0:
384,64,96371,5,2,0:0:0:0:
384,80,96455,1,0,0:0:0:0:
384,96,96538,1,0,0:0:0:0:
384,112,96621,1,0,0:0:0:0:
384,128,96705,1,2,0:0:0:0:
384,144,96789,1,0,0:0:0:0:
384,160,96872,1,0,0:0:0:0:
384,176,96955,1,0,0:0:0:0:
384,192,97038,6,0,L|384:240,3,35,2|0|0|0,0:0|0:0|0:0|0:0,0:0:0:0:
384,256,97371,2,0,L|384:304,3,35,2|0|0|0,0:0|0:0|0:0|0:0,0:0:0:0:
384,320,97704,5,2,0:0:0:0:
368,320,97788,1,0,0:0:0:0:
352,320,97871,1,0,0:0:0:0:
336,320,97954,1,0,0:0:0:0:
320,320,98038,1,2,0:0:0:0:
304,320,98122,1,0,0:0:0:0:
288,320,98205,1,0,0:0:0:0:
272,320,98288,1,0,0:0:0:0:
256,320,98371,6,0,L|208:320,3,35,2|0|0|0,0:0|0:0|0:0|0:0,0:0:0:0:
192,320,98704,2,0,L|144:320,3,35,2|0|0|0,0:0|0:0|0:0|0:0,0:0:0:0:
128,320,99038,5,2,0:0:0:0:
128,304,99122,1,0,0:0:0:0:
128,288,99205,1,0,0:0:0:0:
128,272,99288,1,0,0:0:0:0:
128,256,99372,1,2,0:0:0:0:
128,240,99456,1,0,0:0:0:0:
128,224,99539,1,0,0:0:0:0:
128,207,99622,1,0,0:0:0:0:
128,192,99705,6,0,L|128:144,3,35,2|0|0|0,0:0|0:0|0:0|0:0,0:0:0:0:
128,128,100038,2,0,L|128:80,3,35,2|0|0|0,0:0|0:0|0:0|0:0,0:0:0:0:
128,64,100371,5,2,0:0:0:0:
144,64,100455,1,0,0:0:0:0:
160,64,100538,1,0,0:0:0:0:
176,64,100621,1,0,0:0:0:0:
192,64,100705,1,2,0:0:0:0:
208,64,100789,1,0,0:0:0:0:
224,64,100872,1,0,0:0:0:0:
240,64,100955,1,0,0:0:0:0:
256,64,101038,6,0,L|304:64,3,35,2|0|0|0,0:0|0:0|0:0|0:0,0:0:0:0:
320,64,101371,2,0,L|368:64,3,35,2|0|0|0,0:0|0:0|0:0|0:0,0:0:0:0:
384,64,101705,5,2,0:0:0:0:
384,80,101789,1,0,0:0:0:0:
384,96,101872,1,0,0:0:0:0:
384,112,101955,1,0,0:0:0:0:
384,128,102039,1,2,0:0:0:0:
384,144,102123,1,0,0:0:0:0:
384,160,102206,1,0,0:0:0:0:
384,176,102289,1,0,0:0:0:0:
384,192,102372,6,0,L|384:240,3,35,2|0|0|0,0:0|0:0|0:0|0:0,0:0:0:0:
384,256,102705,2,0,L|384:304,3,35,2|0|0|0,0:0|0:0|0:0|0:0,0:0:0:0:
384,320,103038,5,2,0:0:0:0:
368,320,103122,1,0,0:0:0:0:
352,320,103205,1,0,0:0:0:0:
336,320,103288,1,0,0:0:0:0:
320,320,103372,1,2,0:0:0:0:
304,320,103456,1,0,0:0:0:0:
288,320,103539,1,0,0:0:0:0:
272,320,103622,1,0,0:0:0:0:
256,320,103705,6,0,L|208:320,3,35,2|0|0|0,0:0|0:0|0:0|0:0,0:0:0:0:
192,320,104038,2,0,L|144:320,3,35,2|0|0|0,0:0|0:0|0:0|0:0,0:0:0:0:
128,320,104372,5,2,0:0:0:0:
128,304,104456,1,0,0:0:0:0:
128,288,104539,1,0,0:0:0:0:
128,272,104622,1,0,0:0:0:0:
128,256,104706,1,2,0:0:0:0:
128,240,104790,1,0,0:0:0:0:
128,224,104873,1,0,0:0:0:0:
128,207,104956,1,0,0:0:0:0:
128,192,105039,6,0,L|128:144,3,35,2|0|0|0,0:0|0:0|0:0|0:0,0:0:0:0:
128,128,105372,2,0,L|128:80,3,35,2|0|0|0,0:0|0:0|0:0|0:0,0:0:0:0:
128,64,105704,5,2,0:0:0:0:
144,64,105788,1,0,0:0:0:0:
160,64,105871,1,0,0:0:0:0:
176,64,105954,1,0,0:0:0:0:
192,64,106038,1,2,0:0:0:0:
208,64,106122,1,0,0:0:0:0:
224,64,106205,1,0,0:0:0:0:
240,64,106288,1,0,0:0:0:0:
256,64,106371,6,0,L|304:64,3,35,2|0|0|0,0:0|0:0|0:0|0:0,0:0:0:0:
320,64,106704,2,0,L|368:64,3,35,2|0|0|0,0:0|0:0|0:0|0:0,0:0:0:0:
384,64,107038,5,2,0:0:0:0:
384,80,107122,1,0,0:0:0:0:
384,96,107205,1,0,0:0:0:0:
384,112,107288,1,0,0:0:0:0:
384,128,107372,1,2,0:0:0:0:
384,144,107456,1,0,0:0:0:0:
384,160,107539,1,0,0:0:0:0:
384,176,107622,1,0,0:0:0:0:
384,192,107705,6,0,L|384:240,3,35,2|0|0|0,0:0|0:0|0:0|0:0,0:0:0:0:
384,256,108038,2,0,L|384:304,3,35,2|0|0|0,0:0|0:0|0:0|0:0,0:0:0:0:
384,320,108371,5,2,0:0:0:0:
368,320,108455,1,0,0:0:0:0:
352,320,108538,1,0,0:0:0:0:
336,320,108621,1,0,0:0:0:0:
320,320,108705,1,2,0:0:0:0:
304,320,108789,1,0,0:0:0:0:
288,320,108872,1,0,0:0:0:0:
272,320,108955,1,0,0:0:0:0:
256,320,109038,6,0,L|208:320,3,35,2|0|0|0,0:0|0:0|0:0|0:0,0:0:0:0:
192,320,109371,2,0,L|144:320,3,35,2|0|0|0,0:0|0:0|0:0|0:0,0:0:0:0:
128,320,109705,5,2,0:0:0:0:
128,304,109789,1,0,0:0:0:0:
128,288,109872,1,0,0:0:0:0:
128,272,109955,1,0,0:0:0:0:
128,256,110039,1,2,0:0:0:0:
128,240,110123,1,0,0:0:0:0:
128,224,110206,1,0,0:0:0:0:
128,207,110289,1,0,0:0:0:0:
128,192,110372,6,0,L|128:144,3,35,2|0|0|0,0:0|0:0|0:0|0:0,0:0:0:0:
128,128,110705,2,0,L|128:80,3,35,2|0|0|0,0:0|0:0|0:0|0:0,0:0:0:0:
128,64,111037,5,2,0:0:0:0:
144,64,111121,1,0,0:0:0:0:
160,64,111204,1,0,0:0:0:0:
176,64,111287,1,0,0:0:0:0:
192,64,111371,1,2,0:0:0:0:
208,64,111455,1,0,0:0:0:0:
224,64,111538,1,0,0:0:0:0:
240,64,111621,1,0,0:0:0:0:
256,64,111704,6,0,L|304:64,3,35,2|0|0|0,0:0|0:0|0:0|0:0,0:0:0:0:
320,64,112037,2,0,L|368:64,3,35,2|0|0|0,0:0|0:0|0:0|0:0,0:0:0:0:
384,64,112371,5,2,0:0:0:0:
384,80,112455,1,0,0:0:0:0:
384,96,112538,1,0,0:0:0:0:
384,112,112621,1,0,0:0:0:0:
384,128,112705,1,2,0:0:0:0:
384,144,112789,1,0,0:0:0:0:
384,160,112872,1,0,0:0:0:0:
384,176,112955,1,0,0:0:0:0:
384,192,113038,6,0,L|384:240,3,35,2|0|0|0,0:0|0:0|0:0|0:0,0:0:0:0:
384,256,113371,2,0,L|384:304,3,35,2|0|0|0,0:0|0:0|0:0|0:0,0:0:0:0:
384,320,113704,5,2,0:0:0:0:
368,320,113788,1,0,0:0:0:0:
352,320,113871,1,0,0:0:0:0:
336,320,113954,1,0,0:0:0:0:
320,320,114038,1,2,0:0:0:0:
304,320,114122,1,0,0:0:0:0:
288,320,114205,1,0,0:0:0:0:
272,320,114288,1,0,0:0:0:0:
256,320,114371,6,0,L|208:320,3,35,2|0|0|0,0:0|0:0|0:0|0:0,0:0:0:0:
192,320,114704,2,0,L|144:320,3,35,2|0|0|0,0:0|0:0|0:0|0:0,0:0:0:0:
128,320,115038,5,2,0:0:0:0:
128,304,115122,1,0,0:0:0:0:
128,288,115205,1,0,0:0:0:0:
128,272,115288,1,0,0:0:0:0:
128,256,115372,1,2,0:0:0:0:
128,240,115456,1,0,0:0:0:0:
128,224,115539,1,0,0:0:0:0:
128,207,115622,1,0,0:0:0:0:
128,192,115705,6,0,L|128:144,3,35,2|0|0|0,0:0|0:0|0:0|0:0,0:0:0:0:
128,128,116038,2,0,L|128:80,3,35,2|0|0|0,0:0|0:0|0:0|0:0,0:0:0:0:
128,64,116370,5,2,0:0:0:0:
144,64,116454,1,0,0:0:0:0:
160,64,116537,1,0,0:0:0:0:
176,64,116620,1,0,0:0:0:0:
192,64,116704,1,2,0:0:0:0:
208,64,116788,1,0,0:0:0:0:
224,64,116871,1,0,0:0:0:0:
240,64,116954,1,0,0:0:0:0:
256,64,117037,6,0,L|304:64,3,35,2|0|0|0,0:0|0:0|0:0|0:0,0:0:0:0:
320,64,117370,2,0,L|368:64,3,35,2|0|0|0,0:0|0:0|0:0|0:0,0:0:0:0:
384,64,117704,5,2,0:0:0:0:
384,80,117788,1,0,0:0:0:0:
384,96,117871,1,0,0:0:0:0:
384,112,117954,1,0,0:0:0:0:
384,128,118038,1,2,0:0:0:0:
384,144,118122,1,0,0:0:0:0:
384,160,118205,1,0,0:0:0:0:
384,176,118288,1,0,0:0:0:0:
384,192,118371,6,0,L|384:240,3,35,2|0|0|0,0:0|0:0|0:0|0:0,0:0:0:0:
384,256,118704,2,0,L|384:304,3,35,2|0|0|0,0:0|0:0|0:0|0:0,0:0:0:0:
384,320,119037,5,2,0:0:0:0:
368,320,119121,1,0,0:0:0:0:
352,320,119204,1,0,0:0:0:0:
336,320,119287,1,0,0:0:0:0:
320,320,119371,1,2,0:0:0:0:
304,320,119455,1,0,0:0:0:0:
288,320,119538,1,0,0:0:0:0:
272,320,119621,1,0,0:0:0:0:
256,320,119704,6,0,L|208:320,3,35,2|0|0|0,0:0|0:0|0:0|0:0,0:0:0:0:
192,320,120037,2,0,L|144:320,3,35,2|0|0|0,0:0|0:0|0:0|0:0,0:0:0:0:
128,320,120371,5,2,0:0:0:0:
128,304,120455,1,0,0:0:0:0:
128,288,120538,1,0,0:0:0:0:
128,272,120621,1,0,0:0:0:0:
128,256,120705,1,2,0:0:0:0:
128,240,120789,1,0,0:0:0:0:
128,224,120872,1,0,0:0:0:0:
128,207,120955,1,0,0:0:0:0:
128,192,121038,6,0,L|128:144,3,35,2|0|0|0,0:0|0:0|0:0|0:0,0:0:0:0:
128,128,121371,2,0,L|128:80,3,35,2|0|0|0,0:0|0:0|0:0|0:0,0:0:0:0:
128,64,121704,5,2,0:0:0:0:
144,64,121788,1,0,0:0:0:0:
160,64,121871,1,0,0:0:0:0:
176,64,121954,1,0,0:0:0:0:
192,64,122038,1,2,0:0:0:0:
208,64,122122,1,0,0:0:0:0:
224,64,122205,1,0,0:0:0:0:
240,64,122288,1,0,0:0:0:0:
256,64,122371,6,0,L|304:64,3,35,2|0|0|0,0:0|0:0|0:0|0:0,0:0:0:0:
320,64,122704,2,0,L|368:64,3,35,2|0|0|0,0:0|0:0|0:0|0:0,0:0:0:0:
384,64,123038,5,2,0:0:0:0:
384,80,123122,1,0,0:0:0:0:
384,96,123205,1,0,0:0:0:0:
384,112,123288,1,0,0:0:0:0:
384,128,123372,1,2,0:0:0:0:
384,144,123456,1,0,0:0:0:0:
384,160,123539,1,0,0:0:0:0:
384,176,123622,1,0,0:0:0:0:
384,192,123705,6,0,L|384:240,3,35,2|0|0|0,0:0|0:0|0:0|0:0,0:0:0:0:
384,256,124038,2,0,L|384:304,3,35,2|0|0|0,0:0|0:0|0:0|0:0,0:0:0:0:
384,320,124371,5,2,0:0:0:0:
368,320,124455,1,0,0:0:0:0:
352,320,124538,1,0,0:0:0:0:
336,320,124621,1,0,0:0:0:0:
320,320,124705,1,2,0:0:0:0:
304,320,124789,1,0,0:0:0:0:
288,320,124872,1,0,0:0:0:0:
272,320,124955,1,0,0:0:0:0:
256,320,125038,6,0,L|208:320,3,35,2|0|0|0,0:0|0:0|0:0|0:0,0:0:0:0:
192,320,125371,2,0,L|144:320,3,35,2|0|0|0,0:0|0:0|0:0|0:0,0:0:0:0:
128,320,125705,5,2,0:0:0:0:
128,304,125789,1,0,0:0:0:0:
128,288,125872,1,0,0:0:0:0:
128,272,125955,1,0,0:0:0:0:
128,256,126039,1,2,0:0:0:0:
128,240,126123,1,0,0:0:0:0:
128,224,126206,1,0,0:0:0:0:
128,207,126289,1,0,0:0:0:0:
128,192,126372,6,0,L|128:144,3,35,2|0|0|0,0:0|0:0|0:0|0:0,0:0:0:0:
128,128,126705,2,0,L|128:80,3,35,2|0|0|0,0:0|0:0|0:0|0:0,0:0:0:0:
128,64,127037,5,2,0:0:0:0:
144,64,127121,1,0,0:0:0:0:
160,64,127204,1,0,0:0:0:0:
176,64,127287,1,0,0:0:0:0:
192,64,127371,1,2,0:0:0:0:
208,64,127455,1,0,0:0:0:0:
224,64,127538,1,0,0:0:0:0:
240,64,127621,1,0,0:0:0:0:
256,64,127704,6,0,L|304:64,3,35,2|0|0|0,0:0|0:0|0:0|0:0,0:0:0:0:
320,64,128037,2,0,L|368:64,3,35,2|0|0|0,0:0|0:0|0:0|0:0,0:0:0:0:
384,64,128371,5,2,0:0:0:0:
384,80,128455,1,0,0:0:0:0:
384,96,128538,1,0,0:0:0:0:
384,112,128621,1,0,0:0:0:0:
384,128,128705,1,2,0:0:0:0:
384,144,128789,1,0,0:0:0:0:
384,160,128872,1,0,0:0:0:0:
384,176,128955,1,0,0:0:0:0:
384,192,129038,6,0,L|384:240,3,35,2|0|0|0,0:0|0:0|0:0|0:0,0:0:0:0:
384,256,129371,2,0,L|384:304,3,35,2|0|0|0,0:0|0:0|0:0|0:0,0:0:0:0:
384,320,129704,5,2,0:0:0:0:
368,320,129788,1,0,0:0:0:0:
352,320,129871,1,0,0:0:0:0:
336,320,129954,1,0,0:0:0:0:
320,320,130038,1,2,0:0:0:0:
304,320,130122,1,0,0:0:0:0:
288,320,130205,1,0,0:0:0:0:
272,320,130288,1,0,0:0:0:0:
256,320,130371,6,0,L|208:320,3,35,2|0|0|0,0:0|0:0|0:0|0:0,0:0:0:0:
192,320,130704,2,0,L|144:320,3,35,2|0|0|0,0:0|0:0|0:0|0:0,0:0:0:0:
128,320,131038,5,2,0:0:0:0:
128,304,131122,1,0,0:0:0:0:
128,288,131205,1,0,0:0:0:0:
128,272,131288,1,0,0:0:0:0:
128,256,131372,1,2,0:0:0:0:
128,240,131456,1,0,0:0:0:0:
128,224,131539,1,0,0:0:0:0:
128,207,131622,1,0,0:0:0:0:
128,192,131705,6,0,L|128:144,3,35,2|0|0|0,0:0|0:0|0:0|0:0,0:0:0:0:
128,128,132038,2,0,L|128:80,3,35,2|0|0|0,0:0|0:0|0:0|0:0,0:0:0:0:
128,64,132370,5,2,0:0:0:0:
144,64,132454,1,0,0:0:0:0:
160,64,132537,1,0,0:0:0:0:
176,64,132620,1,0,0:0:0:0:
192,64,132704,1,2,0:0:0:0:
208,64,132788,1,0,0:0:0:0:
224,64,132871,1,0,0:0:0:0:
240,64,132954,1,0,0:0:0:0:
256,64,133037,6,0,L|304:64,3,35,2|0|0|0,0:0|0:0|0:0|0:0,0:0:0:0:
320,64,133370,2,0,L|368:64,3,35,2|0|0|0,0:0|0:0|0:0|0:0,0:0:0:0:
384,64,133704,5,2,0:0:0:0:
384,80,133788,1,0,0:0:0:0:
384,96,133871,1,0,0:0:0:0:
384,112,133954,1,0,0:0:0:0:
384,128,134038,1,2,0:0:0:0:
384,144,134122,1,0,0:0:0:0:
384,160,134205,1,0,0:0:0:0:
384,176,134288,1,0,0:0:0:0:
384,192,134371,6,0,L|384:240,3,35,2|0|0|0,0:0|0:0|0:0|0:0,0:0:0:0:
384,256,134704,2,0,L|384:304,3,35,2|0|0|0,0:0|0:0|0:0|0:0,0:0:0:0:
384,320,135037,5,2,0:0:0:0:
368,320,135121,1,0,0:0:0:0:
352,320,135204,1,0,0:0:0:0:
336,320,135287,1,0,0:0:0:0:
320,320,135371,1,2,0:0:0:0:
304,320,135455,1,0,0:0:0:0:
288,320,135538,1,0,0:0:0:0:
272,320,135621,1,0,0:0:0:0:
256,320,135704,6,0,L|208:320,3,35,2|0|0|0,0:0|0:0|0:0|0:0,0:0:0:0:
192,320,136037,2,0,L|144:320,3,35,2|0|0|0,0:0|0:0|0:0|0:0,0:0:0:0:
128,320,136371,5,2,0:0:0:0:
128,304,136455,1,0,0:0:0:0:
128,288,136538,1,0,0:0:0:0:
128,272,136621,1,0,0:0:0:0:
128,256,136705,1,2,0:0:0:0:
128,240,136789,1,0,0:0:0:0:
128,224,136872,1,0,0:0:0:0:
128,207,136955,1,0,0:0:0:0:
128,192,137038,6,0,L|128:144,3,35,2|0|0|0,0:0|0:0|0:0|0:0,0:0:0:0:
128,128,137371,2,0,L|128:80,3,35,2|0|0|0,0:0|0:0|0:0|0:0,0:0:0:0:
128,64,137703,5,2,0:0:0:0:
144,64,137787,1,0,0:0:0:0:
160,64,137870,1,0,0:0:0:0:
176,64,137953,1,0,0:0:0:0:
192,64,138037,1,2,0:0:0:0:
208,64,138121,1,0,0:0:0:0:
224,64,138204,1,0,0:0:0:0:
240,64,138287,1,0,0:0:0:0:
256,64,138370,6,0,L|304:64,3,35,2|0|0|0,0:0|0:0|0:0|0:0,0:0:0:0:
320,64,138703,2,0,L|368:64,3,35,2|0|0|0,0:0|0:0|0:0|0:0,0:0:0:0:
384,64,139037,5,2,0:0:0:0:
384,80,139121,1,0,0:0:0:0:
384,96,139204,1,0,0:0:0:0:
384,112,139287,1,0,0:0:0:0:
384,128,139371,1,2,0:0:0:0:
384,144,139455,1,0,0:0:0:0:
384,160,139538,1,0,0:0:0:0:
384,176,139621,1,0,0:0:0:0:
384,192,139704,6,0,L|384:240,3,35,2|0|0|0,0:0|0:0|0:0|0:0,0:0:0:0:
384,256,140037,2,0,L|384:304,3,35,2|0|0|0,0:0|0:0|0:0|0:0,0:0:0:0:
384,320,140370,5,2,0:0:0:0:
368,320,140454,1,0,0:0:0:0:
352,320,140537,1,0,0:0:0:0:
336,320,140620,1,0,0:0:0:0:
320,320,140704,1,2,0:0:0:0:
304,320,140788,1,0,0:0:0:0:
288,320,140871,1,0,0:0:0:0:
272,320,140954,1,0,0:0:0:0:
256,320,141037,6,0,L|208:320,3,35,2|0|0|0,0:0|0:0|0:0|0:0,0:0:0:0:
192,320,141370,2,0,L|144:320,3,35,2|0|0|0,0:0|0:0|0:0|0:0,0:0:0:0:
128,320,141704,5,2,0:0:0:0:
128,304,141788,1,0,0:0:0:0:
128,288,141871,1,0,0:0:0:0:
128,272,141954,1,0,0:0:0:0:
128,256,142038,1,2,0:0:0:0:
128,240,142122,1,0,0:0:0:0:
128,224,142205,1,0,0:0:0:0:
128,207,142288,1,0,0:0:0:0:
128,192,142371,6,0,L|128:144,3,35,2|0|0|0,0:0|0:0|0:0|0:0,0:0:0:0:
128,128,142704,2,0,L|128:80,3,35,2|0|0|0,0:0|0:0|0:0|0:0,0:0:0:0:
128,64,143037,5,2,0:0:0:0:
144,64,143121,1,0,0:0:0:0:
160,64,143204,1,0,0:0:0:0:
176,64,143287,1,0,0:0:0:0:
192,64,143371,1,2,0:0:0:0:
208,64,143455,1,0,0:0:0:0:
224,64,143538,1,0,0:0:0:0:
240,64,143621,1,0,0:0:0:0:
256,64,143704,6,0,L|304:64,3,35,2|0|0|0,0:0|0:0|0:0|0:0,0:0:0:0:
320,64,144037,2,0,L|368:64,3,35,2|0|0|0,0:0|0:0|0:0|0:0,0:0:0:0:
384,64,144371,5,2,0:0:0:0:
384,80,144455,1,0,0:0:0:0:
384,96,144538,1,0,0:0:0:0:
384,112,144621,1,0,0:0:0:0:
384,128,144705,1,2,0:0:0:0:
384,144,144789,1,0,0:0:0:0:
384,160,144872,1,0,0:0:0:0:
384,176,144955,1,0,0:0:0:0:
384,192,145038,6,0,L|384:240,3,35,2|0|0|0,0:0|0:0|0:0|0:0,0:0:0:0:
384,256,145371,2,0,L|384:304,3,35,2|0|0|0,0:0|0:0|0:0|0:0,0:0:0:0:
384,320,145704,5,2,0:0:0:0:
368,320,145788,1,0,0:0:0:0:
352,320,145871,1,0,0:0:0:0:
336,320,145954,1,0,0:0:0:0:
320,320,146038,1,2,0:0:0:0:
304,320,146122,1,0,0:0:0:0:
288,320,146205,1,0,0:0:0:0:
272,320,146288,1,0,0:0:0:0:
256,320,146371,6,0,L|208:320,3,35,2|0|0|0,0:0|0:0|0:0|0:0,0:0:0:0:
192,320,146704,2,0,L|144:320,3,35,2|0|0|0,0:0|0:0|0:0|0:0,0:0:0:0:
128,320,147038,5,2,0:0:0:0:
128,304,147122,1,0,0:0:0:0:
128,288,147205,1,0,0:0:0:0:
128,272,147288,1,0,0:0:0:0:
128,256,147372,1,2,0:0:0:0:
128,240,147456,1,0,0:0:0:0:
128,224,147539,1,0,0:0:0:0:
128,207,147622,1,0,0:0:0:0:
128,192,147705,6,0,L|128:144,3,35,2|0|0|0,0:0|0:0|0:0|0:0,0:0:0:0:
128,128,148038,2,0,L|128:80,3,35,2|0|0|0,0:0|0:0|0:0|0:0,0:0:0:0:
