osu file format v14

[General]
AudioFilename: Xepher.mp3
AudioLeadIn: 0
PreviewTime: 19784
Countdown: 0
SampleSet: Soft
StackLeniency: 0.7
Mode: 3
LetterboxInBreaks: 0
SpecialStyle: 0
WidescreenStoryboard: 1

[Editor]
DistanceSpacing: 1.1
BeatDivisor: 4
GridSize: 8
TimelineZoom: 1.1

[Metadata]
Title:Beatmania IIDX Pack vol.1
TitleUnicode:Beatmania IIDX Pack vol.1
Artist:Various Artists
ArtistUnicode:Various Artists
Creator:DE-CADE
Version:4K Hyper (Tatsh - Xepher)
Source:beatmania IIDX
Tags:Humanoid Tatsh TOMOSUKE Galdeira Amuro Killer DJ YOSHITAKA dj Taka seiryu mei 3y3s MENDES Xepher Almagest
BeatmapID:664834
BeatmapSetID:296008

[Difficulty]
HPDrainRate:7
CircleSize:4
OverallDifficulty:7
ApproachRate:5
SliderMultiplier:1.4
SliderTickRate:1

[Events]
//Background and Video events
0,0,"BG.jpg",0,0
//Break Periods
//Storyboard Layer 0 (Background)
//Storyboard Layer 1 (Fail)
//Storyboard Layer 2 (Pass)
//Storyboard Layer 3 (Foreground)
//Storyboard Sound Samples

[TimingPoints]
1432,352.941176470588,4,2,0,5,1,0

[HitObjects]
448,192,8490,5,0,0:0:0:0:
64,192,8490,1,0,0:0:0:0:
320,192,8579,1,0,0:0:0:0:
192,192,8667,1,0,0:0:0:0:
64,192,8755,1,0,0:0:0:0:
192,192,8843,1,0,0:0:0:0:
320,192,8931,1,0,0:0:0:0:
448,192,9020,1,0,0:0:0:0:
320,192,9108,1,0,0:0:0:0:
192,192,9196,1,0,0:0:0:0:
64,192,9284,1,0,0:0:0:0:
192,192,9373,1,0,0:0:0:0:
320,192,9461,1,0,0:0:0:0:
64,192,9549,128,0,9902:0:0:0:0:
448,192,9549,1,0,0:0:0:0:
448,192,9902,1,0,0:0:0:0:
320,192,9990,1,0,0:0:0:0:
192,192,10079,1,0,0:0:0:0:
64,192,10167,1,0,0:0:0:0:
192,192,10255,1,0,0:0:0:0:
320,192,10343,1,0,0:0:0:0:
448,192,10431,1,0,0:0:0:0:
320,192,10520,1,0,0:0:0:0:
192,192,10608,1,0,0:0:0:0:
64,192,10696,1,0,0:0:0:0:
192,192,10784,1,0,0:0:0:0:
320,192,10873,1,0,0:0:0:0:
448,192,10961,1,0,0:0:0:0:
64,192,10961,1,0,0:0:0:0:
192,192,10961,1,0,0:0:0:0:
64,192,11137,1,0,0:0:0:0:
192,192,11137,1,0,0:0:0:0:
448,192,11314,1,0,0:0:0:0:
320,192,11402,1,0,0:0:0:0:
192,192,11490,1,0,0:0:0:0:
64,192,11579,1,0,0:0:0:0:
192,192,11667,1,0,0:0:0:0:
320,192,11755,1,0,0:0:0:0:
448,192,11843,1,0,0:0:0:0:
320,192,11931,1,0,0:0:0:0:
192,192,12020,1,0,0:0:0:0:
64,192,12108,1,0,0:0:0:0:
192,192,12196,1,0,0:0:0:0:
320,192,12284,1,0,0:0:0:0:
64,192,12373,1,0,0:0:0:0:
192,192,12373,1,0,0:0:0:0:
320,192,12461,1,0,0:0:0:0:
448,192,12461,1,0,0:0:0:0:
64,192,12549,1,0,0:0:0:0:
192,192,12549,1,0,0:0:0:0:
320,192,12726,1,0,0:0:0:0:
192,192,12902,1,0,0:0:0:0:
448,192,13079,1,0,0:0:0:0:
64,192,13079,1,0,0:0:0:0:
192,192,13255,1,0,0:0:0:0:
320,192,13343,1,0,0:0:0:0:
448,192,13343,1,0,0:0:0:0:
320,192,13520,1,0,0:0:0:0:
192,192,13520,1,0,0:0:0:0:
64,192,13608,1,0,0:0:0:0:
192,192,13696,1,0,0:0:0:0:
320,192,13784,1,0,0:0:0:0:
448,192,13784,1,0,0:0:0:0:
192,192,13961,1,0,0:0:0:0:
64,192,13961,1,0,0:0:0:0:
448,192,14137,1,0,0:0:0:0:
320,192,14226,1,0,0:0:0:0:
192,192,14314,1,0,0:0:0:0:
64,192,14402,1,0,0:0:0:0:
192,192,14490,1,0,0:0:0:0:
320,192,14579,1,0,0:0:0:0:
448,192,14667,1,0,0:0:0:0:
320,192,14755,1,0,0:0:0:0:
192,192,14843,1,0,0:0:0:0:
64,192,14931,1,0,0:0:0:0:
192,192,15020,1,0,0:0:0:0:
320,192,15108,1,0,0:0:0:0:
448,192,15196,1,0,0:0:0:0:
64,192,15196,128,0,15549:0:0:0:0:
448,192,15549,1,0,0:0:0:0:
320,192,15637,1,0,0:0:0:0:
192,192,15726,1,0,0:0:0:0:
64,192,15814,1,0,0:0:0:0:
192,192,15902,1,0,0:0:0:0:
320,192,15990,1,0,0:0:0:0:
448,192,16079,1,0,0:0:0:0:
320,192,16167,1,0,0:0:0:0:
192,192,16255,1,0,0:0:0:0:
64,192,16343,1,0,0:0:0:0:
192,192,16431,1,0,0:0:0:0:
320,192,16520,1,0,0:0:0:0:
64,192,16608,1,0,0:0:0:0:
448,192,16608,1,0,0:0:0:0:
192,192,16608,1,0,0:0:0:0:
192,192,16784,1,0,0:0:0:0:
64,192,16784,1,0,0:0:0:0:
448,192,16961,1,0,0:0:0:0:
320,192,17049,1,0,0:0:0:0:
192,192,17137,1,0,0:0:0:0:
64,192,17226,1,0,0:0:0:0:
192,192,17314,1,0,0:0:0:0:
320,192,17402,1,0,0:0:0:0:
448,192,17490,1,0,0:0:0:0:
320,192,17579,1,0,0:0:0:0:
192,192,17667,1,0,0:0:0:0:
64,192,17755,1,0,0:0:0:0:
192,192,17843,1,0,0:0:0:0:
320,192,17931,1,0,0:0:0:0:
448,192,18020,128,0,18373:0:0:0:0:
64,192,18020,1,0,0:0:0:0:
64,192,18373,1,0,0:0:0:0:
320,192,18373,1,0,0:0:0:0:
192,192,18726,1,0,0:0:0:0:
320,192,18726,1,0,0:0:0:0:
448,192,19079,1,0,0:0:0:0:
192,192,19167,1,0,0:0:0:0:
320,192,19255,1,0,0:0:0:0:
64,192,19343,1,0,0:0:0:0:
448,192,19431,1,0,0:0:0:0:
192,192,19520,1,0,0:0:0:0:
320,192,19608,1,0,0:0:0:0:
64,192,19696,1,0,0:0:0:0:
192,192,19784,1,0,0:0:0:0:
320,192,19784,1,0,0:0:0:0:
448,192,19784,1,0,0:0:0:0:
192,192,20137,1,0,0:0:0:0:
448,192,20137,1,0,0:0:0:0:
320,192,20137,1,0,0:0:0:0:
64,192,20314,1,0,0:0:0:0:
192,192,20490,1,0,0:0:0:0:
448,192,20490,1,0,0:0:0:0:
320,192,20667,1,0,0:0:0:0:
64,192,20755,1,0,0:0:0:0:
192,192,20931,1,0,0:0:0:0:
448,192,21020,1,0,0:0:0:0:
320,192,21196,1,0,0:0:0:0:
64,192,21196,1,0,0:0:0:0:
192,192,21549,1,0,0:0:0:0:
320,192,21549,1,0,0:0:0:0:
448,192,21902,1,0,0:0:0:0:
320,192,21902,1,0,0:0:0:0:
320,192,22079,1,0,0:0:0:0:
64,192,22255,1,0,0:0:0:0:
192,192,22255,1,0,0:0:0:0:
192,192,22431,1,0,0:0:0:0:
448,192,22608,1,0,0:0:0:0:
320,192,22608,1,0,0:0:0:0:
64,192,22608,1,0,0:0:0:0:
320,192,22961,1,0,0:0:0:0:
448,192,22961,1,0,0:0:0:0:
64,192,22961,1,0,0:0:0:0:
192,192,23137,1,0,0:0:0:0:
64,192,23314,1,0,0:0:0:0:
320,192,23314,1,0,0:0:0:0:
448,192,23490,1,0,0:0:0:0:
192,192,23579,1,0,0:0:0:0:
320,192,23755,1,0,0:0:0:0:
64,192,23843,1,0,0:0:0:0:
192,192,24020,1,0,0:0:0:0:
448,192,24020,1,0,0:0:0:0:
320,192,24373,1,0,0:0:0:0:
192,192,24373,1,0,0:0:0:0:
64,192,24726,1,0,0:0:0:0:
320,192,24814,1,0,0:0:0:0:
192,192,24990,128,0,25167:0:0:0:0:
320,192,25167,1,0,0:0:0:0:
448,192,25255,128,0,25431:0:0:0:0:
192,192,25431,1,0,0:0:0:0:
320,192,25431,1,0,0:0:0:0:
64,192,25431,1,0,0:0:0:0:
64,192,25784,1,0,0:0:0:0:
192,192,25784,1,0,0:0:0:0:
320,192,25784,1,0,0:0:0:0:
448,192,25961,1,0,0:0:0:0:
320,192,26137,1,0,0:0:0:0:
64,192,26137,1,0,0:0:0:0:
192,192,26314,1,0,0:0:0:0:
448,192,26402,1,0,0:0:0:0:
320,192,26579,1,0,0:0:0:0:
64,192,26667,1,0,0:0:0:0:
192,192,26843,1,0,0:0:0:0:
448,192,26843,1,0,0:0:0:0:
320,192,27196,1,0,0:0:0:0:
192,192,27196,1,0,0:0:0:0:
64,192,27549,1,0,0:0:0:0:
448,192,27549,1,0,0:0:0:0:
192,192,27726,1,0,0:0:0:0:
320,192,27814,1,0,0:0:0:0:
448,192,27814,128,0,28079:0:0:0:0:
192,192,28079,1,0,0:0:0:0:
448,192,28255,1,0,0:0:0:0:
64,192,28255,1,0,0:0:0:0:
320,192,28431,1,0,0:0:0:0:
64,192,28608,1,0,0:0:0:0:
448,192,28608,1,0,0:0:0:0:
192,192,28784,1,0,0:0:0:0:
320,192,28961,1,0,0:0:0:0:
448,192,28961,1,0,0:0:0:0:
64,192,29137,1,0,0:0:0:0:
448,192,29314,128,0,29490:0:0:0:0:
192,192,29314,1,0,0:0:0:0:
320,192,29490,128,0,29667:0:0:0:0:
192,192,29667,1,0,0:0:0:0:
64,192,29667,1,0,0:0:0:0:
64,192,29843,1,0,0:0:0:0:
320,192,29843,1,0,0:0:0:0:
192,192,30020,1,0,0:0:0:0:
320,192,30020,1,0,0:0:0:0:
448,192,30196,1,0,0:0:0:0:
192,192,30196,1,0,0:0:0:0:
320,192,30373,1,0,0:0:0:0:
448,192,30373,1,0,0:0:0:0:
320,192,30549,1,0,0:0:0:0:
64,192,30549,1,0,0:0:0:0:
192,192,30726,1,0,0:0:0:0:
320,192,30726,1,0,0:0:0:0:
192,192,30902,1,0,0:0:0:0:
448,192,30902,1,0,0:0:0:0:
192,192,31079,1,0,0:0:0:0:
64,192,31079,1,0,0:0:0:0:
64,192,31255,1,0,0:0:0:0:
320,192,31255,1,0,0:0:0:0:
64,192,31431,1,0,0:0:0:0:
448,192,31431,1,0,0:0:0:0:
320,192,31608,1,0,0:0:0:0:
192,192,31784,1,0,0:0:0:0:
64,192,31784,1,0,0:0:0:0:
448,192,31961,1,0,0:0:0:0:
192,192,32137,1,0,0:0:0:0:
320,192,32137,1,0,0:0:0:0:
320,192,32314,1,0,0:0:0:0:
448,192,32314,1,0,0:0:0:0:
64,192,32490,1,0,0:0:0:0:
320,192,32579,1,0,0:0:0:0:
192,192,32667,1,0,0:0:0:0:
448,192,32755,5,0,0:0:0:0:
64,192,32843,1,0,0:0:0:0:
320,192,32931,1,0,0:0:0:0:
192,192,33020,1,0,0:0:0:0:
448,192,33108,1,0,0:0:0:0:
64,192,33196,1,0,0:0:0:0:
320,192,33284,1,0,0:0:0:0:
192,192,33373,1,0,0:0:0:0:
448,192,33461,1,0,0:0:0:0:
64,192,33549,1,0,0:0:0:0:
320,192,33637,1,0,0:0:0:0:
192,192,33726,1,0,0:0:0:0:
448,192,33814,1,0,0:0:0:0:
192,192,33902,1,0,0:0:0:0:
64,192,33991,1,0,0:0:0:0:
192,192,34079,1,0,0:0:0:0:
320,192,34167,1,0,0:0:0:0:
448,192,34255,1,0,0:0:0:0:
320,192,34343,1,0,0:0:0:0:
192,192,34431,1,0,0:0:0:0:
64,192,34520,1,0,0:0:0:0:
448,192,34608,1,0,0:0:0:0:
320,192,34696,1,0,0:0:0:0:
192,192,34784,1,0,0:0:0:0:
64,192,34873,1,0,0:0:0:0:
320,192,34961,1,0,0:0:0:0:
448,192,35049,1,0,0:0:0:0:
320,192,35137,1,0,0:0:0:0:
192,192,35226,1,0,0:0:0:0:
448,192,35314,1,0,0:0:0:0:
64,192,35314,1,0,0:0:0:0:
320,192,35402,1,0,0:0:0:0:
192,192,35490,1,0,0:0:0:0:
64,192,35579,1,0,0:0:0:0:
192,192,35667,1,0,0:0:0:0:
448,192,35755,1,0,0:0:0:0:
320,192,35843,1,0,0:0:0:0:
192,192,35931,1,0,0:0:0:0:
64,192,36020,1,0,0:0:0:0:
192,192,36108,1,0,0:0:0:0:
320,192,36196,1,0,0:0:0:0:
448,192,36284,1,0,0:0:0:0:
320,192,36373,1,0,0:0:0:0:
64,192,36461,1,0,0:0:0:0:
192,192,36549,1,0,0:0:0:0:
320,192,36637,1,0,0:0:0:0:
448,192,36726,1,0,0:0:0:0:
320,192,36814,1,0,0:0:0:0:
192,192,36902,1,0,0:0:0:0:
448,192,36990,1,0,0:0:0:0:
320,192,37079,1,0,0:0:0:0:
192,192,37167,1,0,0:0:0:0:
64,192,37255,1,0,0:0:0:0:
192,192,37343,1,0,0:0:0:0:
448,192,37431,1,0,0:0:0:0:
320,192,37520,1,0,0:0:0:0:
192,192,37608,1,0,0:0:0:0:
320,192,37696,1,0,0:0:0:0:
64,192,37784,1,0,0:0:0:0:
192,192,37873,1,0,0:0:0:0:
320,192,37961,1,0,0:0:0:0:
448,192,38049,1,0,0:0:0:0:
320,192,38137,1,0,0:0:0:0:
192,192,38226,1,0,0:0:0:0:
64,192,38314,1,0,0:0:0:0:
192,192,38402,1,0,0:0:0:0:
320,192,38490,1,0,0:0:0:0:
448,192,38490,1,0,0:0:0:0:
192,192,38843,1,0,0:0:0:0:
448,192,38843,1,0,0:0:0:0:
320,192,38931,1,0,0:0:0:0:
192,192,39020,1,0,0:0:0:0:
64,192,39108,1,0,0:0:0:0:
192,192,39196,1,0,0:0:0:0:
320,192,39196,1,0,0:0:0:0:
64,192,39549,1,0,0:0:0:0:
192,192,39549,1,0,0:0:0:0:
320,192,39637,1,0,0:0:0:0:
448,192,39726,1,0,0:0:0:0:
320,192,39814,1,0,0:0:0:0:
64,192,39902,1,0,0:0:0:0:
192,192,39990,1,0,0:0:0:0:
320,192,40079,1,0,0:0:0:0:
448,192,40167,1,0,0:0:0:0:
320,192,40255,1,0,0:0:0:0:
192,192,40343,1,0,0:0:0:0:
64,192,40431,1,0,0:0:0:0:
192,192,40520,1,0,0:0:0:0:
320,192,40608,1,0,0:0:0:0:
448,192,40696,1,0,0:0:0:0:
320,192,40784,1,0,0:0:0:0:
192,192,40873,1,0,0:0:0:0:
64,192,40961,1,0,0:0:0:0:
192,192,41049,1,0,0:0:0:0:
320,192,41137,1,0,0:0:0:0:
448,192,41226,1,0,0:0:0:0:
320,192,41314,1,0,0:0:0:0:
64,192,41402,1,0,0:0:0:0:
192,192,41490,1,0,0:0:0:0:
320,192,41579,1,0,0:0:0:0:
448,192,41667,1,0,0:0:0:0:
320,192,41755,1,0,0:0:0:0:
64,192,41843,1,0,0:0:0:0:
192,192,41931,1,0,0:0:0:0:
320,192,42020,1,0,0:0:0:0:
448,192,42108,1,0,0:0:0:0:
320,192,42196,1,0,0:0:0:0:
192,192,42284,1,0,0:0:0:0:
64,192,42373,1,0,0:0:0:0:
192,192,42461,1,0,0:0:0:0:
320,192,42549,1,0,0:0:0:0:
448,192,42637,1,0,0:0:0:0:
320,192,42726,1,0,0:0:0:0:
64,192,42814,1,0,0:0:0:0:
192,192,42902,1,0,0:0:0:0:
320,192,42990,1,0,0:0:0:0:
448,192,43079,1,0,0:0:0:0:
320,192,43167,1,0,0:0:0:0:
192,192,43255,1,0,0:0:0:0:
64,192,43343,1,0,0:0:0:0:
192,192,43431,1,0,0:0:0:0:
448,192,43520,1,0,0:0:0:0:
320,192,43608,1,0,0:0:0:0:
192,192,43696,1,0,0:0:0:0:
64,192,43784,1,0,0:0:0:0:
192,192,43873,1,0,0:0:0:0:
448,192,43961,1,0,0:0:0:0:
320,192,44049,1,0,0:0:0:0:
192,192,44137,1,0,0:0:0:0:
320,192,44226,1,0,0:0:0:0:
64,192,44314,1,0,0:0:0:0:
192,192,44402,1,0,0:0:0:0:
320,192,44490,1,0,0:0:0:0:
448,192,44579,1,0,0:0:0:0:
320,192,44667,1,0,0:0:0:0:
192,192,44755,1,0,0:0:0:0:
64,192,44843,1,0,0:0:0:0:
192,192,44931,1,0,0:0:0:0:
320,192,45020,1,0,0:0:0:0:
448,192,45108,1,0,0:0:0:0:
320,192,45196,1,0,0:0:0:0:
64,192,45284,1,0,0:0:0:0:
192,192,45373,1,0,0:0:0:0:
320,192,45461,1,0,0:0:0:0:
448,192,45549,1,0,0:0:0:0:
320,192,45637,1,0,0:0:0:0:
192,192,45726,1,0,0:0:0:0:
64,192,45814,1,0,0:0:0:0:
192,192,45902,1,0,0:0:0:0:
320,192,45990,1,0,0:0:0:0:
448,192,46079,1,0,0:0:0:0:
320,192,46167,1,0,0:0:0:0:
64,192,46255,1,0,0:0:0:0:
192,192,46343,1,0,0:0:0:0:
320,192,46431,1,0,0:0:0:0:
192,192,46520,1,0,0:0:0:0:
448,192,46608,1,0,0:0:0:0:
320,192,46696,1,0,0:0:0:0:
192,192,46784,1,0,0:0:0:0:
64,192,46873,1,0,0:0:0:0:
192,192,46961,1,0,0:0:0:0:
448,192,47049,1,0,0:0:0:0:
320,192,47137,1,0,0:0:0:0:
192,192,47226,1,0,0:0:0:0:
64,192,47314,1,0,0:0:0:0:
192,192,47402,1,0,0:0:0:0:
320,192,47490,1,0,0:0:0:0:
192,192,47579,1,0,0:0:0:0:
448,192,47667,1,0,0:0:0:0:
320,192,47755,1,0,0:0:0:0:
192,192,47843,1,0,0:0:0:0:
64,192,47931,1,0,0:0:0:0:
192,192,48020,1,0,0:0:0:0:
320,192,48108,1,0,0:0:0:0:
448,192,48196,1,0,0:0:0:0:
320,192,48284,1,0,0:0:0:0:
192,192,48373,1,0,0:0:0:0:
64,192,48373,1,0,0:0:0:0:
448,192,48726,1,0,0:0:0:0:
192,192,48726,1,0,0:0:0:0:
320,192,48814,1,0,0:0:0:0:
192,192,48902,1,0,0:0:0:0:
64,192,48990,1,0,0:0:0:0:
192,192,49079,1,0,0:0:0:0:
320,192,49079,1,0,0:0:0:0:
448,192,49431,5,0,0:0:0:0:
64,192,49431,1,0,0:0:0:0:
320,192,49520,1,0,0:0:0:0:
192,192,49608,1,0,0:0:0:0:
64,192,49696,1,0,0:0:0:0:
192,192,49784,1,0,0:0:0:0:
320,192,49872,1,0,0:0:0:0:
448,192,49961,1,0,0:0:0:0:
320,192,50049,1,0,0:0:0:0:
192,192,50137,1,0,0:0:0:0:
64,192,50225,1,0,0:0:0:0:
192,192,50314,1,0,0:0:0:0:
320,192,50402,1,0,0:0:0:0:
448,192,50490,1,0,0:0:0:0:
64,192,50490,128,0,50843:0:0:0:0:
448,192,50843,1,0,0:0:0:0:
320,192,50931,1,0,0:0:0:0:
192,192,51020,1,0,0:0:0:0:
64,192,51108,1,0,0:0:0:0:
192,192,51196,1,0,0:0:0:0:
320,192,51284,1,0,0:0:0:0:
448,192,51373,1,0,0:0:0:0:
320,192,51461,1,0,0:0:0:0:
192,192,51549,1,0,0:0:0:0:
64,192,51637,1,0,0:0:0:0:
192,192,51726,1,0,0:0:0:0:
320,192,51814,1,0,0:0:0:0:
192,192,51902,1,0,0:0:0:0:
64,192,51902,1,0,0:0:0:0:
448,192,51902,1,0,0:0:0:0:
192,192,52079,1,0,0:0:0:0:
64,192,52079,1,0,0:0:0:0:
448,192,52255,1,0,0:0:0:0:
320,192,52343,1,0,0:0:0:0:
192,192,52431,1,0,0:0:0:0:
64,192,52520,1,0,0:0:0:0:
192,192,52608,1,0,0:0:0:0:
320,192,52696,1,0,0:0:0:0:
448,192,52784,1,0,0:0:0:0:
320,192,52873,1,0,0:0:0:0:
192,192,52961,1,0,0:0:0:0:
64,192,53049,1,0,0:0:0:0:
192,192,53137,1,0,0:0:0:0:
320,192,53226,1,0,0:0:0:0:
192,192,53314,1,0,0:0:0:0:
64,192,53314,1,0,0:0:0:0:
448,192,53402,1,0,0:0:0:0:
320,192,53402,1,0,0:0:0:0:
192,192,53490,1,0,0:0:0:0:
64,192,53490,1,0,0:0:0:0:
448,192,53667,1,0,0:0:0:0:
320,192,53667,1,0,0:0:0:0:
320,192,54020,1,0,0:0:0:0:
192,192,54020,1,0,0:0:0:0:
448,192,54373,1,0,0:0:0:0:
320,192,54373,1,0,0:0:0:0:
192,192,54461,1,0,0:0:0:0:
64,192,54461,1,0,0:0:0:0:
320,192,54549,1,0,0:0:0:0:
448,192,54549,1,0,0:0:0:0:
192,192,54637,1,0,0:0:0:0:
64,192,54637,1,0,0:0:0:0:
320,192,54726,1,0,0:0:0:0:
192,192,54814,1,0,0:0:0:0:
320,192,54902,1,0,0:0:0:0:
192,192,54990,1,0,0:0:0:0:
64,192,55079,1,0,0:0:0:0:
448,192,55079,1,0,0:0:0:0:
320,192,55167,1,0,0:0:0:0:
192,192,55255,1,0,0:0:0:0:
64,192,55343,1,0,0:0:0:0:
192,192,55431,1,0,0:0:0:0:
320,192,55520,1,0,0:0:0:0:
448,192,55608,1,0,0:0:0:0:
320,192,55696,1,0,0:0:0:0:
192,192,55784,1,0,0:0:0:0:
64,192,55873,1,0,0:0:0:0:
192,192,55961,1,0,0:0:0:0:
320,192,56049,1,0,0:0:0:0:
448,192,56137,1,0,0:0:0:0:
64,192,56137,128,0,56490:0:0:0:0:
448,192,56490,1,0,0:0:0:0:
320,192,56579,1,0,0:0:0:0:
192,192,56667,1,0,0:0:0:0:
64,192,56755,1,0,0:0:0:0:
192,192,56843,1,0,0:0:0:0:
320,192,56931,1,0,0:0:0:0:
448,192,57020,1,0,0:0:0:0:
320,192,57108,1,0,0:0:0:0:
192,192,57196,1,0,0:0:0:0:
64,192,57284,1,0,0:0:0:0:
192,192,57373,1,0,0:0:0:0:
320,192,57461,1,0,0:0:0:0:
448,192,57549,1,0,0:0:0:0:
64,192,57549,1,0,0:0:0:0:
192,192,57549,1,0,0:0:0:0:
192,192,57726,1,0,0:0:0:0:
64,192,57726,1,0,0:0:0:0:
448,192,57902,1,0,0:0:0:0:
320,192,57990,1,0,0:0:0:0:
192,192,58079,1,0,0:0:0:0:
64,192,58167,1,0,0:0:0:0:
192,192,58255,1,0,0:0:0:0:
320,192,58343,1,0,0:0:0:0:
448,192,58431,1,0,0:0:0:0:
320,192,58520,1,0,0:0:0:0:
192,192,58608,1,0,0:0:0:0:
64,192,58696,1,0,0:0:0:0:
192,192,58784,1,0,0:0:0:0:
320,192,58873,1,0,0:0:0:0:
448,192,58961,128,0,59314:0:0:0:0:
64,192,58961,1,0,0:0:0:0:
64,192,59314,1,0,0:0:0:0:
320,192,59314,1,0,0:0:0:0:
192,192,59667,1,0,0:0:0:0:
320,192,59667,1,0,0:0:0:0:
448,192,60020,1,0,0:0:0:0:
64,192,60108,1,0,0:0:0:0:
448,192,60196,1,0,0:0:0:0:
64,192,60284,1,0,0:0:0:0:
320,192,60373,1,0,0:0:0:0:
192,192,60461,1,0,0:0:0:0:
320,192,60549,1,0,0:0:0:0:
192,192,60637,1,0,0:0:0:0:
448,192,60726,1,0,0:0:0:0:
320,192,60726,1,0,0:0:0:0:
320,192,62490,1,0,0:0:0:0:
192,192,62579,1,0,0:0:0:0:
448,192,62755,1,0,0:0:0:0:
192,192,62843,1,0,0:0:0:0:
320,192,62931,1,0,0:0:0:0:
448,192,63020,1,0,0:0:0:0:
320,192,63108,1,0,0:0:0:0:
192,192,63196,1,0,0:0:0:0:
64,192,63284,1,0,0:0:0:0:
192,192,63373,1,0,0:0:0:0:
320,192,63461,1,0,0:0:0:0:
448,192,63549,1,0,0:0:0:0:
320,192,64961,128,0,65226:0:0:0:0:
64,192,65226,1,0,0:0:0:0:
192,192,65314,1,0,0:0:0:0:
448,192,65402,1,0,0:0:0:0:
320,192,65490,1,0,0:0:0:0:
192,192,65579,1,0,0:0:0:0:
64,192,65667,1,0,0:0:0:0:
192,192,65755,1,0,0:0:0:0:
320,192,65843,1,0,0:0:0:0:
448,192,65931,1,0,0:0:0:0:
320,192,66020,1,0,0:0:0:0:
64,192,66108,1,0,0:0:0:0:
192,192,66196,1,0,0:0:0:0:
320,192,66284,1,0,0:0:0:0:
192,192,66373,1,0,0:0:0:0:
64,192,66373,1,0,0:0:0:0:
448,192,66549,1,0,0:0:0:0:
320,192,66726,1,0,0:0:0:0:
192,192,66726,1,0,0:0:0:0:
64,192,66902,1,0,0:0:0:0:
320,192,67079,1,0,0:0:0:0:
448,192,67079,1,0,0:0:0:0:
64,192,67255,1,0,0:0:0:0:
192,192,67431,1,0,0:0:0:0:
320,192,67431,1,0,0:0:0:0:
448,192,67608,1,0,0:0:0:0:
192,192,67784,1,0,0:0:0:0:
64,192,67784,1,0,0:0:0:0:
448,192,67961,1,0,0:0:0:0:
320,192,68137,1,0,0:0:0:0:
192,192,68137,1,0,0:0:0:0:
64,192,68314,1,0,0:0:0:0:
320,192,68490,1,0,0:0:0:0:
448,192,68490,1,0,0:0:0:0:
64,192,68667,1,0,0:0:0:0:
192,192,68843,1,0,0:0:0:0:
320,192,68843,1,0,0:0:0:0:
448,192,69020,1,0,0:0:0:0:
192,192,69196,1,0,0:0:0:0:
64,192,69196,1,0,0:0:0:0:
448,192,69373,1,0,0:0:0:0:
320,192,69549,1,0,0:0:0:0:
192,192,69549,1,0,0:0:0:0:
64,192,69726,1,0,0:0:0:0:
320,192,69902,1,0,0:0:0:0:
448,192,69902,1,0,0:0:0:0:
64,192,70079,1,0,0:0:0:0:
192,192,70255,1,0,0:0:0:0:
320,192,70255,1,0,0:0:0:0:
448,192,70431,1,0,0:0:0:0:
192,192,70608,1,0,0:0:0:0:
64,192,70608,1,0,0:0:0:0:
448,192,70784,1,0,0:0:0:0:
320,192,70961,1,0,0:0:0:0:
192,192,70961,1,0,0:0:0:0:
64,192,71137,1,0,0:0:0:0:
448,192,71314,1,0,0:0:0:0:
320,192,71314,1,0,0:0:0:0:
64,192,71490,1,0,0:0:0:0:
192,192,71667,1,0,0:0:0:0:
320,192,71667,1,0,0:0:0:0:
448,192,71843,1,0,0:0:0:0:
320,192,72020,1,0,0:0:0:0:
64,192,72020,1,0,0:0:0:0:
192,192,72196,1,0,0:0:0:0:
320,192,72196,1,0,0:0:0:0:
448,192,72373,1,0,0:0:0:0:
192,192,72373,1,0,0:0:0:0:
320,192,72549,1,0,0:0:0:0:
448,192,72549,1,0,0:0:0:0:
320,192,72726,1,0,0:0:0:0:
64,192,72726,1,0,0:0:0:0:
192,192,72902,1,0,0:0:0:0:
320,192,72902,1,0,0:0:0:0:
192,192,73079,1,0,0:0:0:0:
448,192,73079,1,0,0:0:0:0:
320,192,73255,1,0,0:0:0:0:
192,192,73255,1,0,0:0:0:0:
448,192,73431,1,0,0:0:0:0:
64,192,73431,1,0,0:0:0:0:
320,192,73519,1,0,0:0:0:0:
192,192,73607,1,0,0:0:0:0:
64,192,73696,1,0,0:0:0:0:
192,192,73784,1,0,0:0:0:0:
448,192,73872,1,0,0:0:0:0:
320,192,73960,1,0,0:0:0:0:
192,192,74048,1,0,0:0:0:0:
64,192,74137,1,0,0:0:0:0:
192,192,74225,1,0,0:0:0:0:
320,192,74313,1,0,0:0:0:0:
448,192,74401,1,0,0:0:0:0:
320,192,74490,1,0,0:0:0:0:
64,192,74578,1,0,0:0:0:0:
192,192,74666,1,0,0:0:0:0:
320,192,74754,1,0,0:0:0:0:
448,192,74843,1,0,0:0:0:0:
320,192,74931,1,0,0:0:0:0:
192,192,75019,1,0,0:0:0:0:
448,192,75107,1,0,0:0:0:0:
320,192,75196,1,0,0:0:0:0:
192,192,75284,1,0,0:0:0:0:
64,192,75372,1,0,0:0:0:0:
192,192,75461,1,0,0:0:0:0:
448,192,75549,1,0,0:0:0:0:
320,192,75638,1,0,0:0:0:0:
192,192,75726,1,0,0:0:0:0:
320,192,75814,1,0,0:0:0:0:
64,192,75902,1,0,0:0:0:0:
192,192,75991,1,0,0:0:0:0:
320,192,76079,1,0,0:0:0:0:
448,192,76167,1,0,0:0:0:0:
320,192,76255,1,0,0:0:0:0:
192,192,76344,1,0,0:0:0:0:
64,192,76432,1,0,0:0:0:0:
192,192,76520,1,0,0:0:0:0:
448,192,76608,1,0,0:0:0:0:
320,192,76696,1,0,0:0:0:0:
192,192,76784,1,0,0:0:0:0:
64,192,76873,1,0,0:0:0:0:
192,192,76961,1,0,0:0:0:0:
448,192,77049,1,0,0:0:0:0:
320,192,77137,1,0,0:0:0:0:
192,192,77226,1,0,0:0:0:0:
64,192,77314,1,0,0:0:0:0:
192,192,77402,1,0,0:0:0:0:
320,192,77490,1,0,0:0:0:0:
448,192,77579,1,0,0:0:0:0:
320,192,77667,1,0,0:0:0:0:
192,192,77755,1,0,0:0:0:0:
64,192,77843,1,0,0:0:0:0:
192,192,77931,1,0,0:0:0:0:
320,192,78020,1,0,0:0:0:0:
448,192,78020,1,0,0:0:0:0:
320,192,78373,1,0,0:0:0:0:
64,192,78373,1,0,0:0:0:0:
192,192,78461,1,0,0:0:0:0:
320,192,78549,1,0,0:0:0:0:
448,192,78637,1,0,0:0:0:0:
320,192,78726,1,0,0:0:0:0:
192,192,78726,1,0,0:0:0:0:
64,192,79079,1,0,0:0:0:0:
192,192,79079,1,0,0:0:0:0:
320,192,79167,1,0,0:0:0:0:
448,192,79255,1,0,0:0:0:0:
320,192,79343,1,0,0:0:0:0:
192,192,79431,1,0,0:0:0:0:
64,192,79520,1,0,0:0:0:0:
192,192,79608,1,0,0:0:0:0:
448,192,79696,1,0,0:0:0:0:
320,192,79784,1,0,0:0:0:0:
192,192,79873,1,0,0:0:0:0:
64,192,79961,1,0,0:0:0:0:
192,192,80049,1,0,0:0:0:0:
320,192,80137,1,0,0:0:0:0:
448,192,80226,1,0,0:0:0:0:
320,192,80314,1,0,0:0:0:0:
192,192,80402,1,0,0:0:0:0:
64,192,80490,1,0,0:0:0:0:
192,192,80579,1,0,0:0:0:0:
448,192,80667,1,0,0:0:0:0:
320,192,80755,1,0,0:0:0:0:
192,192,80843,1,0,0:0:0:0:
64,192,80931,1,0,0:0:0:0:
192,192,81020,1,0,0:0:0:0:
320,192,81108,1,0,0:0:0:0:
64,192,81196,1,0,0:0:0:0:
192,192,81284,1,0,0:0:0:0:
320,192,81373,1,0,0:0:0:0:
448,192,81461,1,0,0:0:0:0:
320,192,81549,1,0,0:0:0:0:
192,192,81637,1,0,0:0:0:0:
64,192,81726,1,0,0:0:0:0:
192,192,81814,1,0,0:0:0:0:
320,192,81902,1,0,0:0:0:0:
192,192,81990,1,0,0:0:0:0:
448,192,82079,1,0,0:0:0:0:
320,192,82167,1,0,0:0:0:0:
192,192,82255,1,0,0:0:0:0:
64,192,82343,1,0,0:0:0:0:
192,192,82431,1,0,0:0:0:0:
448,192,82520,1,0,0:0:0:0:
320,192,82608,1,0,0:0:0:0:
192,192,82696,1,0,0:0:0:0:
64,192,82784,1,0,0:0:0:0:
192,192,82873,1,0,0:0:0:0:
320,192,82961,1,0,0:0:0:0:
448,192,83049,1,0,0:0:0:0:
320,192,83137,1,0,0:0:0:0:
192,192,83226,1,0,0:0:0:0:
64,192,83314,1,0,0:0:0:0:
192,192,83402,1,0,0:0:0:0:
448,192,83490,1,0,0:0:0:0:
320,192,83579,1,0,0:0:0:0:
192,192,83667,1,0,0:0:0:0:
64,192,83755,1,0,0:0:0:0:
192,192,83843,1,0,0:0:0:0:
320,192,83931,1,0,0:0:0:0:
448,192,84020,1,0,0:0:0:0:
320,192,84108,1,0,0:0:0:0:
192,192,84196,1,0,0:0:0:0:
64,192,84284,1,0,0:0:0:0:
192,192,84373,1,0,0:0:0:0:
320,192,84461,1,0,0:0:0:0:
64,192,84549,1,0,0:0:0:0:
192,192,84637,1,0,0:0:0:0:
320,192,84726,1,0,0:0:0:0:
448,192,84814,1,0,0:0:0:0:
320,192,84902,1,0,0:0:0:0:
192,192,84990,1,0,0:0:0:0:
320,192,85079,1,0,0:0:0:0:
448,192,85079,1,0,0:0:0:0:
64,192,85431,1,0,0:0:0:0:
320,192,85431,1,0,0:0:0:0:
192,192,85520,1,0,0:0:0:0:
320,192,85608,1,0,0:0:0:0:
448,192,85696,1,0,0:0:0:0:
320,192,85784,1,0,0:0:0:0:
192,192,85784,1,0,0:0:0:0:
64,192,86137,1,0,0:0:0:0:
192,192,86137,1,0,0:0:0:0:
320,192,86226,1,0,0:0:0:0:
448,192,86314,1,0,0:0:0:0:
320,192,86402,1,0,0:0:0:0:
192,192,86490,1,0,0:0:0:0:
448,192,86490,1,0,0:0:0:0:
320,192,86843,1,0,0:0:0:0:
64,192,86843,1,0,0:0:0:0:
448,192,86931,1,0,0:0:0:0:
320,192,87020,1,0,0:0:0:0:
192,192,87108,1,0,0:0:0:0:
320,192,87196,1,0,0:0:0:0:
448,192,87196,1,0,0:0:0:0:
64,192,87549,128,0,88255:0:0:0:0:
320,192,87549,128,0,88255:0:0:0:0:
448,192,87549,1,0,0:0:0:0:
192,192,88255,128,0,88961:0:0:0:0:
448,192,88255,128,0,88961:0:0:0:0:
320,192,88608,1,0,0:0:0:0:
64,192,88961,1,0,0:0:0:0:
448,192,89049,1,0,0:0:0:0:
192,192,89137,1,0,0:0:0:0:
320,192,89226,1,0,0:0:0:0:
192,192,89314,1,0,0:0:0:0:
64,192,89314,1,0,0:0:0:0:
448,192,89490,1,0,0:0:0:0:
192,192,89579,1,0,0:0:0:0:
320,192,89755,1,0,0:0:0:0:
64,192,89843,1,0,0:0:0:0:
448,192,90020,1,0,0:0:0:0:
192,192,90020,1,0,0:0:0:0:
320,192,90196,1,0,0:0:0:0:
192,192,90196,1,0,0:0:0:0:
448,192,90373,1,0,0:0:0:0:
64,192,90461,1,0,0:0:0:0:
320,192,90549,1,0,0:0:0:0:
192,192,90637,1,0,0:0:0:0:
320,192,90726,1,0,0:0:0:0:
448,192,90726,1,0,0:0:0:0:
64,192,90902,1,0,0:0:0:0:
320,192,90990,1,0,0:0:0:0:
192,192,91167,1,0,0:0:0:0:
448,192,91255,1,0,0:0:0:0:
64,192,91431,1,0,0:0:0:0:
320,192,91431,1,0,0:0:0:0:
320,192,91608,1,0,0:0:0:0:
192,192,91608,1,0,0:0:0:0:
64,192,91784,1,0,0:0:0:0:
448,192,91873,1,0,0:0:0:0:
192,192,91961,1,0,0:0:0:0:
320,192,92049,1,0,0:0:0:0:
192,192,92137,1,0,0:0:0:0:
64,192,92137,1,0,0:0:0:0:
448,192,92314,1,0,0:0:0:0:
192,192,92402,1,0,0:0:0:0:
320,192,92579,1,0,0:0:0:0:
64,192,92667,1,0,0:0:0:0:
192,192,92843,1,0,0:0:0:0:
448,192,92843,1,0,0:0:0:0:
320,192,93020,1,0,0:0:0:0:
192,192,93020,1,0,0:0:0:0:
448,192,93196,1,0,0:0:0:0:
64,192,93284,1,0,0:0:0:0:
320,192,93373,1,0,0:0:0:0:
192,192,93461,1,0,0:0:0:0:
320,192,93549,1,0,0:0:0:0:
448,192,93549,1,0,0:0:0:0:
64,192,93726,1,0,0:0:0:0:
320,192,93814,1,0,0:0:0:0:
192,192,93990,1,0,0:0:0:0:
448,192,94079,1,0,0:0:0:0:
320,192,94255,1,0,0:0:0:0:
64,192,94255,1,0,0:0:0:0:
192,192,94431,1,0,0:0:0:0:
320,192,94431,1,0,0:0:0:0:
448,192,94608,1,0,0:0:0:0:
192,192,94696,1,0,0:0:0:0:
320,192,94784,1,0,0:0:0:0:
64,192,94873,1,0,0:0:0:0:
448,192,94961,1,0,0:0:0:0:
320,192,95137,1,0,0:0:0:0:
192,192,95226,1,0,0:0:0:0:
448,192,95402,1,0,0:0:0:0:
64,192,95490,1,0,0:0:0:0:
192,192,95667,1,0,0:0:0:0:
320,192,95667,1,0,0:0:0:0:
448,192,95667,1,0,0:0:0:0:
448,192,95843,1,0,0:0:0:0:
192,192,95843,1,0,0:0:0:0:
320,192,95843,1,0,0:0:0:0:
320,192,97431,1,0,0:0:0:0:
192,192,97520,1,0,0:0:0:0:
64,192,97608,1,0,0:0:0:0:
192,192,97696,1,0,0:0:0:0:
320,192,97784,1,0,0:0:0:0:
448,192,97873,1,0,0:0:0:0:
320,192,97961,1,0,0:0:0:0:
64,192,98049,1,0,0:0:0:0:
192,192,98137,1,0,0:0:0:0:
320,192,98226,1,0,0:0:0:0:
448,192,98314,1,0,0:0:0:0:
320,192,98402,1,0,0:0:0:0:
192,192,98490,1,0,0:0:0:0:
64,192,98579,1,0,0:0:0:0:
192,192,98667,1,0,0:0:0:0:
320,192,98755,1,0,0:0:0:0:
448,192,98843,1,0,0:0:0:0:
64,192,98843,1,0,0:0:0:0:
