osu file format v14

[General]
AudioFilename: Almagest.mp3
AudioLeadIn: 0
PreviewTime: -1
Countdown: 0
SampleSet: Soft
StackLeniency: 0.7
Mode: 3
LetterboxInBreaks: 0
SpecialStyle: 1
WidescreenStoryboard: 1

[Editor]
DistanceSpacing: 0.9
BeatDivisor: 8
GridSize: 16
TimelineZoom: 2.7

[Metadata]
Title:Beatmania IIDX Pack vol.1
TitleUnicode:Beatmania IIDX Pack vol.1
Artist:Various Artists
ArtistUnicode:Various Artists
Creator:DE-CADE
Version:4K Another (Galdeira - Almagest)
Source:beatmania IIDX
Tags:Humanoid Tatsh TOMOSUKE Galdeira Amuro Killer DJ YOSHITAKA dj Taka seiryu mei 3y3s MENDES Xepher Almagest
BeatmapID:664829
BeatmapSetID:296008

[Difficulty]
HPDrainRate:7
CircleSize:4
OverallDifficulty:7
ApproachRate:5
SliderMultiplier:1.4
SliderTickRate:1

[Events]
//Background and Video events
0,0,"BG.jpg",0,0
//Break Periods
//Storyboard Layer 0 (Background)
//Storyboard Layer 1 (Fail)
//Storyboard Layer 2 (Pass)
//Storyboard Layer 3 (Foreground)
//Storyboard Sound Samples
Sample,2528,0,"0047.ogg",85
Sample,6572,0,"0033.ogg",85
Sample,6741,0,"0034.ogg",85
Sample,6910,0,"0035.ogg",85
Sample,7078,0,"0036.ogg",85
Sample,7247,0,"0037.ogg",85
Sample,7415,0,"0038.ogg",85
Sample,7584,0,"0039.ogg",85
Sample,7752,0,"003A.ogg",85
Sample,7921,0,"003B.ogg",85
Sample,8089,0,"003C.ogg",85
Sample,8258,0,"003D.ogg",85
Sample,8426,0,"003E.ogg",85
Sample,8595,0,"003F.ogg",85
Sample,8763,0,"003G.ogg",85
Sample,8932,0,"003H.ogg",85
Sample,9101,0,"003I.ogg",85
Sample,9269,0,"003J.ogg",85
Sample,9438,0,"003K.ogg",85
Sample,9606,0,"003L.ogg",85
Sample,9775,0,"003M.ogg",85
Sample,9943,0,"003N.ogg",85
Sample,10112,0,"003O.ogg",85
Sample,10280,0,"003P.ogg",85
Sample,10449,0,"003Q.ogg",85
Sample,10617,0,"003R.ogg",85
Sample,10702,0,"003R.ogg",85
Sample,10786,0,"003S.ogg",85
Sample,10870,0,"003S.ogg",85
Sample,10954,0,"003T.ogg",85
Sample,11039,0,"003T.ogg",85
Sample,11123,0,"003U.ogg",85
Sample,11207,0,"003U.ogg",85
Sample,11292,0,"003V.ogg",85
Sample,11376,0,"003V.ogg",85
Sample,11460,0,"003W.ogg",85
Sample,11544,0,"003W.ogg",85
Sample,11629,0,"003X.ogg",85
Sample,11713,0,"003X.ogg",85
Sample,11797,0,"003Y.ogg",85
Sample,11881,0,"003Y.ogg",85
Sample,13314,0,"004K.ogg",85
Sample,13651,0,"000I.ogg",85
Sample,13820,0,"000J.ogg",85
Sample,13988,0,"000K.ogg",85
Sample,14072,0,"000L.ogg",85
Sample,14157,0,"000M.ogg",85
Sample,14241,0,"000N.ogg",85
Sample,14325,0,"000O.ogg",85
Sample,14410,0,"000P.ogg",85
Sample,14494,0,"000Q.ogg",85
Sample,14578,0,"000R.ogg",85
Sample,14662,0,"000S.ogg",85
Sample,14747,0,"000T.ogg",85
Sample,14831,0,"000U.ogg",85
Sample,14915,0,"000V.ogg",85
Sample,14999,0,"000W.ogg",85
Sample,15084,0,"000X.ogg",85
Sample,15168,0,"000Y.ogg",85
Sample,15336,0,"000Z.ogg",85
Sample,15421,0,"0010.ogg",85
Sample,15589,0,"0011.ogg",85
Sample,15758,0,"0012.ogg",85
Sample,15842,0,"0013.ogg",85
Sample,15926,0,"0014.ogg",85
Sample,16011,0,"006O.ogg",85
Sample,16011,0,"0047.ogg",100
Sample,16179,0,"006P.ogg",85
Sample,16263,0,"006Q.ogg",85
Sample,16348,0,"006R.ogg",85
Sample,16432,0,"006S.ogg",85
Sample,16516,0,"006T.ogg",85
Sample,16601,0,"006U.ogg",85
Sample,16685,0,"006V.ogg",85
Sample,16769,0,"006W.ogg",85
Sample,16853,0,"006X.ogg",85
Sample,16938,0,"006Y.ogg",85
Sample,17022,0,"006Z.ogg",85
Sample,17106,0,"0070.ogg",85
Sample,17190,0,"0071.ogg",85
Sample,17275,0,"0072.ogg",85
Sample,17359,0,"0073.ogg",85
Sample,17527,0,"0074.ogg",85
Sample,17612,0,"0075.ogg",85
Sample,17696,0,"0076.ogg",85
Sample,17780,0,"0077.ogg",85
Sample,17865,0,"0078.ogg",85
Sample,17949,0,"0079.ogg",85
Sample,18033,0,"007A.ogg",85
Sample,18117,0,"007B.ogg",85
Sample,18202,0,"007C.ogg",85
Sample,18286,0,"007D.ogg",85
Sample,18370,0,"007E.ogg",85
Sample,18454,0,"007F.ogg",85
Sample,18539,0,"007G.ogg",85
Sample,18707,0,"007I.ogg",85
Sample,18876,0,"007J.ogg",85
Sample,18960,0,"007K.ogg",85
Sample,19044,0,"007L.ogg",85
Sample,19129,0,"007M.ogg",85
Sample,19213,0,"007N.ogg",85
Sample,19297,0,"007O.ogg",85
Sample,19381,0,"007P.ogg",85
Sample,19466,0,"007Q.ogg",85
Sample,19550,0,"007R.ogg",85
Sample,19634,0,"007S.ogg",85
Sample,19719,0,"007T.ogg",85
Sample,19803,0,"007U.ogg",85
Sample,19887,0,"007V.ogg",85
Sample,19971,0,"007W.ogg",85
Sample,20056,0,"007X.ogg",85
Sample,20224,0,"007Y.ogg",85
Sample,20308,0,"007Z.ogg",85
Sample,20393,0,"0080.ogg",85
Sample,20477,0,"0081.ogg",85
Sample,20561,0,"0082.ogg",85
Sample,20730,0,"0084.ogg",85
Sample,20814,0,"0085.ogg",85
Sample,20898,0,"0086.ogg",85
Sample,20983,0,"0087.ogg",85
Sample,21067,0,"0088.ogg",85
Sample,21151,0,"0089.ogg",85
Sample,21235,0,"008A.ogg",85
Sample,21404,0,"008C.ogg",85
Sample,21572,0,"008D.ogg",85
Sample,21657,0,"008E.ogg",85
Sample,21741,0,"008F.ogg",85
Sample,21825,0,"008G.ogg",85
Sample,21910,0,"008H.ogg",85
Sample,21994,0,"008I.ogg",85
Sample,22078,0,"008J.ogg",85
Sample,22162,0,"008K.ogg",85
Sample,22247,0,"008L.ogg",85
Sample,22331,0,"008M.ogg",85
Sample,22415,0,"008N.ogg",85
Sample,22499,0,"008O.ogg",85
Sample,22584,0,"008P.ogg",85
Sample,22668,0,"008Q.ogg",85
Sample,22752,0,"008R.ogg",85
Sample,22921,0,"008S.ogg",85
Sample,23005,0,"008T.ogg",85
Sample,23089,0,"008U.ogg",85
Sample,23174,0,"008V.ogg",85
Sample,23258,0,"008W.ogg",85
Sample,23342,0,"008X.ogg",85
Sample,23426,0,"008Y.ogg",85
Sample,23511,0,"008Z.ogg",85
Sample,23595,0,"0090.ogg",85
Sample,23679,0,"0091.ogg",85
Sample,23763,0,"0092.ogg",85
Sample,23848,0,"0093.ogg",85
Sample,23932,0,"0094.ogg",85
Sample,24101,0,"0096.ogg",85
Sample,24269,0,"0097.ogg",85
Sample,24353,0,"0098.ogg",85
Sample,24438,0,"0099.ogg",85
Sample,24522,0,"009A.ogg",85
Sample,24606,0,"009B.ogg",85
Sample,24690,0,"009C.ogg",85
Sample,24775,0,"009D.ogg",85
Sample,24859,0,"009E.ogg",85
Sample,24943,0,"009F.ogg",85
Sample,25027,0,"009G.ogg",85
Sample,25112,0,"009H.ogg",85
Sample,25196,0,"009I.ogg",85
Sample,25280,0,"009J.ogg",85
Sample,25365,0,"009K.ogg",85
Sample,25449,0,"009L.ogg",85
Sample,25617,0,"0030.ogg",85
Sample,25617,0,"009M.ogg",85
Sample,25702,0,"009N.ogg",85
Sample,25786,0,"009O.ogg",85
Sample,25786,0,"0003.ogg",100
Sample,25870,0,"0004.ogg",100
Sample,25870,0,"009P.ogg",85
Sample,25954,0,"009Q.ogg",85
Sample,25954,0,"0030.ogg",85
Sample,26039,0,"009R.ogg",85
Sample,26123,0,"009S.ogg",85
Sample,26123,0,"00ML.ogg",85
Sample,26292,0,"0031.ogg",85
Sample,26292,0,"009U.ogg",85
Sample,26376,0,"009V.ogg",85
Sample,26460,0,"009W.ogg",85
Sample,26544,0,"009X.ogg",85
Sample,26544,0,"0032.ogg",85
Sample,26629,0,"009Y.ogg",85
Sample,26629,0,"0030.ogg",85
Sample,26713,0,"0019.ogg",100
Sample,26713,0,"009Z.ogg",85
Sample,26797,0,"0041.ogg",85
Sample,26966,0,"0030.ogg",85
Sample,27134,0,"0002.ogg",85
Sample,27134,0,"0041.ogg",85
Sample,27303,0,"0030.ogg",85
Sample,27471,0,"0041.ogg",85
Sample,27640,0,"0030.ogg",85
Sample,27808,0,"0041.ogg",85
Sample,27808,0,"0002.ogg",85
Sample,27977,0,"0030.ogg",85
Sample,28145,0,"0041.ogg",85
Sample,28314,0,"0030.ogg",85
Sample,28483,0,"0002.ogg",85
Sample,28483,0,"0041.ogg",85
Sample,28651,0,"0030.ogg",85
Sample,28820,0,"0041.ogg",85
Sample,28988,0,"0031.ogg",85
Sample,29157,0,"0041.ogg",85
Sample,29157,0,"0002.ogg",85
Sample,29241,0,"0032.ogg",85
Sample,29325,0,"0030.ogg",85
Sample,29494,0,"0041.ogg",85
Sample,29662,0,"0030.ogg",85
Sample,29831,0,"0041.ogg",85
Sample,29831,0,"0002.ogg",85
Sample,29999,0,"0030.ogg",85
Sample,30168,0,"0041.ogg",85
Sample,30336,0,"0030.ogg",85
Sample,30505,0,"0002.ogg",85
Sample,30505,0,"0041.ogg",85
Sample,30674,0,"0041.ogg",85
Sample,30674,0,"0030.ogg",85
Sample,31011,0,"0030.ogg",85
Sample,31011,0,"0041.ogg",85
Sample,31179,0,"0003.ogg",85
Sample,31263,0,"0004.ogg",85
Sample,31348,0,"0041.ogg",85
Sample,31348,0,"0030.ogg",85
Sample,31348,0,"0005.ogg",85
Sample,31516,0,"001A.ogg",85
Sample,31601,0,"001B.ogg",85
Sample,31685,0,"0031.ogg",85
Sample,31685,0,"001C.ogg",85
Sample,31769,0,"001D.ogg",85
Sample,31853,0,"001E.ogg",85
Sample,31853,0,"0002.ogg",85
Sample,31938,0,"0032.ogg",85
Sample,32022,0,"0030.ogg",85
Sample,32022,0,"001F.ogg",85
Sample,32190,0,"0041.ogg",85
Sample,32359,0,"0030.ogg",85
Sample,32527,0,"0002.ogg",85
Sample,32527,0,"0041.ogg",85
Sample,32696,0,"0030.ogg",85
Sample,32865,0,"0041.ogg",85
Sample,33033,0,"0030.ogg",85
Sample,33202,0,"0002.ogg",85
Sample,33202,0,"0041.ogg",85
Sample,33370,0,"0030.ogg",85
Sample,33539,0,"0041.ogg",85
Sample,33707,0,"0030.ogg",85
Sample,33876,0,"0041.ogg",85
Sample,33876,0,"0002.ogg",85
Sample,34044,0,"0030.ogg",85
Sample,34213,0,"0041.ogg",85
Sample,34381,0,"0031.ogg",85
Sample,34550,0,"0041.ogg",85
Sample,34550,0,"0002.ogg",85
Sample,34634,0,"0032.ogg",85
Sample,34719,0,"0041.ogg",85
Sample,34719,0,"0030.ogg",85
Sample,34887,0,"0041.ogg",85
Sample,35056,0,"0030.ogg",85
Sample,35056,0,"0041.ogg",85
Sample,35224,0,"0041.ogg",85
Sample,35224,0,"0002.ogg",85
Sample,35393,0,"0030.ogg",85
Sample,35393,0,"0041.ogg",85
Sample,35561,0,"0041.ogg",85
Sample,35730,0,"0030.ogg",85
Sample,35898,0,"0041.ogg",85
Sample,35898,0,"0002.ogg",85
Sample,36067,0,"0030.ogg",85
Sample,36235,0,"001H.ogg",85
Sample,36572,0,"001I.ogg",85
Sample,36741,0,"001J.ogg",85
Sample,36910,0,"001K.ogg",85
Sample,37078,0,"001L.ogg",85
Sample,37162,0,"001M.ogg",85
Sample,37247,0,"001N.ogg",85
Sample,37331,0,"001O.ogg",85
Sample,37415,0,"001P.ogg",85
Sample,37499,0,"001Q.ogg",85
Sample,37584,0,"001R.ogg",85
Sample,38932,0,"00MN.ogg",100
Sample,39101,0,"0030.ogg",85
Sample,39438,0,"0030.ogg",85
Sample,39775,0,"0030.ogg",85
Sample,40112,0,"0030.ogg",85
Sample,40449,0,"0009.ogg",85
Sample,40870,0,"0007.ogg",85
Sample,41292,0,"0008.ogg",85
Sample,41797,0,"0030.ogg",85
Sample,42134,0,"0030.ogg",85
Sample,42471,0,"0030.ogg",85
Sample,42808,0,"0030.ogg",85
Sample,43314,0,"0008.ogg",85
Sample,43567,0,"000A.ogg",85
Sample,43735,0,"000A.ogg",85
Sample,43820,0,"000A.ogg",85
Sample,43988,0,"0009.ogg",85
Sample,44157,0,"000B.ogg",85
Sample,44325,0,"00ME.ogg",70
Sample,44325,0,"00MN.ogg",70
Sample,44494,0,"0030.ogg",85
Sample,44831,0,"0030.ogg",85
Sample,45168,0,"0030.ogg",85
Sample,45505,0,"0030.ogg",85
Sample,46011,0,"000C.ogg",85
Sample,46263,0,"0007.ogg",85
Sample,46685,0,"0008.ogg",85
Sample,47359,0,"0008.ogg",85
Sample,47780,0,"000A.ogg",85
Sample,48033,0,"0008.ogg",85
Sample,48202,0,"00MS.ogg",85
Sample,49719,0,"000D.ogg",100
Sample,49887,0,"0030.ogg",85
Sample,50056,0,"0006.ogg",85
Sample,50224,0,"0030.ogg",85
Sample,50308,0,"0007.ogg",85
Sample,50561,0,"0030.ogg",85
Sample,50645,0,"0007.ogg",85
Sample,50730,0,"0008.ogg",85
Sample,50898,0,"0030.ogg",85
Sample,51067,0,"001S.ogg",85
Sample,51235,0,"001T.ogg",85
Sample,51404,0,"001U.ogg",85
Sample,51488,0,"001V.ogg",85
Sample,51572,0,"001W.ogg",85
Sample,51657,0,"001X.ogg",85
Sample,51657,0,"0007.ogg",85
Sample,51741,0,"001Y.ogg",85
Sample,51825,0,"001Z.ogg",85
Sample,51910,0,"0020.ogg",85
Sample,51994,0,"0021.ogg",85
Sample,52078,0,"001H.ogg",85
Sample,52078,0,"0008.ogg",85
Sample,52415,0,"00DC.ogg",100
Sample,52584,0,"0030.ogg",85
Sample,52752,0,"0008.ogg",85
Sample,52921,0,"0030.ogg",85
Sample,53174,0,"000A.ogg",85
Sample,53258,0,"0030.ogg",85
Sample,53426,0,"0008.ogg",85
Sample,53595,0,"0030.ogg",85
Sample,53763,0,"0022.ogg",85
Sample,53932,0,"0023.ogg",85
Sample,54101,0,"0008.ogg",85
Sample,54101,0,"0024.ogg",85
Sample,54269,0,"0025.ogg",85
Sample,54353,0,"000A.ogg",85
Sample,54522,0,"000A.ogg",85
Sample,54522,0,"0027.ogg",85
Sample,54606,0,"000A.ogg",85
Sample,54690,0,"0029.ogg",85
Sample,54775,0,"0009.ogg",85
Sample,54859,0,"002B.ogg",85
Sample,54943,0,"000B.ogg",85
Sample,55027,0,"002B.ogg",85
Sample,55112,0,"0041.ogg",100
Sample,55112,0,"00ME.ogg",100
Sample,55280,0,"0030.ogg",85
Sample,55449,0,"0006.ogg",85
Sample,55617,0,"0030.ogg",85
Sample,55702,0,"0007.ogg",85
Sample,55954,0,"0030.ogg",85
Sample,56039,0,"0007.ogg",85
Sample,56123,0,"0008.ogg",85
Sample,56292,0,"0030.ogg",85
Sample,56629,0,"0030.ogg",85
Sample,56797,0,"000C.ogg",85
Sample,56966,0,"0030.ogg",85
Sample,57050,0,"0007.ogg",85
Sample,57303,0,"0031.ogg",85
Sample,57471,0,"0008.ogg",85
Sample,57556,0,"0032.ogg",85
Sample,57640,0,"0030.ogg",85
Sample,57808,0,"0041.ogg",85
Sample,57977,0,"0030.ogg",85
Sample,58145,0,"0041.ogg",85
Sample,58145,0,"004E.ogg",85
Sample,58230,0,"004F.ogg",85
Sample,58314,0,"0030.ogg",85
Sample,58314,0,"004F.ogg",85
Sample,58398,0,"004G.ogg",85
Sample,58483,0,"0041.ogg",85
Sample,58483,0,"004E.ogg",85
Sample,58567,0,"004F.ogg",85
Sample,58567,0,"000A.ogg",85
Sample,58651,0,"004F.ogg",85
Sample,58651,0,"0030.ogg",85
Sample,58735,0,"004G.ogg",85
Sample,58820,0,"004E.ogg",85
Sample,58820,0,"0041.ogg",85
Sample,58904,0,"004F.ogg",85
Sample,58988,0,"004F.ogg",85
Sample,58988,0,"0030.ogg",85
Sample,59072,0,"004G.ogg",85
Sample,59157,0,"004E.ogg",85
Sample,59157,0,"0042.ogg",85
Sample,59241,0,"0042.ogg",85
Sample,59241,0,"004F.ogg",85
Sample,59325,0,"004F.ogg",85
Sample,59325,0,"0042.ogg",85
Sample,59325,0,"0030.ogg",85
Sample,59410,0,"004G.ogg",85
Sample,59410,0,"0042.ogg",85
Sample,59494,0,"0043.ogg",85
Sample,59494,0,"004E.ogg",85
Sample,59494,0,"0008.ogg",85
Sample,59550,0,"0043.ogg",85
Sample,59578,0,"004F.ogg",85
Sample,59606,0,"0043.ogg",85
Sample,59662,0,"0043.ogg",85
Sample,59662,0,"004F.ogg",85
Sample,59662,0,"0030.ogg",85
Sample,59704,0,"0043.ogg",85
Sample,59747,0,"004G.ogg",85
Sample,59747,0,"0043.ogg",85
Sample,59747,0,"000A.ogg",85
Sample,59789,0,"0043.ogg",85
Sample,59831,0,"0044.ogg",85
Sample,59831,0,"004E.ogg",85
Sample,59915,0,"0044.ogg",85
Sample,59915,0,"004F.ogg",85
Sample,59915,0,"000A.ogg",85
Sample,59999,0,"000A.ogg",85
Sample,59999,0,"0031.ogg",85
Sample,60084,0,"0044.ogg",85
Sample,60084,0,"004G.ogg",85
Sample,60168,0,"004E.ogg",85
Sample,60168,0,"0009.ogg",85
Sample,60168,0,"0041.ogg",85
Sample,60252,0,"004F.ogg",85
Sample,60252,0,"0032.ogg",85
Sample,60336,0,"004F.ogg",85
Sample,60336,0,"0030.ogg",85
Sample,60336,0,"000B.ogg",85
Sample,60421,0,"004G.ogg",85
Sample,60505,0,"001R.ogg",85
Sample,62190,0,"002W.ogg",85
Sample,62275,0,"002X.ogg",85
Sample,62359,0,"002Y.ogg",85
Sample,62527,0,"002Z.ogg",85
Sample,62696,0,"001L.ogg",85
Sample,62780,0,"001M.ogg",85
Sample,62865,0,"001N.ogg",85
Sample,62949,0,"001O.ogg",85
Sample,63033,0,"001P.ogg",85
Sample,63117,0,"001Q.ogg",85
Sample,63202,0,"0041.ogg",85
Sample,63202,0,"004C.ogg",85
Sample,63202,0,"0047.ogg",85
Sample,63370,0,"0030.ogg",85
Sample,63539,0,"0041.ogg",85
Sample,63707,0,"0030.ogg",85
Sample,63792,0,"0007.ogg",85
Sample,63876,0,"0041.ogg",85
Sample,64044,0,"0030.ogg",85
Sample,64129,0,"0007.ogg",85
Sample,64213,0,"0041.ogg",85
Sample,64213,0,"0008.ogg",85
Sample,64381,0,"0030.ogg",85
Sample,64550,0,"0041.ogg",85
Sample,64719,0,"0030.ogg",85
Sample,64887,0,"000C.ogg",85
Sample,64887,0,"0041.ogg",85
Sample,65056,0,"0030.ogg",85
Sample,65140,0,"0007.ogg",85
Sample,65224,0,"0041.ogg",85
Sample,65393,0,"0031.ogg",85
Sample,65561,0,"0041.ogg",85
Sample,65561,0,"0008.ogg",85
Sample,65645,0,"0032.ogg",85
Sample,65730,0,"0030.ogg",85
Sample,65898,0,"0041.ogg",85
Sample,66067,0,"0030.ogg",85
Sample,66235,0,"0041.ogg",85
Sample,66235,0,"0008.ogg",85
Sample,66404,0,"0030.ogg",85
Sample,66572,0,"0041.ogg",85
Sample,66657,0,"000A.ogg",85
Sample,66741,0,"0030.ogg",85
Sample,66910,0,"0041.ogg",85
Sample,66910,0,"0008.ogg",85
Sample,67078,0,"0030.ogg",85
Sample,67247,0,"0041.ogg",85
Sample,67415,0,"0030.ogg",85
Sample,67584,0,"0008.ogg",85
Sample,67584,0,"0041.ogg",85
Sample,67752,0,"0030.ogg",85
Sample,67836,0,"000A.ogg",85
Sample,67921,0,"0041.ogg",85
Sample,68005,0,"000A.ogg",85
Sample,68089,0,"0031.ogg",85
Sample,68089,0,"000A.ogg",85
Sample,68258,0,"0009.ogg",85
Sample,68258,0,"0041.ogg",85
Sample,68342,0,"0032.ogg",85
Sample,68426,0,"000B.ogg",85
Sample,68426,0,"0041.ogg",85
Sample,68426,0,"0030.ogg",85
Sample,68562,0,"000D.ogg",100
Sample,68595,0,"0041.ogg",85
Sample,68763,0,"0030.ogg",85
Sample,68932,0,"0006.ogg",85
Sample,68932,0,"0041.ogg",85
Sample,69101,0,"0030.ogg",85
Sample,69185,0,"0007.ogg",85
Sample,69269,0,"0041.ogg",85
Sample,69438,0,"0030.ogg",85
Sample,69522,0,"0007.ogg",85
Sample,69606,0,"0041.ogg",85
Sample,69606,0,"0008.ogg",85
Sample,69775,0,"0030.ogg",85
Sample,69943,0,"0041.ogg",85
Sample,70112,0,"0030.ogg",85
Sample,70280,0,"000C.ogg",85
Sample,70280,0,"0041.ogg",85
Sample,70449,0,"0030.ogg",85
Sample,70533,0,"0007.ogg",85
Sample,70617,0,"0041.ogg",85
Sample,70786,0,"0031.ogg",85
Sample,70954,0,"0008.ogg",85
Sample,70954,0,"0041.ogg",85
Sample,71039,0,"0032.ogg",85
Sample,71123,0,"0030.ogg",85
Sample,71292,0,"0041.ogg",85
Sample,71460,0,"0030.ogg",85
Sample,71629,0,"0041.ogg",85
Sample,71629,0,"0008.ogg",85
Sample,71797,0,"0030.ogg",85
Sample,71966,0,"0041.ogg",85
Sample,72050,0,"000A.ogg",85
Sample,72134,0,"0030.ogg",85
Sample,72303,0,"0008.ogg",85
Sample,72303,0,"0041.ogg",85
Sample,72471,0,"0041.ogg",85
Sample,72471,0,"0030.ogg",85
Sample,72640,0,"00N1.ogg",85
Sample,72640,0,"0041.ogg",85
Sample,72808,0,"0030.ogg",85
Sample,72808,0,"0041.ogg",85
Sample,72977,0,"0008.ogg",85
Sample,73145,0,"0041.ogg",85
Sample,73145,0,"0030.ogg",85
Sample,73230,0,"000A.ogg",85
Sample,73314,0,"001K.ogg",85
Sample,73398,0,"000A.ogg",85
Sample,73483,0,"000A.ogg",85
Sample,73483,0,"0041.ogg",85
Sample,73483,0,"0031.ogg",85
Sample,73651,0,"0009.ogg",85
Sample,73651,0,"001N.ogg",85
Sample,73735,0,"001O.ogg",85
Sample,73735,0,"0032.ogg",85
Sample,73820,0,"0030.ogg",85
Sample,73820,0,"0041.ogg",85
Sample,73820,0,"000B.ogg",85
Sample,73820,0,"001P.ogg",85
Sample,73904,0,"001Q.ogg",85
Sample,73988,0,"0041.ogg",85
Sample,73988,0,"000D.ogg",85
Sample,74157,0,"0030.ogg",85
Sample,74325,0,"0006.ogg",85
Sample,74325,0,"0041.ogg",85
Sample,74494,0,"0030.ogg",85
Sample,74578,0,"0007.ogg",85
Sample,74662,0,"0041.ogg",85
Sample,74831,0,"0030.ogg",85
Sample,74915,0,"0007.ogg",85
Sample,74999,0,"0008.ogg",85
Sample,74999,0,"0041.ogg",85
Sample,75168,0,"0030.ogg",85
Sample,75336,0,"0041.ogg",85
Sample,75505,0,"0030.ogg",85
Sample,75674,0,"0041.ogg",85
Sample,75674,0,"000C.ogg",85
Sample,75842,0,"0030.ogg",85
Sample,75926,0,"0007.ogg",85
Sample,76011,0,"0041.ogg",85
Sample,76179,0,"0031.ogg",85
Sample,76348,0,"0041.ogg",85
Sample,76348,0,"0008.ogg",85
Sample,76432,0,"0032.ogg",85
Sample,76516,0,"0030.ogg",85
Sample,76685,0,"0041.ogg",85
Sample,76853,0,"0030.ogg",85
Sample,77022,0,"0041.ogg",85
Sample,77022,0,"0008.ogg",85
Sample,77190,0,"0030.ogg",85
Sample,77359,0,"0041.ogg",85
Sample,77443,0,"000A.ogg",85
Sample,77527,0,"0030.ogg",85
Sample,77696,0,"0008.ogg",85
Sample,77696,0,"0041.ogg",85
Sample,77865,0,"000E.ogg",85
Sample,77865,0,"0041.ogg",85
Sample,77865,0,"0030.ogg",85
Sample,78033,0,"00IU.ogg",85
Sample,78202,0,"0030.ogg",85
Sample,78202,0,"000E.ogg",85
Sample,78202,0,"0041.ogg",85
Sample,78370,0,"0008.ogg",85
Sample,78539,0,"0041.ogg",85
Sample,78539,0,"0030.ogg",85
Sample,78539,0,"000E.ogg",85
Sample,78623,0,"000A.ogg",85
Sample,78707,0,"001A.ogg",85
Sample,78792,0,"000A.ogg",85
Sample,78792,0,"001B.ogg",85
Sample,78876,0,"0031.ogg",85
Sample,78876,0,"001C.ogg",85
Sample,78876,0,"000A.ogg",85
Sample,78960,0,"001D.ogg",85
Sample,79044,0,"0009.ogg",85
Sample,79044,0,"001E.ogg",85
Sample,79129,0,"0032.ogg",85
Sample,79213,0,"000B.ogg",85
Sample,79213,0,"0030.ogg",85
Sample,79213,0,"001F.ogg",85
Sample,79381,0,"000D.ogg",85
Sample,79381,0,"0041.ogg",85
Sample,79550,0,"0030.ogg",85
Sample,79719,0,"0041.ogg",85
Sample,79719,0,"0006.ogg",85
Sample,79887,0,"0030.ogg",85
Sample,79971,0,"0007.ogg",85
Sample,80056,0,"0041.ogg",85
Sample,80224,0,"0030.ogg",85
Sample,80308,0,"0007.ogg",85
Sample,80393,0,"0008.ogg",85
Sample,80393,0,"0041.ogg",85
Sample,80561,0,"0030.ogg",85
Sample,80730,0,"000D.ogg",85
Sample,80730,0,"0041.ogg",85
Sample,80898,0,"0030.ogg",85
Sample,81067,0,"000C.ogg",85
Sample,81067,0,"0041.ogg",85
Sample,81235,0,"0030.ogg",85
Sample,81320,0,"0007.ogg",85
Sample,81404,0,"0041.ogg",85
Sample,81572,0,"0031.ogg",85
Sample,81741,0,"0041.ogg",85
Sample,81741,0,"0008.ogg",85
Sample,81825,0,"0032.ogg",85
Sample,81910,0,"0041.ogg",85
Sample,81910,0,"0030.ogg",85
Sample,82078,0,"000D.ogg",85
Sample,82078,0,"0041.ogg",85
Sample,82247,0,"0041.ogg",85
Sample,82247,0,"0030.ogg",85
Sample,82415,0,"0041.ogg",85
Sample,82415,0,"0008.ogg",85
Sample,82584,0,"0041.ogg",85
Sample,82584,0,"0030.ogg",85
Sample,82752,0,"0041.ogg",85
Sample,82752,0,"000D.ogg",85
Sample,82836,0,"000A.ogg",85
Sample,82921,0,"0030.ogg",85
Sample,82921,0,"001G.ogg",85
Sample,83089,0,"0008.ogg",85
Sample,83089,0,"0041.ogg",85
Sample,83258,0,"0030.ogg",85
Sample,83258,0,"001G.ogg",85
Sample,83426,0,"000D.ogg",85
Sample,83426,0,"001H.ogg",85
Sample,83426,0,"00N1.ogg",85
Sample,83763,0,"001I.ogg",85
Sample,83763,0,"0008.ogg",85
Sample,83932,0,"001J.ogg",85
Sample,84016,0,"000A.ogg",85
Sample,84101,0,"001K.ogg",85
Sample,84185,0,"000A.ogg",85
Sample,84269,0,"000A.ogg",85
Sample,84269,0,"001L.ogg",85
Sample,84353,0,"001M.ogg",85
Sample,84438,0,"0009.ogg",85
Sample,84438,0,"001N.ogg",85
Sample,84522,0,"001O.ogg",85
Sample,84606,0,"001P.ogg",85
Sample,84606,0,"000B.ogg",85
Sample,84690,0,"001Q.ogg",85
Sample,84775,0,"0041.ogg",85
Sample,84775,0,"0047.ogg",85
Sample,84775,0,"004D.ogg",85
Sample,84775,0,"00LU.ogg",85
Sample,85027,0,"00LV.ogg",85
Sample,86207,0,"00LW.ogg",85
Sample,86460,0,"00LX.ogg",85
Sample,86881,0,"00LY.ogg",85
Sample,87134,0,"0041.ogg",85
Sample,87471,0,"0046.ogg",85
Sample,87724,0,"00LV.ogg",85
Sample,87808,0,"0041.ogg",85
Sample,88904,0,"00LW.ogg",85
Sample,89157,0,"00LX.ogg",85
Sample,89578,0,"00LY.ogg",85
Sample,90168,0,"00LZ.ogg",85
Sample,90421,0,"00LV.ogg",85
Sample,91685,0,"00M0.ogg",85
Sample,91769,0,"00M1.ogg",85
Sample,91853,0,"00M2.ogg",85
Sample,91938,0,"00M3.ogg",85
Sample,92275,0,"00M4.ogg",85
Sample,92359,0,"00M5.ogg",85
Sample,92443,0,"00M6.ogg",85
Sample,92527,0,"00M7.ogg",85
Sample,92612,0,"00M8.ogg",85
Sample,92696,0,"00M9.ogg",85
Sample,92780,0,"00MA.ogg",85
Sample,92865,0,"00MB.ogg",85
Sample,93117,0,"00MC.ogg",85
Sample,94381,0,"00M0.ogg",85
Sample,94466,0,"00M1.ogg",85
Sample,94550,0,"00M2.ogg",85
Sample,94634,0,"00M3.ogg",85
Sample,94971,0,"00M4.ogg",85
Sample,95056,0,"00M5.ogg",85
Sample,95140,0,"00M6.ogg",85
Sample,95224,0,"00M7.ogg",85
Sample,95308,0,"00M8.ogg",85
Sample,95393,0,"00MD.ogg",85

[TimingPoints]
3181,337.078651685393,4,2,0,20,1,0

[HitObjects]
320,192,3182,5,0,0:0:0:0:
32,192,3182,1,0,0:0:0:0:
480,192,3182,1,0,0:0:0:0:
192,192,3265,1,0,0:0:0:0:
329,192,3349,1,0,0:0:0:0:
109,192,3433,1,0,0:0:0:0:
402,192,3518,1,0,0:0:0:0:
320,192,3602,1,0,0:0:0:0:
64,192,3686,1,0,0:0:0:0:
192,192,3770,1,0,0:0:0:0:
329,192,3855,1,0,0:0:0:0:
182,192,3939,1,0,0:0:0:0:
36,192,4023,1,0,0:0:0:0:
192,192,4107,1,0,0:0:0:0:
352,192,4192,1,0,0:0:0:0:
402,192,4276,1,0,0:0:0:0:
192,192,4360,1,0,0:0:0:0:
329,192,4445,1,0,0:0:0:0:
182,192,4529,1,0,0:0:0:0:
329,192,4613,1,0,0:0:0:0:
109,192,4697,1,0,0:0:0:0:
402,192,4782,1,0,0:0:0:0:
182,192,4866,1,0,0:0:0:0:
329,192,4950,1,0,0:0:0:0:
192,192,5034,1,0,0:0:0:0:
402,192,5119,1,0,0:0:0:0:
109,192,5203,1,0,0:0:0:0:
182,192,5287,1,0,0:0:0:0:
256,192,5372,1,0,0:0:0:0:
448,192,5456,1,0,0:0:0:0:
182,192,5540,1,0,0:0:0:0:
256,192,5624,1,0,0:0:0:0:
192,192,5709,1,0,0:0:0:0:
402,192,5793,1,0,0:0:0:0:
36,191,5877,1,0,0:0:0:0:
182,192,5961,1,0,0:0:0:0:
329,192,6046,1,0,0:0:0:0:
402,192,6130,1,0,0:0:0:0:
329,192,6214,1,0,0:0:0:0:
182,192,6298,1,0,0:0:0:0:
329,192,6383,1,0,0:0:0:0:
109,192,6467,1,0,0:0:0:0:
448,192,6551,1,0,0:0:0:0:
320,192,6636,1,0,0:0:0:0:
475,192,6720,1,0,0:0:0:0:
256,192,6804,1,0,0:0:0:0:
182,192,6888,1,0,0:0:0:0:
109,192,6973,1,0,0:0:0:0:
192,192,7057,1,0,0:0:0:0:
448,192,7141,1,0,0:0:0:0:
329,192,7225,1,0,0:0:0:0:
402,192,7310,1,0,0:0:0:0:
182,192,7394,1,0,0:0:0:0:
329,192,7478,1,0,0:0:0:0:
192,192,7563,1,0,0:0:0:0:
64,192,7647,1,0,0:0:0:0:
448,192,7731,1,0,0:0:0:0:
320,192,7815,1,0,0:0:0:0:
36,192,7900,1,0,0:0:0:0:
192,192,7984,1,0,0:0:0:0:
320,192,8068,1,0,0:0:0:0:
448,192,8152,1,0,0:0:0:0:
64,192,8237,1,0,0:0:0:0:
256,192,8321,1,0,0:0:0:0:
192,192,8405,1,0,0:0:0:0:
402,192,8489,1,0,0:0:0:0:
36,192,8574,1,0,0:0:0:0:
329,192,8574,1,0,0:0:0:0:
182,192,8658,1,0,0:0:0:0:
329,192,8742,1,0,0:0:0:0:
109,192,8827,1,0,0:0:0:0:
402,192,8911,1,0,0:0:0:0:
329,192,8995,1,0,0:0:0:0:
448,192,9079,1,0,0:0:0:0:
182,192,9164,1,0,0:0:0:0:
329,192,9248,1,0,0:0:0:0:
182,192,9332,1,0,0:0:0:0:
36,192,9416,1,0,0:0:0:0:
192,192,9501,1,0,0:0:0:0:
329,192,9585,1,0,0:0:0:0:
402,192,9669,1,0,0:0:0:0:
192,192,9754,1,0,0:0:0:0:
329,192,9838,1,0,0:0:0:0:
182,192,9922,1,0,0:0:0:0:
329,192,10006,1,0,0:0:0:0:
109,192,10091,1,0,0:0:0:0:
402,192,10175,1,0,0:0:0:0:
182,192,10259,1,0,0:0:0:0:
329,192,10343,1,0,0:0:0:0:
192,188,10428,1,0,0:0:0:0:
402,192,10512,1,0,0:0:0:0:
109,192,10596,1,0,0:0:0:0:
182,188,10680,1,0,0:0:0:0:
256,192,10765,1,0,0:0:0:0:
448,192,10849,1,0,0:0:0:0:
64,192,10933,1,0,0:0:0:0:
320,192,11018,1,0,0:0:0:0:
192,192,11102,1,0,0:0:0:0:
402,191,11186,1,0,0:0:0:0:
36,191,11270,1,0,0:0:0:0:
182,191,11355,1,0,0:0:0:0:
329,191,11439,1,0,0:0:0:0:
182,192,11523,1,0,0:0:0:0:
256,192,11607,1,0,0:0:0:0:
64,192,11692,1,0,0:0:0:0:
448,192,11776,1,0,0:0:0:0:
192,192,11860,1,0,0:0:0:0:
448,192,11945,1,0,0:0:0:0:
182,192,12029,1,0,0:0:0:0:
402,192,12113,1,0,0:0:0:0:
109,192,12197,1,0,0:0:0:0:
352,192,12282,1,0,0:0:0:0:
64,192,12366,1,0,0:0:0:0:
320,192,12450,1,0,0:0:0:0:
96,192,12534,1,0,0:0:0:0:
182,192,12619,1,0,0:0:0:0:
480,192,12619,1,0,0:0:0:0:
320,192,12703,1,0,0:0:0:0:
192,192,12787,1,0,0:0:0:0:
256,192,12872,1,0,0:0:0:0:
182,192,12956,1,0,0:0:0:0:
36,192,13040,1,0,0:0:0:0:
256,192,13124,1,0,0:0:0:0:
192,187,13209,1,0,0:0:0:0:
36,192,13293,1,0,0:0:0:0:
329,192,13293,1,0,0:0:0:0:
192,192,13377,1,0,0:0:0:0:
402,192,13461,1,0,0:0:0:0:
329,192,13546,1,0,0:0:0:0:
448,192,13630,1,0,0:0:0:0:
32,192,13630,1,0,0:0:0:0:
182,192,13714,1,0,0:0:0:0:
288,192,13798,1,0,0:0:0:0:
448,192,13883,1,0,0:0:0:0:
320,192,13967,1,0,0:0:0:0:
32,192,13967,1,0,0:0:0:0:
192,192,14051,1,0,0:0:0:0:
329,192,14136,1,0,0:0:0:0:
402,192,14220,1,0,0:0:0:0:
192,192,14304,1,0,0:0:0:0:
320,192,14388,1,0,0:0:0:0:
109,192,14473,1,0,0:0:0:0:
182,192,14557,1,0,0:0:0:0:
329,192,14641,1,0,0:0:0:0:
402,192,14725,1,0,0:0:0:0:
329,192,14810,1,0,0:0:0:0:
192,192,14894,1,0,0:0:0:0:
64,192,14978,1,0,0:0:0:0:
192,192,15063,1,0,0:0:0:0:
256,192,15147,1,0,0:0:0:0:
402,192,15231,1,0,0:0:0:0:
192,192,15315,1,0,0:0:0:0:
64,192,15400,1,0,0:0:0:0:
320,192,15484,1,0,0:0:0:0:
448,192,15568,1,0,0:0:0:0:
320,192,15652,1,0,0:0:0:0:
192,192,15737,1,0,0:0:0:0:
448,192,15821,1,0,0:0:0:0:
256,192,15905,1,0,0:0:0:0:
32,192,15989,1,0,0:0:0:0:
182,192,15989,1,0,0:0:0:0:
329,192,16074,1,0,0:0:0:0:
475,192,16074,1,0,0:0:0:0:
32,192,16242,1,0,0:0:0:0:
256,192,16242,1,0,0:0:0:0:
32,192,16411,1,0,0:0:0:0:
329,192,16411,1,0,0:0:0:0:
256,192,16664,1,0,0:0:0:0:
475,192,16664,1,0,0:0:0:0:
192,192,16664,1,0,0:0:0:0:
32,192,16664,1,0,0:0:0:0:
329,192,16832,1,0,0:0:0:0:
32,192,17001,1,0,0:0:0:0:
160,192,17001,1,0,0:0:0:0:
329,192,17169,1,0,0:0:0:0:
109,192,17338,1,0,0:0:0:0:
329,192,17506,1,0,0:0:0:0:
32,192,17675,1,0,0:0:0:0:
160,192,17675,1,0,0:0:0:0:
329,192,17843,1,0,0:0:0:0:
256,192,18012,1,0,0:0:0:0:
109,192,18012,1,0,0:0:0:0:
402,192,18180,1,0,0:0:0:0:
32,192,18349,1,0,0:0:0:0:
160,192,18349,1,0,0:0:0:0:
402,192,18518,1,0,0:0:0:0:
109,192,18686,1,0,0:0:0:0:
402,192,18855,1,0,0:0:0:0:
160,192,19023,1,0,0:0:0:0:
32,192,19023,1,0,0:0:0:0:
256,192,19107,1,0,0:0:0:0:
192,192,19192,1,0,0:0:0:0:
64,192,19276,1,0,0:0:0:0:
320,192,19360,1,0,0:0:0:0:
192,192,19360,1,0,0:0:0:0:
475,192,19529,1,0,0:0:0:0:
32,192,19697,1,0,0:0:0:0:
160,192,19697,1,0,0:0:0:0:
475,192,19866,1,0,0:0:0:0:
109,192,20034,1,0,0:0:0:0:
475,192,20203,1,0,0:0:0:0:
32,192,20372,1,0,0:0:0:0:
160,192,20372,1,0,0:0:0:0:
475,192,20540,1,0,0:0:0:0:
109,192,20709,1,0,0:0:0:0:
352,192,20709,1,0,0:0:0:0:
288,192,20877,1,0,0:0:0:0:
192,192,21046,1,0,0:0:0:0:
402,192,21046,1,0,0:0:0:0:
64,192,21130,1,0,0:0:0:0:
448,192,21214,1,0,0:0:0:0:
192,192,21214,1,0,0:0:0:0:
320,192,21298,1,0,0:0:0:0:
192,192,21383,1,0,0:0:0:0:
448,192,21551,1,0,0:0:0:0:
320,192,21720,1,0,0:0:0:0:
192,192,21720,1,0,0:0:0:0:
64,192,21804,1,0,0:0:0:0:
448,192,21888,1,0,0:0:0:0:
320,192,21888,1,0,0:0:0:0:
192,192,21973,1,0,0:0:0:0:
320,192,22057,1,0,0:0:0:0:
448,192,22057,1,0,0:0:0:0:
64,192,22057,1,0,0:0:0:0:
182,192,22225,1,0,0:0:0:0:
475,192,22394,1,0,0:0:0:0:
329,192,22394,1,0,0:0:0:0:
182,192,22563,1,0,0:0:0:0:
402,192,22731,1,0,0:0:0:0:
182,192,22900,1,0,0:0:0:0:
475,192,23068,1,0,0:0:0:0:
329,192,23068,1,0,0:0:0:0:
182,192,23237,1,0,0:0:0:0:
256,192,23405,1,0,0:0:0:0:
475,192,23405,1,0,0:0:0:0:
109,192,23574,1,0,0:0:0:0:
475,192,23742,1,0,0:0:0:0:
329,192,23742,1,0,0:0:0:0:
109,192,23911,1,0,0:0:0:0:
402,192,24079,1,0,0:0:0:0:
109,192,24248,1,0,0:0:0:0:
475,192,24416,1,0,0:0:0:0:
192,192,24416,1,0,0:0:0:0:
256,192,24501,1,0,0:0:0:0:
182,192,24585,1,0,0:0:0:0:
109,192,24669,1,0,0:0:0:0:
352,192,24754,1,0,0:0:0:0:
182,192,24754,1,0,0:0:0:0:
36,192,24922,1,0,0:0:0:0:
329,192,25091,1,0,0:0:0:0:
475,192,25091,1,0,0:0:0:0:
36,192,25259,1,0,0:0:0:0:
402,192,25428,1,0,0:0:0:0:
36,192,25596,1,0,0:0:0:0:
448,192,25765,1,0,0:0:0:0:
192,192,25765,1,0,0:0:0:0:
182,192,25933,1,0,0:0:0:0:
288,192,25933,1,0,0:0:0:0:
64,192,26102,1,0,0:0:0:0:
402,192,26102,1,0,0:0:0:0:
64,192,26270,1,0,0:0:0:0:
448,192,26270,1,0,0:0:0:0:
448,192,26607,1,0,0:0:0:0:
192,192,26607,1,0,0:0:0:0:
320,192,26607,1,0,0:0:0:0:
64,192,26776,1,0,0:0:0:0:
192,192,26860,1,0,0:0:0:0:
448,192,26945,1,0,0:0:0:0:
320,192,26945,1,0,0:0:0:0:
320,192,27113,1,0,0:0:0:0:
64,192,27113,1,0,0:0:0:0:
448,192,27197,1,0,0:0:0:0:
256,192,27282,1,0,0:0:0:0:
192,192,27282,1,0,0:0:0:0:
109,192,27282,1,0,0:0:0:0:
36,192,27450,1,0,0:0:0:0:
475,192,27450,1,0,0:0:0:0:
329,192,27450,1,0,0:0:0:0:
192,192,27450,1,0,0:0:0:0:
109,192,27619,1,0,0:0:0:0:
182,192,27703,1,0,0:0:0:0:
256,192,27787,1,0,0:0:0:0:
448,192,27872,1,0,0:0:0:0:
182,192,27956,1,0,0:0:0:0:
256,192,28040,1,0,0:0:0:0:
448,192,28124,1,0,0:0:0:0:
192,192,28209,1,0,0:0:0:0:
256,192,28293,1,0,0:0:0:0:
109,192,28377,1,0,0:0:0:0:
329,192,28461,1,0,0:0:0:0:
182,192,28546,1,0,0:0:0:0:
402,192,28630,1,0,0:0:0:0:
256,192,28714,1,0,0:0:0:0:
192,192,28798,1,0,0:0:0:0:
475,192,28798,1,0,0:0:0:0:
109,192,28967,1,0,0:0:0:0:
182,192,29051,1,0,0:0:0:0:
288,192,29136,1,0,0:0:0:0:
448,192,29220,1,0,0:0:0:0:
182,192,29304,1,0,0:0:0:0:
256,192,29388,1,0,0:0:0:0:
448,192,29473,1,0,0:0:0:0:
192,192,29557,1,0,0:0:0:0:
288,192,29641,1,0,0:0:0:0:
96,192,29725,1,0,0:0:0:0:
329,192,29810,1,0,0:0:0:0:
182,192,29894,1,0,0:0:0:0:
402,192,29978,1,0,0:0:0:0:
256,192,30063,1,0,0:0:0:0:
475,192,30147,1,0,0:0:0:0:
64,192,30147,1,0,0:0:0:0:
192,192,30315,1,0,0:0:0:0:
109,192,30400,1,0,0:0:0:0:
182,192,30484,1,0,0:0:0:0:
256,192,30568,1,0,0:0:0:0:
109,192,30652,1,0,0:0:0:0:
182,192,30737,1,0,0:0:0:0:
256,192,30821,1,0,0:0:0:0:
448,192,30905,1,0,0:0:0:0:
182,192,30989,1,0,0:0:0:0:
36,192,31074,1,0,0:0:0:0:
256,192,31158,1,0,0:0:0:0:
109,192,31242,1,0,0:0:0:0:
448,192,31327,1,0,0:0:0:0:
320,192,31327,1,0,0:0:0:0:
182,192,31411,1,0,0:0:0:0:
320,192,31495,1,0,0:0:0:0:
64,192,31495,1,0,0:0:0:0:
475,192,31664,1,0,0:0:0:0:
320,192,31664,1,0,0:0:0:0:
192,192,31748,1,0,0:0:0:0:
320,192,31832,1,0,0:0:0:0:
448,192,31916,1,0,0:0:0:0:
192,192,32001,1,0,0:0:0:0:
320,192,32001,1,0,0:0:0:0:
64,192,32085,1,0,0:0:0:0:
182,192,32169,1,0,0:0:0:0:
329,192,32254,1,0,0:0:0:0:
182,192,32338,1,0,0:0:0:0:
329,192,32422,1,0,0:0:0:0:
480,192,32506,1,0,0:0:0:0:
329,192,32591,1,0,0:0:0:0:
402,192,32675,1,0,0:0:0:0:
256,192,32759,1,0,0:0:0:0:
32,192,32843,1,0,0:0:0:0:
475,191,32843,1,0,0:0:0:0:
192,192,32843,1,0,0:0:0:0:
64,192,33012,1,0,0:0:0:0:
160,192,33096,1,0,0:0:0:0:
288,192,33180,1,0,0:0:0:0:
448,192,33265,1,0,0:0:0:0:
182,192,33349,1,0,0:0:0:0:
256,192,33433,1,0,0:0:0:0:
448,188,33518,1,0,0:0:0:0:
320,192,33602,1,0,0:0:0:0:
192,192,33686,1,0,0:0:0:0:
64,192,33770,1,0,0:0:0:0:
192,192,33855,1,0,0:0:0:0:
402,192,33939,1,0,0:0:0:0:
256,192,34023,1,0,0:0:0:0:
192,192,34107,1,0,0:0:0:0:
352,192,34192,1,0,0:0:0:0:
32,192,34192,1,0,0:0:0:0:
475,192,34192,1,0,0:0:0:0:
109,192,34360,1,0,0:0:0:0:
160,192,34445,1,0,0:0:0:0:
256,192,34529,1,0,0:0:0:0:
448,192,34613,1,0,0:0:0:0:
182,192,34697,1,0,0:0:0:0:
256,192,34782,1,0,0:0:0:0:
448,192,34866,1,0,0:0:0:0:
320,192,34950,1,0,0:0:0:0:
192,192,35034,1,0,0:0:0:0:
109,192,35119,1,0,0:0:0:0:
192,192,35203,1,0,0:0:0:0:
448,192,35287,1,0,0:0:0:0:
320,192,35372,1,0,0:0:0:0:
192,192,35456,1,0,0:0:0:0:
320,192,35540,1,0,0:0:0:0:
32,192,35540,1,0,0:0:0:0:
416,192,35540,1,0,0:0:0:0:
192,192,35709,1,0,0:0:0:0:
256,192,35793,1,0,0:0:0:0:
182,192,35877,1,0,0:0:0:0:
109,192,35961,1,0,0:0:0:0:
182,192,36046,1,0,0:0:0:0:
256,192,36130,1,0,0:0:0:0:
448,192,36214,1,0,0:0:0:0:
64,192,36214,1,0,0:0:0:0:
320,192,36298,1,0,0:0:0:0:
192,192,36383,1,0,0:0:0:0:
448,192,36383,1,0,0:0:0:0:
109,192,36467,1,0,0:0:0:0:
192,192,36551,1,0,0:0:0:0:
256,192,36636,1,0,0:0:0:0:
192,192,36720,1,0,0:0:0:0:
109,192,36720,1,0,0:0:0:0:
320,192,36804,1,0,0:0:0:0:
475,192,36888,1,0,0:0:0:0:
64,192,36888,1,0,0:0:0:0:
182,192,37057,1,0,0:0:0:0:
64,192,37141,1,0,0:0:0:0:
329,192,37225,1,0,0:0:0:0:
402,192,37310,1,0,0:0:0:0:
475,192,37394,1,0,0:0:0:0:
329,192,37478,1,0,0:0:0:0:
32,192,37563,1,0,0:0:0:0:
182,192,37563,1,0,0:0:0:0:
256,192,37647,1,0,0:0:0:0:
448,192,37731,1,0,0:0:0:0:
320,192,37815,1,0,0:0:0:0:
192,192,37900,1,0,0:0:0:0:
36,192,37984,1,0,0:0:0:0:
109,192,38068,1,0,0:0:0:0:
182,192,38152,1,0,0:0:0:0:
256,192,38237,128,0,39164:0:0:0:0:
256,192,39248,1,0,0:0:0:0:
288,192,39585,1,0,0:0:0:0:
475,192,39585,1,0,0:0:0:0:
32,192,39585,1,0,0:0:0:0:
182,192,39585,1,0,0:0:0:0:
288,192,39754,1,0,0:0:0:0:
416,192,39754,1,0,0:0:0:0:
32,192,39922,1,0,0:0:0:0:
160,192,39922,1,0,0:0:0:0:
352,192,40175,1,0,0:0:0:0:
109,192,40259,1,0,0:0:0:0:
352,192,40512,1,0,0:0:0:0:
32,192,40596,1,0,0:0:0:0:
160,192,40596,1,0,0:0:0:0:
256,192,40933,1,0,0:0:0:0:
109,192,41102,1,0,0:0:0:0:
402,192,41270,1,0,0:0:0:0:
256,192,41355,1,0,0:0:0:0:
192,192,41439,1,0,0:0:0:0:
64,192,41523,1,0,0:0:0:0:
256,192,41607,1,0,0:0:0:0:
109,192,41692,1,0,0:0:0:0:
256,192,41776,1,0,0:0:0:0:
192,192,41860,1,0,0:0:0:0:
475,192,41945,1,0,0:0:0:0:
329,192,41945,1,0,0:0:0:0:
32,192,42282,1,0,0:0:0:0:
288,192,42282,1,0,0:0:0:0:
416,192,42282,1,0,0:0:0:0:
192,192,42282,1,0,0:0:0:0:
288,192,42450,1,0,0:0:0:0:
416,192,42450,1,0,0:0:0:0:
32,192,42619,1,0,0:0:0:0:
160,192,42619,1,0,0:0:0:0:
109,192,42956,1,0,0:0:0:0:
352,192,43040,1,0,0:0:0:0:
32,192,43293,1,0,0:0:0:0:
160,192,43293,1,0,0:0:0:0:
256,192,43461,1,0,0:0:0:0:
416,192,43630,1,0,0:0:0:0:
192,192,43798,1,0,0:0:0:0:
329,192,43967,1,0,0:0:0:0:
182,192,44136,1,0,0:0:0:0:
109,192,44304,1,0,0:0:0:0:
182,192,44388,1,0,0:0:0:0:
256,192,44473,1,0,0:0:0:0:
448,192,44557,1,0,0:0:0:0:
320,192,44641,1,0,0:0:0:0:
192,192,44725,1,0,0:0:0:0:
320,192,44810,1,0,0:0:0:0:
192,192,44894,1,0,0:0:0:0:
32,192,44978,1,0,0:0:0:0:
288,192,44978,1,0,0:0:0:0:
475,192,44978,1,0,0:0:0:0:
288,192,45147,1,0,0:0:0:0:
416,192,45147,1,0,0:0:0:0:
32,192,45315,1,0,0:0:0:0:
160,192,45315,1,0,0:0:0:0:
352,192,45568,1,0,0:0:0:0:
109,192,45652,1,0,0:0:0:0:
352,192,45905,1,0,0:0:0:0:
32,192,45989,1,0,0:0:0:0:
160,192,45989,1,0,0:0:0:0:
96,192,46327,1,0,0:0:0:0:
182,192,46411,1,0,0:0:0:0:
256,192,46495,1,0,0:0:0:0:
448,192,46579,1,0,0:0:0:0:
192,192,46664,1,0,0:0:0:0:
192,192,46832,1,0,0:0:0:0:
402,192,47001,1,0,0:0:0:0:
109,192,47169,1,0,0:0:0:0:
256,192,47254,1,0,0:0:0:0:
64,192,47338,1,0,0:0:0:0:
182,192,47422,1,0,0:0:0:0:
329,192,47506,1,0,0:0:0:0:
160,192,47675,1,0,0:0:0:0:
32,192,47675,1,0,0:0:0:0:
480,192,47675,1,0,0:0:0:0:
256,192,48012,1,0,0:0:0:0:
96,192,48180,1,0,0:0:0:0:
182,192,48349,1,0,0:0:0:0:
320,192,48433,1,0,0:0:0:0:
109,192,48518,1,0,0:0:0:0:
182,192,48602,1,0,0:0:0:0:
256,192,48686,1,0,0:0:0:0:
475,192,48770,1,0,0:0:0:0:
402,192,48855,1,0,0:0:0:0:
329,192,48939,1,0,0:0:0:0:
192,192,49023,128,0,49950:0:0:0:0:
192,192,50034,1,0,0:0:0:0:
32,192,50372,1,0,0:0:0:0:
288,192,50372,1,0,0:0:0:0:
192,192,50372,1,0,0:0:0:0:
480,192,50372,1,0,0:0:0:0:
288,192,50540,1,0,0:0:0:0:
416,192,50540,1,0,0:0:0:0:
32,192,50709,1,0,0:0:0:0:
160,192,50709,1,0,0:0:0:0:
448,192,50793,1,0,0:0:0:0:
256,192,50877,1,0,0:0:0:0:
160,192,50961,1,0,0:0:0:0:
109,192,51046,1,0,0:0:0:0:
320,192,51046,1,0,0:0:0:0:
448,192,51130,1,0,0:0:0:0:
192,192,51214,1,0,0:0:0:0:
256,192,51298,1,0,0:0:0:0:
109,192,51383,1,0,0:0:0:0:
182,192,51467,1,0,0:0:0:0:
329,192,51551,1,0,0:0:0:0:
448,192,51636,1,0,0:0:0:0:
192,192,51720,1,0,0:0:0:0:
109,192,51804,1,0,0:0:0:0:
182,192,51888,1,0,0:0:0:0:
329,192,51973,1,0,0:0:0:0:
32,192,52057,1,0,0:0:0:0:
402,192,52057,1,0,0:0:0:0:
192,192,52141,1,0,0:0:0:0:
256,192,52225,1,0,0:0:0:0:
64,192,52310,1,0,0:0:0:0:
256,192,52394,1,0,0:0:0:0:
192,192,52478,1,0,0:0:0:0:
402,192,52563,1,0,0:0:0:0:
329,192,52647,1,0,0:0:0:0:
64,192,52731,1,0,0:0:0:0:
192,192,52731,1,0,0:0:0:0:
448,192,52815,1,0,0:0:0:0:
320,192,52900,1,0,0:0:0:0:
182,192,52984,1,0,0:0:0:0:
32,192,53068,1,0,0:0:0:0:
320,192,53068,1,0,0:0:0:0:
448,192,53068,1,0,0:0:0:0:
288,192,53237,1,0,0:0:0:0:
416,192,53237,1,0,0:0:0:0:
32,192,53405,1,0,0:0:0:0:
160,192,53405,1,0,0:0:0:0:
448,192,53489,1,0,0:0:0:0:
256,192,53574,1,0,0:0:0:0:
160,192,53658,1,0,0:0:0:0:
109,192,53742,1,0,0:0:0:0:
320,192,53742,1,0,0:0:0:0:
448,192,53827,1,0,0:0:0:0:
192,192,53911,1,0,0:0:0:0:
320,192,53995,1,0,0:0:0:0:
109,192,54079,1,0,0:0:0:0:
160,192,54164,1,0,0:0:0:0:
475,192,54248,1,0,0:0:0:0:
64,192,54248,1,0,0:0:0:0:
256,192,54332,1,0,0:0:0:0:
182,192,54416,1,0,0:0:0:0:
109,192,54501,1,0,0:0:0:0:
329,192,54669,1,0,0:0:0:0:
402,192,54754,1,0,0:0:0:0:
192,192,54838,1,0,0:0:0:0:
256,192,54922,1,0,0:0:0:0:
182,192,55006,1,0,0:0:0:0:
448,192,55091,1,0,0:0:0:0:
32,192,55091,1,0,0:0:0:0:
320,192,55175,1,0,0:0:0:0:
192,192,55259,1,0,0:0:0:0:
32,192,55259,1,0,0:0:0:0:
320,192,55343,1,0,0:0:0:0:
64,192,55428,1,0,0:0:0:0:
448,192,55428,1,0,0:0:0:0:
182,192,55512,1,0,0:0:0:0:
329,192,55596,1,0,0:0:0:0:
448,192,55596,1,0,0:0:0:0:
182,192,55680,1,0,0:0:0:0:
288,192,55765,1,0,0:0:0:0:
32,192,55765,1,0,0:0:0:0:
448,192,55765,1,0,0:0:0:0:
288,192,55933,1,0,0:0:0:0:
64,192,55933,1,0,0:0:0:0:
448,192,56102,1,0,0:0:0:0:
160,192,56102,1,0,0:0:0:0:
256,192,56186,1,0,0:0:0:0:
192,192,56270,1,0,0:0:0:0:
402,192,56355,1,0,0:0:0:0:
32,192,56439,1,0,0:0:0:0:
329,192,56439,1,0,0:0:0:0:
182,192,56523,1,0,0:0:0:0:
329,192,56607,1,0,0:0:0:0:
182,192,56692,1,0,0:0:0:0:
32,192,56776,1,0,0:0:0:0:
160,192,56860,1,0,0:0:0:0:
329,192,56945,1,0,0:0:0:0:
480,192,57029,1,0,0:0:0:0:
109,192,57113,1,0,0:0:0:0:
256,192,57113,1,0,0:0:0:0:
192,192,57113,1,0,0:0:0:0:
448,192,57197,1,0,0:0:0:0:
182,192,57366,1,0,0:0:0:0:
109,192,57450,1,0,0:0:0:0:
480,192,57450,1,0,0:0:0:0:
352,192,57534,1,0,0:0:0:0:
160,192,57619,1,0,0:0:0:0:
416,192,57703,1,0,0:0:0:0:
32,192,57787,1,0,0:0:0:0:
352,192,57787,1,0,0:0:0:0:
192,192,57872,1,0,0:0:0:0:
320,192,57956,1,0,0:0:0:0:
448,192,58040,1,0,0:0:0:0:
64,192,58124,1,0,0:0:0:0:
192,192,58124,1,0,0:0:0:0:
320,192,58209,1,0,0:0:0:0:
448,192,58293,1,0,0:0:0:0:
320,192,58377,1,0,0:0:0:0:
64,192,58461,1,0,0:0:0:0:
192,192,58461,1,0,0:0:0:0:
480,192,58461,1,0,0:0:0:0:
288,192,58546,1,0,0:0:0:0:
192,192,58630,1,0,0:0:0:0:
64,192,58630,1,0,0:0:0:0:
288,192,58714,1,0,0:0:0:0:
32,192,58798,1,0,0:0:0:0:
402,192,58798,1,0,0:0:0:0:
182,192,58883,1,0,0:0:0:0:
329,192,58967,1,0,0:0:0:0:
448,192,58967,1,0,0:0:0:0:
182,192,59051,1,0,0:0:0:0:
96,192,59136,1,0,0:0:0:0:
402,192,59136,1,0,0:0:0:0:
320,192,59220,1,0,0:0:0:0:
192,192,59304,1,0,0:0:0:0:
64,192,59304,1,0,0:0:0:0:
320,192,59388,1,0,0:0:0:0:
32,192,59473,1,0,0:0:0:0:
480,192,59473,1,0,0:0:0:0:
192,192,59557,1,0,0:0:0:0:
448,192,59641,1,0,0:0:0:0:
320,192,59641,1,0,0:0:0:0:
192,192,59725,1,0,0:0:0:0:
402,192,59810,1,0,0:0:0:0:
64,192,59810,1,0,0:0:0:0:
329,192,59866,1,0,0:0:0:0:
192,192,59922,1,0,0:0:0:0:
64,192,59978,1,0,0:0:0:0:
402,192,60034,1,0,0:0:0:0:
329,192,60091,1,0,0:0:0:0:
192,192,60147,1,0,0:0:0:0:
64,192,60203,1,0,0:0:0:0:
416,192,60259,1,0,0:0:0:0:
352,192,60315,1,0,0:0:0:0:
192,192,60372,1,0,0:0:0:0:
64,192,60428,1,0,0:0:0:0:
320,192,60484,1,0,0:0:0:0:
448,192,60484,1,0,0:0:0:0:
192,192,60568,1,0,0:0:0:0:
64,192,60652,1,0,0:0:0:0:
320,192,60737,1,0,0:0:0:0:
448,192,60737,1,0,0:0:0:0:
109,192,60821,1,0,0:0:0:0:
192,192,60821,1,0,0:0:0:0:
448,192,60905,1,0,0:0:0:0:
36,192,60989,1,0,0:0:0:0:
192,192,61032,1,0,0:0:0:0:
320,192,61074,1,0,0:0:0:0:
448,192,61116,1,0,0:0:0:0:
64,192,61158,1,0,0:0:0:0:
192,192,61158,1,0,0:0:0:0:
320,192,61327,1,0,0:0:0:0:
448,192,61411,1,0,0:0:0:0:
64,192,61495,1,0,0:0:0:0:
448,192,61579,1,0,0:0:0:0:
64,192,61664,1,0,0:0:0:0:
320,192,61748,1,0,0:0:0:0:
64,192,61832,128,0,62169:0:0:0:0:
192,192,61832,1,0,0:0:0:0:
352,192,62169,1,0,0:0:0:0:
182,192,62254,1,0,0:0:0:0:
256,192,62338,1,0,0:0:0:0:
192,192,62422,1,0,0:0:0:0:
32,192,62506,1,0,0:0:0:0:
480,192,62506,1,0,0:0:0:0:
320,192,62591,1,0,0:0:0:0:
192,192,62675,1,0,0:0:0:0:
64,192,62759,1,0,0:0:0:0:
448,192,62843,1,0,0:0:0:0:
320,192,62843,1,0,0:0:0:0:
192,192,62928,1,0,0:0:0:0:
64,192,62928,1,0,0:0:0:0:
320,192,63012,1,0,0:0:0:0:
192,192,63096,1,0,0:0:0:0:
64,192,63180,1,0,0:0:0:0:
448,192,63180,1,0,0:0:0:0:
320,192,63223,1,0,0:0:0:0:
192,192,63265,1,0,0:0:0:0:
64,192,63307,1,0,0:0:0:0:
448,192,63349,1,0,0:0:0:0:
320,192,63405,1,0,0:0:0:0:
192,192,63461,1,0,0:0:0:0:
64,192,63518,1,0,0:0:0:0:
448,192,63574,1,0,0:0:0:0:
320,192,63630,1,0,0:0:0:0:
64,192,63686,1,0,0:0:0:0:
192,192,63742,1,0,0:0:0:0:
320,192,63798,1,0,0:0:0:0:
64,192,63855,1,0,0:0:0:0:
448,192,63855,128,0,65203:0:0:0:0:
192,192,63939,1,0,0:0:0:0:
320,192,64023,1,0,0:0:0:0:
64,192,64107,1,0,0:0:0:0:
192,192,64192,1,0,0:0:0:0:
320,192,64276,1,0,0:0:0:0:
64,192,64360,1,0,0:0:0:0:
192,192,64445,1,0,0:0:0:0:
320,192,64529,1,0,0:0:0:0:
64,192,64613,1,0,0:0:0:0:
192,192,64697,1,0,0:0:0:0:
320,192,64782,1,0,0:0:0:0:
64,192,64866,1,0,0:0:0:0:
320,192,64950,1,0,0:0:0:0:
192,192,65034,1,0,0:0:0:0:
320,192,65119,1,0,0:0:0:0:
192,192,65203,1,0,0:0:0:0:
64,192,65203,128,0,66551:0:0:0:0:
320,192,65287,1,0,0:0:0:0:
448,192,65372,1,0,0:0:0:0:
448,192,65540,1,0,0:0:0:0:
320,192,65624,1,0,0:0:0:0:
192,192,65709,1,0,0:0:0:0:
448,192,65793,1,0,0:0:0:0:
192,192,65877,1,0,0:0:0:0:
320,192,65961,1,0,0:0:0:0:
448,192,66046,1,0,0:0:0:0:
320,192,66130,1,0,0:0:0:0:
448,192,66214,1,0,0:0:0:0:
192,192,66298,1,0,0:0:0:0:
320,192,66383,1,0,0:0:0:0:
192,192,66467,1,0,0:0:0:0:
256,192,66551,1,0,0:0:0:0:
448,192,66551,128,0,67900:0:0:0:0:
64,192,66636,1,0,0:0:0:0:
192,191,66720,1,0,0:0:0:0:
320,192,66804,1,0,0:0:0:0:
64,192,66888,1,0,0:0:0:0:
192,192,66973,1,0,0:0:0:0:
320,192,67057,1,0,0:0:0:0:
64,192,67141,1,0,0:0:0:0:
320,192,67225,1,0,0:0:0:0:
192,192,67310,1,0,0:0:0:0:
320,192,67394,1,0,0:0:0:0:
64,192,67478,1,0,0:0:0:0:
192,192,67563,1,0,0:0:0:0:
320,192,67647,1,0,0:0:0:0:
192,192,67731,1,0,0:0:0:0:
64,192,67815,1,0,0:0:0:0:
320,192,67900,1,0,0:0:0:0:
192,189,67900,128,0,68574:0:0:0:0:
448,192,68068,1,0,0:0:0:0:
320,192,68152,1,0,0:0:0:0:
64,192,68237,1,0,0:0:0:0:
448,192,68321,1,0,0:0:0:0:
320,192,68405,1,0,0:0:0:0:
64,192,68489,1,0,0:0:0:0:
320,192,68574,128,0,69248:0:0:0:0:
448,192,68574,1,0,0:0:0:0:
192,192,68658,1,0,0:0:0:0:
448,192,68742,1,0,0:0:0:0:
64,192,68827,1,0,0:0:0:0:
192,192,68911,1,0,0:0:0:0:
448,186,68995,1,0,0:0:0:0:
192,192,69079,1,0,0:0:0:0:
64,192,69164,1,0,0:0:0:0:
192,192,69248,1,0,0:0:0:0:
416,192,69248,128,0,70596:0:0:0:0:
320,192,69332,1,0,0:0:0:0:
64,192,69416,1,0,0:0:0:0:
192,192,69501,1,0,0:0:0:0:
320,192,69585,1,0,0:0:0:0:
64,192,69669,1,0,0:0:0:0:
256,192,69754,1,0,0:0:0:0:
192,192,69838,1,0,0:0:0:0:
32,192,69922,1,0,0:0:0:0:
192,192,70006,1,0,0:0:0:0:
64,192,70091,1,0,0:0:0:0:
288,192,70175,1,0,0:0:0:0:
192,192,70259,1,0,0:0:0:0:
36,192,70343,1,0,0:0:0:0:
160,192,70428,1,0,0:0:0:0:
329,192,70512,1,0,0:0:0:0:
192,192,70596,1,0,0:0:0:0:
109,192,70596,128,0,71945:0:0:0:0:
352,192,70680,1,0,0:0:0:0:
402,192,70765,1,0,0:0:0:0:
448,192,70933,1,0,0:0:0:0:
192,192,71018,1,0,0:0:0:0:
320,192,71102,1,0,0:0:0:0:
448,192,71186,1,0,0:0:0:0:
192,192,71270,1,0,0:0:0:0:
320,192,71355,1,0,0:0:0:0:
448,192,71439,1,0,0:0:0:0:
320,192,71523,1,0,0:0:0:0:
192,192,71607,1,0,0:0:0:0:
448,192,71692,1,0,0:0:0:0:
182,192,71776,1,0,0:0:0:0:
329,192,71860,1,0,0:0:0:0:
192,192,71945,1,0,0:0:0:0:
416,192,71945,128,0,73293:0:0:0:0:
64,192,72029,1,0,0:0:0:0:
192,192,72113,1,0,0:0:0:0:
320,192,72197,1,0,0:0:0:0:
96,192,72282,1,0,0:0:0:0:
160,192,72366,1,0,0:0:0:0:
288,192,72450,1,0,0:0:0:0:
64,192,72534,1,0,0:0:0:0:
320,192,72619,1,0,0:0:0:0:
64,192,72703,1,0,0:0:0:0:
192,192,72787,1,0,0:0:0:0:
320,192,72872,1,0,0:0:0:0:
64,188,72956,1,0,0:0:0:0:
192,192,72956,1,0,0:0:0:0:
96,192,73124,1,0,0:0:0:0:
192,192,73124,1,0,0:0:0:0:
256,192,73293,1,0,0:0:0:0:
36,192,73293,1,0,0:0:0:0:
192,192,73293,1,0,0:0:0:0:
160,192,73461,1,0,0:0:0:0:
320,192,73461,1,0,0:0:0:0:
448,192,73461,1,0,0:0:0:0:
64,192,73630,1,0,0:0:0:0:
448,192,73630,1,0,0:0:0:0:
320,192,73714,1,0,0:0:0:0:
36,192,73798,1,0,0:0:0:0:
192,192,73798,1,0,0:0:0:0:
448,192,73883,1,0,0:0:0:0:
320,192,73967,1,0,0:0:0:0:
192,192,74009,1,0,0:0:0:0:
64,192,74051,1,0,0:0:0:0:
448,192,74093,1,0,0:0:0:0:
320,192,74136,1,0,0:0:0:0:
192,192,74136,1,0,0:0:0:0:
64,192,74220,1,0,0:0:0:0:
448,192,74304,1,0,0:0:0:0:
320,192,74304,1,0,0:0:0:0:
192,192,74388,1,0,0:0:0:0:
64,192,74473,1,0,0:0:0:0:
448,192,74473,1,0,0:0:0:0:
320,192,74557,1,0,0:0:0:0:
160,192,74641,1,0,0:0:0:0:
32,192,74641,128,0,75989:0:0:0:0:
448,192,74810,1,0,0:0:0:0:
320,192,74894,1,0,0:0:0:0:
448,192,74978,1,0,0:0:0:0:
192,192,75063,1,0,0:0:0:0:
256,192,75147,1,0,0:0:0:0:
448,192,75231,1,0,0:0:0:0:
320,192,75315,1,0,0:0:0:0:
192,192,75400,1,0,0:0:0:0:
320,192,75484,1,0,0:0:0:0:
448,192,75568,1,0,0:0:0:0:
182,192,75652,1,0,0:0:0:0:
256,192,75737,1,0,0:0:0:0:
448,192,75821,1,0,0:0:0:0:
256,192,75905,1,0,0:0:0:0:
475,192,75989,128,0,77338:0:0:0:0:
192,192,75989,1,0,0:0:0:0:
64,192,76074,1,0,0:0:0:0:
320,192,76158,1,0,0:0:0:0:
64,192,76242,1,0,0:0:0:0:
329,192,76327,1,0,0:0:0:0:
182,192,76411,1,0,0:0:0:0:
109,192,76495,1,0,0:0:0:0:
320,192,76579,1,0,0:0:0:0:
64,192,76664,1,0,0:0:0:0:
182,192,76748,1,0,0:0:0:0:
320,192,76832,1,0,0:0:0:0:
64,192,76916,1,0,0:0:0:0:
320,192,77001,1,0,0:0:0:0:
64,192,77085,1,0,0:0:0:0:
192,192,77169,1,0,0:0:0:0:
256,192,77254,1,0,0:0:0:0:
192,192,77338,1,0,0:0:0:0:
64,192,77338,128,0,78686:0:0:0:0:
320,192,77422,1,0,0:0:0:0:
448,192,77506,1,0,0:0:0:0:
192,192,77591,1,0,0:0:0:0:
448,192,77675,1,0,0:0:0:0:
329,192,77759,1,0,0:0:0:0:
192,192,77843,1,0,0:0:0:0:
320,192,77928,1,0,0:0:0:0:
402,192,78012,1,0,0:0:0:0:
329,192,78096,1,0,0:0:0:0:
192,192,78180,1,0,0:0:0:0:
448,192,78265,1,0,0:0:0:0:
256,192,78349,1,0,0:0:0:0:
192,192,78433,1,0,0:0:0:0:
352,192,78518,1,0,0:0:0:0:
448,192,78518,1,0,0:0:0:0:
320,192,78686,128,0,79360:0:0:0:0:
192,192,78686,1,0,0:0:0:0:
64,192,78855,1,0,0:0:0:0:
448,192,78855,1,0,0:0:0:0:
192,192,78939,1,0,0:0:0:0:
64,192,79023,1,0,0:0:0:0:
448,192,79107,1,0,0:0:0:0:
192,192,79192,1,0,0:0:0:0:
64,192,79192,1,0,0:0:0:0:
448,192,79360,1,0,0:0:0:0:
64,192,79360,1,0,0:0:0:0:
320,192,79445,1,0,0:0:0:0:
192,192,79445,1,0,0:0:0:0:
448,192,79529,1,0,0:0:0:0:
64,192,79529,1,0,0:0:0:0:
320,192,79613,1,0,0:0:0:0:
192,192,79697,1,0,0:0:0:0:
448,192,79697,1,0,0:0:0:0:
320,192,79866,1,0,0:0:0:0:
320,192,80034,1,0,0:0:0:0:
64,192,80034,128,0,81383:0:0:0:0:
448,192,80034,1,0,0:0:0:0:
192,192,80119,1,0,0:0:0:0:
320,192,80203,1,0,0:0:0:0:
475,192,80287,1,0,0:0:0:0:
320,192,80456,1,0,0:0:0:0:
192,192,80540,1,0,0:0:0:0:
448,192,80624,1,0,0:0:0:0:
320,192,80709,1,0,0:0:0:0:
192,192,80793,1,0,0:0:0:0:
448,192,80877,1,0,0:0:0:0:
320,192,80961,1,0,0:0:0:0:
192,186,81046,1,0,0:0:0:0:
448,192,81130,1,0,0:0:0:0:
182,192,81214,1,0,0:0:0:0:
329,192,81298,1,0,0:0:0:0:
402,192,81383,128,0,82731:0:0:0:0:
192,192,81383,1,0,0:0:0:0:
329,192,81467,1,0,0:0:0:0:
192,192,81551,1,0,0:0:0:0:
64,192,81636,1,0,0:0:0:0:
320,192,81720,1,0,0:0:0:0:
192,192,81804,1,0,0:0:0:0:
320,192,81888,1,0,0:0:0:0:
109,192,81973,1,0,0:0:0:0:
192,192,82057,1,0,0:0:0:0:
256,192,82141,1,0,0:0:0:0:
182,192,82225,1,0,0:0:0:0:
64,192,82310,1,0,0:0:0:0:
256,192,82394,1,0,0:0:0:0:
192,192,82394,1,0,0:0:0:0:
329,192,82563,1,0,0:0:0:0:
64,192,82563,1,0,0:0:0:0:
320,192,82731,1,0,0:0:0:0:
64,192,82731,1,0,0:0:0:0:
192,192,82731,1,0,0:0:0:0:
192,192,82900,1,0,0:0:0:0:
448,192,82900,1,0,0:0:0:0:
320,192,83068,1,0,0:0:0:0:
64,192,83068,1,0,0:0:0:0:
448,192,83068,1,0,0:0:0:0:
256,192,83237,1,0,0:0:0:0:
192,192,83237,1,0,0:0:0:0:
402,192,83405,1,0,0:0:0:0:
64,192,83405,1,0,0:0:0:0:
192,192,83405,1,0,0:0:0:0:
320,192,83574,1,0,0:0:0:0:
448,192,83616,1,0,0:0:0:0:
64,192,83658,1,0,0:0:0:0:
192,192,83700,1,0,0:0:0:0:
475,192,83742,1,0,0:0:0:0:
320,192,83742,1,0,0:0:0:0:
64,192,83911,1,0,0:0:0:0:
192,192,83953,1,0,0:0:0:0:
256,192,83995,1,0,0:0:0:0:
448,192,84037,1,0,0:0:0:0:
192,192,84079,1,0,0:0:0:0:
64,192,84079,1,0,0:0:0:0:
320,192,84164,1,0,0:0:0:0:
448,192,84248,1,0,0:0:0:0:
64,192,84332,1,0,0:0:0:0:
448,188,84416,1,0,0:0:0:0:
256,192,84501,1,0,0:0:0:0:
182,192,84585,1,0,0:0:0:0:
96,192,84669,1,0,0:0:0:0:
480,192,84754,1,0,0:0:0:0:
320,192,84796,1,0,0:0:0:0:
192,192,84838,1,0,0:0:0:0:
64,192,84880,1,0,0:0:0:0:
448,192,84922,1,0,0:0:0:0:
320,192,85006,1,0,0:0:0:0:
192,192,85091,1,0,0:0:0:0:
64,192,85091,1,0,0:0:0:0:
448,192,85175,1,0,0:0:0:0:
192,192,85259,1,0,0:0:0:0:
64,192,85259,1,0,0:0:0:0:
320,192,85343,1,0,0:0:0:0:
64,192,85428,1,0,0:0:0:0:
448,192,85428,1,0,0:0:0:0:
192,192,85428,1,0,0:0:0:0:
320,192,85596,1,0,0:0:0:0:
64,192,85680,1,0,0:0:0:0:
416,192,85765,1,0,0:0:0:0:
160,192,85849,1,0,0:0:0:0:
96,192,85933,1,0,0:0:0:0:
320,192,86018,1,0,0:0:0:0:
160,192,86102,1,0,0:0:0:0:
480,192,86186,1,0,0:0:0:0:
352,192,86270,1,0,0:0:0:0:
192,192,86355,1,0,0:0:0:0:
96,192,86439,1,0,0:0:0:0:
416,192,86523,1,0,0:0:0:0:
160,192,86607,1,0,0:0:0:0:
320,192,86692,1,0,0:0:0:0:
32,192,86776,1,0,0:0:0:0:
288,192,86860,1,0,0:0:0:0:
96,192,87029,1,0,0:0:0:0:
480,192,87113,1,0,0:0:0:0:
288,192,87197,1,0,0:0:0:0:
160,192,87282,1,0,0:0:0:0:
96,192,87366,1,0,0:0:0:0:
320,192,87450,1,0,0:0:0:0:
416,192,87534,1,0,0:0:0:0:
192,192,87619,1,0,0:0:0:0:
448,192,87703,1,0,0:0:0:0:
160,192,87787,1,0,0:0:0:0:
32,192,87787,1,0,0:0:0:0:
475,192,87872,1,0,0:0:0:0:
329,192,87956,1,0,0:0:0:0:
192,192,88040,1,0,0:0:0:0:
320,192,88124,1,0,0:0:0:0:
64,192,88124,1,0,0:0:0:0:
448,192,88293,1,0,0:0:0:0:
320,192,88377,1,0,0:0:0:0:
192,192,88377,1,0,0:0:0:0:
64,192,88461,1,0,0:0:0:0:
448,192,88461,1,0,0:0:0:0:
192,192,88546,1,0,0:0:0:0:
109,192,88630,1,0,0:0:0:0:
288,192,88798,1,0,0:0:0:0:
448,192,88883,1,0,0:0:0:0:
160,192,88967,1,0,0:0:0:0:
96,192,89051,1,0,0:0:0:0:
416,192,89136,1,0,0:0:0:0:
352,192,89220,1,0,0:0:0:0:
160,192,89304,1,0,0:0:0:0:
96,192,89388,1,0,0:0:0:0:
448,192,89473,1,0,0:0:0:0:
329,192,89557,1,0,0:0:0:0:
320,192,89725,1,0,0:0:0:0:
64,192,89810,1,0,0:0:0:0:
288,192,89894,1,0,0:0:0:0:
160,192,89978,1,0,0:0:0:0:
96,192,90063,1,0,0:0:0:0:
320,192,90147,1,0,0:0:0:0:
192,192,90231,1,0,0:0:0:0:
329,192,90315,1,0,0:0:0:0:
402,192,90400,1,0,0:0:0:0:
182,192,90484,1,0,0:0:0:0:
109,192,90568,1,0,0:0:0:0:
256,192,90652,1,0,0:0:0:0:
192,192,90737,1,0,0:0:0:0:
64,192,90821,1,0,0:0:0:0:
448,192,90821,1,0,0:0:0:0:
160,192,90905,1,0,0:0:0:0:
320,192,90989,1,0,0:0:0:0:
160,192,91074,1,0,0:0:0:0:
416,192,91158,1,0,0:0:0:0:
160,192,91242,1,0,0:0:0:0:
96,192,91327,1,0,0:0:0:0:
448,192,91411,1,0,0:0:0:0:
320,192,91495,1,0,0:0:0:0:
64,192,91579,1,0,0:0:0:0:
192,192,91664,1,0,0:0:0:0:
320,192,91748,1,0,0:0:0:0:
448,192,91832,1,0,0:0:0:0:
160,192,91916,1,0,0:0:0:0:
96,192,92001,1,0,0:0:0:0:
448,192,92085,1,0,0:0:0:0:
160,192,92169,1,0,0:0:0:0:
288,192,92254,1,0,0:0:0:0:
64,192,92338,1,0,0:0:0:0:
416,192,92422,1,0,0:0:0:0:
182,192,92506,1,0,0:0:0:0:
96,192,92591,1,0,0:0:0:0:
288,192,92675,1,0,0:0:0:0:
416,192,92759,1,0,0:0:0:0:
64,192,92843,1,0,0:0:0:0:
182,192,92928,1,0,0:0:0:0:
256,192,93012,1,0,0:0:0:0:
109,192,93096,1,0,0:0:0:0:
182,192,93180,1,0,0:0:0:0:
475,192,93265,1,0,0:0:0:0:
320,192,93349,1,0,0:0:0:0:
192,192,93433,1,0,0:0:0:0:
160,192,93602,1,0,0:0:0:0:
36,192,93686,1,0,0:0:0:0:
160,192,93770,1,0,0:0:0:0:
480,192,93855,1,0,0:0:0:0:
288,192,93939,1,0,0:0:0:0:
160,192,94023,1,0,0:0:0:0:
32,192,94107,1,0,0:0:0:0:
320,192,94192,1,0,0:0:0:0:
192,192,94276,1,0,0:0:0:0:
475,192,94360,1,0,0:0:0:0:
352,192,94445,1,0,0:0:0:0:
36,192,94529,1,0,0:0:0:0:
256,192,94613,1,0,0:0:0:0:
182,192,94697,1,0,0:0:0:0:
109,192,94782,1,0,0:0:0:0:
320,192,94866,1,0,0:0:0:0:
192,192,94950,1,0,0:0:0:0:
288,192,95034,1,0,0:0:0:0:
416,192,95119,1,0,0:0:0:0:
109,192,95203,1,0,0:0:0:0:
192,192,95287,1,0,0:0:0:0:
64,192,95372,1,0,0:0:0:0:
288,192,95456,1,0,0:0:0:0:
192,192,95540,1,0,0:0:0:0:
480,192,95624,1,0,0:0:0:0:
320,192,95709,1,0,0:0:0:0:
192,192,95793,1,0,0:0:0:0:
32,192,95877,1,0,0:0:0:0:
160,192,95961,1,0,0:0:0:0:
352,192,96046,1,0,0:0:0:0:
416,192,96130,1,0,0:0:0:0:
96,192,96214,1,0,0:0:0:0:
192,192,96214,1,0,0:0:0:0:
448,192,96298,1,0,0:0:0:0:
192,192,96383,1,0,0:0:0:0:
