osu file format v10

[General]
AudioFilename: 5th Anniversary Medley.mp3
AudioLeadIn: 2000
PreviewTime: 722528
Countdown: 0
SampleSet: Soft
StackLeniency: 0.4
Mode: 1
LetterboxInBreaks: 0

[Editor]
Bookmarks: 94467,158439,216039,250109,289378,322895,387570,419208,480010,517412,546883,570168,642311,686575,782575,787205
DistanceSpacing: 1.1
BeatDivisor: 4
GridSize: 8

[Metadata]
Title:AniMiku!
TitleUnicode:AniMiku!
Artist:Various Artists
ArtistUnicode:Various Artists
Creator:Pokie
Version:Taiko Collab
Source:Nico Nico Douga
Tags:Hatsune Miku 5th Anniversary Medley livetune kz supercell ryo Satsuki ga Tenkomori doriko Kiritan Kiritan-P Madako Mitchie Mitchell a.k.a. Tucada Otomania Onyuu Onyu Onyuu-P Onyu-P daniwell daniwell-P Kurousa Kurousa-P wowaka Hachi Bousou-P cosMo Kobayashi Onyx ika malo Tell Your World World is Mine Nettoge Haijin Online Game Addicts Sprechchor Romeo and Cinderella Kurumi Ponchio FREELY TOMORROW Ievan Pokka Hannyashinkyou POP Nyanyanyanyanyanyanya! Nyan Cat Senbonzakura Rolling Girl Mrs.Pumpkin no Kokkei na Yume Funny Dream Hatsune Miku no Shoushitsu Saihate Mikku Miku ni Shite Ageru Hajimete no Oto
BeatmapID:188557
BeatmapSetID:61495

[Difficulty]
HPDrainRate:5
CircleSize:5
OverallDifficulty:5
ApproachRate:5
SliderMultiplier:1.4
SliderTickRate:1

[Events]
//Background and Video events
0,0,"BG.jpg"
//Break Periods
2,516833,545709
2,567660,639673
//Storyboard Layer 0 (Background)
//Storyboard Layer 1 (Fail)
//Storyboard Layer 2 (Pass)
//Storyboard Layer 3 (Foreground)
//Storyboard Sound Samples
//Background Colour Transformations
3,100,0,0,0

[TimingPoints]
1687.07185881975,400,4,2,0,100,1,0
94467,363.636363636364,4,2,0,100,1,0
158439,342.857142857143,4,2,0,100,1,0
158781,-100,4,2,0,70,0,0
216073,352.941176470588,4,2,0,100,1,0
245746,363.636363636364,4,2,0,100,1,0
253018,-100,4,2,0,70,0,0
289378,465.116279069767,4,2,0,100,1,0
289378,-100,4,2,0,100,0,0
303331,-100,4,2,0,100,0,0
304258,-100,4,1,3,100,0,0
317284,-100,4,1,3,100,0,0
318215,-83.3333333333333,4,1,3,100,0,0
321005,504.201680672269,4,1,3,100,1,0
323021,-83.3333333333333,4,2,3,100,0,0
323021,-100,4,2,3,100,0,0
387055,-100,4,2,3,80,0,0
387570,500,4,2,2,75,1,0
388070,-100,4,2,2,40,0,0
388320,-100,4,2,2,60,0,0
389070,-100,4,2,2,40,0,0
389445,-100,4,2,2,60,0,0
390070,-100,4,2,2,40,0,0
390445,-100,4,2,2,60,0,0
391070,-100,4,2,2,40,0,0
391320,-100,4,2,2,60,0,0
391445,-100,4,2,2,50,0,0
391570,-100,4,2,2,60,0,0
392070,-100,4,2,2,40,0,0
392445,-100,4,2,2,60,0,0
393070,-100,4,2,2,40,0,0
393445,-100,4,2,2,50,0,0
393570,-100,4,2,2,60,0,0
394070,-100,4,2,2,40,0,0
394445,-100,4,2,2,60,0,0
395070,-100,4,2,2,40,0,0
395445,-100,4,2,2,50,0,0
395570,-100,4,2,2,60,0,0
396070,-100,4,2,2,40,0,0
396320,-100,4,2,2,60,0,0
397070,-100,4,2,2,40,0,0
397445,-100,4,2,2,60,0,0
398070,-100,4,2,2,40,0,0
398195,-100,4,2,2,60,0,0
399070,-100,4,2,2,40,0,0
399445,-100,4,2,2,50,0,0
399570,-100,4,2,2,60,0,0
400070,-100,4,2,2,40,0,0
400320,-100,4,2,2,60,0,0
401070,-100,4,2,2,40,0,0
401445,-100,4,2,2,50,0,0
401570,-100,4,2,2,60,0,0
402070,-100,4,2,2,40,0,0
402445,-100,4,2,2,50,0,0
402570,-100,4,2,2,60,0,0
403070,-100,4,2,2,50,0,0
403320,-100,4,2,2,40,0,0
403445,-100,4,2,2,50,0,0
403570,-100,4,2,2,65,0,0
415570,483.870967741935,4,2,2,65,1,0
417460,447.761194029851,4,2,2,60,1,0
419208,422.535211267606,4,2,0,100,1,0
480010,389.61038961039,4,2,0,100,1,0
489750,-111.111111111111,4,2,0,100,0,0
490140,-125,4,2,0,100,0,0
490530,-142.857142857143,4,2,0,100,0,0
490919,-166.666666666667,4,2,0,100,0,0
492478,-100,4,2,0,100,0,0
517422,307.692307692308,4,2,0,100,1,0
517422,307.692307692308,4,2,0,100,1,0
546909.535342764,264.31718061674,4,2,0,100,1,0
546960,-105.263157894737,4,2,0,80,0,0
570168,250,4,2,0,100,1,0
572793,-111.111111111111,4,3,1,70,0,0
589418,-200,4,2,0,70,0,0
589668,-111.111111111111,4,3,1,70,0,0
591168,-83.3333333333333,4,3,1,70,0,0
591543,-111.111111111111,4,3,1,70,0,0
593168,-83.3333333333333,4,3,1,70,0,0
593543,-111.111111111111,4,3,1,70,0,0
595418,-125,4,3,1,70,0,0
595793,-100,4,3,1,70,0,0
596293,-83.3333333333333,4,3,1,70,0,0
596668,-100,4,3,1,70,0,0
596918,-111.111111111111,4,3,1,80,0,0
597168,-125,4,3,1,80,0,0
597418,-111.111111111111,4,3,1,80,0,0
603043,-200,4,2,0,80,0,0
603168,-200,4,1,0,80,0,0
603230,-200,4,2,0,80,0,0
603418,-200,4,3,1,80,0,0
603543,-200,4,2,0,80,0,0
603668,-200,4,1,0,80,0,0
603793,-200,4,3,1,80,0,0
604793,-200,4,2,0,80,0,0
605418,-100,4,1,0,80,0,0
621168,-200,4,1,0,80,0,0
621355,-200,4,2,0,80,0,0
621418,-133.333333333333,4,3,1,80,0,0
637251,-133.333333333333,4,2,0,20,0,0
637418,500,4,2,0,100,1,0
640668,410.958904109589,4,2,0,100,1,0
685075,375,4,2,0,100,1,0
787205,600,4,2,0,40,1,0
787655,-100,4,2,1,20,0,0
787805,600,4,2,1,40,1,0
787805,-133.333333333333,4,2,1,40,0,0

[Colours]
Combo1 : 80,228,250
Combo2 : 253,77,147

[HitObjects]
112,128,1687,5,0,0:0:0
160,80,2087,5,8,0:0:0
208,128,2287,1,8,0:0:0
144,240,2687,5,0,0:0:0
176,200,2887,5,8,0:0:0
240,168,3087,1,8,0:0:0
200,296,3487,5,0,0:0:0
240,272,3687,5,8,0:0:0
288,240,3887,1,8,0:0:0
376,304,4287,5,0,0:0:0
376,240,4487,5,8,0:0:0
368,208,4687,1,8,0:0:0
112,128,4887,5,0,0:0:0
160,80,5287,5,8,0:0:0
208,128,5487,1,8,0:0:0
144,240,5887,5,0,0:0:0
176,200,6087,5,8,0:0:0
240,168,6287,1,8,0:0:0
200,296,6687,5,0,0:0:0
240,272,6887,5,8,0:0:0
288,240,7087,1,8,0:0:0
312,168,7287,5,0,0:0:0
376,304,7487,1,0,0:0:0
376,240,7687,5,8,0:0:0
368,208,7887,1,8,0:0:0
112,128,8087,5,0,0:0:0
160,80,8487,5,8,0:0:0
208,128,8687,1,8,0:0:0
144,240,9087,5,0,0:0:0
176,200,9287,5,8,0:0:0
240,168,9487,1,8,0:0:0
200,296,9887,5,0,0:0:0
240,272,10087,5,8,0:0:0
288,240,10287,1,8,0:0:0
376,304,10687,5,0,0:0:0
376,240,10887,5,8,0:0:0
368,208,11087,1,8,0:0:0
112,128,11287,5,0,0:0:0
160,80,11687,5,8,0:0:0
208,128,11887,1,8,0:0:0
144,240,12287,5,0,0:0:0
176,200,12487,5,8,0:0:0
240,168,12687,1,8,0:0:0
200,296,13087,5,0,0:0:0
240,272,13287,5,8,0:0:0
288,240,13487,1,8,0:0:0
360,216,13687,5,4,0:0:0
256,128,14487,1,0,0:0:0
200,128,14887,5,8,0:0:0
160,136,15087,1,8,0:0:0
112,136,15487,5,0,0:0:0
128,184,15687,5,8,0:0:0
176,248,15887,1,8,0:0:0
248,248,16287,5,0,0:0:0
272,200,16487,5,8,0:0:0
288,176,16687,1,8,0:0:0
320,144,16887,5,0,0:0:0
376,192,17087,1,0,0:0:0
360,224,17287,5,8,0:0:0
320,264,17487,1,8,0:0:0
256,128,17687,5,0,0:0:0
200,128,18087,5,8,0:0:0
160,136,18287,1,8,0:0:0
112,136,18687,5,0,0:0:0
128,184,18887,5,8,0:0:0
176,248,19087,1,8,0:0:0
248,248,19487,5,0,0:0:0
272,200,19687,5,8,0:0:0
288,176,19887,1,8,0:0:0
320,144,20087,5,0,0:0:0
376,192,20287,1,0,0:0:0
360,224,20487,5,8,0:0:0
320,264,20687,1,8,0:0:0
256,128,20887,5,0,0:0:0
200,128,21287,5,8,0:0:0
160,136,21487,1,8,0:0:0
112,136,21887,5,0,0:0:0
128,184,22087,5,8,0:0:0
176,248,22287,1,8,0:0:0
248,248,22687,5,0,0:0:0
272,200,22887,5,8,0:0:0
288,176,23087,1,8,0:0:0
320,144,23287,5,0,0:0:0
376,192,23487,1,0,0:0:0
360,224,23687,5,8,0:0:0
320,264,23887,1,8,0:0:0
256,128,24087,5,0,0:0:0
200,128,24487,5,8,0:0:0
160,136,24687,1,8,0:0:0
112,136,25087,5,0,0:0:0
128,184,25287,5,8,0:0:0
176,248,25487,1,8,0:0:0
256,192,25687,12,0,26887,0:0:0
160,160,27287,5,0,0:0:0
200,112,27687,1,0,0:0:0
248,160,27887,1,0,0:0:0
256,200,28087,5,8,0:0:0
200,296,28487,5,0,0:0:0
224,256,28687,1,0,0:0:0
272,312,29087,1,0,0:0:0
288,272,29287,1,0,0:0:0
304,240,29487,1,0,0:0:0
320,208,29687,5,8,0:0:0
328,160,30087,1,8,0:0:0
272,136,30487,5,0,0:0:0
192,152,30887,1,0,0:0:0
192,120,31087,1,0,0:0:0
208,80,31287,5,8,0:0:0
272,72,31687,1,8,0:0:0
328,72,31887,5,0,0:0:0
368,112,32287,5,8,0:0:0
376,160,32487,5,0,0:0:0
336,208,32687,1,0,0:0:0
280,216,32887,5,8,0:0:0
240,264,33287,1,8,0:0:0
272,296,33487,1,8,0:0:0
160,160,33687,5,0,0:0:0
200,112,34087,1,0,0:0:0
248,160,34287,1,0,0:0:0
256,200,34487,5,8,0:0:0
200,296,34887,5,0,0:0:0
224,256,35087,1,0,0:0:0
272,312,35487,1,0,0:0:0
288,272,35687,1,0,0:0:0
304,240,35887,1,0,0:0:0
320,208,36087,5,8,0:0:0
328,160,36487,1,8,0:0:0
272,136,36887,5,0,0:0:0
192,152,37287,1,0,0:0:0
192,120,37487,1,0,0:0:0
208,80,37687,5,8,0:0:0
272,72,38087,5,0,0:0:0
328,72,38287,5,8,0:0:0
256,192,38487,12,0,39887,0:0:0
152,96,40087,5,0,0:0:0
224,96,40487,5,8,0:0:0
296,96,40887,1,8,0:0:0
304,144,41087,5,0,0:0:0
288,208,41487,5,8,0:0:0
216,232,41687,5,0,0:0:0
152,240,41887,5,8,0:0:0
112,216,42087,1,8,0:0:0
168,152,42487,1,8,0:0:0
176,120,42687,5,0,0:0:0
224,80,43087,5,8,0:0:0
288,88,43287,5,0,0:0:0
328,56,43687,5,8,0:0:0
368,80,44087,1,8,0:0:0
344,128,44287,5,0,0:0:0
296,184,44687,5,8,0:0:0
240,184,45087,5,0,0:0:0
208,216,45187,1,0,0:0:0
200,248,45287,5,8,0:0:0
256,312,45587,5,0,0:0:0
280,280,45687,5,8,0:0:0
320,240,45887,5,0,0:0:0
368,288,46087,5,8,0:0:0
392,272,46187,1,8,0:0:0
408,232,46287,1,8,0:0:0
432,176,46487,5,0,0:0:0
368,144,46887,5,8,0:0:0
320,136,47287,1,8,0:0:0
272,152,47487,5,0,0:0:0
208,128,47887,5,8,0:0:0
176,160,48087,5,0,0:0:0
128,192,48287,5,8,0:0:0
160,232,48487,1,8,0:0:0
216,248,48887,1,8,0:0:0
264,264,49087,5,0,0:0:0
312,296,49487,5,8,0:0:0
336,328,49687,5,0,0:0:0
368,288,50087,5,8,0:0:0
368,224,50487,1,8,0:0:0
320,208,50687,5,0,0:0:0
264,200,51087,5,8,0:0:0
256,192,51287,12,0,53287,0:0:0
176,160,54087,5,6,0:0:0
232,80,54487,1,0,0:0:0
288,128,54687,1,0,0:0:0
288,168,54787,1,0,0:0:0
256,176,54887,5,8,0:0:0
240,240,55087,1,8,0:0:0
408,280,55287,5,0,0:0:0
328,240,55487,1,0,0:0:0
360,208,55587,1,0,0:0:0
392,176,55687,5,8,0:0:0
416,248,55887,1,8,0:0:0
384,320,56087,5,0,0:0:0
352,336,56287,1,0,0:0:0
312,344,56387,1,0,0:0:0
264,336,56487,5,8,0:0:0
200,312,56687,1,8,0:0:0
144,280,56887,5,0,0:0:0
144,248,56987,1,0,0:0:0
152,200,57087,5,8,0:0:0
136,144,57287,1,8,0:0:0
160,104,57387,1,8,0:0:0
192,80,57487,1,8,0:0:0
248,96,57687,5,0,0:0:0
288,72,57887,5,8,0:0:0
312,112,57987,1,8,0:0:0
304,160,58087,1,8,0:0:0
240,192,58287,5,0,0:0:0
288,216,58487,1,0,0:0:0
288,72,58687,5,8,0:0:0
312,112,58787,1,8,0:0:0
304,160,58887,1,8,0:0:0
240,192,59087,5,0,0:0:0
288,216,59287,1,0,0:0:0
248,248,59487,1,0,0:0:0
248,280,59587,1,0,0:0:0
288,312,59687,5,8,0:0:0
320,288,59887,5,0,0:0:0
360,248,60087,5,8,0:0:0
376,192,60287,5,0,0:0:0
400,160,60387,1,0,0:0:0
432,128,60487,5,8,0:0:0
232,80,60887,5,0,0:0:0
288,128,61087,1,0,0:0:0
288,168,61187,1,0,0:0:0
256,176,61287,5,8,0:0:0
240,240,61487,1,8,0:0:0
408,280,61687,5,0,0:0:0
328,240,61887,1,0,0:0:0
360,208,61987,1,0,0:0:0
392,176,62087,5,8,0:0:0
416,248,62287,1,8,0:0:0
384,320,62487,5,0,0:0:0
352,336,62687,1,0,0:0:0
312,344,62787,1,0,0:0:0
264,336,62887,5,8,0:0:0
200,312,63087,1,8,0:0:0
144,280,63287,5,0,0:0:0
144,248,63387,1,0,0:0:0
152,200,63487,1,0,0:0:0
136,144,63687,5,8,0:0:0
160,104,63787,1,8,0:0:0
192,80,63887,1,8,0:0:0
232,104,64087,5,0,0:0:0
280,80,64187,1,0,0:0:0
320,48,64287,1,0,0:0:0
376,80,64487,5,8,0:0:0
360,152,64587,1,8,0:0:0
312,176,64687,1,8,0:0:0
264,208,64887,5,0,0:0:0
280,240,64987,1,0,0:0:0
312,240,65087,5,8,0:0:0
360,224,65287,1,8,0:0:0
384,256,65387,1,8,0:0:0
376,288,65487,1,8,0:0:0
456,288,65687,5,0,0:0:0
456,288,65887,1,0,0:0:0
456,288,66087,1,0,0:0:0
456,288,66287,1,0,0:0:0
456,288,66487,1,0,0:0:0
456,288,66587,1,0,0:0:0
456,288,66687,1,0,0:0:0
456,288,66887,5,6,0:0:0
232,80,67287,5,0,0:0:0
288,128,67487,1,0,0:0:0
288,168,67587,1,0,0:0:0
256,176,67687,5,8,0:0:0
240,240,67887,1,8,0:0:0
408,280,68087,5,0,0:0:0
328,240,68287,1,0,0:0:0
360,208,68387,1,0,0:0:0
392,176,68487,5,8,0:0:0
416,248,68687,1,8,0:0:0
384,320,68887,5,0,0:0:0
352,336,69087,1,0,0:0:0
312,344,69187,1,0,0:0:0
264,336,69287,5,8,0:0:0
200,312,69487,1,8,0:0:0
144,280,69687,5,0,0:0:0
144,248,69787,1,0,0:0:0
152,200,69887,1,0,0:0:0
136,144,70087,5,8,0:0:0
160,104,70187,1,8,0:0:0
192,80,70287,1,8,0:0:0
248,96,70487,5,0,0:0:0
288,72,70687,5,8,0:0:0
312,112,70787,1,8,0:0:0
304,160,70887,1,8,0:0:0
240,192,71087,5,0,0:0:0
288,216,71287,1,0,0:0:0
288,72,71487,5,8,0:0:0
312,112,71587,1,8,0:0:0
304,160,71687,1,8,0:0:0
240,192,71887,5,0,0:0:0
288,216,72087,1,0,0:0:0
248,248,72287,5,8,0:0:0
248,280,72387,1,8,0:0:0
288,312,72487,1,8,0:0:0
320,288,72687,5,0,0:0:0
360,248,72887,1,0,0:0:0
376,192,73087,1,0,0:0:0
400,160,73187,1,0,0:0:0
432,128,73287,5,8,0:0:0
232,80,73687,5,0,0:0:0
288,128,73887,1,0,0:0:0
288,168,73987,1,0,0:0:0
256,176,74087,5,8,0:0:0
240,240,74287,1,8,0:0:0
408,280,74487,5,0,0:0:0
328,240,74687,1,0,0:0:0
360,208,74787,1,0,0:0:0
392,176,74887,5,8,0:0:0
416,248,75087,1,8,0:0:0
384,320,75287,5,0,0:0:0
352,336,75487,1,0,0:0:0
312,344,75587,1,0,0:0:0
264,336,75687,5,8,0:0:0
200,312,75887,1,8,0:0:0
144,280,76087,5,0,0:0:0
144,248,76187,1,0,0:0:0
152,200,76287,1,0,0:0:0
136,144,76487,5,8,0:0:0
160,104,76587,1,8,0:0:0
192,80,76687,1,8,0:0:0
232,104,76887,5,0,0:0:0
280,80,76987,1,0,0:0:0
320,48,77087,1,0,0:0:0
376,80,77287,5,8,0:0:0
360,152,77387,1,8,0:0:0
312,176,77487,1,8,0:0:0
264,208,77687,5,0,0:0:0
312,240,77887,1,0,0:0:0
368,264,77987,1,0,0:0:0
368,264,78087,1,0,0:0:0
432,256,78487,1,0,0:0:0
432,256,78687,1,0,0:0:0
432,256,78887,1,0,0:0:0
432,256,79087,1,0,0:0:0
432,256,79287,1,0,0:0:0
408,296,79387,1,0,0:0:0
432,256,79487,1,0,0:0:0
432,256,79687,5,6,0:0:0
256,192,80087,12,0,83087,0:0:0
288,128,83287,5,0,0:0:0
240,128,83487,1,0,0:0:0
176,144,83687,5,8,0:0:0
192,176,83887,1,8,0:0:0
296,256,84287,5,0,0:0:0
312,216,84487,5,8,0:0:0
352,184,84687,5,0,0:0:0
360,72,85087,1,0,0:0:0
408,128,85287,5,8,0:0:0
240,144,85687,5,0,0:0:0
240,144,85887,1,0,0:0:0
240,144,86087,1,4,0:0:0
136,200,86487,1,0,0:0:0
176,224,86887,5,8,0:0:0
216,256,87087,5,0,0:0:0
272,312,87487,1,0,0:0:0
304,272,87687,5,8,0:0:0
368,256,88087,5,0,0:0:0
352,320,88487,5,8,0:0:0
384,304,88687,5,0,0:0:0
424,280,89087,1,0,0:0:0
424,232,89287,5,8,0:0:0
400,216,89387,1,8,0:0:0
368,200,89487,1,8,0:0:0
304,176,89687,5,4,0:0:0
304,176,90287,1,4,0:0:0
304,176,90887,1,4,0:0:0
304,176,91487,1,4,0:0:0
304,176,92087,1,4,0:0:0
304,176,92287,1,4,0:0:0
304,176,92487,1,4,0:0:0
240,176,92887,1,4,0:0:0
184,192,95921,1,0,0:0:0
184,192,96103,1,0,0:0:0
328,192,96285,5,8,0:0:0
184,192,96648,5,0,0:0:0
184,192,96830,1,0,0:0:0
328,192,97012,5,8,0:0:0
184,192,97376,5,0,0:0:0
184,192,97557,1,0,0:0:0
328,192,97739,5,8,0:0:0
184,192,97921,5,0,0:0:0
184,192,98285,1,0,0:0:0
328,192,98467,5,8,0:0:0
184,192,98830,5,0,0:0:0
184,192,99012,1,0,0:0:0
328,192,99194,5,8,0:0:0
184,192,99557,5,0,0:0:0
184,192,99739,1,0,0:0:0
328,192,99921,5,8,0:0:0
184,192,100285,5,0,0:0:0
184,192,100467,1,0,0:0:0
328,192,100648,5,12,0:0:0
184,192,100830,5,4,0:0:0
184,192,101194,1,4,0:0:0
184,192,101557,1,4,0:0:0
184,192,101739,1,0,0:0:0
184,192,101921,1,0,0:0:0
328,192,102103,5,8,0:0:0
328,192,102376,1,8,0:0:0
184,192,102467,5,0,0:0:0
184,192,102648,1,0,0:0:0
328,192,102830,5,8,0:0:0
328,192,103012,1,8,0:0:0
328,192,103103,1,8,0:0:0
184,192,103194,5,0,0:0:0
184,192,103376,1,0,0:0:0
328,192,103557,5,8,0:0:0
184,192,103739,5,0,0:0:0
184,192,104103,1,0,0:0:0
328,192,104285,5,8,0:0:0
184,192,104648,5,4,0:0:0
328,192,105012,5,12,0:0:0
184,192,105376,5,4,0:0:0
328,192,105739,5,12,0:0:0
184,192,106103,5,4,0:0:0
184,192,106285,1,0,0:0:0
184,192,106376,1,0,0:0:0
328,192,106467,5,8,0:0:0
184,192,106648,5,0,0:0:0
184,192,107012,1,4,0:0:0
184,192,107376,1,4,0:0:0
328,192,107557,5,12,0:0:0
184,192,107739,5,0,0:0:0
328,192,107921,5,8,0:0:0
184,192,108103,5,0,0:0:0
184,192,108467,1,0,0:0:0
328,192,108648,5,8,0:0:0
184,192,108830,5,0,0:0:0
184,192,109194,1,0,0:0:0
328,192,109376,5,8,0:0:0
328,192,109557,1,8,0:0:0
328,192,109648,1,8,0:0:0
184,192,109739,5,0,0:0:0
328,192,109830,5,8,0:0:0
184,192,109921,5,0,0:0:0
184,192,110012,1,0,0:0:0
328,192,110103,5,8,0:0:0
184,192,110285,5,0,0:0:0
184,192,110467,1,0,0:0:0
184,192,110648,1,0,0:0:0
328,192,110830,5,8,0:0:0
328,192,111103,1,8,0:0:0
184,192,111194,5,0,0:0:0
184,192,111376,1,0,0:0:0
328,192,111557,5,8,0:0:0
184,192,111739,5,0,0:0:0
328,192,111830,5,8,0:0:0
184,192,111921,5,0,0:0:0
184,192,112103,1,0,0:0:0
328,192,112285,5,8,0:0:0
184,192,112467,5,4,0:0:0
184,192,112830,1,4,0:0:0
184,192,113194,1,4,0:0:0
184,192,113376,1,0,0:0:0
184,192,113557,1,0,0:0:0
328,192,113739,5,8,0:0:0
328,192,114012,1,8,0:0:0
184,192,114103,5,0,0:0:0
184,192,114285,1,0,0:0:0
328,192,114467,5,8,0:0:0
184,192,114648,5,0,0:0:0
328,192,114739,5,8,0:0:0
184,192,114830,5,0,0:0:0
184,192,115012,1,0,0:0:0
328,192,115194,5,8,0:0:0
184,192,115376,5,0,0:0:0
184,192,115557,1,0,0:0:0
184,192,115739,1,0,0:0:0
328,192,115921,5,8,0:0:0
184,192,116285,5,4,0:0:0
328,192,116648,5,12,0:0:0
184,192,117012,5,4,0:0:0
328,192,117376,5,12,0:0:0
184,192,117739,5,0,0:0:0
184,192,117921,1,0,0:0:0
328,192,118103,5,8,0:0:0
184,192,118285,5,0,0:0:0
328,192,118467,5,8,0:0:0
184,192,118557,5,0,0:0:0
184,192,118648,1,0,0:0:0
184,192,118739,1,0,0:0:0
328,192,118830,5,8,0:0:0
184,192,119194,5,4,0:0:0
184,192,119557,1,4,0:0:0
328,192,119921,5,12,0:0:0
328,192,120467,1,8,0:0:0
184,192,120648,5,4,0:0:0
184,192,121012,1,4,0:0:0
328,192,121376,5,12,0:0:0
184,192,121557,5,0,0:0:0
184,192,121739,1,0,0:0:0
184,192,122103,1,4,0:0:0
184,192,122285,1,0,0:0:0
328,192,122467,5,8,0:0:0
184,192,122648,5,0,0:0:0
184,192,122830,1,0,0:0:0
184,192,123012,1,0,0:0:0
328,192,123194,5,8,0:0:0
184,192,123376,5,0,0:0:0
328,192,123467,5,8,0:0:0
184,192,123557,5,0,0:0:0
184,192,123739,1,0,0:0:0
328,192,123921,5,8,0:0:0
184,192,124103,5,0,0:0:0
328,192,124194,5,8,0:0:0
184,192,124285,5,0,0:0:0
328,192,124376,5,8,0:0:0
184,192,124467,5,0,0:0:0
328,192,124648,5,8,0:0:0
184,192,125012,5,4,0:0:0
184,192,125376,1,4,0:0:0
328,192,125739,5,12,0:0:0
328,192,125921,1,12,0:0:0
328,192,126285,1,12,0:0:0
184,192,126467,5,0,0:0:0
184,192,126648,1,0,0:0:0
184,192,126830,1,0,0:0:0
328,192,127194,5,12,0:0:0
184,192,127376,5,0,0:0:0
328,192,127467,5,8,0:0:0
184,192,127557,5,0,0:0:0
184,192,127739,1,0,0:0:0
184,192,127921,1,4,0:0:0
328,192,128285,5,12,0:0:0
184,192,128648,5,4,0:0:0
328,192,129012,5,12,0:0:0
184,192,129376,5,4,0:0:0
328,192,129739,5,12,0:0:0
184,192,130103,5,0,0:0:0
184,192,130285,1,0,0:0:0
328,192,130467,5,8,0:0:0
184,192,130830,5,4,0:0:0
184,192,131012,1,4,0:0:0
328,192,131194,5,12,0:0:0
184,192,131557,5,4,0:0:0
328,192,131921,5,12,0:0:0
328,192,132103,1,12,0:0:0
184,192,132467,5,4,0:0:0
184,192,132648,1,4,0:0:0
328,192,133012,5,12,0:0:0
184,192,133739,5,0,0:0:0
184,192,133921,1,0,0:0:0
328,192,134103,5,8,0:0:0
328,192,134376,1,8,0:0:0
184,192,134467,5,0,0:0:0
184,192,134648,1,0,0:0:0
328,192,134830,5,8,0:0:0
184,192,135012,5,0,0:0:0
328,192,135103,5,8,0:0:0
184,192,135194,5,0,0:0:0
184,192,135376,1,0,0:0:0
328,192,135557,5,8,0:0:0
328,192,135830,1,8,0:0:0
184,192,135921,5,8,0:0:0
184,192,136103,1,0,0:0:0
184,192,136194,1,0,0:0:0
328,192,136285,5,8,0:0:0
184,192,136467,5,0,0:0:0
184,192,136648,1,4,0:0:0
184,192,136830,1,0,0:0:0
328,192,137012,5,12,0:0:0
184,192,137194,5,0,0:0:0
184,192,137376,1,4,0:0:0
184,192,137557,1,0,0:0:0
328,192,137739,5,12,0:0:0
184,192,138103,5,4,0:0:0
184,192,138467,1,4,0:0:0
328,192,138830,5,12,0:0:0
184,192,139194,5,0,0:0:0
328,192,139285,5,8,0:0:0
184,192,139376,5,0,0:0:0
184,192,139467,1,0,0:0:0
328,192,139557,5,8,0:0:0
184,192,139739,5,0,0:0:0
328,192,139921,5,8,0:0:0
328,192,140194,1,8,0:0:0
184,192,140285,5,0,0:0:0
184,192,140467,1,0,0:0:0
328,192,140648,5,8,0:0:0
328,192,140921,1,8,0:0:0
184,192,141012,5,0,0:0:0
184,192,141194,1,0,0:0:0
328,192,141376,5,8,0:0:0
184,192,141557,5,0,0:0:0
184,192,141739,1,0,0:0:0
184,192,141921,1,0,0:0:0
184,192,142012,1,0,0:0:0
328,192,142103,5,8,0:0:0
184,192,142285,5,0,0:0:0
184,192,142467,1,4,0:0:0
184,192,142648,1,0,0:0:0
328,192,142830,5,12,0:0:0
184,192,143194,5,4,0:0:0
184,192,143376,1,4,0:0:0
328,192,143557,5,12,0:0:0
328,192,143921,1,8,0:0:0
328,192,144012,1,8,0:0:0
328,192,144194,1,8,0:0:0
184,192,144285,5,0,0:0:0
328,192,144467,5,8,0:0:0
328,192,144557,1,8,0:0:0
184,192,144648,5,0,0:0:0
328,192,144739,5,8,0:0:0
328,192,144830,1,8,0:0:0
328,192,144921,1,8,0:0:0
184,192,145012,5,0,0:0:0
184,192,145376,1,4,0:0:0
184,192,145557,1,0,0:0:0
328,192,145739,5,8,0:0:0
328,192,146012,1,8,0:0:0
184,192,146103,5,0,0:0:0
184,192,146285,1,0,0:0:0
184,192,146376,1,0,0:0:0
328,192,146467,5,8,0:0:0
328,192,146739,1,8,0:0:0
184,192,146830,5,0,0:0:0
184,192,147012,1,0,0:0:0
328,192,147194,5,8,0:0:0
328,192,147376,1,8,0:0:0
328,192,147467,1,8,0:0:0
184,192,147557,5,0,0:0:0
184,192,147739,1,0,0:0:0
328,192,147921,5,8,0:0:0
184,192,148285,5,4,0:0:0
184,192,148467,1,0,0:0:0
328,192,148648,5,8,0:0:0
184,192,148830,5,0,0:0:0
184,192,149012,1,4,0:0:0
184,192,149194,1,0,0:0:0
328,192,149376,5,8,0:0:0
184,192,149739,5,0,0:0:0
328,192,150103,5,8,0:0:0
328,192,150467,1,8,0:0:0
328,192,150557,1,8,0:0:0
328,192,150739,1,8,0:0:0
328,192,150830,1,8,0:0:0
184,192,151012,5,0,0:0:0
184,192,151194,1,4,0:0:0
184,192,151376,1,0,0:0:0
328,192,151557,5,8,0:0:0
184,192,151739,5,0,0:0:0
328,192,151830,5,8,0:0:0
184,192,151921,5,0,0:0:0
184,192,152103,1,0,0:0:0
328,192,152285,5,8,0:0:0
184,192,152467,5,0,0:0:0
184,192,152648,1,0,0:0:0
184,192,152830,1,0,0:0:0
328,192,153012,5,8,0:0:0
184,192,153194,5,0,0:0:0
184,192,153285,1,0,0:0:0
328,192,153376,5,8,0:0:0
184,192,153557,5,0,0:0:0
328,192,153739,5,8,0:0:0
184,192,154103,5,4,0:0:0
328,192,154467,5,12,0:0:0
184,192,154830,5,4,0:0:0
328,192,155194,5,12,0:0:0
328,192,155558,1,8,0:0:0
328,192,155648,1,8,0:0:0
328,192,155830,1,8,0:0:0
184,192,155921,5,0,0:0:0
328,192,156103,5,8,0:0:0
328,192,156194,1,8,0:0:0
184,192,156285,5,0,0:0:0
328,192,156376,5,8,0:0:0
328,192,156557,1,8,0:0:0
184,192,156648,5,0,0:0:0
328,192,157012,5,12,0:0:0
328,192,157552,1,8,0:0:0
184,192,157733,5,0,0:0:0
184,192,157915,1,0,0:0:0
184,192,158097,1,0,0:0:0
328,192,158279,5,8,0:0:0
184,192,158467,5,4,0:0:0
256,184,159810,21,0,0:0:0
256,184,159981,1,0,0:0:0
256,184,160153,5,8,0:0:0
256,184,160496,1,8,0:0:0
256,184,160667,5,0,0:0:0
256,184,161010,5,8,0:0:0
256,184,161181,5,0,0:0:0
256,184,161267,1,0,0:0:0
256,184,161353,1,0,0:0:0
256,184,161439,1,0,0:0:0
256,184,161524,5,8,0:0:0
256,184,161696,5,0,0:0:0
256,184,161867,5,8,0:0:0
256,184,162039,5,0,0:0:0
256,184,162210,5,8,0:0:0
256,184,162553,5,0,0:0:0
256,184,162724,1,0,0:0:0
256,184,162896,1,0,0:0:0
256,184,162981,1,0,0:0:0
256,184,163067,5,8,0:0:0
256,184,163239,5,0,0:0:0
256,184,163410,5,8,0:0:0
256,184,163581,5,0,0:0:0
256,184,163753,5,8,0:0:0
256,184,164096,1,8,0:0:0
256,184,164267,5,0,0:0:0
256,184,164439,1,0,0:0:0
256,184,164610,5,8,0:0:0
256,184,164781,5,0,0:0:0
256,184,164953,5,8,0:0:0
256,184,165296,5,0,0:0:0
256,184,165467,1,0,0:0:0
256,184,165639,5,8,0:0:0
256,184,165981,1,8,0:0:0
256,184,166153,5,0,0:0:0
256,184,166496,5,8,0:0:0
256,184,166667,5,0,0:0:0
256,184,166753,1,0,0:0:0
256,184,166839,1,0,0:0:0
256,184,166924,1,0,0:0:0
256,184,167010,5,8,0:0:0
256,184,167181,5,0,0:0:0
256,184,167353,5,8,0:0:0
256,184,167524,5,0,0:0:0
256,184,167696,5,8,0:0:0
256,184,168039,1,8,0:0:0
256,184,168210,5,0,0:0:0
256,184,168381,5,8,0:0:0
256,184,168553,5,0,0:0:0
256,184,168724,5,8,0:0:0
256,184,168896,5,0,0:0:0
256,184,169067,1,0,0:0:0
256,184,169239,1,0,0:0:0
256,184,169410,5,8,0:0:0
256,184,169496,5,0,0:0:0
256,184,169581,5,8,0:0:0
256,184,169753,5,0,0:0:0
256,184,169839,1,0,0:0:0
256,184,169924,5,8,0:0:0
256,184,170096,1,8,0:0:0
256,184,170181,1,8,0:0:0
256,184,170267,5,0,0:0:0
256,184,170353,1,0,0:0:0
256,184,170439,1,0,0:0:0
256,184,170524,1,0,0:0:0
256,184,170610,1,0,0:0:0
256,184,170696,1,0,0:0:0
256,184,170781,5,8,0:0:0
256,184,170953,5,0,0:0:0
256,184,171124,5,12,0:0:0
256,184,171296,5,0,0:0:0
256,184,171467,1,0,0:0:0
256,184,171639,1,0,0:0:0
256,184,171810,5,8,0:0:0
256,184,171981,5,0,0:0:0
256,184,172153,1,0,0:0:0
256,184,172239,1,0,0:0:0
256,184,172324,5,8,0:0:0
256,184,172410,1,8,0:0:0
256,184,172496,5,0,0:0:0
256,184,172667,5,8,0:0:0
256,184,172839,5,0,0:0:0
256,184,173010,1,0,0:0:0
256,184,173181,1,0,0:0:0
256,184,173353,5,8,0:0:0
256,184,173524,5,0,0:0:0
256,184,173696,5,8,0:0:0
256,184,173868,5,0,0:0:0
256,184,174039,5,8,0:0:0
256,184,174210,5,0,0:0:0
256,184,174381,1,0,0:0:0
256,184,174467,1,0,0:0:0
256,184,174553,5,8,0:0:0
256,184,174724,5,0,0:0:0
256,184,174896,5,8,0:0:0
256,184,174981,1,8,0:0:0
256,184,175067,5,0,0:0:0
256,184,175153,1,0,0:0:0
256,184,175239,1,0,0:0:0
256,184,175410,5,8,0:0:0
256,184,175581,5,0,0:0:0
256,184,175753,5,8,0:0:0
256,184,175924,1,12,0:0:0
256,184,176267,5,0,0:0:0
256,184,176439,1,0,0:0:0
256,184,176610,5,8,0:0:0
256,184,176696,5,0,0:0:0
256,184,176781,5,8,0:0:0
256,184,176953,5,0,0:0:0
256,184,177124,1,0,0:0:0
256,184,177210,1,0,0:0:0
256,184,177296,5,8,0:0:0
256,184,177467,1,8,0:0:0
256,184,177639,5,0,0:0:0
256,184,177724,1,0,0:0:0
256,184,177810,1,0,0:0:0
256,184,177896,1,0,0:0:0
256,184,177981,5,8,0:0:0
256,184,178153,1,8,0:0:0
256,184,178496,5,0,0:0:0
256,184,178668,1,0,0:0:0
256,184,178839,1,0,0:0:0
256,184,179010,5,8,0:0:0
256,184,179181,5,0,0:0:0
256,184,179353,1,0,0:0:0
256,184,179524,1,0,0:0:0
256,184,179696,5,8,0:0:0
256,184,179867,5,0,0:0:0
256,184,180039,1,0,0:0:0
256,184,180210,1,0,0:0:0
256,184,180381,5,8,0:0:0
256,184,180553,5,0,0:0:0
256,184,180724,5,8,0:0:0
256,184,180896,5,0,0:0:0
256,184,181067,5,8,0:0:0
256,184,181239,5,0,0:0:0
256,184,181410,5,12,0:0:0
256,184,181753,1,8,0:0:0
256,184,181925,5,0,0:0:0
256,184,182096,5,12,0:0:0
256,184,182268,5,0,0:0:0
256,184,182439,1,0,0:0:0
256,184,182611,1,0,0:0:0
256,184,182782,5,8,0:0:0
256,184,182953,5,0,0:0:0
256,184,183125,5,8,0:0:0
256,184,183211,1,8,0:0:0
256,184,183296,5,0,0:0:0
256,184,183382,1,0,0:0:0
256,184,183468,5,8,0:0:0
256,184,183639,5,0,0:0:0
256,184,183811,1,0,0:0:0
256,184,183982,5,8,0:0:0
256,184,184153,5,0,0:0:0
256,184,184325,5,8,0:0:0
256,184,184496,5,0,0:0:0
256,184,184668,5,8,0:0:0
256,184,184840,5,0,0:0:0
256,184,185011,5,8,0:0:0
256,184,185182,5,0,0:0:0
256,184,185353,1,0,0:0:0
256,184,185439,1,0,0:0:0
256,184,185525,5,8,0:0:0
256,184,185696,5,0,0:0:0
256,184,185868,5,8,0:0:0
256,184,185953,1,8,0:0:0
256,184,186039,5,0,0:0:0
256,184,186125,1,0,0:0:0
256,184,186211,1,0,0:0:0
256,184,186382,5,8,0:0:0
256,184,186553,5,0,0:0:0
256,184,186725,1,0,0:0:0
256,184,186896,5,12,0:0:0
256,184,187239,5,0,0:0:0
256,184,187411,1,0,0:0:0
256,184,187582,1,0,0:0:0
256,184,187668,1,0,0:0:0
256,184,187753,5,8,0:0:0
256,184,187925,5,0,0:0:0
256,184,188096,5,8,0:0:0
256,184,188182,5,0,0:0:0
256,184,188268,5,8,0:0:0
256,184,188439,5,0,0:0:0
256,184,188611,1,0,0:0:0
256,184,188696,1,0,0:0:0
256,184,188782,1,0,0:0:0
256,184,188868,1,0,0:0:0
256,184,188953,5,8,0:0:0
256,184,189125,1,8,0:0:0
256,184,189467,5,0,0:0:0
256,184,189553,1,0,0:0:0
256,184,189639,5,8,0:0:0
256,184,189810,5,0,0:0:0
256,184,189981,5,8,0:0:0
256,184,190067,5,0,0:0:0
256,184,190153,1,0,0:0:0
256,184,190239,1,0,0:0:0
256,184,190324,5,8,0:0:0
256,184,190496,5,0,0:0:0
256,184,190667,5,8,0:0:0
256,184,190839,5,0,0:0:0
256,184,190924,1,0,0:0:0
256,184,191010,5,8,0:0:0
256,184,191181,5,0,0:0:0
256,184,191353,5,8,0:0:0
256,184,191439,5,0,0:0:0
256,184,191524,1,0,0:0:0
256,184,191696,5,8,0:0:0
256,184,191867,5,0,0:0:0
256,184,191953,1,0,0:0:0
256,184,192039,5,8,0:0:0
256,184,192210,5,0,0:0:0
256,184,192381,5,8,0:0:0
256,184,192553,5,0,0:0:0
256,192,192724,12,8,193753,0:0:0
256,184,194096,5,8,0:0:0
256,184,194267,5,0,0:0:0
256,184,194439,5,8,0:0:0
256,184,194524,1,8,0:0:0
256,184,194610,5,0,0:0:0
256,184,194781,5,8,0:0:0
256,184,194953,5,0,0:0:0
256,184,195124,1,0,0:0:0
256,184,195210,1,0,0:0:0
256,184,195296,5,8,0:0:0
256,184,195381,5,0,0:0:0
256,184,195467,5,8,0:0:0
256,184,195553,1,8,0:0:0
256,184,195639,1,8,0:0:0
256,184,195724,1,8,0:0:0
256,184,195810,5,0,0:0:0
256,184,195981,1,0,0:0:0
256,184,196153,1,0,0:0:0
256,184,196324,5,8,0:0:0
256,184,196496,5,0,0:0:0
256,184,196667,5,8,0:0:0
256,184,196839,1,8,0:0:0
256,184,196924,1,8,0:0:0
256,184,197010,5,0,0:0:0
256,184,197096,1,0,0:0:0
256,184,197181,5,8,0:0:0
256,184,197267,1,8,0:0:0
256,184,197353,5,0,0:0:0
256,184,197439,1,0,0:0:0
256,184,197524,5,8,0:0:0
256,184,197610,5,0,0:0:0
256,184,197696,5,8,0:0:0
256,184,197781,5,0,0:0:0
256,184,197867,5,8,0:0:0
256,184,198039,5,0,0:0:0
256,184,198124,1,0,0:0:0
256,184,198210,1,0,0:0:0
256,184,198381,5,8,0:0:0
256,184,198467,1,8,0:0:0
256,184,198553,5,0,0:0:0
256,184,198639,1,0,0:0:0
256,184,198724,5,8,0:0:0
256,184,198896,5,0,0:0:0
256,184,199067,5,8,0:0:0
256,184,199153,1,8,0:0:0
256,184,199239,1,8,0:0:0
256,184,199410,1,8,0:0:0
256,184,199581,1,8,0:0:0
256,184,199667,1,8,0:0:0
256,184,199753,1,8,0:0:0
256,184,199839,1,8,0:0:0
256,184,199924,5,0,0:0:0
256,184,200010,1,0,0:0:0
256,184,200096,5,8,0:0:0
256,184,200181,1,8,0:0:0
256,184,200267,5,0,0:0:0
256,184,200439,1,0,0:0:0
256,184,200610,5,8,0:0:0
256,184,200781,1,8,0:0:0
256,184,200867,1,8,0:0:0
256,184,200953,5,0,0:0:0
256,184,201124,1,0,0:0:0
256,184,201210,1,0,0:0:0
256,184,201296,5,8,0:0:0
256,184,201467,1,8,0:0:0
256,184,201639,5,0,0:0:0
256,184,201810,5,8,0:0:0
256,184,201896,1,8,0:0:0
256,184,201981,1,8,0:0:0
256,184,202153,1,8,0:0:0
256,184,202324,5,0,0:0:0
256,184,202410,1,0,0:0:0
256,184,202496,1,0,0:0:0
256,184,202581,1,0,0:0:0
256,184,202667,5,8,0:0:0
256,184,202753,1,8,0:0:0
256,184,202839,1,8,0:0:0
256,184,202924,1,8,0:0:0
256,184,203010,5,0,0:0:0
256,184,203096,1,0,0:0:0
256,184,203181,1,0,0:0:0
256,184,203267,1,0,0:0:0
256,184,203353,1,0,0:0:0
256,184,203439,1,0,0:0:0
256,184,203524,1,0,0:0:0
256,184,203610,1,0,0:0:0
256,184,203696,5,8,0:0:0
256,184,203867,5,0,0:0:0
256,184,204039,5,8,0:0:0
256,184,204210,5,0,0:0:0
256,184,204296,1,0,0:0:0
256,184,204381,1,0,0:0:0
256,184,204553,5,8,0:0:0
256,184,204724,1,8,0:0:0
256,184,205067,1,8,0:0:0
256,184,205238,5,0,0:0:0
256,184,205410,5,8,0:0:0
256,184,205495,1,8,0:0:0
256,184,205581,5,0,0:0:0
256,184,205752,5,8,0:0:0
256,184,205924,5,0,0:0:0
256,184,206095,5,8,0:0:0
256,184,206181,1,8,0:0:0
256,184,206267,5,0,0:0:0
256,184,206352,5,8,0:0:0
256,184,206438,5,0,0:0:0
256,184,206524,1,0,0:0:0
256,184,206610,1,0,0:0:0
256,184,206695,1,0,0:0:0
256,184,206781,5,8,0:0:0
256,184,206952,5,0,0:0:0
256,184,207124,5,8,0:0:0
256,184,207295,1,8,0:0:0
256,184,207467,5,0,0:0:0
256,184,207638,5,8,0:0:0
256,184,207810,5,0,0:0:0
256,184,207895,1,0,0:0:0
256,184,207981,5,8,0:0:0
256,184,208067,1,8,0:0:0
256,184,208152,5,0,0:0:0
256,184,208238,1,0,0:0:0
256,184,208324,5,8,0:0:0
256,184,208410,1,8,0:0:0
256,184,208495,5,0,0:0:0
256,184,208581,5,8,0:0:0
256,184,208667,5,0,0:0:0
256,184,208752,5,8,0:0:0
256,184,208838,5,0,0:0:0
256,184,209010,5,8,0:0:0
256,184,209095,1,8,0:0:0
256,184,209181,5,0,0:0:0
256,184,209352,5,8,0:0:0
256,184,209438,1,8,0:0:0
256,184,209524,5,0,0:0:0
256,184,209610,1,0,0:0:0
256,184,209695,5,8,0:0:0
256,184,209867,5,0,0:0:0
256,184,210038,5,8,0:0:0
256,184,210124,1,8,0:0:0
256,184,210210,5,0,0:0:0
256,184,210381,5,8,0:0:0
256,184,210552,5,0,0:0:0
256,184,210638,1,0,0:0:0
256,184,210724,1,0,0:0:0
256,184,210810,1,0,0:0:0
256,184,210895,5,8,0:0:0
256,184,210981,1,8,0:0:0
256,184,211067,5,0,0:0:0
256,184,211152,1,0,0:0:0
256,184,211239,5,8,0:0:0
256,184,211410,5,0,0:0:0
256,184,211581,5,8,0:0:0
256,184,211752,5,0,0:0:0
256,184,211838,1,0,0:0:0
256,184,211924,5,8,0:0:0
256,184,212010,5,0,0:0:0
256,184,212095,5,8,0:0:0
256,184,212267,5,0,0:0:0
256,184,212438,5,8,0:0:0
256,184,212610,5,0,0:0:0
256,184,212781,1,0,0:0:0
256,184,212867,1,0,0:0:0
256,184,212952,5,8,0:0:0
256,184,213124,1,8,0:0:0
256,184,213296,1,8,0:0:0
256,184,213381,1,8,0:0:0
256,184,213467,5,0,0:0:0
256,184,213639,1,4,0:0:0
256,184,213810,1,0,0:0:0
256,184,213981,5,8,0:0:0
256,184,214067,1,8,0:0:0
256,184,214153,5,0,0:0:0
256,184,214324,1,4,0:0:0
256,184,214496,1,0,0:0:0
256,184,214667,5,8,0:0:0
256,184,214839,5,4,0:0:0
256,184,215010,5,8,0:0:0
256,184,215181,5,4,0:0:0
256,184,215353,5,8,0:0:0
256,184,215524,1,8,0:0:0
256,184,215696,1,8,0:0:0
256,184,215867,1,8,0:0:0
136,192,216073,5,4,0:0:0
136,192,216778,1,0,0:0:0
376,192,216955,5,8,0:0:0
376,192,217043,1,8,0:0:0
376,192,217131,1,8,0:0:0
136,192,217220,5,0,0:0:0
136,192,217308,1,0,0:0:0
136,192,217484,1,0,0:0:0
136,192,217661,1,0,0:0:0
376,192,217837,5,8,0:0:0
136,192,218014,5,0,0:0:0
376,192,218102,5,8,0:0:0
136,192,218190,5,0,0:0:0
376,192,218278,5,8,0:0:0
136,192,218367,5,0,0:0:0
376,192,218543,5,8,0:0:0
136,192,218720,5,0,0:0:0
136,192,219073,1,0,0:0:0
136,192,219161,1,0,0:0:0
376,192,219249,5,8,0:0:0
136,192,219425,5,0,0:0:0
136,192,219778,1,0,0:0:0
376,192,219954,5,8,0:0:0
376,192,220043,1,8,0:0:0
136,192,220131,5,0,0:0:0
136,192,220308,1,0,0:0:0
136,192,220484,1,0,0:0:0
376,192,220661,5,8,0:0:0
136,192,220837,5,0,0:0:0
136,192,221190,1,0,0:0:0
136,192,221278,1,0,0:0:0
376,192,221367,5,8,0:0:0
136,192,221543,5,0,0:0:0
136,192,221720,1,0,0:0:0
136,192,221896,1,0,0:0:0
136,192,221984,1,0,0:0:0
376,192,222073,5,8,0:0:0
136,192,222249,5,0,0:0:0
136,192,222337,1,0,0:0:0
376,192,222425,5,8,0:0:0
376,192,222514,1,8,0:0:0
136,192,222602,5,0,0:0:0
376,192,222778,5,8,0:0:0
136,192,222955,5,0,0:0:0
136,192,223131,1,0,0:0:0
136,192,223308,1,0,0:0:0
376,192,223484,5,8,0:0:0
136,192,223661,5,0,0:0:0
376,192,223749,5,8,0:0:0
136,192,223837,5,0,0:0:0
376,192,223925,5,8,0:0:0
136,192,224014,5,0,0:0:0
376,192,224190,5,8,0:0:0
136,192,224367,5,0,0:0:0
136,192,224543,1,0,0:0:0
136,192,224720,1,0,0:0:0
136,192,224808,1,0,0:0:0
376,192,224896,5,8,0:0:0
136,192,225073,5,0,0:0:0
136,192,225161,1,0,0:0:0
376,192,225249,5,8,0:0:0
136,192,225337,5,0,0:0:0
136,192,225425,1,0,0:0:0
376,192,225602,5,8,0:0:0
136,192,225955,5,0,0:0:0
136,192,226131,1,0,0:0:0
376,192,226308,5,8,0:0:0
136,192,226485,5,0,0:0:0
136,192,226573,1,0,0:0:0
376,192,226661,5,8,0:0:0
136,192,226749,5,0,0:0:0
136,192,226837,1,0,0:0:0
376,192,227014,5,8,0:0:0
136,192,227367,5,4,0:0:0
376,192,227543,5,8,0:0:0
376,192,227631,1,8,0:0:0
136,192,227720,5,0,0:0:0
136,192,227896,1,4,0:0:0
136,192,228249,1,0,0:0:0
376,192,228425,5,8,0:0:0
376,192,228514,1,8,0:0:0
376,192,228602,1,8,0:0:0
376,192,228690,1,8,0:0:0
136,192,228778,5,0,0:0:0
136,192,228955,1,0,0:0:0
376,192,229131,5,8,0:0:0
136,192,229308,5,0,0:0:0
376,192,229396,5,8,0:0:0
136,192,229484,5,0,0:0:0
376,192,229572,5,8,0:0:0
136,192,229661,5,0,0:0:0
376,192,229837,5,8,0:0:0
376,192,230014,1,0,0:0:0
376,192,230102,1,0,0:0:0
136,192,230190,5,0,0:0:0
136,192,230367,1,0,0:0:0
376,192,230543,5,8,0:0:0
136,192,230720,5,0,0:0:0
136,192,230808,1,0,0:0:0
136,192,230896,1,0,0:0:0
376,192,230984,5,8,0:0:0
136,192,231073,5,0,0:0:0
376,192,231249,5,8,0:0:0
376,192,231425,1,8,0:0:0
376,192,231514,1,8,0:0:0
136,192,231602,5,0,0:0:0
136,192,231778,1,0,0:0:0
136,192,231867,1,0,0:0:0
376,192,231955,5,8,0:0:0
136,192,232131,5,0,0:0:0
136,192,232308,1,0,0:0:0
136,192,232484,1,0,0:0:0
136,192,232573,1,0,0:0:0
376,192,232661,5,8,0:0:0
136,192,232837,5,0,0:0:0
136,192,233014,1,0,0:0:0
136,192,233190,1,0,0:0:0
136,192,233278,1,0,0:0:0
376,192,233367,5,8,0:0:0
136,192,233543,5,0,0:0:0
136,192,233720,1,0,0:0:0
376,192,233808,5,8,0:0:0
136,192,233897,5,0,0:0:0
376,192,234073,5,8,0:0:0
136,192,234249,5,0,0:0:0
136,192,234425,1,4,0:0:0
136,192,234602,1,0,0:0:0
376,192,234690,5,8,0:0:0
376,192,234778,1,8,0:0:0
136,192,234955,5,0,0:0:0
376,192,235043,5,8,0:0:0
136,192,235131,5,0,0:0:0
376,192,235220,5,8,0:0:0
136,192,235308,5,0,0:0:0
376,192,235484,5,8,0:0:0
136,192,235661,5,0,0:0:0
136,192,235837,1,0,0:0:0
376,192,235925,5,8,0:0:0
136,192,236014,5,0,0:0:0
376,192,236190,5,8,0:0:0
136,192,236367,5,0,0:0:0
136,192,236720,1,0,0:0:0
136,192,236808,1,0,0:0:0
376,192,236896,5,8,0:0:0
136,192,237073,5,0,0:0:0
376,192,237249,5,8,0:0:0
376,192,237337,1,8,0:0:0
136,192,237425,5,0,0:0:0
376,192,237514,5,8,0:0:0
136,192,237602,5,0,0:0:0
376,192,237778,5,8,0:0:0
136,192,238131,5,0,0:0:0
136,192,238219,1,0,0:0:0
376,192,238308,5,8,0:0:0
136,192,238484,5,0,0:0:0
136,192,238661,1,4,0:0:0
376,192,238837,5,8,0:0:0
376,192,238925,1,8,0:0:0
136,192,239014,5,0,0:0:0
136,192,239190,1,4,0:0:0
376,192,239366,5,8,0:0:0
376,192,239454,1,8,0:0:0
136,192,239543,5,0,0:0:0
136,192,239720,1,0,0:0:0
136,192,239808,1,0,0:0:0
376,192,239896,5,8,0:0:0
376,192,239984,1,8,0:0:0
136,192,240073,5,0,0:0:0
136,192,240249,1,0,0:0:0
376,192,240425,5,12,0:0:0
136,192,240779,5,0,0:0:0
376,192,240867,5,8,0:0:0
136,192,240955,5,0,0:0:0
376,192,241131,5,12,0:0:0
376,192,241396,1,8,0:0:0
136,192,241484,5,0,0:0:0
136,192,241661,1,0,0:0:0
376,192,241837,5,12,0:0:0
136,192,242190,5,0,0:0:0
376,192,242278,5,8,0:0:0
136,192,242366,5,0,0:0:0
376,192,242543,5,12,0:0:0
376,192,242808,1,8,0:0:0
136,192,242896,5,0,0:0:0
136,192,243072,1,0,0:0:0
136,192,243161,1,0,0:0:0
376,192,243249,5,8,0:0:0
136,192,243601,5,0,0:0:0
376,192,243690,5,8,0:0:0
136,192,243778,5,0,0:0:0
376,192,243954,5,8,0:0:0
376,192,244043,1,8,0:0:0
136,192,244131,5,0,0:0:0
136,192,244220,1,0,0:0:0
376,192,244308,5,8,0:0:0
136,192,244572,5,4,0:0:0
376,192,244837,5,12,0:0:0
136,192,245014,5,4,0:0:0
376,192,245278,5,12,0:0:0
376,192,245543,1,8,0:0:0
376,192,245631,1,8,0:0:0
136,192,245720,5,0,0:0:0
136,192,245927,1,0,0:0:0
376,192,246109,5,8,0:0:0
136,192,246291,5,0,0:0:0
136,192,246473,1,0,0:0:0
136,192,246655,1,0,0:0:0
136,192,246746,1,0,0:0:0
376,192,246836,5,8,0:0:0
136,192,247018,5,0,0:0:0
376,192,247382,5,8,0:0:0
376,192,247473,1,8,0:0:0
136,192,247564,5,0,0:0:0
136,192,247746,1,0,0:0:0
376,192,247927,5,8,0:0:0
376,192,248109,1,8,0:0:0
136,192,248291,5,0,0:0:0
136,192,248473,1,0,0:0:0
136,192,248836,1,0,0:0:0
136,192,248927,5,0,0:0:0
376,192,249018,5,8,0:0:0
136,192,249200,5,0,0:0:0
376,192,249382,5,8,0:0:0
376,192,249473,1,8,0:0:0
136,192,249564,5,0,0:0:0
136,192,249655,1,0,0:0:0
376,192,249746,5,8,0:0:0
136,192,249927,5,0,0:0:0
144,112,250109,5,0,0:0:0
184,88,250291,1,0,0:0:0
224,72,250473,5,8,0:0:0
280,112,250655,5,0,0:0:0
304,144,250746,1,0,0:0:0
288,176,250927,5,8,0:0:0
256,192,251018,5,0,0:0:0
208,232,251200,5,8,0:0:0
248,272,251382,1,8,0:0:0
320,272,251564,5,0,0:0:0
344,256,251655,1,0,0:0:0
352,224,251746,1,0,0:0:0
376,152,251927,5,8,0:0:0
392,176,252018,1,8,0:0:0
416,208,252109,5,0,0:0:0
424,272,252291,5,8,0:0:0
392,296,252382,1,8,0:0:0
360,320,252473,5,0,0:0:0
296,328,252564,1,0,0:0:0
256,336,252655,5,8,0:0:0
192,336,252746,1,8,0:0:0
176,304,252836,5,0,0:0:0
104,280,253927,1,0,0:0:0
96,232,254018,1,0,0:0:0
104,200,254109,5,8,0:0:0
168,168,254291,1,8,0:0:0
224,160,254473,5,0,0:0:0
232,128,254564,5,8,0:0:0
240,96,254655,5,0,0:0:0
264,80,254746,5,8,0:0:0
312,64,254836,5,0,0:0:0
368,80,254927,5,8,0:0:0
384,136,255018,5,0,0:0:0
368,176,255109,5,8,0:0:0
344,208,255200,5,0,0:0:0
312,232,255291,1,0,0:0:0
248,248,255382,5,8,0:0:0
208,256,255473,1,8,0:0:0
168,264,255564,5,0,0:0:0
192,296,255655,1,0,0:0:0
248,320,255746,5,8,0:0:0
280,304,255836,1,8,0:0:0
328,320,255927,5,0,0:0:0
368,288,256109,5,8,0:0:0
400,256,256200,1,8,0:0:0
400,224,256291,5,0,0:0:0
424,184,256473,5,8,0:0:0
480,144,256655,5,0,0:0:0
464,112,256746,1,0,0:0:0
424,88,256836,5,8,0:0:0
464,240,256927,1,8,0:0:0
368,80,257018,5,0,0:0:0
336,104,257109,1,0,0:0:0
304,120,257200,5,8,0:0:0
264,120,257291,1,8,0:0:0
224,144,257382,5,0,0:0:0
192,176,257473,1,0,0:0:0
144,200,257655,5,8,0:0:0
160,248,257746,5,0,0:0:0
200,240,257836,5,8,0:0:0
256,288,258018,5,0,0:0:0
280,240,258109,5,8,0:0:0
304,200,258200,1,8,0:0:0
336,216,258291,1,0,0:0:0
368,256,258382,1,0,0:0:0
408,240,258473,5,8,0:0:0
416,200,258564,5,0,0:0:0
424,168,258655,5,0,0:0:0
472,144,258746,1,0,0:0:0
480,176,258836,1,0,0:0:0
488,216,258927,1,0,0:0:0
472,248,259018,1,0,0:0:0
440,264,259109,1,0,0:0:0
408,280,259200,5,8,0:0:0
360,304,259382,1,8,0:0:0
312,328,259746,1,8,0:0:0
272,328,259927,5,0,0:0:0
240,312,260109,1,0,0:0:0
224,344,260382,5,8,0:0:0
200,328,260473,5,0,0:0:0
176,296,260564,5,8,0:0:0
168,264,260655,5,0,0:0:0
176,224,260746,5,8,0:0:0
200,192,260836,5,0,0:0:0
224,160,260927,5,8,0:0:0
232,128,261018,5,0,0:0:0
256,104,261109,1,0,0:0:0
296,64,261200,5,8,0:0:0
336,72,261291,1,8,0:0:0
368,112,261382,5,0,0:0:0
384,144,261473,1,0,0:0:0
360,176,261564,5,8,0:0:0
344,208,261655,1,8,0:0:0
320,224,261746,5,0,0:0:0
296,272,261927,5,8,0:0:0
328,296,262018,1,8,0:0:0
352,280,262109,5,0,0:0:0
400,256,262291,5,8,0:0:0
456,256,262473,5,0,0:0:0
464,224,262564,1,0,0:0:0
464,176,262655,5,8,0:0:0
440,120,262836,5,0,0:0:0
392,88,263018,5,8,0:0:0
320,88,263200,5,0,0:0:0
152,232,263382,1,0,0:0:0
248,104,263473,1,0,0:0:0
216,128,263564,5,8,0:0:0
152,152,263746,1,8,0:0:0
192,200,263836,5,0,0:0:0
224,184,263927,5,8,0:0:0
280,168,264109,1,8,0:0:0
312,192,264291,5,0,0:0:0
240,248,264382,1,0,0:0:0
296,232,264473,5,8,0:0:0
144,280,264655,2,0,B|344:320|344:320|512:72,1,490
400,96,266109,5,0,0:0:0
352,112,266200,5,8,0:0:0
296,120,266291,5,0,0:0:0
256,128,266382,5,8,0:0:0
192,120,266473,5,0,0:0:0
112,128,266564,5,8,0:0:0
72,136,266655,5,0,0:0:0
96,184,266746,5,8,0:0:0
128,200,266836,5,0,0:0:0
160,208,266927,1,0,0:0:0
200,192,267018,5,8,0:0:0
256,184,267109,1,8,0:0:0
128,200,267200,5,0,0:0:0
160,208,267291,1,0,0:0:0
200,192,267382,5,8,0:0:0
256,184,267473,1,8,0:0:0
328,320,267564,5,0,0:0:0
368,288,267746,5,8,0:0:0
400,256,267837,1,8,0:0:0
400,224,267928,5,0,0:0:0
424,184,268110,5,8,0:0:0
480,144,268292,5,0,0:0:0
464,112,268383,1,0,0:0:0
424,88,268473,5,8,0:0:0
464,240,268564,1,8,0:0:0
368,80,268655,5,0,0:0:0
336,104,268746,1,0,0:0:0
304,120,268837,5,8,0:0:0
264,120,268928,1,8,0:0:0
224,144,269019,5,0,0:0:0
192,176,269110,1,0,0:0:0
144,296,269200,1,0,0:0:0
144,200,269292,5,8,0:0:0
160,248,269383,5,0,0:0:0
200,240,269473,5,8,0:0:0
272,296,269655,5,0,0:0:0
280,240,269746,5,8,0:0:0
304,200,269837,1,8,0:0:0
336,216,269928,1,0,0:0:0
368,256,270019,1,0,0:0:0
408,240,270110,5,8,0:0:0
416,200,270201,5,0,0:0:0
424,168,270292,5,0,0:0:0
472,144,270383,1,0,0:0:0
480,176,270473,1,0,0:0:0
488,216,270564,1,0,0:0:0
472,248,270655,1,0,0:0:0
440,264,270746,1,0,0:0:0
408,280,270837,5,8,0:0:0
360,304,271019,1,8,0:0:0
312,328,271383,1,8,0:0:0
272,328,271564,5,0,0:0:0
240,312,271746,1,0,0:0:0
224,344,272019,5,8,0:0:0
200,328,272110,5,0,0:0:0
176,296,272201,5,8,0:0:0
168,264,272292,5,0,0:0:0
176,224,272383,5,8,0:0:0
200,192,272473,5,0,0:0:0
224,160,272564,5,8,0:0:0
232,128,272655,5,0,0:0:0
256,104,272746,1,0,0:0:0
296,64,272837,5,8,0:0:0
336,72,272928,1,8,0:0:0
368,112,273019,5,0,0:0:0
384,144,273110,1,0,0:0:0
360,176,273201,5,8,0:0:0
344,208,273292,1,8,0:0:0
320,224,273383,5,0,0:0:0
296,272,273564,5,8,0:0:0
328,296,273655,1,8,0:0:0
352,280,273746,5,0,0:0:0
400,256,273928,5,8,0:0:0
456,256,274110,5,0,0:0:0
464,224,274201,1,0,0:0:0
464,176,274292,5,8,0:0:0
440,120,274473,5,0,0:0:0
392,88,274655,5,8,0:0:0
320,88,274837,5,0,0:0:0
152,232,275019,1,0,0:0:0
248,104,275110,1,0,0:0:0
216,128,275201,5,8,0:0:0
152,152,275383,1,8,0:0:0
192,200,275473,5,0,0:0:0
224,184,275564,5,8,0:0:0
280,168,275746,1,8,0:0:0
312,192,275928,5,0,0:0:0
240,248,276019,1,0,0:0:0
296,232,276110,5,8,0:0:0
144,280,276292,2,0,B|344:320|344:320|512:72,1,490
368,96,277746,5,0,0:0:0
312,96,277927,5,8,0:0:0
248,136,278109,1,8,0:0:0
224,152,278200,1,8,0:0:0
184,152,278291,5,0,0:0:0
144,160,278382,1,0,0:0:0
120,200,278473,1,0,0:0:0
144,240,278564,1,0,0:0:0
184,240,278655,5,8,0:0:0
232,240,278746,1,8,0:0:0
272,240,278836,5,0,0:0:0
288,216,278927,1,0,0:0:0
312,192,279018,5,8,0:0:0
352,192,279200,5,0,0:0:0
368,160,279291,5,8,0:0:0
400,136,279382,5,0,0:0:0
448,152,279473,5,8,0:0:0
448,200,279564,5,0,0:0:0
440,240,279655,1,0,0:0:0
400,264,279746,5,8,0:0:0
368,304,279927,1,8,0:0:0
328,336,280018,1,8,0:0:0
288,328,280109,5,0,0:0:0
216,320,280200,1,0,0:0:0
144,320,280291,5,8,0:0:0
112,304,280382,1,8,0:0:0
104,272,280473,1,8,0:0:0
136,232,280655,5,0,0:0:0
136,184,280836,5,8,0:0:0
152,144,280927,5,0,0:0:0
184,120,281018,1,0,0:0:0
208,104,281109,5,8,0:0:0
256,136,281291,1,8,0:0:0
288,104,281382,5,0,0:0:0
328,128,281473,1,0,0:0:0
376,176,281564,1,0,0:0:0
368,216,281655,1,0,0:0:0
336,224,281746,5,8,0:0:0
296,224,281927,1,8,0:0:0
240,232,282109,5,0,0:0:0
184,232,282291,1,0,0:0:0
208,264,282382,5,8,0:0:0
240,280,282473,5,0,0:0:0
312,296,282655,1,0,0:0:0
344,304,282746,5,8,0:0:0
368,288,282836,1,8,0:0:0
408,264,283018,1,8,0:0:0
440,224,283200,5,0,0:0:0
384,208,283564,1,0,0:0:0
352,216,283655,1,0,0:0:0
288,224,283746,1,0,0:0:0
224,224,283836,1,0,0:0:0
200,184,283927,5,8,0:0:0
160,168,284018,1,8,0:0:0
128,160,284109,5,0,0:0:0
120,120,284200,5,8,0:0:0
160,104,284382,1,8,0:0:0
184,72,284473,5,0,0:0:0
240,80,284564,5,8,0:0:0
272,104,284655,1,8,0:0:0
312,120,284746,1,8,0:0:0
336,104,284836,1,8,0:0:0
360,88,284927,5,0,0:0:0
384,112,285018,5,8,0:0:0
432,128,285109,1,8,0:0:0
448,152,285200,5,0,0:0:0
432,184,285291,1,0,0:0:0
416,224,285382,1,0,0:0:0
408,264,285473,1,0,0:0:0
368,280,285564,5,8,0:0:0
328,296,285655,1,8,0:0:0
296,312,285746,5,0,0:0:0
240,304,285927,1,0,0:0:0
224,272,286018,1,0,0:0:0
224,240,286109,5,8,0:0:0
160,192,286291,1,8,0:0:0
168,144,286473,5,0,0:0:0
240,128,286655,5,8,0:0:0
296,128,286836,5,0,0:0:0
328,136,286927,1,0,0:0:0
344,176,287018,5,8,0:0:0
320,208,287200,6,0,P|344:288,1,70
320,304,287564,5,8,0:0:0
296,320,287655,5,0,0:0:0
224,320,287746,5,8,0:0:0
160,328,287927,5,0,0:0:0
80,288,288109,5,8,0:0:0
112,248,288200,5,0,0:0:0
128,216,288291,5,8,0:0:0
144,176,288382,1,8,0:0:0
184,168,288473,5,0,0:0:0
184,104,288655,1,4,0:0:0
232,72,288836,5,6,0:0:0
312,232,289378,5,0,0:0:0
368,184,289610,1,0,0:0:0
400,200,289726,1,0,0:0:0
376,104,289843,5,2,0:0:0
312,144,290075,5,0,0:0:0
176,72,290540,5,2,0:0:0
144,96,290657,1,2,0:0:0
128,128,290773,5,0,0:0:0
112,200,291005,1,0,0:0:0
312,232,291238,1,0,0:0:0
368,184,291470,1,0,0:0:0
400,200,291586,1,0,0:0:0
376,104,291703,5,2,0:0:0
312,144,291935,5,0,0:0:0
176,72,292401,5,2,0:0:0
144,96,292518,1,2,0:0:0
128,128,292634,5,0,0:0:0
112,200,292866,1,0,0:0:0
152,264,293098,1,0,0:0:0
184,288,293215,5,2,0:0:0
264,280,293447,1,2,0:0:0
304,280,293564,5,0,0:0:0
360,224,293796,1,0,0:0:0
368,144,294029,1,0,0:0:0
344,72,294261,5,2,0:0:0
248,72,294494,5,0,0:0:0
176,64,294726,5,2,0:0:0
136,72,294843,5,0,0:0:0
80,168,295191,1,0,0:0:0
112,240,295424,5,2,0:0:0
176,192,295657,5,0,0:0:0
320,240,296122,2,0,P|464:216,1,140
456,144,296819,1,0,0:0:0
400,88,297052,1,0,0:0:0
368,64,297168,1,0,0:0:0
328,56,297284,5,2,0:0:0
248,48,297517,5,0,0:0:0
176,72,297982,5,2,0:0:0
144,96,298099,1,2,0:0:0
128,128,298215,5,0,0:0:0
112,200,298447,1,0,0:0:0
312,232,298680,1,0,0:0:0
368,184,298912,1,0,0:0:0
400,200,299028,1,0,0:0:0
376,104,299145,5,2,0:0:0
312,144,299377,5,0,0:0:0
184,56,299843,5,2,0:0:0
120,88,300075,5,0,0:0:0
72,152,300308,1,0,0:0:0
64,192,300424,5,2,0:0:0
136,280,300773,1,2,0:0:0
208,288,301005,1,2,0:0:0
280,264,301238,5,0,0:0:0
320,200,301471,1,0,0:0:0
336,168,301587,1,0,0:0:0
328,128,301703,1,0,0:0:0
288,56,301936,5,2,0:0:0
216,40,302168,1,2,0:0:0
176,40,302401,2,0,P|40:240,1,210
112,288,303331,1,6,0:0:0
224,328,303680,1,6,0:0:0
312,256,304029,5,4,0:0:0
312,160,304261,1,0,0:0:0
288,120,304378,1,0,0:0:0
256,88,304494,1,0,0:0:0
168,72,304726,5,2,0:0:0
80,96,304959,5,0,0:0:0
128,272,305424,5,2,0:0:0
168,288,305540,1,2,0:0:0
216,296,305657,5,0,0:0:0
264,288,305773,1,0,0:0:0
288,248,305889,5,2,0:0:0
312,160,306122,5,0,0:0:0
288,120,306239,1,0,0:0:0
256,88,306355,1,0,0:0:0
168,72,306587,5,2,0:0:0
80,96,306820,1,2,0:0:0
40,240,307284,1,2,0:0:0
72,264,307401,1,2,0:0:0
112,264,307517,5,0,0:0:0
192,272,307750,1,0,0:0:0
264,296,307982,1,0,0:0:0
304,304,308098,5,2,0:0:0
344,296,308215,1,2,0:0:0
344,296,308331,1,2,0:0:0
376,272,308447,5,0,0:0:0
400,200,308680,1,0,0:0:0
400,120,308912,1,0,0:0:0
352,56,309145,1,0,0:0:0
320,32,309261,1,0,0:0:0
280,24,309378,5,2,0:0:0
208,32,309610,1,2,0:0:0
176,48,309726,5,0,0:0:0
80,112,310075,1,0,0:0:0
64,144,310191,1,0,0:0:0
72,184,310308,5,2,0:0:0
104,256,310540,5,0,0:0:0
256,288,311005,1,0,0:0:0
312,232,311238,1,0,0:0:0
344,160,311471,5,2,0:0:0
328,88,311703,1,2,0:0:0
216,56,311936,5,0,0:0:0
176,56,312052,5,2,0:0:0
104,88,312285,5,0,0:0:0
72,112,312401,5,2,0:0:0
56,264,312866,1,2,0:0:0
120,304,313098,1,2,0:0:0
200,296,313331,5,0,0:0:0
256,240,313564,1,0,0:0:0
320,192,313796,5,2,0:0:0
352,168,313912,5,0,0:0:0
368,96,314145,5,2,0:0:0
352,64,314261,5,0,0:0:0
200,72,314726,1,0,0:0:0
128,88,314959,5,2,0:0:0
88,152,315191,1,2,0:0:0
104,232,315424,1,2,0:0:0
120,272,315540,1,2,0:0:0
144,304,315657,1,2,0:0:0
224,312,315889,1,2,0:0:0
264,312,316005,1,2,0:0:0
304,312,316122,5,0,0:0:0
384,304,316354,5,2,0:0:0
408,272,316471,5,0,0:0:0
408,232,316587,1,0,0:0:0
400,152,316819,1,0,0:0:0
376,120,316936,1,0,0:0:0
344,96,317052,1,0,0:0:0
192,72,317284,5,6,0:0:0
96,144,317750,1,6,0:0:0
232,264,318215,1,2,0:0:0
328,264,318447,1,2,0:0:0
376,256,318564,1,2,0:0:0
400,168,318796,1,2,0:0:0
400,120,318912,5,0,0:0:0
328,64,319145,2,0,P|104:72|152:288,1,503.999984619141
288,320,321005,5,6,0:0:0
440,288,321509,1,6,0:0:0
488,144,322013,5,4,0:0:0
424,96,322265,5,6,0:0:0
352,72,322517,5,4,0:0:0
240,64,322895,5,2,0:0:0
208,80,323021,5,0,0:0:0
136,96,323273,5,2,0:0:0
88,152,323526,5,0,0:0:0
48,256,323904,5,2,0:0:0
72,288,324030,5,0,0:0:0
104,304,324156,1,0,0:0:0
144,304,324282,5,2,0:0:0
184,304,324408,5,0,0:0:0
224,296,324534,1,0,0:0:0
288,336,324786,5,2,0:0:0
336,328,324912,1,2,0:0:0
376,328,325038,5,0,0:0:0
432,280,325290,5,2,0:0:0
464,208,325542,5,0,0:0:0
432,136,325794,5,2,0:0:0
376,80,326047,1,2,0:0:0
304,56,326299,5,0,0:0:0
224,40,326551,1,0,0:0:0
144,48,326803,5,2,0:0:0
112,64,326929,1,2,0:0:0
88,88,327055,5,0,0:0:0
56,160,327307,5,2,0:0:0
72,232,327559,1,2,0:0:0
144,320,327937,1,2,0:0:0
184,312,328063,5,0,0:0:0
248,272,328315,5,2,0:0:0
272,240,328441,5,0,0:0:0
336,200,328694,5,2,0:0:0
376,192,328820,5,0,0:0:0
392,160,328946,1,0,0:0:0
400,120,329072,5,2,0:0:0
376,88,329198,5,0,0:0:0
352,56,329324,1,0,0:0:0
312,48,329450,1,0,0:0:0
272,48,329576,5,2,0:0:0
232,40,329702,1,2,0:0:0
192,48,329828,5,0,0:0:0
120,72,330080,5,2,0:0:0
64,120,330332,5,0,0:0:0
48,192,330584,1,0,0:0:0
72,264,330836,5,2,0:0:0
104,288,330962,1,2,0:0:0
136,312,331089,5,0,0:0:0
216,312,331341,5,2,0:0:0
296,312,331593,5,0,0:0:0
360,264,331845,5,2,0:0:0
400,200,332097,1,2,0:0:0
392,120,332349,1,2,0:0:0
376,88,332475,5,0,0:0:0
312,48,332727,5,2,0:0:0
272,32,332853,5,0,0:0:0
232,32,332979,1,0,0:0:0
192,32,333105,5,2,0:0:0
152,40,333231,1,2,0:0:0
120,56,333357,1,2,0:0:0
88,80,333483,1,2,0:0:0
64,112,333610,5,0,0:0:0
64,112,333736,1,0,0:0:0
64,152,333862,1,0,0:0:0
56,192,333988,1,0,0:0:0
72,224,334114,5,2,0:0:0
112,288,334366,1,2,0:0:0
152,304,334492,5,0,0:0:0
296,352,334996,5,2,0:0:0
328,336,335122,5,0,0:0:0
376,272,335374,5,2,0:0:0
424,208,335626,5,0,0:0:0
440,136,335878,5,2,0:0:0
400,72,336131,1,2,0:0:0
328,56,336383,5,0,0:0:0
248,48,336635,1,0,0:0:0
168,48,336887,5,2,0:0:0
128,48,337013,5,0,0:0:0
104,72,337139,5,2,0:0:0
80,96,337265,1,2,0:0:0
64,128,337391,1,2,0:0:0
56,168,337517,1,2,0:0:0
56,208,337643,5,0,0:0:0
72,280,337895,1,0,0:0:0
136,320,338147,5,2,0:0:0
208,344,338399,1,2,0:0:0
248,352,338526,5,0,0:0:0
240,64,339030,5,2,0:0:0
208,80,339156,5,0,0:0:0
136,96,339408,5,2,0:0:0
88,152,339661,5,0,0:0:0
48,256,340039,5,2,0:0:0
72,288,340165,5,0,0:0:0
104,304,340291,1,0,0:0:0
144,304,340417,5,2,0:0:0
184,304,340543,5,0,0:0:0
224,296,340669,1,0,0:0:0
288,336,340921,5,2,0:0:0
336,328,341047,1,2,0:0:0
376,328,341173,5,0,0:0:0
432,280,341425,5,2,0:0:0
464,208,341677,5,0,0:0:0
432,136,341929,5,2,0:0:0
376,80,342182,1,2,0:0:0
304,56,342434,5,0,0:0:0
224,40,342686,1,0,0:0:0
144,48,342938,5,2,0:0:0
112,64,343064,1,2,0:0:0
88,88,343190,5,0,0:0:0
56,160,343442,5,2,0:0:0
72,232,343694,1,2,0:0:0
144,320,344072,1,2,0:0:0
184,312,344198,5,0,0:0:0
248,272,344450,5,2,0:0:0
272,240,344576,5,0,0:0:0
336,200,344829,5,2,0:0:0
376,192,344955,5,0,0:0:0
392,160,345081,1,0,0:0:0
400,120,345207,5,2,0:0:0
376,88,345333,5,0,0:0:0
352,56,345459,1,0,0:0:0
312,48,345585,1,0,0:0:0
272,48,345711,5,2,0:0:0
232,40,345837,1,2,0:0:0
192,48,345963,5,0,0:0:0
120,72,346215,5,2,0:0:0
64,120,346467,5,0,0:0:0
48,192,346719,1,0,0:0:0
72,264,346971,5,2,0:0:0
104,288,347097,1,2,0:0:0
136,312,347224,5,0,0:0:0
216,312,347476,5,2,0:0:0
296,312,347728,5,0,0:0:0
360,264,347980,5,2,0:0:0
400,200,348232,1,2,0:0:0
392,120,348484,1,2,0:0:0
376,88,348610,5,0,0:0:0
312,48,348862,5,2,0:0:0
272,32,348988,5,0,0:0:0
232,32,349114,1,0,0:0:0
192,32,349240,5,2,0:0:0
152,40,349366,1,2,0:0:0
120,56,349492,1,2,0:0:0
88,80,349618,1,2,0:0:0
64,112,349745,5,0,0:0:0
64,112,349871,1,0,0:0:0
64,152,349997,1,0,0:0:0
56,192,350123,1,0,0:0:0
72,224,350249,5,2,0:0:0
112,288,350501,1,2,0:0:0
152,304,350627,5,0,0:0:0
296,352,351131,5,2,0:0:0
328,336,351257,5,0,0:0:0
376,272,351509,5,2,0:0:0
424,208,351761,5,0,0:0:0
440,136,352013,5,2,0:0:0
400,72,352266,1,2,0:0:0
328,56,352518,5,0,0:0:0
248,48,352770,1,0,0:0:0
168,48,353022,5,2,0:0:0
128,48,353148,5,0,0:0:0
104,72,353274,5,2,0:0:0
80,96,353400,1,2,0:0:0
64,128,353526,1,2,0:0:0
56,168,353652,1,2,0:0:0
56,208,353778,5,0,0:0:0
72,280,354030,5,0,0:0:0
136,320,354282,5,2,0:0:0
208,344,354534,1,2,0:0:0
248,352,354661,5,0,0:0:0
240,64,355164,1,2,0:0:0
208,80,355290,5,0,0:0:0
136,96,355542,5,2,0:0:0
88,152,355795,1,2,0:0:0
48,256,356173,1,2,0:0:0
72,288,356299,1,2,0:0:0
104,304,356425,1,2,0:0:0
144,304,356551,5,0,0:0:0
224,296,356803,1,0,0:0:0
288,336,357055,5,2,0:0:0
336,328,357181,1,2,0:0:0
376,328,357307,5,0,0:0:0
432,280,357559,5,2,0:0:0
464,208,357811,5,0,0:0:0
432,136,358063,1,0,0:0:0
376,80,358316,5,2,0:0:0
336,64,358441,1,2,0:0:0
304,56,358568,5,0,0:0:0
224,40,358820,1,0,0:0:0
112,64,359198,5,2,0:0:0
88,88,359324,5,0,0:0:0
56,160,359576,5,2,0:0:0
72,232,359828,1,2,0:0:0
144,320,360206,1,2,0:0:0
184,312,360332,5,0,0:0:0
248,272,360584,5,2,0:0:0
272,240,360710,5,0,0:0:0
336,200,360963,1,0,0:0:0
376,192,361089,1,0,0:0:0
392,160,361215,1,0,0:0:0
400,120,361341,5,2,0:0:0
376,88,361467,1,2,0:0:0
352,56,361593,1,2,0:0:0
312,48,361719,1,2,0:0:0
272,48,361845,5,0,0:0:0
192,48,362097,1,0,0:0:0
120,72,362349,5,2,0:0:0
64,120,362601,1,2,0:0:0
40,144,362727,5,0,0:0:0
48,192,362853,1,0,0:0:0
72,264,363105,1,0,0:0:0
104,288,363231,1,0,0:0:0
136,312,363358,5,2,0:0:0
216,312,363610,1,2,0:0:0
296,312,363862,5,0,0:0:0
360,264,364114,1,0,0:0:0
400,200,364366,5,2,0:0:0
392,120,364618,5,0,0:0:0
376,88,364744,1,0,0:0:0
344,64,364870,1,0,0:0:0
272,32,365122,1,0,0:0:0
232,32,365248,5,2,0:0:0
192,32,365374,1,2,0:0:0
152,40,365500,1,2,0:0:0
120,56,365626,5,0,0:0:0
88,80,365752,1,0,0:0:0
64,112,365879,5,2,0:0:0
64,112,366005,1,2,0:0:0
64,152,366131,5,0,0:0:0
56,192,366257,1,0,0:0:0
72,224,366383,5,2,0:0:0
112,288,366635,1,2,0:0:0
152,304,366761,5,0,0:0:0
184,320,366887,1,0,0:0:0
296,352,367265,1,0,0:0:0
328,336,367391,5,2,0:0:0
376,272,367643,1,2,0:0:0
424,208,367895,5,0,0:0:0
440,136,368147,1,0,0:0:0
400,72,368400,5,2,0:0:0
328,56,368652,5,0,0:0:0
288,56,368778,1,0,0:0:0
248,48,368904,1,0,0:0:0
168,48,369156,1,0,0:0:0
128,48,369282,5,2,0:0:0
104,72,369408,1,2,0:0:0
80,96,369534,1,2,0:0:0
64,128,369660,5,0,0:0:0
56,168,369786,1,0,0:0:0
56,208,369912,5,2,0:0:0
56,248,370038,1,2,0:0:0
72,280,370164,5,0,0:0:0
96,312,370290,1,0,0:0:0
136,320,370416,5,2,0:0:0
208,344,370668,5,0,0:0:0
248,352,370795,1,0,0:0:0
288,352,370920,1,0,0:0:0
240,64,371299,5,2,0:0:0
208,80,371425,5,0,0:0:0
136,96,371677,5,2,0:0:0
88,152,371930,1,2,0:0:0
48,256,372308,1,2,0:0:0
72,288,372434,1,2,0:0:0
104,304,372560,1,2,0:0:0
144,304,372686,5,0,0:0:0
224,296,372938,1,0,0:0:0
288,336,373190,5,2,0:0:0
336,328,373316,1,2,0:0:0
376,328,373442,5,0,0:0:0
432,280,373694,5,2,0:0:0
464,208,373946,5,0,0:0:0
432,136,374198,1,0,0:0:0
376,80,374451,5,2,0:0:0
336,64,374576,1,2,0:0:0
304,56,374703,5,0,0:0:0
224,40,374955,1,0,0:0:0
112,64,375333,5,2,0:0:0
88,88,375459,5,0,0:0:0
56,160,375711,5,2,0:0:0
72,232,375963,1,2,0:0:0
144,320,376341,1,2,0:0:0
184,312,376467,5,0,0:0:0
248,272,376719,5,2,0:0:0
272,240,376845,5,0,0:0:0
336,200,377098,1,0,0:0:0
376,192,377224,1,0,0:0:0
392,160,377350,1,0,0:0:0
400,120,377476,5,2,0:0:0
376,88,377602,1,2,0:0:0
352,56,377728,1,2,0:0:0
312,48,377854,1,2,0:0:0
272,48,377980,5,0,0:0:0
232,48,378105,1,0,0:0:0
192,48,378232,1,0,0:0:0
160,64,378357,1,0,0:0:0
120,72,378484,5,2,0:0:0
64,120,378736,1,2,0:0:0
40,144,378862,5,0,0:0:0
48,192,378988,1,0,0:0:0
72,264,379240,1,0,0:0:0
104,288,379366,1,0,0:0:0
136,312,379493,5,2,0:0:0
216,312,379745,1,2,0:0:0
296,312,379997,5,0,0:0:0
360,264,380249,1,0,0:0:0
400,200,380501,5,2,0:0:0
392,120,380753,5,0,0:0:0
376,88,380879,1,0,0:0:0
344,64,381005,1,0,0:0:0
272,32,381257,1,0,0:0:0
232,32,381383,1,0,0:0:0
192,32,381509,5,2,0:0:0
152,40,381635,1,2,0:0:0
120,56,381761,5,0,0:0:0
88,80,381887,1,0,0:0:0
64,112,382014,5,2,0:0:0
64,112,382140,1,2,0:0:0
64,152,382266,5,0,0:0:0
56,192,382392,1,0,0:0:0
72,224,382518,5,2,0:0:0
112,288,382770,1,2,0:0:0
152,304,382896,5,0,0:0:0
184,320,383021,1,0,0:0:0
296,352,383400,1,0,0:0:0
328,336,383526,5,2,0:0:0
376,272,383778,1,2,0:0:0
424,208,384030,5,0,0:0:0
440,136,384282,1,0,0:0:0
400,72,384535,5,2,0:0:0
328,56,384787,5,0,0:0:0
288,56,384913,1,0,0:0:0
248,48,385039,1,0,0:0:0
168,48,385291,1,0,0:0:0
128,48,385417,1,0,0:0:0
104,72,385543,5,2,0:0:0
80,96,385669,1,2,0:0:0
64,128,385795,5,0,0:0:0
56,168,385921,1,0,0:0:0
56,208,386047,5,2,0:0:0
56,248,386173,1,2,0:0:0
72,280,386299,5,0,0:0:0
96,312,386425,1,0,0:0:0
136,320,386551,1,0,0:0:0
288,288,387055,5,2,0:0:0
328,288,387181,1,2,0:0:0
360,272,387307,5,0,0:0:0
376,240,387433,1,0,0:0:0
376,208,387570,1,0,0:0:0
256,192,388070,1,0,0:0:0
256,192,388320,5,8,0:0:0
256,192,388570,5,0,0:0:0
256,192,389070,1,0,0:0:0
256,192,389570,5,8,0:0:0
256,192,390070,5,0,0:0:0
256,192,390320,1,0,0:0:0
256,192,390570,5,8,0:0:0
256,192,391070,1,8,0:0:0
256,192,391570,1,8,0:0:0
256,192,392070,5,0,0:0:0
256,192,392320,1,0,0:0:0
256,192,392570,5,8,0:0:0
256,192,393070,1,8,0:0:0
256,192,393570,1,8,0:0:0
256,192,394070,5,0,0:0:0
256,192,394320,5,8,0:0:0
256,192,394570,5,0,0:0:0
256,192,395070,5,8,0:0:0
256,192,395570,1,8,0:0:0
256,192,396070,5,0,0:0:0
256,192,396320,1,0,0:0:0
256,192,396570,5,8,0:0:0
256,192,397070,5,0,0:0:0
256,192,397570,1,0,0:0:0
256,192,398070,5,8,0:0:0
256,192,398320,5,0,0:0:0
256,192,398570,5,8,0:0:0
256,192,398820,5,0,0:0:0
256,192,399070,5,8,0:0:0
256,192,399570,5,0,0:0:0
256,192,400070,1,0,0:0:0
256,192,400570,5,8,0:0:0
256,192,401070,1,8,0:0:0
256,192,401570,1,8,0:0:0
256,192,402070,5,0,0:0:0
256,192,402320,1,0,0:0:0
256,192,402570,5,8,0:0:0
256,192,402820,5,0,0:0:0
256,192,403070,5,8,0:0:0
256,192,403570,1,8,0:0:0
256,192,404070,5,0,0:0:0
256,192,404320,1,0,0:0:0
256,192,404570,5,8,0:0:0
256,192,405070,5,0,0:0:0
256,192,405570,5,8,0:0:0
256,192,406070,5,0,0:0:0
256,192,406320,1,0,0:0:0
256,192,406570,5,8,0:0:0
256,192,407070,5,0,0:0:0
256,192,407570,1,0,0:0:0
256,192,408070,1,0,0:0:0
256,192,408320,1,0,0:0:0
256,192,408570,1,0,0:0:0
256,192,409070,1,0,0:0:0
256,192,409570,5,8,0:0:0
256,192,410070,5,0,0:0:0
256,192,410570,5,8,0:0:0
256,192,410820,5,0,0:0:0
256,192,411070,5,8,0:0:0
256,192,411320,5,0,0:0:0
256,192,411570,5,8,0:0:0
256,192,411820,5,0,0:0:0
256,192,412070,5,8,0:0:0
256,192,412320,5,0,0:0:0
256,192,412570,1,0,0:0:0
256,192,412820,5,8,0:0:0
256,192,413070,5,0,0:0:0
256,192,413320,1,0,0:0:0
256,192,413570,5,8,0:0:0
256,192,413820,1,8,0:0:0
256,192,414070,5,0,0:0:0
256,192,414320,1,0,0:0:0
256,192,414570,5,8,0:0:0
256,192,415070,5,0,0:0:0
256,192,415320,1,0,0:0:0
256,192,415570,1,0,0:0:0
256,192,416053,1,0,0:0:0
256,192,416537,5,8,0:0:0
256,192,417021,1,8,0:0:0
256,192,417460,1,8,0:0:0
256,192,417683,5,0,0:0:0
256,192,417907,5,8,0:0:0
256,192,418131,5,0,0:0:0
256,192,418355,5,8,0:0:0
256,192,418803,1,12,0:0:0
136,72,419208,1,6,0:0:0
88,136,419419,1,6,0:0:0
80,216,419630,5,0,0:0:0
88,256,419736,5,2,0:0:0
144,312,419947,5,0,0:0:0
176,328,420053,5,2,0:0:0
216,336,420158,1,2,0:0:0
256,320,420264,5,0,0:0:0
336,312,420475,1,0,0:0:0
408,280,420686,5,2,0:0:0
440,208,420898,1,2,0:0:0
448,128,421109,1,2,0:0:0
432,88,421215,1,2,0:0:0
408,64,421320,5,0,0:0:0
376,40,421426,1,0,0:0:0
344,32,421531,5,2,0:0:0
264,16,421743,1,2,0:0:0
224,24,421848,5,0,0:0:0
184,32,421954,5,2,0:0:0
112,56,422165,1,2,0:0:0
96,88,422271,5,0,0:0:0
80,120,422377,1,0,0:0:0
144,160,422588,1,0,0:0:0
72,240,422799,5,2,0:0:0
120,304,423010,1,2,0:0:0
160,320,423116,5,0,0:0:0
200,320,423222,5,2,0:0:0
280,312,423433,1,2,0:0:0
320,328,423538,5,0,0:0:0
360,328,423644,1,0,0:0:0
424,304,423855,5,2,0:0:0
448,272,423961,1,2,0:0:0
456,192,424172,1,2,0:0:0
464,152,424278,1,2,0:0:0
440,80,424489,5,0,0:0:0
400,72,424595,1,0,0:0:0
368,48,424700,5,2,0:0:0
328,48,424806,1,2,0:0:0
288,40,424912,5,0,0:0:0
208,40,425123,5,2,0:0:0
168,48,425229,1,2,0:0:0
136,64,425334,5,0,0:0:0
88,128,425546,1,0,0:0:0
88,208,425757,5,2,0:0:0
136,72,425968,1,6,0:0:0
88,136,426179,1,6,0:0:0
80,216,426390,5,0,0:0:0
88,256,426496,5,2,0:0:0
144,312,426707,5,0,0:0:0
176,328,426813,5,2,0:0:0
216,328,426918,1,2,0:0:0
256,320,427024,5,0,0:0:0
336,312,427235,1,0,0:0:0
408,280,427446,5,2,0:0:0
440,208,427658,1,2,0:0:0
448,128,427869,1,2,0:0:0
432,88,427975,1,2,0:0:0
408,64,428080,5,0,0:0:0
376,48,428186,1,0,0:0:0
344,32,428291,5,2,0:0:0
304,24,428397,1,2,0:0:0
264,16,428503,1,2,0:0:0
224,24,428608,5,0,0:0:0
184,32,428714,5,2,0:0:0
144,40,428820,5,0,0:0:0
112,56,428925,1,0,0:0:0
104,96,429031,5,2,0:0:0
80,120,429137,1,2,0:0:0
120,128,429243,5,0,0:0:0
72,160,429348,1,0,0:0:0
72,240,429559,5,2,0:0:0
120,304,429770,1,2,0:0:0
160,320,429876,5,0,0:0:0
200,320,429982,5,2,0:0:0
240,328,430087,5,0,0:0:0
280,328,430193,5,2,0:0:0
320,328,430298,5,0,0:0:0
360,328,430404,1,0,0:0:0
400,328,430510,5,2,0:0:0
424,304,430616,1,2,0:0:0
448,272,430721,1,2,0:0:0
456,232,430827,5,0,0:0:0
456,192,430932,5,2,0:0:0
456,152,431038,1,2,0:0:0
440,80,431249,5,0,0:0:0
400,72,431355,1,0,0:0:0
368,48,431460,5,2,0:0:0
328,48,431566,1,2,0:0:0
288,40,431672,5,0,0:0:0
248,32,431777,5,2,0:0:0
208,40,431883,1,2,0:0:0
168,48,431989,5,0,0:0:0
136,64,432094,5,2,0:0:0
88,128,432306,5,4,0:0:0
88,208,432517,1,4,0:0:0
96,56,432729,5,2,0:0:0
40,112,432940,5,0,0:0:0
40,152,433046,1,0,0:0:0
56,192,433152,5,2,0:0:0
104,248,433363,5,0,0:0:0
128,280,433469,1,0,0:0:0
168,296,433574,1,0,0:0:0
248,320,433785,5,2,0:0:0
288,328,433891,5,0,0:0:0
328,328,433997,5,2,0:0:0
408,336,434208,5,0,0:0:0
440,320,434314,5,2,0:0:0
472,304,434419,1,2,0:0:0
440,232,434631,1,2,0:0:0
440,152,434842,5,0,0:0:0
456,120,434948,1,0,0:0:0
432,112,435053,5,2,0:0:0
400,88,435159,5,0,0:0:0
368,72,435264,5,2,0:0:0
288,48,435476,5,0,0:0:0
248,48,435581,1,0,0:0:0
168,48,435792,1,0,0:0:0
128,56,435898,1,0,0:0:0
64,88,436109,5,2,0:0:0
24,152,436321,5,0,0:0:0
40,184,436426,1,0,0:0:0
32,224,436532,5,2,0:0:0
88,280,436743,5,0,0:0:0
120,296,436849,5,2,0:0:0
152,312,436954,5,0,0:0:0
232,320,437166,5,2,0:0:0
272,320,437271,1,2,0:0:0
312,312,437377,1,2,0:0:0
384,288,437588,5,0,0:0:0
416,272,437694,1,0,0:0:0
440,240,437800,5,2,0:0:0
440,160,438011,1,2,0:0:0
448,120,438117,5,0,0:0:0
432,80,438222,5,2,0:0:0
360,56,438433,5,0,0:0:0
320,48,438539,1,0,0:0:0
320,48,438645,5,2,0:0:0
240,40,438856,5,0,0:0:0
200,40,438962,5,2,0:0:0
160,48,439067,5,0,0:0:0
120,56,439278,5,2,0:0:0
96,56,439489,1,2,0:0:0
40,112,439700,5,0,0:0:0
40,152,439806,1,0,0:0:0
56,192,439912,5,2,0:0:0
104,248,440123,5,0,0:0:0
128,280,440229,1,0,0:0:0
168,296,440334,1,0,0:0:0
208,312,440440,5,2,0:0:0
248,320,440546,1,2,0:0:0
288,328,440651,5,0,0:0:0
328,328,440757,5,2,0:0:0
368,336,440862,1,2,0:0:0
408,336,440968,5,0,0:0:0
440,320,441074,5,2,0:0:0
472,304,441179,1,2,0:0:0
440,232,441391,1,2,0:0:0
440,152,441602,5,0,0:0:0
456,120,441708,1,0,0:0:0
432,112,441813,5,2,0:0:0
400,88,441919,5,0,0:0:0
368,72,442024,5,2,0:0:0
328,56,442130,1,2,0:0:0
288,48,442236,5,0,0:0:0
248,48,442341,1,0,0:0:0
208,48,442447,5,2,0:0:0
168,48,442553,5,0,0:0:0
128,56,442658,1,0,0:0:0
88,56,442764,5,2,0:0:0
64,88,442869,1,2,0:0:0
24,152,443081,5,0,0:0:0
40,184,443186,1,0,0:0:0
32,224,443292,5,2,0:0:0
88,280,443503,5,0,0:0:0
120,296,443609,5,2,0:0:0
152,312,443715,5,0,0:0:0
192,320,443820,1,0,0:0:0
232,320,443926,5,2,0:0:0
272,320,444031,1,2,0:0:0
312,312,444137,1,2,0:0:0
352,304,444243,5,0,0:0:0
384,288,444348,1,0,0:0:0
416,272,444454,1,0,0:0:0
440,240,444560,5,2,0:0:0
440,160,444771,1,2,0:0:0
448,120,444877,5,0,0:0:0
432,80,444982,5,2,0:0:0
400,64,445088,1,2,0:0:0
360,56,445193,5,0,0:0:0
320,48,445299,1,0,0:0:0
320,48,445405,5,2,0:0:0
280,40,445510,5,0,0:0:0
240,40,445616,1,0,0:0:0
200,40,445722,5,2,0:0:0
160,48,445827,5,0,0:0:0
120,56,446038,5,2,0:0:0
136,72,446250,1,6,0:0:0
88,136,446461,1,6,0:0:0
80,216,446672,5,0,0:0:0
88,256,446778,5,2,0:0:0
144,312,446989,5,0,0:0:0
176,328,447095,5,2,0:0:0
216,336,447200,1,2,0:0:0
256,320,447306,5,0,0:0:0
336,312,447517,1,0,0:0:0
408,280,447728,5,2,0:0:0
440,208,447940,1,2,0:0:0
448,128,448151,1,2,0:0:0
432,88,448257,1,2,0:0:0
408,64,448362,5,0,0:0:0
376,40,448468,1,0,0:0:0
344,32,448573,5,2,0:0:0
264,16,448785,1,2,0:0:0
224,24,448890,5,0,0:0:0
184,32,448996,5,2,0:0:0
112,56,449207,1,2,0:0:0
96,88,449313,5,0,0:0:0
80,120,449419,1,0,0:0:0
72,160,449630,1,0,0:0:0
72,240,449841,5,2,0:0:0
120,304,450052,1,2,0:0:0
160,320,450158,5,0,0:0:0
200,320,450264,5,2,0:0:0
280,312,450475,1,2,0:0:0
320,328,450580,5,0,0:0:0
360,328,450686,1,0,0:0:0
424,304,450897,5,2,0:0:0
448,272,451003,1,2,0:0:0
456,192,451214,1,2,0:0:0
464,152,451320,1,2,0:0:0
440,80,451531,5,0,0:0:0
400,72,451637,1,0,0:0:0
368,48,451742,5,2,0:0:0
328,48,451848,1,2,0:0:0
288,40,451954,5,0,0:0:0
208,40,452165,5,2,0:0:0
168,48,452271,1,2,0:0:0
136,64,452376,5,0,0:0:0
88,128,452588,1,0,0:0:0
88,208,452799,5,2,0:0:0
136,72,453010,1,6,0:0:0
88,136,453221,1,6,0:0:0
80,216,453432,5,0,0:0:0
88,256,453538,5,2,0:0:0
144,312,453749,5,0,0:0:0
176,328,453855,5,2,0:0:0
216,328,453960,1,2,0:0:0
256,320,454066,5,0,0:0:0
336,312,454277,1,0,0:0:0
408,280,454488,5,2,0:0:0
440,208,454700,1,2,0:0:0
448,128,454911,1,2,0:0:0
432,88,455017,1,2,0:0:0
408,64,455122,5,0,0:0:0
376,48,455228,1,0,0:0:0
344,32,455333,5,2,0:0:0
304,24,455439,1,2,0:0:0
264,16,455545,1,2,0:0:0
224,24,455650,5,0,0:0:0
184,32,455756,5,2,0:0:0
144,40,455862,5,0,0:0:0
112,56,455967,1,0,0:0:0
104,96,456073,5,2,0:0:0
80,120,456179,1,2,0:0:0
80,120,456284,5,0,0:0:0
72,160,456390,1,0,0:0:0
72,240,456601,5,2,0:0:0
120,304,456812,1,2,0:0:0
160,320,456918,5,0,0:0:0
200,320,457024,5,2,0:0:0
240,328,457129,5,0,0:0:0
280,328,457235,5,2,0:0:0
320,328,457340,5,0,0:0:0
360,328,457446,1,0,0:0:0
400,328,457552,5,2,0:0:0
424,304,457658,1,2,0:0:0
448,272,457763,1,2,0:0:0
456,232,457869,5,0,0:0:0
456,192,457974,5,2,0:0:0
456,152,458080,1,2,0:0:0
440,80,458291,5,0,0:0:0
400,72,458397,1,0,0:0:0
368,48,458502,5,2,0:0:0
328,48,458608,1,2,0:0:0
288,40,458714,5,0,0:0:0
248,32,458819,5,2,0:0:0
208,40,458925,1,2,0:0:0
168,48,459031,5,0,0:0:0
136,64,459136,5,2,0:0:0
88,128,459348,5,4,0:0:0
88,208,459559,1,4,0:0:0
96,56,459771,5,2,0:0:0
40,112,459982,5,0,0:0:0
40,152,460088,1,0,0:0:0
56,192,460194,5,2,0:0:0
104,248,460405,5,0,0:0:0
128,280,460511,1,0,0:0:0
168,296,460616,1,0,0:0:0
248,320,460827,5,2,0:0:0
288,328,460933,5,0,0:0:0
328,328,461039,5,2,0:0:0
408,336,461250,5,0,0:0:0
440,320,461356,5,2,0:0:0
472,304,461461,1,2,0:0:0
440,232,461673,1,2,0:0:0
440,152,461884,5,0,0:0:0
456,120,461990,1,0,0:0:0
432,112,462095,5,2,0:0:0
400,88,462201,5,0,0:0:0
368,72,462306,5,2,0:0:0
288,48,462518,5,0,0:0:0
248,48,462623,1,0,0:0:0
168,48,462834,1,0,0:0:0
128,56,462940,1,0,0:0:0
64,88,463151,5,2,0:0:0
24,152,463363,5,0,0:0:0
40,184,463468,1,0,0:0:0
32,224,463574,5,2,0:0:0
88,280,463785,5,0,0:0:0
120,296,463891,5,2,0:0:0
152,312,463996,5,0,0:0:0
232,320,464208,5,2,0:0:0
272,320,464313,1,2,0:0:0
312,312,464419,1,2,0:0:0
384,288,464630,5,0,0:0:0
416,272,464736,1,0,0:0:0
440,240,464842,5,2,0:0:0
440,160,465053,1,2,0:0:0
448,120,465159,5,0,0:0:0
432,80,465264,5,2,0:0:0
360,56,465475,5,0,0:0:0
320,48,465581,1,0,0:0:0
320,48,465687,5,2,0:0:0
240,40,465898,5,0,0:0:0
200,40,466004,5,2,0:0:0
160,48,466109,5,0,0:0:0
120,56,466320,5,2,0:0:0
96,56,466531,1,2,0:0:0
40,112,466742,5,0,0:0:0
40,152,466848,1,0,0:0:0
56,192,466954,5,2,0:0:0
104,248,467165,1,2,0:0:0
128,280,467271,5,0,0:0:0
168,296,467376,1,0,0:0:0
208,312,467482,5,2,0:0:0
248,320,467588,1,2,0:0:0
288,328,467693,5,0,0:0:0
328,328,467799,5,2,0:0:0
368,336,467904,1,2,0:0:0
408,336,468010,5,0,0:0:0
440,320,468116,5,2,0:0:0
472,304,468221,1,2,0:0:0
440,232,468433,1,2,0:0:0
440,152,468644,5,0,0:0:0
456,120,468750,1,0,0:0:0
432,112,468855,5,2,0:0:0
400,88,468961,5,0,0:0:0
368,72,469066,5,2,0:0:0
328,56,469172,1,2,0:0:0
288,48,469278,5,0,0:0:0
248,48,469383,1,0,0:0:0
208,48,469489,5,2,0:0:0
168,48,469595,5,0,0:0:0
128,56,469700,1,0,0:0:0
88,56,469806,1,0,0:0:0
64,88,469911,5,2,0:0:0
24,152,470123,5,0,0:0:0
40,184,470228,1,0,0:0:0
32,224,470334,5,2,0:0:0
88,280,470545,5,0,0:0:0
120,296,470651,5,2,0:0:0
152,312,470757,5,0,0:0:0
192,320,470862,1,0,0:0:0
232,320,470968,5,2,0:0:0
272,320,471073,1,2,0:0:0
312,312,471179,1,2,0:0:0
352,304,471285,5,0,0:0:0
384,288,471390,1,0,0:0:0
416,272,471496,1,0,0:0:0
440,240,471602,5,2,0:0:0
440,160,471813,1,2,0:0:0
448,120,471919,5,0,0:0:0
432,80,472024,5,2,0:0:0
400,64,472130,1,2,0:0:0
360,56,472235,5,0,0:0:0
320,48,472341,1,0,0:0:0
320,48,472447,5,2,0:0:0
280,40,472552,5,0,0:0:0
240,40,472658,5,2,0:0:0
200,40,472764,1,2,0:0:0
160,48,472869,5,0,0:0:0
120,56,473080,5,2,0:0:0
72,120,473292,1,2,0:0:0
64,192,473503,1,2,0:0:0
88,264,473715,5,0,0:0:0
112,296,473820,5,2,0:0:0
184,320,474031,5,0,0:0:0
224,328,474137,5,2,0:0:0
264,328,474243,1,2,0:0:0
304,328,474348,5,0,0:0:0
368,288,474560,1,0,0:0:0
456,208,474771,5,2,0:0:0
448,128,474982,1,2,0:0:0
392,80,475193,1,2,0:0:0
360,64,475299,1,2,0:0:0
320,56,475405,5,0,0:0:0
280,48,475510,1,0,0:0:0
240,56,475616,5,2,0:0:0
160,48,475827,1,2,0:0:0
128,64,475933,5,0,0:0:0
88,80,476038,5,2,0:0:0
64,152,476250,5,0,0:0:0
80,224,476461,1,0,0:0:0
136,280,476672,5,2,0:0:0
216,288,476884,1,2,0:0:0
368,272,477306,5,0,0:0:0
400,200,477517,1,0,0:0:0
392,48,477940,5,6,0:0:0
240,32,478362,1,6,0:0:0
96,88,478785,1,6,0:0:0
88,168,478996,1,6,0:0:0
88,112,479630,1,2,0:0:0
128,56,479815,5,0,0:0:0
192,56,480010,1,4,0:0:0
264,56,480205,1,0,0:0:0
296,64,480302,5,2,0:0:0
400,88,480595,5,0,0:0:0
432,152,480789,5,2,0:0:0
440,224,480984,5,0,0:0:0
432,256,481082,5,2,0:0:0
408,288,481179,5,0,0:0:0
344,320,481374,5,2,0:0:0
272,312,481569,5,0,0:0:0
208,296,481763,5,2,0:0:0
176,296,481861,5,0,0:0:0
112,272,482056,5,0,0:0:0
80,256,482153,5,2,0:0:0
56,192,482348,1,0,0:0:0
56,120,482543,5,2,0:0:0
64,88,482640,5,0,0:0:0
88,64,482737,1,0,0:0:0
152,40,482932,1,0,0:0:0
224,40,483127,5,2,0:0:0
288,56,483322,5,0,0:0:0
320,64,483419,5,2,0:0:0
384,88,483614,1,2,0:0:0
416,104,483711,5,0,0:0:0
448,168,483906,1,0,0:0:0
448,240,484101,5,0,0:0:0
424,264,484198,1,0,0:0:0
408,296,484296,5,2,0:0:0
336,304,484491,1,0,0:0:0
264,296,484685,1,0,0:0:0
192,304,484880,1,0,0:0:0
120,288,485075,5,2,0:0:0
72,240,485270,5,0,0:0:0
48,176,485465,1,0,0:0:0
56,104,485659,5,0,0:0:0
72,72,485757,1,0,0:0:0
104,56,485854,5,2,0:0:0
160,96,486049,1,0,0:0:0
216,56,486244,1,4,0:0:0
280,72,486439,1,0,0:0:0
312,80,486536,5,2,0:0:0
376,104,486731,1,2,0:0:0
408,120,486828,5,0,0:0:0
440,184,487023,1,0,0:0:0
448,216,487121,1,0,0:0:0
456,248,487218,5,2,0:0:0
440,280,487315,5,0,0:0:0
424,312,487413,5,2,0:0:0
352,320,487608,5,2,0:0:0
288,288,487802,5,2,0:0:0
264,304,487900,5,0,0:0:0
232,320,487997,5,2,0:0:0
184,272,488192,5,0,0:0:0
112,272,488387,5,2,0:0:0
120,240,488484,5,0,0:0:0
112,208,488581,5,2,0:0:0
48,232,488776,5,0,0:0:0
40,160,488971,5,2,0:0:0
80,104,489166,5,0,0:0:0
144,72,489361,1,4,0:0:0
208,104,489556,5,2,0:0:0
264,88,489750,5,4,0:0:0
328,96,489945,5,2,0:0:0
416,104,490140,5,4,0:0:0
456,144,490335,5,2,0:0:0
464,192,490530,5,4,0:0:0
448,288,490724,5,2,0:0:0
384,320,490919,5,0,0:0:0
344,312,491114,1,0,0:0:0
304,312,491309,5,2,0:0:0
264,320,491504,5,0,0:0:0
224,328,491698,5,2,0:0:0
104,248,491894,5,0,0:0:0
104,248,491991,1,0,0:0:0
104,248,492089,5,2,0:0:0
104,248,492283,5,0,0:0:0
104,248,492478,1,4,0:0:0
72,184,492672,1,0,0:0:0
80,152,492770,5,2,0:0:0
112,88,492965,5,0,0:0:0
136,64,493062,5,2,0:0:0
184,120,493257,5,0,0:0:0
216,120,493354,1,0,0:0:0
248,104,493452,5,2,0:0:0
280,88,493549,1,2,0:0:0
312,72,493646,5,0,0:0:0
368,112,493841,1,0,0:0:0
336,176,494036,1,0,0:0:0
352,208,494133,5,2,0:0:0
384,232,494231,1,2,0:0:0
424,288,494426,5,0,0:0:0
360,320,494621,5,2,0:0:0
328,328,494718,5,0,0:0:0
296,336,494815,5,2,0:0:0
232,312,495010,5,0,0:0:0
168,344,495205,5,2,0:0:0
168,344,495400,5,0,0:0:0
112,304,495595,1,4,0:0:0
120,232,495789,5,2,0:0:0
112,200,495887,5,2,0:0:0
128,136,496082,1,0,0:0:0
160,120,496179,5,2,0:0:0
224,144,496374,5,0,0:0:0
280,96,496569,1,0,0:0:0
312,88,496666,1,0,0:0:0
344,88,496763,5,2,0:0:0
408,128,496958,5,0,0:0:0
352,176,497153,5,2,0:0:0
296,224,497348,1,2,0:0:0
248,280,497543,5,0,0:0:0
184,304,497737,1,0,0:0:0
112,320,497932,5,2,0:0:0
96,248,498127,5,0,0:0:0
80,216,498224,1,0,0:0:0
56,184,498322,5,2,0:0:0
72,112,498517,5,0,0:0:0
136,80,498711,1,4,0:0:0
200,56,498906,1,0,0:0:0
232,64,499003,5,2,0:0:0
296,88,499198,5,0,0:0:0
336,72,499296,5,2,0:0:0
392,120,499490,5,0,0:0:0
416,184,499685,1,0,0:0:0
408,216,499783,5,2,0:0:0
384,248,499880,5,0,0:0:0
344,320,500075,5,2,0:0:0
272,312,500270,5,0,0:0:0
208,296,500464,5,2,0:0:0
176,296,500562,5,0,0:0:0
112,272,500757,1,0,0:0:0
80,256,500854,5,2,0:0:0
56,192,501049,5,0,0:0:0
56,120,501244,5,2,0:0:0
64,88,501341,5,0,0:0:0
88,64,501438,1,0,0:0:0
152,40,501633,1,0,0:0:0
224,40,501828,5,2,0:0:0
288,56,502023,5,0,0:0:0
320,64,502120,1,0,0:0:0
352,72,502218,5,2,0:0:0
336,144,502413,5,0,0:0:0
368,152,502510,1,0,0:0:0
400,160,502608,5,2,0:0:0
384,224,502802,1,2,0:0:0
416,232,502899,5,0,0:0:0
448,240,502997,5,2,0:0:0
432,312,503192,5,0,0:0:0
376,352,503387,1,4,0:0:0
328,304,503582,1,0,0:0:0
272,344,503776,1,4,0:0:0
216,304,503971,1,0,0:0:0
184,304,504069,1,0,0:0:0
152,312,504166,5,2,0:0:0
16,328,504556,5,0,0:0:0
40,264,504750,1,0,0:0:0
48,232,504848,1,0,0:0:0
56,200,504945,1,0,0:0:0
80,136,505140,5,6,0:0:0
136,96,505335,1,2,0:0:0
168,88,505432,1,2,0:0:0
200,80,505530,5,0,0:0:0
232,72,505627,1,0,0:0:0
264,72,505724,5,2,0:0:0
336,80,505919,1,6,0:0:0
408,96,506114,5,0,0:0:0
424,128,506211,5,2,0:0:0
448,152,506309,1,2,0:0:0
464,184,506406,5,0,0:0:0
480,216,506504,5,2,0:0:0
440,280,506698,1,6,0:0:0
384,328,506893,1,2,0:0:0
352,336,506991,1,2,0:0:0
320,336,507088,5,0,0:0:0
288,336,507185,1,0,0:0:0
256,336,507283,5,2,0:0:0
200,296,507478,5,0,0:0:0
168,280,507575,5,2,0:0:0
136,280,507672,5,0,0:0:0
64,272,507867,5,2,0:0:0
56,200,508062,5,0,0:0:0
72,128,508257,5,6,0:0:0
120,80,508452,5,0,0:0:0
152,64,508549,1,0,0:0:0
184,56,508646,5,2,0:0:0
216,48,508744,5,2,0:0:0
248,48,508841,1,0,0:0:0
320,48,509036,5,6,0:0:0
392,56,509231,5,0,0:0:0
424,72,509328,5,2,0:0:0
456,88,509426,1,2,0:0:0
472,120,509523,5,0,0:0:0
480,152,509621,1,0,0:0:0
488,224,509815,1,6,0:0:0
472,296,510010,1,0,0:0:0
416,328,510205,5,6,0:0:0
344,328,510400,5,0,0:0:0
312,320,510497,5,2,0:0:0
280,320,510595,1,2,0:0:0
248,328,510692,5,0,0:0:0
216,328,510789,5,2,0:0:0
152,304,510984,5,0,0:0:0
112,248,511179,1,0,0:0:0
80,136,511374,5,6,0:0:0
136,96,511569,1,2,0:0:0
168,88,511666,1,2,0:0:0
200,80,511764,5,0,0:0:0
232,72,511861,1,0,0:0:0
264,72,511958,5,2,0:0:0
336,80,512153,1,6,0:0:0
408,96,512348,5,0,0:0:0
424,128,512445,5,2,0:0:0
448,152,512543,1,2,0:0:0
464,184,512640,5,0,0:0:0
480,216,512738,5,2,0:0:0
440,280,512932,1,6,0:0:0
384,328,513127,1,2,0:0:0
352,336,513225,1,2,0:0:0
320,336,513322,5,0,0:0:0
288,336,513419,5,0,0:0:0
256,336,513517,5,2,0:0:0
200,296,513712,1,0,0:0:0
168,280,513809,5,2,0:0:0
136,280,513906,5,0,0:0:0
64,272,514101,5,2,0:0:0
56,200,514296,5,0,0:0:0
56,168,514393,1,0,0:0:0
72,128,514491,5,2,0:0:0
96,104,514588,5,0,0:0:0
120,80,514686,1,0,0:0:0
152,64,514783,1,0,0:0:0
184,56,514880,5,2,0:0:0
216,48,514978,1,2,0:0:0
248,48,515075,5,0,0:0:0
280,112,515270,1,0,0:0:0
352,104,515465,1,0,0:0:0
384,96,515562,1,0,0:0:0
416,88,515659,1,0,0:0:0
464,120,515854,5,6,0:0:0
448,224,516146,1,6,0:0:0
368,288,516439,5,4,0:0:0
304,320,516633,5,6,0:0:0
256,192,546909,5,0,0:0:0
256,192,547173,5,8,0:0:0
256,192,547438,5,0,0:0:0
256,192,547702,5,8,0:0:0
256,192,547966,1,8,0:0:0
256,192,548231,1,8,0:0:0
256,192,548407,5,0,0:0:0
256,192,548495,5,8,0:0:0
256,192,548671,5,0,0:0:0
256,192,548759,1,0,0:0:0
256,192,549024,5,8,0:0:0
256,192,549288,1,8,0:0:0
256,192,549552,5,0,0:0:0
256,192,549817,1,0,0:0:0
256,192,550081,5,8,0:0:0
256,192,550345,1,8,0:0:0
256,192,550434,1,8,0:0:0
256,192,550522,5,0,0:0:0
256,192,550610,1,0,0:0:0
256,192,550698,1,0,0:0:0
256,192,550786,1,0,0:0:0
256,192,550874,5,8,0:0:0
256,192,551138,5,0,0:0:0
256,192,551402,1,0,0:0:0
256,192,551667,1,0,0:0:0
256,192,551843,5,8,0:0:0
256,192,551931,1,8,0:0:0
256,192,552107,5,0,0:0:0
256,192,552195,5,8,0:0:0
256,192,552460,5,0,0:0:0
256,192,552724,5,8,0:0:0
256,192,552988,5,0,0:0:0
256,192,553253,1,0,0:0:0
256,192,553517,5,8,0:0:0
256,192,553693,5,0,0:0:0
256,192,553781,5,8,0:0:0
256,192,554046,1,8,0:0:0
256,192,554222,5,0,0:0:0
256,192,554310,5,8,0:0:0
256,192,554574,5,0,0:0:0
256,192,554750,5,8,0:0:0
256,192,554839,1,8,0:0:0
256,192,555103,5,4,0:0:0
256,192,555367,5,8,0:0:0
256,192,555544,5,0,0:0:0
256,192,555632,1,0,0:0:0
256,192,555808,5,8,0:0:0
256,192,555896,1,8,0:0:0
256,192,556072,5,0,0:0:0
256,192,556160,5,8,0:0:0
256,192,556336,1,8,0:0:0
256,192,556424,1,8,0:0:0
256,192,556601,5,0,0:0:0
256,192,556689,5,8,0:0:0
256,192,556865,5,0,0:0:0
256,192,556953,5,8,0:0:0
256,192,557129,5,0,0:0:0
256,192,557217,1,0,0:0:0
256,192,557482,5,8,0:0:0
256,192,557746,5,0,0:0:0
256,192,558010,5,8,0:0:0
256,192,558275,5,0,0:0:0
256,192,558539,5,8,0:0:0
256,192,558803,5,4,0:0:0
256,192,559068,5,8,0:0:0
256,192,559156,1,8,0:0:0
256,192,559244,1,8,0:0:0
256,192,559332,1,8,0:0:0
256,192,559420,5,0,0:0:0
256,192,559596,5,8,0:0:0
256,192,559861,5,0,0:0:0
256,192,560125,1,0,0:0:0
256,192,560389,5,8,0:0:0
256,192,560654,5,0,0:0:0
256,192,560918,5,8,0:0:0
256,192,561182,5,0,0:0:0
256,192,561446,1,0,0:0:0
256,192,561711,5,8,0:0:0
256,192,561975,1,8,0:0:0
256,192,562151,5,0,0:0:0
256,192,562240,5,8,0:0:0
256,192,562504,1,8,0:0:0
256,192,562768,5,0,0:0:0
256,192,563032,5,8,0:0:0
256,192,563297,5,0,0:0:0
256,192,563561,1,4,0:0:0
256,192,563825,1,0,0:0:0
256,192,564090,5,8,0:0:0
256,192,564266,5,0,0:0:0
256,192,564354,5,8,0:0:0
256,192,564618,1,8,0:0:0
256,192,564794,5,0,0:0:0
256,192,564883,5,8,0:0:0
256,192,565147,5,0,0:0:0
256,192,565323,1,0,0:0:0
256,192,565411,5,8,0:0:0
256,192,565676,1,8,0:0:0
256,192,565940,5,0,0:0:0
256,192,566116,1,0,0:0:0
256,192,566204,5,8,0:0:0
256,192,566380,1,8,0:0:0
256,192,566469,5,0,0:0:0
256,192,566645,1,0,0:0:0
256,192,566733,1,0,0:0:0
256,192,566909,1,0,0:0:0
256,192,566997,1,0,0:0:0
256,192,567195,5,8,0:0:0
256,192,567460,5,8,0:0:0
24,40,640873,21,0,0:0:0
96,48,641078,1,0,0:0:0
168,48,641284,5,2,0:0:0
240,56,641489,1,2,0:0:0
312,64,641695,5,0,0:0:0
384,72,641900,1,0,0:0:0
456,64,642106,5,2,0:0:0
488,344,642517,5,0,0:0:0
416,336,642722,1,0,0:0:0
344,336,642928,5,2,0:0:0
272,328,643133,1,2,0:0:0
200,320,643339,5,0,0:0:0
128,312,643544,1,0,0:0:0
56,320,643750,5,2,0:0:0
48,248,643955,1,2,0:0:0
40,176,644161,1,2,0:0:0
56,104,644366,5,0,0:0:0
112,64,644572,5,2,0:0:0
176,40,644777,5,0,0:0:0
248,32,644983,5,2,0:0:0
320,32,645188,5,0,0:0:0
392,40,645394,5,2,0:0:0
456,72,645599,5,4,0:0:0
480,208,646010,5,2,0:0:0
472,280,646215,5,0,0:0:0
456,312,646318,1,0,0:0:0
432,336,646421,5,2,0:0:0
368,352,646626,5,0,0:0:0
296,360,646832,5,2,0:0:0
224,360,647037,5,0,0:0:0
56,320,647448,5,2,0:0:0
48,248,647653,5,0,0:0:0
40,176,647859,1,0,0:0:0
56,104,648064,5,2,0:0:0
112,64,648270,5,0,0:0:0
144,48,648373,1,0,0:0:0
176,40,648475,5,2,0:0:0
248,32,648681,5,0,0:0:0
320,32,648886,5,6,0:0:0
456,72,649297,1,2,0:0:0
472,136,649502,5,0,0:0:0
464,168,649606,5,2,0:0:0
480,208,649708,5,0,0:0:0
472,280,649913,1,0,0:0:0
432,336,650119,5,2,0:0:0
368,352,650324,5,0,0:0:0
296,360,650530,5,2,0:0:0
224,360,650735,1,2,0:0:0
152,352,650941,5,0,0:0:0
56,320,651147,5,2,0:0:0
48,248,651352,5,0,0:0:0
40,176,651558,1,0,0:0:0
56,104,651763,5,2,0:0:0
112,64,651969,5,0,0:0:0
176,40,652174,5,6,0:0:0
320,32,652585,1,2,0:0:0
392,40,652791,5,0,0:0:0
456,72,652996,5,2,0:0:0
472,136,653201,5,0,0:0:0
480,168,653304,1,0,0:0:0
480,208,653407,5,2,0:0:0
472,280,653612,5,0,0:0:0
432,336,653818,5,2,0:0:0
368,352,654023,1,2,0:0:0
296,360,654229,5,0,0:0:0
224,360,654434,5,2,0:0:0
192,352,654537,5,0,0:0:0
152,352,654640,1,0,0:0:0
56,320,654846,5,2,0:0:0
48,248,655051,5,0,0:0:0
40,176,655257,1,0,0:0:0
56,104,655462,5,6,0:0:0
112,64,655668,5,0,0:0:0
144,56,655770,1,0,0:0:0
176,40,655873,5,2,0:0:0
248,32,656079,5,0,0:0:0
320,32,656284,1,0,0:0:0
352,40,656387,5,2,0:0:0
424,56,656592,1,2,0:0:0
456,72,656695,1,2,0:0:0
472,136,656900,5,0,0:0:0
480,208,657106,1,0,0:0:0
472,280,657311,5,2,0:0:0
432,336,657517,5,0,0:0:0
368,352,657722,1,0,0:0:0
296,360,657928,5,2,0:0:0
224,360,658133,5,0,0:0:0
152,352,658339,1,0,0:0:0
88,328,658544,5,2,0:0:0
48,248,658749,1,6,0:0:0
56,104,659160,1,6,0:0:0
112,64,659366,5,0,0:0:0
144,56,659469,1,0,0:0:0
176,40,659571,5,2,0:0:0
248,32,659777,1,2,0:0:0
280,32,659880,5,0,0:0:0
320,32,659982,1,0,0:0:0
392,40,660188,5,2,0:0:0
456,72,660393,5,0,0:0:0
456,104,660496,5,2,0:0:0
472,136,660598,1,2,0:0:0
480,168,660702,5,0,0:0:0
480,200,660804,5,2,0:0:0
472,280,661009,5,0,0:0:0
432,336,661215,1,0,0:0:0
368,352,661420,1,0,0:0:0
336,352,661524,1,0,0:0:0
296,360,661626,5,2,0:0:0
224,360,661831,5,0,0:0:0
152,352,662037,5,6,0:0:0
48,248,662448,1,6,0:0:0
40,176,662654,5,0,0:0:0
48,144,662757,1,0,0:0:0
56,112,662859,5,2,0:0:0
112,64,663065,5,0,0:0:0
144,56,663168,1,0,0:0:0
176,40,663270,5,2,0:0:0
248,32,663476,5,0,0:0:0
320,32,663681,1,0,0:0:0
352,40,663784,1,0,0:0:0
392,40,663887,5,2,0:0:0
416,64,663989,5,0,0:0:0
456,72,664092,5,2,0:0:0
472,136,664297,5,0,0:0:0
480,208,664503,5,2,0:0:0
472,280,664708,5,0,0:0:0
464,312,664811,1,0,0:0:0
432,336,664914,5,2,0:0:0
368,352,665119,1,0,0:0:0
296,360,665325,5,6,0:0:0
152,352,665736,5,6,0:0:0
96,312,665941,5,0,0:0:0
80,280,666044,5,2,0:0:0
48,248,666146,5,0,0:0:0
32,216,666250,5,2,0:0:0
40,176,666352,5,0,0:0:0
56,104,666557,5,2,0:0:0
112,64,666763,5,0,0:0:0
144,48,666866,1,0,0:0:0
176,40,666968,5,2,0:0:0
248,32,667174,5,0,0:0:0
280,40,667277,1,0,0:0:0
320,32,667379,5,2,0:0:0
392,40,667585,5,0,0:0:0
456,72,667790,5,2,0:0:0
472,104,667894,5,0,0:0:0
472,168,668099,1,0,0:0:0
480,208,668201,5,2,0:0:0
472,280,668406,5,0,0:0:0
432,336,668612,5,6,0:0:0
296,360,669023,1,6,0:0:0
224,360,669228,5,0,0:0:0
192,368,669332,1,0,0:0:0
152,352,669434,5,2,0:0:0
56,320,669640,5,0,0:0:0
48,248,669845,5,2,0:0:0
40,176,670051,5,0,0:0:0
40,144,670154,1,0,0:0:0
56,104,670256,5,2,0:0:0
112,64,670462,1,2,0:0:0
144,56,670565,5,0,0:0:0
176,40,670667,1,0,0:0:0
248,32,670873,1,0,0:0:0
280,40,670976,1,0,0:0:0
320,32,671078,5,2,0:0:0
392,40,671284,5,0,0:0:0
456,72,671489,5,2,0:0:0
472,104,671592,5,0,0:0:0
472,136,671694,1,0,0:0:0
480,208,671900,5,6,0:0:0
56,104,672311,1,6,0:0:0
112,64,672517,5,0,0:0:0
144,56,672620,1,0,0:0:0
176,40,672722,5,2,0:0:0
248,32,672928,1,2,0:0:0
280,32,673031,5,0,0:0:0
320,32,673133,1,0,0:0:0
392,40,673339,5,2,0:0:0
456,72,673544,5,0,0:0:0
456,104,673647,5,2,0:0:0
472,136,673749,1,2,0:0:0
480,168,673853,5,0,0:0:0
480,200,673955,5,2,0:0:0
472,280,674160,5,0,0:0:0
432,336,674366,1,0,0:0:0
368,352,674571,1,0,0:0:0
336,352,674675,1,0,0:0:0
296,360,674777,5,2,0:0:0
224,360,674982,5,0,0:0:0
152,352,675188,5,6,0:0:0
48,248,675599,1,6,0:0:0
40,176,675805,5,0,0:0:0
48,144,675908,1,0,0:0:0
56,112,676010,5,2,0:0:0
112,64,676216,5,0,0:0:0
144,56,676319,1,0,0:0:0
176,40,676421,5,2,0:0:0
248,32,676627,5,0,0:0:0
320,32,676832,1,0,0:0:0
352,40,676935,1,0,0:0:0
392,40,677038,5,2,0:0:0
416,64,677140,5,0,0:0:0
456,72,677243,5,2,0:0:0
472,136,677448,5,0,0:0:0
480,208,677654,5,2,0:0:0
472,280,677859,5,0,0:0:0
464,312,677962,1,0,0:0:0
432,336,678065,5,2,0:0:0
368,352,678270,1,0,0:0:0
296,360,678476,5,6,0:0:0
152,352,678887,5,6,0:0:0
96,312,679092,5,0,0:0:0
80,280,679195,5,2,0:0:0
48,248,679297,5,0,0:0:0
32,216,679401,5,2,0:0:0
40,176,679503,5,0,0:0:0
56,104,679708,5,2,0:0:0
112,64,679914,5,0,0:0:0
144,48,680017,1,0,0:0:0
176,40,680119,5,2,0:0:0
248,32,680325,5,0,0:0:0
280,40,680428,1,0,0:0:0
320,32,680530,5,2,0:0:0
392,40,680736,5,0,0:0:0
456,72,680941,5,2,0:0:0
472,104,681045,5,0,0:0:0
472,168,681250,1,0,0:0:0
480,208,681352,5,2,0:0:0
472,280,681557,5,0,0:0:0
432,336,681763,5,6,0:0:0
296,360,682174,1,6,0:0:0
224,360,682379,5,0,0:0:0
192,368,682483,1,0,0:0:0
152,352,682585,5,2,0:0:0
56,320,682791,5,0,0:0:0
48,248,682996,5,2,0:0:0
40,176,683202,5,0,0:0:0
40,144,683305,1,0,0:0:0
56,104,683407,5,2,0:0:0
112,64,683613,1,2,0:0:0
144,56,683716,5,0,0:0:0
176,40,683818,1,0,0:0:0
248,32,684024,1,0,0:0:0
280,40,684127,1,0,0:0:0
320,32,684229,5,2,0:0:0
392,40,684435,5,0,0:0:0
456,72,684640,5,2,0:0:0
472,104,684743,5,0,0:0:0
472,136,684845,1,0,0:0:0
488,200,685051,2,0,P|40:320,1,455
