osu file format v9

[General]
AudioFilename: 42min_korea_marathon_song.mp3
AudioLeadIn: 0
PreviewTime: 161734
Countdown: 1
SampleSet: Normal
StackLeniency: 0.7
Mode: 0
LetterboxInBreaks: 1

[Editor]
Bookmarks: 636171,1369427
DistanceSpacing: 1
BeatDivisor: 4
GridSize: 8

[Metadata]
Title:#korean Compilation
Artist:Various Artists
Creator:woodrockman
Version:wood part
Source:
Tags:

[Difficulty]
HPDrainRate:3
CircleSize:4
OverallDifficulty:5
ApproachRate:8
SliderMultiplier:2
SliderTickRate:2

[Events]
//Background and Video events
//Break Periods
2,599021,902571
2,943173,955997
2,983660,1364871
2,1397571,1404871
//Storyboard Layer 0 (Background)
//Storyboard Layer 1 (Fail)
//Storyboard Layer 2 (Pass)
//Storyboard Layer 3 (Foreground)
//Storyboard Sound Samples
//Background Colour Transformations
3,100,163,162,255

[TimingPoints]
546321,300,4,1,0,80,1,0
546321,-125,4,1,0,40,0,0
903321,417.391304347826,4,1,0,40,1,0
903321,-125,4,1,0,40,0,0
904154,-187.5,4,1,0,40,0,0
904571,-125,4,1,0,40,0,0
905821,-188.679245283019,4,1,0,40,0,0
906237,-125,4,1,0,40,0,0
907487,-62.5,4,1,0,40,0,0
908321,-125,4,1,0,40,0,0
910404,-200,4,1,0,40,0,0
910821,-125,4,1,0,40,0,0
912071,-200,4,1,0,40,0,0
912487,-125,4,1,0,40,0,0
913737,-200,4,1,0,40,0,0
914154,-125,4,1,0,40,0,0
918112,-200,4,1,0,40,0,0
918529,-125,4,1,0,40,0,0
919571,-62.5,4,1,0,40,0,0
919987,-125,4,1,0,40,0,0
922279,-200,4,1,0,40,0,0
922904,-125,4,1,0,40,0,0
925196,-200,4,1,0,40,0,0
925612,-125,4,1,0,40,0,0
929154,-83.3333333333333,4,1,0,40,0,0
929362,-125,4,1,0,40,0,0
935460,-83.3333333333333,4,1,0,40,0,0
935981,-125,4,1,0,40,0,0
943390,-200,4,1,0,40,0,0
946729,-125,4,1,0,40,0,0
947355,-200,4,1,0,40,0,0
947981,-125,4,1,0,40,0,0
970103,-83.3333333333333,4,1,0,40,0,0
974277,-50,4,1,0,40,0,0
975112,-83.3333333333333,4,1,0,40,0,0
982103,-83.3333333333333,4,1,0,5,0,0
982521,-83.3333333333333,4,1,0,40,0,0
1365621,250,4,1,0,80,1,0
1365621,-166.666666666667,4,1,0,80,0,0
1389621,-100,4,1,0,80,0,0
1396621,-166.666666666667,4,1,0,80,0,0

[HitObjects]
280,120,546321,6,0,B|392:104|368:216,1,160
369,209,546771,1,0
296,208,546921,2,0,B|192:208,1,80
144,208,547221,1,8
144,136,547371,1,0
144,64,547521,2,0,B|224:-8|296:80,1,160
284,66,547971,1,12
400,152,548271,5,0
416,224,548421,1,0
400,296,548571,1,0
328,304,548721,2,0,B|224:304,3,80,8|0|0|0
176,304,549321,1,8
152,232,549471,1,0
176,160,549621,2,0,B|208:104|256:104,1,80,0|0
368,56,549921,5,6
112,56,550221,1,6
120,312,550521,1,6
376,312,550821,1,6
356,169,551121,6,0,B|360:67|224:67,1,160,4|0
256,216,551721,1,8
255,68,552021,1,8
256,144,552171,1,8
156,169,552321,6,0,B|152:67|288:67,1,160,4|0
256,216,552921,1,8
255,68,553221,1,8
256,144,553371,1,8
256,192,553521,12,0,555321
256,72,555921,6,2,B|376:64|368:192,1,160,6|2
224,160,556521,2,0,B|120:160,1,94.9999966025354
129,160,556971,1,4
136,304,557271,5,0
208,304,557421,1,0
280,280,557571,1,0
336,240,557721,2,0,B|416:184,1,80,8|0
360,136,558021,2,0,B|280:88,1,80
224,64,558321,6,0,B|224:160,2,80,8|0|0
152,64,558771,1,0
80,64,558921,2,0,B|40:104|88:144,2,80,8|0|0
152,64,559371,1,0
224,64,559521,2,0,B|304:88|296:120|264:192,1,160,8|0
266,185,559971,1,8
136,240,560271,6,2,B|144:360|248:360|336:344,1,240,2|2
311,347,561021,1,2
432,264,561321,2,0,B|432:168,1,80
432,184,561771,1,8
312,104,562071,6,0,B|312:48|232:48,1,80
262,50,562371,2,0,B|192:72|160:32,1,80,0|8
184,51,562671,2,0,B|120:32|80:72,1,80
106,53,562971,1,0
64,112,563121,6,0,B|24:152|72:192,3,80,8|0|0|0
80,256,563721,1,8
120,312,563871,1,0
184,336,564021,2,0,B|232:360|272:328,3,80,0|0|8|8
328,312,564621,1,8
392,280,564771,1,8
256,176,565071,6,0,B|256:88,2,80
328,176,565521,2,2,B|376:176|376:176|368:168|368:168|360:176|360:176|368:184|368:184|368:176|368:176|440:176,1,160,2|6
438,176,566121,1,2
438,176,566271,1,2
392,312,566571,6,0,B|320:368|240:312,1,160,4|0
184,280,567021,1,0
144,224,567171,1,0
144,152,567321,2,0,B|200:96,3,80,8|0|8|0
256,48,567921,6,0,B|352:48,1,80,8|0
408,48,568221,1,0
480,48,568371,1,0
480,120,568521,1,8
336,328,568821,5,8
263,330,568971,1,0
192,328,569121,2,0,B|88:272|96:176,1,160,8|0
96,207,569571,1,8
200,104,569871,6,0,B|168:144|216:200,2,80
272,104,570321,2,0,B|240:192|296:280,1,160,8|0
283,258,570771,1,8
384,160,571071,2,0,B|400:200|376:240,2,80
336,112,571521,2,0,B|304:64|336:32,1,80,8|0
392,64,571821,1,0
448,112,571971,1,8
472,224,572271,6,2,B|480:336|352:320,1,160
304,320,572721,2,0,B|216:320,2,80,8|0|0
376,320,573171,1,0
432,272,573321,2,0,B|480:208|440:176,2,80,8|0|0
376,320,573771,6,0,B|288:320|200:320,1,160,8|0
216,320,574221,1,8
216,320,574371,1,0
216,320,574521,2,0,B|136:248|224:168,1,160
210,181,574971,1,8
256,192,575121,12,0,576321
296,144,577221,6,2,B|352:144,3,40
296,144,577521,2,0,B|304:208|304:232|288:248|200:240,2,160,8|0|8
240,96,578271,1,0
288,40,578421,1,0
344,88,578571,2,0,B|424:88|464:112|464:184,1,160
456,240,579021,1,8
392,288,579171,2,0,B|312:288|272:264|272:192,1,160
272,209,579621,5,0
272,209,579771,1,0
112,72,580221,2,0,B|32:168|80:224,1,160,8|0
73,216,580671,1,0
120,352,580971,1,0
176,216,581271,2,8,B|208:168,2,40
176,216,581571,2,8,B|216:240,2,40
176,216,581871,2,8,B|144:256,2,40
232,88,582321,5,8
296,112,582471,1,0
344,168,582621,1,0
352,240,582771,1,0
352,312,582921,2,0,B|440:312,1,80,8|0
288,312,583371,6,0,B|120:312,1,160
128,312,583821,1,8
128,312,583971,1,0
128,240,584121,2,0,B|168:216,2,40
128,240,584421,2,8,B|88:216,2,40
128,168,584721,5,0
384,168,585021,1,4
336,304,585321,6,0,B|256:344|176:296,1,160,8|0
182,299,585771,1,0
256,176,586071,5,0
256,104,586221,1,8
256,32,586371,2,0,B|176:32|176:32|176:120|176:120,1,160
176,184,586821,1,8
176,256,586971,2,0,B|344:256,1,160
336,184,587421,1,8
336,112,587571,2,0,B|416:112|416:112|416:200|416:200,1,160
416,336,588171,6,0,B|312:336,2,80,0|8|0
416,264,588621,2,0,B|416:176,1,80
320,80,589071,1,0
248,56,589221,1,8
184,80,589371,1,0
136,136,589521,6,0,B|200:200,2,80,0|0|8
136,136,589971,1,0
136,280,590271,2,0,B|136:368,2,80,0|8|0
136,208,590721,1,0
136,136,590871,2,0,B|232:136,2,80,0|8|0
280,136,591471,1,0
328,192,591621,1,8
280,248,591771,1,0
256,192,591921,12,0,594021
256,104,594321,6,0,B|352:104,3,80,8|0|0|0
408,104,594921,2,0,B|408:184,3,80,8|0|0|0
336,184,595521,2,0,B|240:184,3,80,8|0|0|0
184,184,596121,1,8
136,232,596271,1,0
136,304,596421,1,8
184,352,596571,1,0
256,352,596721,1,4
256,352,596871,1,4
432,192,597321,5,0
432,192,597471,1,0
88,192,597921,5,0
88,192,598071,1,0
256,80,598521,6,0,B|256:128,2,40
256,80,598821,1,0
272,120,903321,5,4
336,168,903529,1,0
400,216,903733,2,0,B|392:272|344:288,1,80
280,288,904155,2,0,B|192:288,1,80
160,288,904573,2,0,B|48:288,1,80
80,208,904990,5,4
80,128,905199,1,4
80,48,905407,2,0,B|184:48,1,80
184,128,905825,2,0,B|280:128,1,79.5000013267994
264,88,906242,2,0,B|376:88,1,80
424,88,906660,5,4
424,168,906868,1,4
424,248,907077,2,0,B|320:248,1,80
272,208,907494,2,0,B|232:176|200:208,2,80
272,288,907912,2,0,B|232:320|200:288,4,80
120,248,908747,1,0
88,224,908851,1,0
80,184,908955,1,0
88,152,909060,1,0
112,120,909164,2,0,B|152:64|192:56,1,80,0|8
168,64,909581,1,8
328,64,909999,5,4
384,120,910207,1,0
432,184,910416,2,0,B|384:232,1,50
320,184,910834,2,0,B|272:224,3,40
264,240,911251,2,0,B|288:288|168:272,1,120
144,248,911668,5,4
96,184,911877,1,4
144,120,912086,2,0,B|184:72,1,50
248,120,912503,2,0,B|296:64,3,40
312,88,912921,2,0,B|296:144|432:128,1,120
440,152,913338,5,4
384,208,913547,1,4
320,256,913755,2,0,B|280:208,1,50
216,256,914173,2,0,B|184:216,3,40
152,232,914590,2,0,B|144:264|80:264|72:152,1,120
88,152,915007,5,0
88,152,915216,1,0
144,96,915425,2,0,B|264:96,1,120
304,96,915842,2,0,B|392:96,2,80,0|8|8
408,216,916677,5,0
328,216,916886,2,0,B|304:256,2,40,0|0|8
264,160,917303,2,0,B|304:104,2,40,0|0|8
208,216,917721,2,0,B|184:264,2,40,0|0|8
152,160,918138,2,0,B|192:104,1,50,8|8
256,88,918555,6,0,B|288:40,2,40,0|0|8
304,152,918973,2,0,B|280:200,2,40,0|0|8
352,88,919390,1,0
392,160,919599,2,0,B|352:240,2,80,8|0|8
464,200,920016,6,2,B|320:200,1,120
304,200,920434,1,2
304,200,920642,2,2,B|352:272|272:312|208:304,1,160
152,312,921268,2,8,B|184:360,2,40,8|0|8
72,312,921686,2,2,B|16:240|88:176,1,120
88,168,922103,1,2
88,168,922312,2,2,B|128:232|176:144,1,100
120,96,922938,2,0,B|120:136,2,40,8|0|8
200,80,923355,5,0
280,64,923564,2,0,B|280:128,2,40,0|0|8
360,48,923981,1,8
280,184,924399,2,0,B|232:224,2,40,0|0|8
376,184,924816,1,8
480,184,925025,1,0
480,288,925338,5,0
480,288,925442,2,8,B|416:288,1,50
272,288,926068,2,0,B|312:232,2,40,0|0|8
272,288,926381,2,0,B|232:336,2,40,0|0|8
272,288,926694,6,0,B|160:184,1,120,8|0
184,206,927112,1,0
264,224,927321,1,0
344,240,927529,2,0,B|240:136,1,120,8|0
259,155,927947,1,0
336,184,928155,1,0
416,200,928364,2,0,B|312:96,1,120,8|0
331,115,928781,1,0
408,144,928990,1,0
488,160,929199,2,2,B|384:56,1,120
384,64,929512,1,2
360,48,929616,1,2
320,40,929721,1,2
272,48,929825,1,2
256,160,930034,1,12
184,112,931703,5,12
328,112,931912,1,12
184,304,933164,5,4
336,304,933373,1,12
336,304,933581,1,12
432,104,935042,6,8,B|312:104,1,120
336,136,935460,2,8,B|216:136,1,120
56,136,936086,1,12
56,136,936294,1,12
144,272,936712,5,4
200,216,936921,2,0,B|288:216,1,80
248,144,937338,2,0,B|136:144,1,80
112,88,937755,1,0
112,88,937860,1,0
112,88,937964,2,0,B|40:112|64:168,1,80
58,140,938277,1,0
58,140,938381,5,4
56,272,938590,1,0
120,320,938799,2,0,B|216:320,1,80
280,320,939216,2,0,B|312:288,3,40
352,248,939634,2,0,B|448:216|400:128,1,120
413,160,940051,5,4
288,48,940260,1,0
216,88,940468,2,0,B|216:184,1,80
144,144,940886,2,0,B|144:240,1,80
120,256,941199,1,0
96,224,941303,2,0,B|96:136,1,80
120,112,941616,1,0
120,72,941721,2,0,B|216:72,2,80
280,72,942555,2,0,B|368:72,1,80,0|8
360,72,942973,1,8
88,88,956747,5,0
136,200,957060,1,0
136,200,957164,2,0,B|240:200,1,80,8|0
296,64,957790,1,0
360,120,957999,1,8
384,200,958207,1,0
352,272,958416,1,0
240,320,958729,1,0
240,320,958834,2,0,B|128:320,1,80,8|0
24,240,959460,6,0,B|-8:272,5,40
24,240,960086,1,0
24,120,960399,1,0
24,120,960503,2,0,B|112:120,1,80,8|0
152,56,960921,1,8
184,32,961025,1,0
216,56,961129,1,0
264,120,961338,2,0,B|352:120,1,80,0|8
336,200,961755,6,0,B|184:200,1,120
176,200,962173,1,8
112,248,962381,1,0
176,296,962590,2,0,B|272:296,1,80,8|0
336,296,963007,2,2,B|440:296|440:192,1,160
440,80,963738,5,0
440,80,963842,2,8,B|344:80,1,80,8|0
200,80,964468,1,0
280,80,964677,1,0
200,80,964885,1,0
280,80,965094,2,0,B|280:152|352:208,1,120
327,186,965512,1,8
392,232,965721,1,0
328,280,965929,6,0,B|224:280,1,80
224,280,966242,1,0
200,280,966347,1,0
184,280,966451,1,0
168,280,966555,1,0
144,280,966660,1,0
128,280,966764,2,0,B|64:216|128:128,1,160,0|8
200,160,967390,5,0
272,192,967599,2,0,B|336:120|264:40,1,160,0|8
200,16,968225,1,0
144,72,968434,2,0,B|56:72,1,80
104,144,968851,2,0,B|208:144,1,80,8|0
168,224,969268,2,0,B|224:224,6,40,0|0|0|0|2|2|2
88,224,970103,5,4
88,344,970312,2,0,B|144:344|168:288|224:288,1,120.000002861023
312,296,970729,1,0
432,296,970938,2,0,B|480:192|424:112,1,180.000004291535
384,160,971355,2,0,B|296:208|192:152,1,180.000004291535
152,136,971773,5,4
152,256,971981,1,4
152,136,972190,2,0,B|208:136|216:72|264:72,1,120.000002861023
368,72,972607,2,0,B|368:176|440:152|432:248,1,180.000004291535
376,216,973025,2,0,B|192:216,1,180.000004291535
136,216,973442,5,4
136,336,973651,1,4
32,272,973860,2,0,B|152:272,1,120.000002861023
232,272,974277,2,0,B|256:272|256:272|248:256|248:256|264:256|264:256|280:288|280:288|296:288|296:288|280:256|280:256|296:256|296:256|312:288|312:288|328:288|328:288|312:256|312:256|328:256|328:256|336:272|336:272|400:272|400:272,1,300
352,232,974694,2,0,B|328:232|328:232|336:216|336:216|320:216|320:216|304:248|304:248|288:248|288:248|304:216|304:216|288:216|288:216|272:248|272:248|256:248|256:248|272:216|272:216|256:216|256:216|248:232|248:232|184:232|184:232,1,300
168,232,975112,5,4
168,112,975321,1,4
264,176,975529,2,0,B|136:176,1,120.000002861023
72,80,975947,2,0,B|16:216|72:304,1,180.000004291535
112,248,976364,2,0,B|152:336|280:336,1,180.000004291535
296,288,976781,1,4
256,192,977199,12,0,982416
256,192,982625,12,0,983460
120,80,1365621,6,0,B|256:80,1,120.000002861023,0|8
288,80,1365996,1,0
336,80,1366121,1,0
432,80,1366371,1,0
432,176,1366621,2,0,B|288:176,1,120.000002861023,0|8
264,176,1366996,1,0
216,176,1367121,1,0
120,176,1367371,1,0
120,272,1367621,6,0,B|256:272,3,120.000002861023,0|8|0|0
336,272,1368621,2,0,B|400:272|400:272|400:216|400:216,1,120.000002861023,0|8
400,168,1368996,1,0
400,120,1369121,1,0
400,24,1369371,1,0
304,24,1369621,5,0
256,24,1369746,1,0
208,24,1369871,2,0,B|136:24,1,60.0000014305115,8|0
96,24,1370121,1,0
96,120,1370371,1,0
192,120,1370621,1,0
240,120,1370746,1,0
288,120,1370871,2,0,B|376:120,1,60.0000014305115,8|0
400,120,1371121,1,0
400,216,1371371,1,0
304,216,1371621,6,0,B|264:184|240:184|192:216,3,120.000002861023,0|8|0|0
96,216,1372621,1,2
96,216,1372746,1,2
96,120,1372996,2,2,B|96:56|96:56|152:56|152:56,1,120.000002861023,2|2
200,56,1373371,1,2
296,56,1373621,6,0,B|376:56,2,60.0000014305115,0|0|8
296,152,1374121,1,0
296,248,1374371,1,0
248,248,1374496,1,0
200,248,1374621,2,0,B|120:256|128:168,2,120.000002861023,0|8|0
200,152,1375371,1,0
200,104,1375496,1,0
200,56,1375621,6,0,B|272:56,2,60.0000014305115,0|0|8
104,56,1376121,1,0
104,152,1376371,1,0
104,200,1376496,1,0
104,248,1376621,2,0,B|96:328|192:320,2,120.000002861023,0|8|0
200,248,1377371,1,0
248,248,1377496,1,0
296,248,1377621,6,0,B|368:248,2,60.0000014305115,0|0|8
296,248,1377996,1,0
296,248,1378121,1,0
296,152,1378371,1,0
296,56,1378621,2,0,B|224:56,2,60.0000014305115,0|0|8
296,56,1378996,1,0
296,56,1379121,1,0
392,56,1379371,1,0
456,128,1379621,6,0,B|456:192|416:248,1,120.000002861023,0|8
328,256,1380121,2,0,B|328:192|368:136,1,120.000002861023,0|8
392,56,1380621,1,2
392,56,1380746,1,2
296,56,1380996,1,2
200,56,1381246,1,2
200,56,1381371,1,2
128,120,1381621,5,8
72,200,1381871,1,0
120,288,1382121,1,8
216,296,1382371,2,0,B|216:176,1,120.000002861023,0|8
312,176,1382871,1,0
312,176,1382996,1,8
408,176,1383246,1,0
408,176,1383371,1,8
408,272,1383621,6,0,B|320:272,2,60.0000014305115,0|0|8
408,176,1384121,2,0,B|408:88|408:40,1,120.000002861023,0|8
312,56,1384621,2,0,B|192:56,1,120.000002861023
192,56,1384996,1,8
96,56,1385246,1,0
96,56,1385371,1,8
144,144,1385621,5,0
184,168,1385746,1,0
144,184,1385871,1,8
184,208,1385996,1,0
144,232,1386121,2,0,B|144:352,1,120.000002861023,0|8
216,296,1386621,1,0
248,336,1386746,1,0
272,296,1386871,1,8
304,336,1386996,1,0
336,296,1387121,2,0,B|336:160,1,120.000002861023,0|8
432,168,1387621,5,0
504,104,1387871,1,8
432,40,1388121,2,0,B|368:40,3,60.0000014305115,0|0|8|0
336,72,1388621,1,0
376,104,1388746,1,0
336,128,1388871,1,8
376,160,1388996,1,0
336,184,1389121,2,0,B|264:184,2,60.0000014305115,8|0|8
176,184,1389621,5,6
256,368,1389871,1,4
336,184,1390121,1,6
416,368,1390371,1,4
336,184,1390621,1,6
256,368,1390871,1,4
176,184,1391121,1,6
104,368,1391371,2,6,B|152:256,1,100
176,184,1391621,5,6
256,368,1391871,1,4
336,184,1392121,1,6
416,368,1392371,1,4
336,184,1392621,1,6
256,368,1392871,1,4
176,184,1393121,2,6,B|128:288,3,100
256,192,1393621,12,4,1396121
256,192,1396621,5,2
256,192,1396746,1,2
192,120,1396996,2,2,B|312:120,1,120.000002861023
312,120,1397371,1,6
256,192,1405621,6,0,B|288:160,15,30.0000007152558
256,192,1406621,1,0
424,192,1406871,1,2
424,24,1407121,1,2
256,16,1407371,1,2
256,192,1407621,6,0,B|224:160,15,30.0000007152558
256,192,1408621,1,0
88,192,1408871,1,2
88,24,1409121,1,2
256,16,1409371,1,2
256,192,1409621,6,0,B|224:224,15,30.0000007152558
256,192,1410621,1,0
88,192,1410871,1,2
88,360,1411121,1,2
256,368,1411371,1,2
256,192,1411621,6,0,B|288:224,15,30.0000007152558
256,192,1412621,1,0
424,192,1412871,1,2
424,360,1413121,1,2
256,368,1413371,1,6
256,192,1413621,12,0,1417621
256,192,1418121,5,0
