osu file format v9

[General]
AudioFilename: 42min_korea_marathon_song.mp3
AudioLeadIn: 0
PreviewTime: 162276
Countdown: 1
SampleSet: Normal
StackLeniency: 0.7
Mode: 1
LetterboxInBreaks: 1

[Editor]
Bookmarks: 636171,1369427,441485,543454,821366,892365,899557,988830,1273075,1427805,2230850
DistanceSpacing: 1
BeatDivisor: 4
GridSize: 8

[Metadata]
Title:#korean Compilation
Artist:Various Artists
Creator:woodrockman
Version:S.S.STAR Taiko
Source:
Tags:

[Difficulty]
HPDrainRate:3
CircleSize:7
OverallDifficulty:5
ApproachRate:10
SliderMultiplier:1.4
SliderTickRate:1

[Events]
//Background and Video events
//Break Periods
2,288222,1495316
//Storyboard Layer 0 (Background)
//Storyboard Layer 1 (Fail)
//Storyboard Layer 2 (Pass)
//Storyboard Layer 3 (Foreground)
//Storyboard Sound Samples
//Background Colour Transformations
3,100,163,162,255

[TimingPoints]
224446,397.350993377483,4,1,0,100,1,0
1495766,348.837209302326,4,1,0,100,1,0
1568324,357.142857142857,4,1,0,80,1,0
1579663,-100,4,2,0,80,0,0
1580466,-100,4,1,0,80,0,0
1621817,545.454545454546,4,1,0,80,1,0
1623998,500,4,1,0,80,1,0
1625998,461.538461538462,4,1,0,80,1,0
1627844,428.571428571429,4,1,0,80,1,0
1629558,400,4,1,0,80,1,0
1631158,375,4,1,0,80,1,0
1632658,352.941176470588,4,1,0,80,1,0
1634069,333.333333333333,4,1,0,80,1,0
1635402,315.789473684211,4,1,0,80,1,0
1636665,300,4,1,0,80,1,0
1671146,306.90537084399,4,1,0,100,1,0
1671452,-133.333333333333,4,1,0,70,0,0
1732407,286.396181384248,4,1,0,70,1,0
1732825,286.396181384248,4,1,0,70,1,0
1732950,-125,4,1,0,70,0,0
1801118,441.176470588235,4,1,0,60,1,0
1857600,335.195530726257,4,2,0,100,1,0
1866315,-125,4,2,0,70,0,0
1891119,-125,4,2,0,90,0,0
1901845,-125,4,2,0,70,0,0
1907041,-125,4,2,0,80,0,0
1914750,-125,4,2,0,90,0,0
1922627,338.983050847458,4,2,0,100,1,0
1924223,-125,4,2,0,100,0,0
1935084,-125,4,2,0,70,0,0
1945677,-125,4,2,0,80,0,0
1956525,-125,4,2,0,90,0,0
1978220,-125,4,2,0,70,0,0
1988576,346.820809248555,4,2,0,80,1,0
1989455,-125,4,2,0,80,0,0
2047089,540.540540540541,4,1,0,80,1,0
2053305,-100,4,2,0,80,0,0
2055602,-100,4,1,0,80,0,0
2073305,-100,4,2,0,100,0,0
2075061,-100,4,1,0,80,0,0
2077089,-100,4,2,0,100,0,0
2079386,-100,4,1,0,80,0,0
2081143,-100,4,1,0,5,0,0
2081413,-100,4,1,0,80,0,0
2088980,-200,4,1,0,80,0,0
2089791,-100,4,1,0,80,0,0
2122505,483.870967741935,4,1,0,40,1,0
2122746,-133.333333333333,4,2,0,65,0,0
2123351,-133.333333333333,4,1,0,40,0,0
2123835,-133.333333333333,4,2,0,65,0,0
2124440,-133.333333333333,4,1,0,40,0,0
2124561,-133.333333333333,4,2,0,65,0,0
2125287,-133.333333333333,4,1,0,40,0,0
2125771,-133.333333333333,4,2,0,65,0,0
2126375,-133.333333333333,4,1,0,40,0,0
2126617,-133.333333333333,4,2,0,65,0,0
2127222,-133.333333333333,4,1,0,40,0,0
2127706,-133.333333333333,4,2,0,65,0,0
2130246,-133.333333333333,4,1,0,40,0,0
2130367,-133.333333333333,4,2,0,65,0,0
2131093,-133.333333333333,4,1,0,40,0,0
2131577,-133.333333333333,4,2,0,65,0,0
2132182,-133.333333333333,4,1,0,40,0,0
2132666,-133.333333333333,4,2,0,65,0,0
2133029,-133.333333333333,4,1,0,40,0,0
2133513,-133.333333333333,4,2,0,65,0,0
2134117,-133.333333333333,4,1,0,40,0,0
2134601,-133.333333333333,4,2,0,65,0,0
2134843,-133.333333333333,4,1,0,40,0,0
2135569,-133.333333333333,4,2,0,65,0,0
2136053,-133.333333333333,4,1,0,40,0,0
2136537,-133.333333333333,4,2,0,65,0,0
2136779,-133.333333333333,4,1,0,40,0,0
2137021,-133.333333333333,4,2,0,65,0,0
2137263,-133.333333333333,4,1,0,40,0,0
2137505,-133.333333333333,4,2,0,65,0,0
2137746,-133.333333333333,4,1,0,40,0,0
2138351,-133.333333333333,4,2,0,65,0,0
2138835,-133.333333333333,4,1,0,40,0,0
2139319,-133.333333333333,4,2,0,65,0,0
2139924,-133.333333333333,4,1,0,40,0,0
2140045,-133.333333333333,4,2,0,65,0,0
2140771,-133.333333333333,4,1,0,40,0,0
2141255,-133.333333333333,4,2,0,65,0,0
2141859,-133.333333333333,4,1,0,40,0,0
2141980,-133.333333333333,4,2,0,65,0,0
2142706,-133.333333333333,4,1,0,40,0,0
2142827,-133.333333333333,4,2,0,65,0,0
2143069,-133.333333333333,4,1,0,40,0,0
2143311,-133.333333333333,4,2,0,65,0,0
2145730,-133.333333333333,4,1,0,40,0,0
2146214,-133.333333333333,4,2,0,65,0,0
2146577,-133.333333333333,4,1,0,40,0,0
2147061,-133.333333333333,4,2,0,65,0,0
2147666,-133.333333333333,4,1,0,40,0,0
2148029,-133.333333333333,4,2,0,65,0,0
2148875,-133.333333333333,4,1,0,40,0,0
2149117,-133.333333333333,4,2,0,65,0,0
2149601,-133.333333333333,4,1,0,40,0,0
2150085,-133.333333333333,4,2,0,65,0,0
2150327,-133.333333333333,4,1,0,40,0,0
2150811,-133.333333333333,4,2,0,65,0,0
2153230,-133.333333333333,4,2,0,5,0,0
2155810,599.011630809165,4,2,1,50,1,0
2232486,731.707317073171,4,2,0,85,1,0
2237984,-100,4,2,0,40,0,0
2241632,-100,4,2,0,85,0,0
2267046,422.535211267606,4,1,0,75,1,0
2267046,-166.666666666667,4,1,0,75,0,0
2268524,-166.666666666667,4,2,0,95,0,0
2268630,-166.666666666667,4,1,0,75,0,0
2270215,-166.666666666667,4,2,0,95,0,0
2270426,-166.666666666667,4,1,0,75,0,0
2271905,-166.666666666667,4,2,0,95,0,0
2272116,-166.666666666667,4,1,0,75,0,0
2273595,-166.666666666667,4,2,0,95,0,0
2273700,-166.666666666667,4,1,0,75,0,0
2275285,-166.666666666667,4,2,0,95,0,0
2275391,-166.666666666667,4,1,0,75,0,0
2280355,-166.666666666667,4,2,0,95,0,0
2280567,-166.666666666667,4,1,0,75,0,0
2282046,-166.666666666667,4,2,0,95,0,0
2282151,-166.666666666667,4,1,0,75,0,0
2283736,-166.666666666667,4,2,0,95,0,0
2283947,-166.666666666667,4,1,0,75,0,0
2285426,-166.666666666667,4,2,0,95,0,0
2287327,-166.666666666667,4,1,0,75,0,0
2288806,-166.666666666667,4,2,0,95,0,0
2289017,-166.666666666667,4,1,0,75,0,0
2291764,-166.666666666667,4,2,0,95,0,0
2291869,-166.666666666667,4,1,0,75,0,0
2292186,-166.666666666667,4,2,0,95,0,0
2292398,-166.666666666667,4,1,0,75,0,0
2294088,-133.333333333333,4,2,0,95,0,0
2295778,-133.333333333333,4,2,0,85,0,0
2297468,-133.333333333333,4,2,0,75,0,0
2299158,-133.333333333333,4,2,0,65,0,0
2300848,-133.333333333333,4,2,0,55,0,0
2302538,-133.333333333333,4,2,0,45,0,0
2304229,-133.333333333333,4,2,0,25,0,0
2306895,512.820512820513,4,2,0,80,1,0
2310484,-100,4,1,0,80,0,0
2310869,-100,4,2,0,80,0,0
2316638,-100,4,1,0,80,0,0
2316895,-100,4,2,0,80,0,0
2318433,-100,4,1,0,80,0,0
2318946,-100,4,2,0,80,0,0
2320741,-100,4,1,0,80,0,0
2320997,-100,4,2,0,80,0,0
2322536,-100,4,1,0,80,0,0
2323048,-100,4,2,0,80,0,0
2324843,-100,4,1,0,80,0,0
2325100,-100,4,2,0,80,0,0
2326638,-100,4,1,0,80,0,0
2327151,-100,4,2,0,80,0,0
2328946,-100,4,1,0,80,0,0
2329202,-100,4,2,0,80,0,0
2330741,-100,4,1,0,80,0,0
2331253,-100,4,2,0,80,0,0
2333048,-100,4,1,0,80,0,0
2333305,-100,4,2,0,80,0,0
2335100,-100,4,1,0,80,0,0
2335356,-100,4,2,0,80,0,0
2337151,-100,4,1,0,80,0,0
2337407,-100,4,2,0,80,0,0
2339202,-100,4,1,0,80,0,0
2339459,-100,4,2,0,80,0,0
2341253,-100,4,1,0,80,0,0
2341510,-100,4,2,0,80,0,0
2343048,-100,4,1,0,80,0,0
2343561,-100,4,2,0,80,0,0
2343742,-100,4,1,0,80,0,0
2345612,-100,4,2,0,80,0,0
2346125,-100,4,1,0,80,0,0
2347151,-100,4,1,0,45,0,0
2348177,-100,4,2,0,80,0,0
2349715,-100,4,2,0,80,0,0
2360741,-100,4,1,0,80,0,0
2360997,-100,4,2,0,80,0,0
2361766,-100,4,1,0,80,0,0
2362023,-100,4,2,0,80,0,0
2362792,-100,4,1,0,80,0,0
2363305,-100,4,2,0,80,0,0
2369587,-100,4,1,0,80,0,0
2369715,-100,4,2,0,80,0,0
2369971,-100,4,1,0,80,0,0
2370228,-100,4,2,0,80,0,0
2370997,-100,4,1,0,80,0,0
2371253,-100,4,2,0,80,0,0
2371382,-100,4,1,0,80,0,0
2371510,-100,4,2,0,80,0,0
2372023,-100,4,1,0,80,0,0
2372279,-100,4,2,0,80,0,0
2374074,-100,4,1,0,80,0,0
2374330,-100,4,2,0,80,0,0
2375741,-100,4,1,0,80,0,0
2375869,-100,4,2,0,80,0,0
2376125,-100,4,1,0,80,0,0
2376382,-100,4,2,0,80,0,0
2379688,-100,4,1,0,80,0,0
2380741,-100,4,2,0,80,0,0
2388048,-100,4,1,0,80,0,0
2388177,-100,4,2,0,80,0,0
2388433,-100,4,1,0,80,0,0
2388689,-100,4,1,0,45,0,0
2388946,-100,4,2,0,80,0,0
2390100,-100,4,1,0,80,0,0
2390228,-100,4,2,0,80,0,0
2390484,-100,4,1,0,80,0,0
2390741,-100,4,2,0,80,0,0
2392151,-100,4,1,0,80,0,0
2392407,-100,4,2,0,80,0,0
2392536,-100,4,1,0,80,0,0
2392792,-100,4,2,0,80,0,0
2393048,-100,4,2,0,80,0,0
2393048,-100,4,1,0,80,0,0
2393177,-100,4,2,0,80,0,0
2400722,-100,4,1,0,80,0,0
2401253,-100,4,2,0,80,0,0

[HitObjects]
480,168,224447,1,12
480,168,225240,1,8
480,168,225438,1,8
480,168,225637,1,8
480,168,225836,1,8
448,168,227226,1,8
448,168,227425,1,8
448,168,227624,1,8
448,168,228220,1,8
448,168,228418,1,8
448,168,228716,1,8
400,152,229014,1,8
424,168,229213,1,8
472,176,229809,1,8
472,176,229908,1,8
472,176,230008,1,8
448,168,230306,1,8
448,168,230604,1,8
448,168,231200,1,8
448,168,231597,1,8
448,168,231994,1,8
448,168,232193,1,8
448,168,232590,1,8
448,168,232789,1,8
448,168,232988,1,8
448,168,233385,1,8
448,168,233584,1,8
448,168,233783,1,8
448,168,234379,1,8
448,168,234776,1,8
448,168,234975,1,8
448,168,235173,1,8
448,168,235372,1,8
448,168,235769,1,8
448,168,235968,1,8
448,168,236365,1,8
400,160,236763,1,12
448,168,237161,1,0
448,168,237359,1,8
448,168,237757,1,8
480,168,237955,1,0
448,168,238154,1,0
448,168,238353,1,0
448,168,238551,1,0
480,168,238949,1,8
480,168,239346,1,8
480,168,239744,1,8
480,168,240141,1,8
480,168,240340,1,0
432,168,240538,1,8
432,168,240936,1,8
432,168,241333,1,8
480,168,241532,1,0
480,168,241730,1,8
480,168,241929,1,0
504,168,242128,1,8
480,168,242525,1,8
480,168,242724,1,0
480,168,242922,1,8
440,176,243320,1,8
480,168,243518,1,0
480,168,243717,1,8
480,168,244114,1,8
440,176,244313,1,0
480,168,244512,1,0
480,168,244710,1,0
480,168,244909,1,0
480,168,245306,1,8
480,168,245704,1,8
480,168,246101,1,8
448,168,246300,1,0
448,168,246498,1,0
480,168,246697,1,0
480,168,246896,1,8
480,168,247293,1,8
480,168,247691,1,8
480,168,248088,1,8
480,168,248287,1,0
480,168,248485,1,8
480,168,248883,1,8
480,168,249081,1,0
480,168,249280,1,8
480,168,249677,1,8
480,168,249876,1,0
480,168,250075,1,0
480,168,250174,1,0
480,168,250273,1,8
480,168,250472,1,0
480,168,250571,1,8
480,168,250869,1,8
480,168,251068,1,0
480,168,251167,1,0
480,168,251267,1,8
480,168,251465,1,0
480,168,251664,1,0
480,168,251763,1,0
480,168,251862,1,8
480,168,252061,1,0
480,168,252160,1,8
480,168,252458,1,8
480,168,252657,1,0
480,168,252756,1,0
480,168,252856,1,8
480,168,253055,1,0
504,168,253253,1,8
480,168,253353,1,0
480,168,253452,1,8
480,168,253651,1,0
480,168,253750,1,8
480,168,253949,1,8
480,168,254147,1,8
480,168,254247,1,0
480,168,254346,1,0
456,160,254446,1,8
480,168,254644,1,0
504,168,254843,1,0
480,168,254942,1,8
480,168,255042,1,8
480,168,255240,1,0
480,168,255340,1,8
480,168,255538,1,8
480,168,255737,1,8
504,168,255836,1,0
480,168,255936,1,8
480,168,256035,1,8
480,168,256234,1,0
480,168,256433,1,0
480,168,256532,1,0
480,168,256631,1,8
480,168,256830,1,0
480,168,256929,1,8
480,168,257227,1,8
480,168,257426,1,0
480,168,257525,1,0
480,168,257625,1,8
480,168,257823,1,0
480,168,258022,1,0
480,168,258121,1,0
480,168,258220,1,8
480,168,258419,1,0
480,168,258518,1,8
480,168,258816,1,8
480,168,259015,1,0
480,168,259114,1,0
480,168,259214,1,8
480,168,259412,1,0
504,168,259610,1,8
480,168,259710,1,0
480,168,259809,1,8
480,168,260008,1,0
480,168,260107,1,8
480,168,260306,1,8
480,168,260504,1,8
480,168,260604,1,0
480,168,260703,1,0
456,160,260803,1,8
480,168,261001,1,0
504,168,261200,1,0
480,168,261299,1,8
480,168,261399,1,8
480,168,261597,1,0
480,168,261697,1,8
480,168,261895,1,8
480,168,262094,1,8
504,168,262193,1,0
480,168,262293,1,0
480,168,262392,1,8
456,160,262492,1,8
480,168,262591,1,0
480,168,262790,1,4
480,168,262989,1,4
480,168,263187,1,8
480,168,263287,1,8
480,168,263386,1,0
480,168,263485,1,8
480,168,263684,1,0
480,168,263883,1,8
480,168,263982,1,0
440,144,264181,1,0
456,160,264379,1,4
456,160,264578,1,4
480,168,264777,1,8
480,168,264876,1,8
440,144,264975,1,0
256,192,265373,12,0,265720
480,168,265770,5,0
480,168,265969,1,4
480,168,266167,1,4
480,168,266366,1,8
480,168,266465,1,8
480,168,266565,1,0
480,168,266664,1,8
456,176,266863,1,0
456,176,267061,1,8
480,168,267161,1,0
480,168,267260,1,8
480,168,267359,1,0
480,168,267558,1,4
480,168,267757,1,4
480,168,267955,1,8
480,168,268055,1,8
480,168,268154,1,0
256,192,268551,12,0,268899
448,208,268949,5,0
432,184,269147,1,4
432,184,269346,1,4
432,184,269545,1,8
432,184,269644,1,8
432,184,269744,1,0
432,184,269843,1,8
448,208,270042,1,0
448,208,270240,1,8
448,208,270340,1,0
432,184,270538,1,0
432,184,270737,1,4
432,184,270936,1,4
448,208,271134,1,8
448,208,271234,1,8
448,208,271333,1,0
464,192,271432,1,8
464,192,271631,1,8
256,192,271730,12,8,272078
464,192,272128,5,0
432,184,272326,1,4
432,184,272525,1,4
464,192,272724,1,8
464,192,272823,1,8
448,208,272922,1,0
432,184,273022,1,8
432,184,273220,1,0
464,192,273419,1,8
464,192,273518,1,0
464,192,273618,1,8
464,192,273717,1,0
464,192,273916,1,4
464,192,274114,1,4
464,192,274313,1,8
464,192,274412,1,8
448,208,274512,1,0
432,184,274611,1,8
464,192,274810,1,8
256,192,274909,12,0,275257
480,176,275306,5,0
464,192,275406,1,0
432,184,275505,1,8
432,184,275604,1,8
432,184,275704,1,0
432,184,275803,1,0
480,176,275902,1,8
480,176,276002,1,8
464,192,276101,1,0
464,192,276200,1,0
464,192,276300,1,8
464,192,276399,1,8
480,176,276498,1,0
480,176,276598,1,8
480,176,276697,1,8
432,184,276796,1,0
432,184,277095,1,4
432,184,277293,1,4
480,176,277492,1,8
480,176,277591,1,8
432,184,277691,1,0
464,192,277790,1,8
464,192,277989,1,0
464,192,278088,1,8
432,184,278287,1,0
480,176,278684,1,4
480,176,278883,1,4
480,176,279081,1,8
480,176,279181,1,8
464,192,279280,1,0
464,192,279379,1,8
464,192,279578,1,0
480,176,279677,1,8
480,176,279876,1,8
480,176,279975,1,8
464,192,280075,1,0
480,176,280174,1,8
504,184,280273,1,0
504,184,280373,1,0
504,184,280472,1,0
504,184,280571,1,8
480,176,280671,1,0
480,176,280770,1,0
464,192,280869,1,0
480,176,280969,1,8
480,176,281068,1,0
480,176,281167,1,0
480,176,281267,1,0
480,176,281366,1,8
480,176,281465,1,8
464,192,281565,1,0
480,176,281863,1,4
480,176,282061,1,4
480,176,282260,1,8
480,176,282359,1,8
464,192,282459,1,0
480,176,282558,1,8
480,176,282757,1,0
480,176,282856,1,8
480,176,283055,1,8
480,176,283154,1,8
480,176,283253,1,8
480,176,283353,1,8
480,176,283452,1,0
480,176,283551,1,0
480,176,283651,1,8
480,176,283750,1,8
432,176,283849,1,0
480,176,283949,1,0
480,176,284048,1,8
480,176,284147,1,8
480,176,284247,1,0
480,176,284346,1,0
480,176,284446,1,8
480,176,284545,1,8
480,176,284644,1,0
480,176,284744,1,0
480,176,284843,1,0
480,176,285042,1,4
480,176,285240,1,4
480,176,285439,1,8
480,176,285538,1,8
448,176,285638,1,0
448,176,285936,1,8
480,176,286035,1,0
480,176,286134,1,0
480,176,286234,1,8
480,176,286432,1,0
480,176,286532,1,0
480,176,286631,1,0
480,176,286730,1,0
480,176,286830,1,8
480,176,287028,1,0
480,176,287128,1,0
480,176,287227,1,0
480,176,287326,1,0
480,176,287426,1,8
480,176,287624,1,0
480,176,287724,1,0
480,176,287823,1,8
480,176,288022,1,8
464,168,1495766,5,0
464,168,1495853,1,0
464,168,1495940,1,8
464,168,1496027,1,0
464,168,1496114,1,8
464,168,1496202,1,8
464,168,1496289,1,0
464,168,1496376,1,0
464,168,1496463,1,0
464,168,1496550,1,0
488,168,1496638,1,8
488,168,1496725,1,0
464,168,1496812,1,8
464,168,1496899,1,8
464,168,1496986,1,0
464,168,1497074,1,8
464,168,1497161,1,8
464,168,1497248,1,8
464,168,1497335,1,0
464,168,1497422,1,0
464,168,1497510,1,8
464,168,1497597,1,8
464,168,1497684,1,0
488,168,1497771,1,8
488,168,1497859,1,8
488,168,1497946,1,8
512,168,1498033,1,0
488,168,1498120,1,0
488,168,1498207,1,8
488,168,1498295,1,0
488,168,1498382,1,0
488,168,1498469,1,0
488,168,1498556,1,8
488,168,1498643,1,8
464,168,1498731,1,0
464,168,1498818,1,0
464,168,1498905,1,8
464,168,1498992,1,8
464,168,1499079,1,0
464,168,1499167,1,0
488,168,1499254,1,8
488,168,1499341,1,0
488,168,1499428,1,0
488,168,1499516,1,0
488,168,1499603,1,8
488,168,1499690,1,0
488,168,1499777,1,0
464,168,1499864,1,0
488,168,1499952,1,8
488,168,1500039,1,0
488,168,1500126,1,0
464,168,1500213,1,8
464,168,1500300,1,8
464,168,1500388,1,0
464,168,1500475,1,0
464,168,1500562,1,0
464,168,1500649,1,8
464,168,1500736,1,0
488,168,1500824,1,0
488,168,1500911,1,8
488,168,1500998,1,8
464,168,1501085,1,0
464,168,1501172,1,0
488,168,1501347,1,0
464,168,1501434,1,0
488,168,1501521,1,8
488,168,1501579,1,8
488,168,1501638,1,0
464,168,1501696,1,8
464,168,1501783,1,8
464,168,1501870,1,0
464,168,1501928,1,0
464,168,1501986,1,0
464,168,1502045,1,0
464,168,1502132,1,0
464,168,1502219,1,8
464,168,1502277,1,8
464,168,1502335,1,0
488,168,1502393,1,8
488,168,1502481,1,8
488,168,1502568,1,0
464,168,1502626,1,8
464,168,1502684,1,8
464,168,1502742,1,8
464,168,1502829,1,8
464,168,1502917,1,0
440,160,1502975,1,0
440,160,1503033,1,0
464,168,1503091,1,8
464,168,1503178,1,8
464,168,1503266,1,0
488,168,1503324,1,8
464,168,1503382,1,8
464,168,1503440,1,8
464,168,1503527,1,8
464,168,1503614,1,0
464,168,1503672,1,0
464,168,1503731,1,0
464,168,1503789,1,8
464,168,1503876,1,0
488,168,1503963,1,0
488,168,1504021,1,0
488,168,1504079,1,0
464,168,1504138,1,8
464,168,1504225,1,8
464,168,1504312,1,0
440,160,1504370,1,0
440,160,1504428,1,0
464,168,1504486,1,8
440,160,1504574,1,8
464,168,1504661,1,0
464,168,1504719,1,0
464,168,1504777,1,0
448,184,1504835,1,8
448,184,1504922,1,0
464,168,1505010,1,0
464,168,1505068,1,0
464,168,1505126,1,0
464,168,1505184,1,8
464,168,1505271,1,0
464,168,1505359,1,0
464,168,1505417,1,0
464,168,1505475,1,0
488,168,1505533,1,8
464,168,1505620,1,0
464,168,1505707,1,0
464,168,1505795,1,8
464,168,1505882,1,8
440,160,1505969,1,0
464,168,1506056,1,0
440,160,1506143,1,0
464,168,1506231,1,8
464,168,1506318,1,0
448,184,1506405,1,0
440,160,1506492,1,8
464,168,1506579,1,8
464,168,1506667,1,0
464,168,1506754,1,0
464,168,1506928,1,0
464,168,1507016,1,0
488,168,1507103,1,0
464,168,1507190,1,8
440,160,1507277,1,0
464,168,1507452,1,8
440,160,1507626,1,0
440,160,1507713,1,8
464,168,1507800,1,8
464,168,1507888,1,8
464,168,1507975,1,0
464,168,1508149,1,8
464,168,1508324,1,8
464,168,1508411,1,8
464,168,1508498,1,0
464,168,1508585,1,0
464,168,1508672,1,8
464,168,1508760,1,8
464,168,1508847,1,0
464,168,1508934,1,0
464,168,1509021,1,8
464,168,1509109,1,0
464,168,1509196,1,0
464,168,1509283,1,0
464,168,1509370,1,8
464,168,1509457,1,0
464,168,1509545,1,0
464,168,1509632,1,0
464,168,1509719,1,0
464,168,1509806,1,0
464,168,1509893,1,0
464,168,1509981,1,8
464,168,1510068,1,8
440,168,1510242,1,8
464,168,1510417,1,0
464,168,1510504,1,0
464,168,1510591,1,8
464,168,1510678,1,0
496,176,1510766,1,8
464,168,1510940,1,8
464,168,1511114,1,8
464,168,1511202,1,8
496,176,1511289,1,0
496,176,1511376,1,0
496,176,1511463,1,8
496,176,1511550,1,8
496,176,1511638,1,0
496,176,1511725,1,0
496,176,1511812,1,8
464,168,1511899,1,0
464,168,1511986,1,0
464,168,1512074,1,0
496,176,1512161,1,8
464,168,1512248,1,0
464,168,1512335,1,0
464,168,1512422,1,0
464,168,1512510,1,0
464,168,1512597,1,0
464,168,1512684,1,0
432,176,1512771,1,8
432,176,1512859,1,0
464,168,1513033,1,8
464,168,1513207,1,0
464,168,1513295,1,8
464,168,1513382,1,8
464,168,1513469,1,8
464,168,1513556,1,0
464,168,1513643,1,0
464,168,1513731,1,8
464,168,1513818,1,8
464,168,1513905,1,8
464,168,1513992,1,8
464,168,1514079,1,0
464,168,1514167,1,0
464,168,1514254,1,8
464,168,1514341,1,8
488,168,1514428,1,0
488,168,1514516,1,0
464,168,1514603,1,8
464,168,1514690,1,0
464,168,1514777,1,0
464,168,1514864,1,0
464,168,1514952,1,8
488,168,1515039,1,0
488,168,1515126,1,0
488,168,1515213,1,0
488,192,1515300,1,0
488,168,1515388,1,0
488,168,1515475,1,0
464,168,1515562,1,8
464,168,1515649,1,8
464,168,1515824,1,8
488,168,1515998,1,0
488,168,1516085,1,0
488,168,1516172,1,8
488,168,1516260,1,0
488,168,1516347,1,8
464,168,1516521,1,8
488,168,1516696,1,8
488,168,1516783,1,8
488,168,1516870,1,0
488,168,1516957,1,0
488,168,1517045,1,8
488,168,1517132,1,8
464,168,1517219,1,0
464,168,1517306,1,0
464,168,1517393,1,0
488,168,1517481,1,0
488,168,1517568,1,8
488,168,1517655,1,0
464,168,1517742,1,8
464,168,1517800,1,8
464,168,1517859,1,8
464,168,1517917,1,0
464,168,1517975,1,0
464,168,1518033,1,0
464,168,1518091,1,0
488,168,1518178,1,0
488,168,1518266,1,0
464,168,1518353,1,8
464,168,1518440,1,8
464,168,1518614,1,0
464,168,1518789,1,0
464,168,1518876,1,8
464,168,1518963,1,8
464,168,1519050,1,0
464,168,1519138,1,8
464,168,1519312,1,0
464,168,1519486,1,8
464,168,1519574,1,0
464,168,1519661,1,0
488,168,1519748,1,0
464,168,1519835,1,8
464,168,1520010,1,8
488,168,1520184,1,8
488,168,1520271,1,0
488,168,1520359,1,0
464,168,1520446,1,8
464,168,1520533,1,8
464,168,1520707,1,8
464,168,1520882,1,8
464,168,1520969,1,0
464,168,1521056,1,0
464,168,1521143,1,8
464,168,1521231,1,8
432,168,1521405,1,0
464,168,1521579,1,0
464,168,1521667,1,0
464,168,1521754,1,0
488,168,1521841,1,8
488,168,1521928,1,8
464,168,1522103,1,0
488,168,1522277,1,8
488,168,1522364,1,8
464,168,1522452,1,0
464,168,1522539,1,0
464,168,1522626,1,8
488,168,1522800,1,8
488,168,1522975,1,8
464,168,1523062,1,0
464,168,1523149,1,0
464,168,1523236,1,0
464,168,1523324,1,8
488,168,1523498,1,8
488,168,1523673,1,0
488,168,1523760,1,0
464,168,1523847,1,8
464,168,1523934,1,8
464,168,1524022,1,8
488,168,1524196,1,0
488,168,1524370,1,0
488,168,1524458,1,0
464,168,1524545,1,8
464,168,1524632,1,8
488,168,1524719,1,0
464,168,1524806,1,0
488,168,1524894,1,8
400,168,1524981,1,8
488,168,1525068,1,8
488,168,1525155,1,8
464,168,1525242,1,0
488,168,1525329,1,0
464,168,1525417,1,8
464,168,1525504,1,0
464,168,1525591,1,0
488,168,1525678,1,0
488,168,1525766,1,8
488,168,1525853,1,8
488,168,1525940,1,0
488,168,1526027,1,0
464,168,1526114,1,8
464,168,1526202,1,0
488,168,1526289,1,0
464,168,1526376,1,0
488,168,1526463,1,0
488,168,1526550,1,0
488,168,1526638,1,0
488,168,1526725,1,8
464,168,1526812,1,8
464,168,1526986,1,8
464,168,1527161,1,0
464,168,1527248,1,0
464,168,1527335,1,8
464,168,1527422,1,8
440,176,1527510,1,0
488,168,1527597,1,0
464,168,1527684,1,8
464,168,1527771,1,8
464,168,1527859,1,8
464,168,1527946,1,8
512,176,1528033,1,0
488,168,1528120,1,0
488,168,1528207,1,8
488,168,1528295,1,8
464,168,1528382,1,0
464,168,1528469,1,0
464,168,1528556,1,0
464,168,1528643,1,0
488,168,1528731,1,8
488,168,1528818,1,8
488,168,1528905,1,8
488,168,1528963,1,8
488,168,1529021,1,8
488,168,1529079,1,8
464,168,1529254,1,4
464,168,1529428,1,8
488,168,1529603,1,0
464,168,1529777,1,8
464,168,1529864,1,8
464,168,1529952,1,0
488,168,1530126,1,8
488,168,1530184,1,8
488,168,1530242,1,8
488,168,1530300,1,0
488,168,1530475,1,8
488,168,1530533,1,8
488,168,1530591,1,8
464,168,1530649,1,0
488,168,1530824,1,8
464,168,1530912,1,8
488,168,1530999,1,0
464,168,1531172,1,8
488,168,1531347,1,0
464,168,1531521,1,8
464,168,1531608,1,8
488,168,1531696,1,0
464,168,1531783,1,8
464,168,1531870,1,8
488,168,1532045,1,0
464,168,1532219,1,8
464,168,1532306,1,8
488,168,1532393,1,0
464,168,1532568,1,8
488,168,1532742,1,0
488,168,1532917,1,0
488,168,1533004,1,8
488,168,1533091,1,0
488,168,1533266,1,0
464,168,1533353,1,8
488,168,1533440,1,0
488,168,1533614,1,8
488,168,1533702,1,8
488,168,1533789,1,0
488,168,1533963,1,8
464,168,1534050,1,8
488,168,1534138,1,0
488,168,1534312,1,8
488,168,1534399,1,8
488,168,1534486,1,0
488,168,1534574,1,0
488,168,1534661,1,8
488,168,1534835,1,0
488,168,1535010,1,0
488,168,1535097,1,0
488,168,1535184,1,8
464,192,1535359,1,0
464,168,1535446,1,8
488,168,1535620,1,8
488,168,1535707,1,0
464,168,1535882,1,8
488,168,1535969,1,0
488,168,1536056,1,0
488,168,1536143,1,8
488,168,1536318,1,0
488,168,1536405,1,0
488,168,1536579,1,8
