osu file format v9

[General]
AudioFilename: 42min_korea_marathon_song.mp3
AudioLeadIn: 0
PreviewTime: 162276
Countdown: 1
SampleSet: Normal
StackLeniency: 0.7
Mode: 0
LetterboxInBreaks: 1

[Editor]
Bookmarks: 162300,225109,395006,2051942
DistanceSpacing: 1
BeatDivisor: 4
GridSize: 8

[Metadata]
Title:#korean Compilation
Artist:Various Artists
Creator:woodrockman
Version:MoonFragrance
Source:
Tags:

[Difficulty]
HPDrainRate:4
CircleSize:4
OverallDifficulty:5
ApproachRate:8
SliderMultiplier:2
SliderTickRate:1

[Events]
//Background and Video events
//Break Periods
2,288253,393631
2,438698,2046339
//Storyboard Layer 0 (Background)
//Storyboard Layer 1 (Fail)
//Storyboard Layer 2 (Pass)
//Storyboard Layer 3 (Foreground)
//Storyboard Sound Samples
//Background Colour Transformations
3,100,163,162,255

[TimingPoints]
161696,560.747663551402,4,2,0,60,1,0
188611,-100,4,1,0,60,0,0
204312,-83.3333333333333,4,1,0,75,0,0
206415,-83.3333333333333,4,1,0,85,0,0
225272,397.350993377483,4,2,0,60,1,0
225272,-200,4,2,0,45,0,0
226166,-200,4,2,0,5,0,0
227457,-200,4,2,0,45,0,0
237391,-133.333333333333,4,2,0,60,0,0
248517,-200,4,2,0,45,0,0
250106,-133.333333333333,4,1,0,75,0,0
394381,441.176470588235,4,1,0,80,1,0
394381,-133.333333333333,4,1,0,80,0,0
395704,-133.333333333333,4,2,0,100,0,0
395925,-133.333333333333,4,1,0,80,0,0
402763,-133.333333333333,4,2,0,100,0,0
402873,-133.333333333333,4,1,0,80,0,0
410263,-133.333333333333,4,1,0,90,0,0
2047089,540.540540540541,4,1,0,80,1,0
2053305,-100,4,2,0,80,0,0
2055602,-100,4,1,0,80,0,0
2073305,-100,4,2,0,100,0,0
2075061,-100,4,1,0,80,0,0
2077089,-100,4,2,0,100,0,0
2079386,-100,4,1,0,80,0,0
2081143,-100,4,1,0,5,0,0
2081413,-100,4,1,0,80,0,0
2088980,-200,4,1,0,80,0,0
2089791,-100,4,1,0,80,0,0

[HitObjects]
120,264,161696,6,0,B|80:192|120:120,2,150,2|0|0
216,240,162817,1,2
200,144,163097,1,0
296,128,163378,1,2
312,224,163658,1,0
312,224,163938,6,0,B|400:240|456:192,2,150,2|0|0
256,144,165060,1,0
200,224,165340,1,2
200,224,165621,2,0,B|112:240|56:192,1,150
58,193,166181,5,2
108,108,166462,1,0
108,108,166602,2,0,B|156:132|204:132,1,100,0|2
308,132,167163,1,0
307,132,167303,2,0,B|355:131|403:107,2,100,2|0|2
256,216,168144,1,0
208,304,168424,6,0,B|160:280|152:224,1,100,2|0
152,225,168845,1,0
304,304,169125,2,0,B|352:280|360:224,1,100,2|0
359,225,169546,1,0
256,216,169826,2,0,B|256:104,1,100,0|8
56,144,170667,6,0,B|32:200|64:240,2,100,2|0|0
144,192,171509,1,0
144,192,171649,1,0
144,192,171789,2,0,B|296:192,2,150,8|0|0
216,263,172910,6,0,B|256:192|216:120,2,150
144,192,174032,1,8
128,96,174312,1,2
200,32,174593,5,0
296,56,174873,1,0
296,56,175153,2,0,B|360:144|320:248,1,200
216,328,175995,1,0
216,328,176275,2,0,B|152:240|192:136,1,200,8|0
280,96,177116,1,0
336,176,177396,6,0,B|408:216|480:176,2,150
308,80,178518,1,8
308,80,178658,2,0,B|204:80,1,100
175,176,179219,2,0,B|104:216|32:176,1,150,0|2
152,80,179920,5,0
248,56,180200,1,0
272,152,180481,1,0
272,152,180621,1,0
272,152,180761,2,0,B|296:224|256:296,2,150,8|0|0
184,200,181882,2,0,B|160:128|200:56,2,150,0|0|0
272,256,183004,1,8
376,80,183565,5,0
280,56,183845,1,0
184,80,184125,2,0,B|104:160|152:264,1,200
232,328,184967,1,0
328,304,185247,2,0,B|408:224|360:120,1,200
280,56,186088,1,0
184,88,186368,2,0,B|112:128|32:96,2,150
264,144,187490,5,0
296,240,187770,1,0
384,296,188051,2,2,B|452:208|384:112,1,200,2|4
128,296,189172,6,0,B|60:208|128:112,2,200,8|0|8
200,232,190574,1,0
280,168,190854,2,0,B|348:256|280:352,2,200,0|8|0
112,64,192537,5,8
176,144,192817,1,0
271,176,193097,2,0,B|360:224|464:175,1,200,0|8
296,272,193938,1,0
200,304,194219,2,0,B|112:352|7:303,1,200,0|8
168,208,195060,1,0
264,176,195340,6,0,B|336:96|272:-8,2,200,0|8|0
168,208,196742,1,8
200,304,197023,1,8
296,272,197303,1,8
296,272,197443,1,8
296,271,197583,6,0,B|400:224|488:296,2,200,0|8|0
200,304,198985,1,0
224,208,199266,2,0,B|200:112,1,100,8|0
136,32,199826,6,0,B|48:112|88:224,1,200,0|8
376,352,200948,2,0,B|464:272|424:160,1,200,0|8
360,96,201789,1,0
264,56,202069,6,0,B|176:8|72:56,1,200,0|8
248,328,203191,2,0,B|336:376|440:328,2,200,0|8|4
208,216,204593,5,0
104,272,204873,1,8
72,160,205153,1,0
72,160,205294,1,0
72,160,205434,2,0,B|72:40,2,120.000002861023,4|0|8
104,272,206275,1,0
208,328,206555,6,0,B|272:336|320:288,2,120.000002861023,4|0|8
104,272,207396,1,0
72,160,207677,2,0,B|86:97|147:68,2,120.000002861023,0|0|8
104,272,208518,1,0
200,200,208798,6,0,B|304:128,2,120.000002861023,0|0|8
104,136,209639,1,0
56,248,209920,1,0
144,328,210200,1,0
264,304,210481,2,0,B|381:280,1,120.000002861023,8|0
288,184,211041,6,0,B|405:160,1,120.000002861023,0|0
304,72,211602,2,0,B|421:48,1,120.000002861023,8|0
192,120,212163,2,0,B|74:143,1,120.000002861023,0|0
176,232,212724,2,0,B|56:256,2,120.000002861023,8|0|0
256,320,213565,5,0
256,320,213705,1,0
256,320,213845,2,0,B|373:296,1,120.000002861023,8|0
320,192,214406,2,0,B|376:168,1,60.0000014305115,0|8
192,192,214826,2,0,B|136:168,1,60.0000014305115,8|0
256,96,215247,1,8
152,40,215527,6,0,B|96:80|104:144,2,120.000002861023,0|0|8
256,96,216368,1,0
360,40,216649,2,0,B|416:80|408:144,2,120.000002861023,0|0|8
256,96,217490,1,0
144,136,217770,6,0,B|30:176,1,120.000002861023
368,136,218331,2,0,B|481:175,1,120.000002861023,8|0
196,240,218892,2,0,B|82:280,1,120.000002861023,0|0
316,240,219453,2,0,B|429:279,2,120.000002861023,8|0|0
256,136,220294,5,0
256,136,220574,2,0,B|256:16,2,120.000002861023,8|0|0
196,240,221415,1,0
316,240,221696,1,8
256,192,222256,12,4,224484
336,80,225271,5,0
264,56,225470,1,2
192,80,225669,1,0
120,56,225867,2,0,B|-8:72|-8:292|120:312,1,350
192,288,227457,1,2
256,256,227655,6,0,B|256:152,1,100
256,156,228251,1,0
220,88,228450,2,0,B|256:72|292:88,2,75,2|0|0
152,120,229245,2,0,B|112:192|152:264,1,150
192,328,230039,1,0
256,232,230337,1,2
312,328,230635,1,0
368,272,230834,6,0,B|408:240|472:256,2,100,0|2|0
304,312,231827,1,0
232,328,232026,1,2
160,320,232225,2,0,B|104:320|72:272,1,100,0|2
64,200,232821,1,0
88,128,233020,1,2
437,108,233417,1,2
448,184,233616,1,0
424,256,233815,1,2
256,104,234410,5,2
256,104,234808,1,2
200,152,235006,1,0
200,224,235205,1,2
256,280,235404,2,0,B|376:280,1,100
356,280,236000,1,2
256,104,236397,1,2
256,104,236596,2,0,B|156:104,1,100
156,104,237192,5,2
120,168,237391,2,0,B|88:240,2,74.9999977648259,0|2|0
192,176,237986,1,2
240,232,238185,1,0
288,288,238384,1,0
288,288,238582,2,0,B|368:320|440:288,1,149.999995529652,2|0
472,224,239178,2,0,B|496:144,2,74.9999977648259,2|0|0
400,224,239775,1,2
328,232,239973,1,2
40,224,240371,6,0,B|16:144,2,74.9999977648259,2|0|0
112,224,240967,1,2
112,224,241165,1,2
136,296,241364,1,0
136,296,241463,1,0
136,296,241563,2,0,B|224:320,1,74.9999977648259,2|0
256,264,241960,2,0,B|304:192|256:120,1,149.999995529652
192,88,242556,1,0
120,104,242755,2,0,B|32:120,2,74.9999977648259,0|2|2
320,88,243549,5,0
392,104,243748,2,0,B|480:120,2,74.9999977648259,0|2|0
344,160,244344,1,2
328,232,244543,1,0
312,304,244741,1,0
312,304,244940,2,0,B|160:304,1,149.999995529652,2|0
104,352,245536,1,2
92,276,245735,1,0
152,232,245933,2,0,B|192:160|168:88,1,149.999995529652,0|2
104,48,246529,1,0
32,64,246728,6,0,B|-8:136|16:208,2,149.999995529652,0|2|0
104,48,247722,1,2
176,56,247920,1,0
240,96,248119,1,0
256,168,248318,2,2,B|296:248|208:280|256:360,2,200,2|2|4
176,128,250106,5,0
176,128,250205,1,0
176,128,250304,2,0,B|64:160,2,112.499996647239,8|0|0
256,88,251099,2,0,B|256:8,2,74.9999977648259,8|0|0
336,128,251695,5,0
336,128,251794,1,0
336,128,251893,2,0,B|448:160,2,112.499996647239,8|0|0
300,212,252688,1,8
212,212,252887,1,0
144,272,253086,6,0,B|96:272|72:240,2,74.9999977648259,0|0|8
212,332,253682,2,0,B|180:356,1,37.4999988824129
300,332,253980,2,0,B|332:356,1,37.4999988824129
368,272,254278,2,0,B|416:272|440:240,2,74.9999977648259,8|0|0
320,192,254874,5,0
320,192,254973,1,0
320,192,255073,2,0,B|368:160|368:88,2,112.499996647239,8|0|0
256,128,255867,2,0,B|256:40,2,74.9999977648259,8|0|0
192,192,256463,5,0
192,192,256562,1,0
192,192,256662,2,0,B|144:160|144:88,2,112.499996647239,8|0|0
272,232,257457,1,8
232,312,257655,1,0
152,272,257854,1,0
320,192,258053,5,0
320,192,258152,1,0
320,192,258252,2,0,B|368:160|368:88,2,112.499996647239,8|0|0
240,232,259047,1,8
280,312,259245,1,0
360,272,259444,1,0
424,216,259642,5,0
424,216,259741,1,0
424,216,259841,2,0,B|464:176|464:104,2,112.499996647239,8|0|0
344,176,260635,1,8
256,160,260834,1,0
168,176,261033,1,0
88,216,261231,5,0
88,216,261330,1,0
88,216,261430,2,0,B|48:176|48:104,2,112.499996647239,8|0|8
148,284,262225,1,8
172,300,262324,1,0
200,308,262424,1,0
228,308,262523,1,0
256,300,262622,6,0,B|320:264,1,74.9999977648259,4|2
392,208,263020,2,2,B|432:272|392:350,1,149.999995529652,2|2
304,184,263616,1,0
303,183,263715,2,2,B|280:128|302:74,1,112.499996647239,2|0
224,224,264212,6,0,B|160:260,1,74.9999977648259,0|2
88,316,264609,2,2,B|48:252|88:174,3,149.999995529652,2|2|2|0
152,112,266000,5,2
231,152,266198,2,2,B|272:88|231:9,1,149.999995529652,2|2
152,200,266794,1,0
151,199,266893,2,2,B|128:255|150:309,1,112.499996647239,2|2
232,240,267390,6,0,B|296:204,1,74.9999977648259,0|2
368,148,267787,2,2,B|408:212|368:290,3,149.999995529652,2|2|2|0
280,256,269178,5,2
201,216,269376,2,2,B|160:280|201:359,1,149.999995529652,2|2
280,168,269972,1,0
281,168,270071,2,2,B|304:113|282:59,1,112.499996647239,2|2
200,136,270569,6,0,B|120:112,1,74.9999977648259,0|2
47,160,270966,2,2,B|7:95|48:17,3,149.999995529652,2|2|2|0
128,120,272357,5,2
128,120,272556,2,2,B|200:160|272:120,1,149.999995529652
416,208,273152,1,0
416,208,273252,2,2,B|362:229|306:206,1,112.499996647239,2|2
224,176,273748,6,0,B|196:253,1,74.9999977648259,0|2
308,208,274145,2,2,B|372:152|364:48,2,149.999995529652
256,136,275139,1,0
168,104,275337,6,0,B|128:104,2,37.4999988824129
256,136,275735,1,8
344,160,275933,2,0,B|384:160,2,37.4999988824129,0|0|0
280,224,276331,1,0
252,232,276430,1,0
224,240,276529,1,8
196,248,276629,1,0
168,256,276728,2,0,B|96:280,1,74.9999977648259
72,192,277126,5,0
72,192,277324,1,8
208,64,277622,2,0,B|187:32,1,37.4999988824129,4|0
304,64,277920,2,0,B|336:16,1,37.4999988824129,4|0
440,192,278318,1,8
440,192,278516,1,0
376,256,278715,5,0
295,296,278914,2,0,B|224:328|149:298,1,149.999995529652,8|0
272,208,279510,1,0
272,208,279609,2,8,B|248:152|280:96,1,112.499996647239
360,56,280106,5,0
440,104,280304,1,0
464,192,280503,1,8
440,280,280702,1,0
360,328,280900,2,0,B|312:336,3,37.4999988824129,0|0|8|0
288,320,281298,2,0,B|240:312,4,37.4999988824129,8|0|0|0|0
256,192,281894,5,4
256,192,282092,1,0
88,40,282490,1,4
256,80,282788,1,4
416,40,283086,1,0
416,128,283284,6,0,B|416:203,1,74.9999977648259
336,85,283682,2,0,B|336:160,1,74.9999977648259,8|0
256,128,284079,2,0,B|256:216,1,74.9999977648259,0|0
176,85,284476,2,0,B|176:160,1,74.9999977648259,8|0
96,128,284874,5,4
184,344,285867,1,0
256,312,286066,1,0
328,344,286265,1,0
256,312,286463,2,0,B|216:208|288:200|256:88,1,224.999993294478
256,192,287258,12,0,288053
208,96,394381,6,4,B|232:64|280:64|304:96,2,112.499996647239,4|0|0
256,152,395263,2,0,B|256:312,1,149.999995529652,0|4
184,168,396145,6,2,B|136:136|136:56,2,112.499996647239,2|0|8
328,168,397028,2,2,B|376:136|376:56,2,112.499996647239,2|0|8
256,152,397910,5,0
204,100,398131,1,2
184,168,398351,2,2,B|184:296,1,112.499996647239,8|0
184,280,398792,1,0
308,100,399013,1,2
328,168,399233,2,2,B|328:296,1,112.499996647239,8|0
328,280,399674,1,0
164,112,399895,5,2
144,180,400115,2,2,B|144:308,1,112.499996647239,8|0
144,292,400556,1,0
348,112,400778,1,2
368,180,400998,2,2,B|368:308,1,112.499996647239,8|0
368,292,401439,5,4
256,360,401770,1,2
144,292,402101,1,4
144,292,402322,1,2
256,224,402653,2,0,B|256:256,2,18.7499994412065,0|0|4
216,160,402983,5,0
216,160,403094,1,0
216,160,403204,2,2,B|176:112|96:128,2,112.499996647239,2|0|8
296,160,404086,2,2,B|336:112|416:128,2,112.499996647239,2|0|8
256,224,404969,5,0
192,256,405189,1,2
192,256,405410,2,2,B|80:256,1,112.499996647239,8|0
79,256,405851,1,0
320,256,406072,1,2
320,256,406292,2,2,B|432:256,1,112.499996647239,8|0
433,256,406733,1,0
208,184,406954,5,2
208,184,407175,2,2,B|96:184,1,112.499996647239,8|0
96,184,407616,1,0
304,184,407836,1,2
304,184,408057,2,2,B|416:184,1,112.499996647239,8|0
416,184,408498,1,4
256,192,408719,12,4,410263
212,48,410704,6,0,B|172:48|140:80,2,74.9999977648259,8|0|0
300,48,411366,2,0,B|339:48|367:75,2,74.9999977648259,0|8|0
256,128,412028,2,0,B|256:288,1,149.999995529652,0|8
212,356,412689,2,0,B|172:340|172:296,1,74.9999977648259
300,356,413131,2,0,B|340:340|340:296,2,74.9999977648259,0|8|0
256,278,413792,6,0,B|256:128,2,149.999995529652,0|8|0
300,356,414895,1,0
212,356,415116,1,8
168,272,415336,1,0
168,192,415557,2,0,B|168:40,2,149.999995529652,0|8|0
256,224,416660,1,8
256,312,416881,1,8
284,316,416991,1,0
312,324,417101,1,0
340,328,417211,1,0
368,332,417322,6,0,B|432:288|428:192,1,149.999995529652,4|8
144,52,418204,2,0,B|80:96|84:192,1,149.999995529652,0|8
408,352,419086,2,0,B|472:308|468:212,1,149.999995529652,0|8
104,32,419969,2,0,B|40:76|44:172,1,149.999995529652,0|8
256,192,420851,12,0,422175
256,192,422616,12,4,423939
200,328,424381,2,0,B|168:304|168:264,2,74.9999977648259,0|0|8
256,256,425042,1,0
312,328,425263,2,0,B|344:304|344:264,2,74.9999977648259,0|0|8
256,256,425925,1,0
300,180,426145,2,0,B|300:105,1,74.9999977648259
212,180,426586,2,0,B|212:105,1,74.9999977648259,8|0
184,264,427028,2,0,B|256:312|328:264,2,149.999995529652,0|8|0
128,192,428131,6,0,B|104:160|112:112,2,74.9999977648259,0|8|0
212,156,428792,1,0
304,152,429013,1,0
384,192,429233,2,0,B|408:160|400:112,2,74.9999977648259,8|0|0
308,240,429895,2,0,B|320:280|368:288,1,74.9999977648259,0|8
203,240,430336,2,0,B|192:280|150:286,1,74.9999977648259,0|0
256,164,430778,1,8
256,72,430998,1,8
228,68,431108,1,0
200,60,431218,1,0
172,56,431328,1,0
144,52,431439,6,0,B|80:96|84:192,1,149.999995529652,4|8
368,332,432321,2,0,B|432:288|428:192,1,149.999995529652,0|8
104,32,433203,2,0,B|40:76|44:172,1,149.999995529652,0|8
408,352,434086,2,0,B|472:308|468:212,1,149.999995529652,0|8
376,64,434969,5,0
348,68,435079,1,0
320,72,435189,1,2
292,76,435300,1,0
264,80,435410,2,0,B|208:88,3,37.4999988824129,8|0|2|0
226,113,435851,5,0
198,117,435961,1,0
170,121,436071,1,2
142,125,436182,1,0
114,129,436292,2,0,B|58:137,3,37.4999988824129,8|0|2|0
76,162,436733,5,0
104,166,436843,1,0
132,170,436953,1,2
160,174,437064,1,0
188,178,437174,2,0,B|244:186,3,37.4999988824129,8|0|2|0
225,211,437615,5,0
253,215,437725,1,0
281,219,437835,1,2
309,223,437946,1,0
337,227,438057,1,8
365,231,438167,1,0
393,235,438277,1,2
421,239,438388,1,2
449,243,438498,5,4
152,280,2047089,6,0,B|96:232|96:152|152:104,1,200,0|8
151,104,2048440,1,0
151,104,2048710,1,8
360,280,2049251,6,0,B|416:232|416:152|360:104,1,200,0|8
361,104,2050602,1,0
361,104,2050872,1,8
256,360,2051413,6,8,B|212:272|300:264|256:168,1,200,0|8
256,168,2052764,1,0
256,168,2053034,1,8
256,48,2053575,5,2
176,104,2053845,2,0,B|128:128,1,50,2|0
336,104,2054251,2,0,B|384:128,1,50,2|0
200,208,2054656,2,0,B|104:248,1,100,2|0
312,208,2055197,2,0,B|408:248,1,100,0|0
256,192,2055737,12,8,2057359
256,192,2057899,12,8,2061683
208,288,2062224,6,0,B|108:240|108:96|192:24|320:24|404:96|404:240|296:288,1,600
256,192,2064386,5,4
112,328,2064926,1,8
72,232,2065197,2,0,B|8:136|72:40,1,200,0|0
69,44,2066007,1,8
256,192,2066548,5,0
400,328,2067089,1,8
440,232,2067360,2,0,B|504:136|440:40,1,200,0|0
443,44,2068170,1,8
352,80,2068440,1,0
256,40,2068710,5,4
120,192,2069251,1,8
168,280,2069521,2,0,B|208:332|304:332|344:280,1,200
392,192,2070332,1,8
256,40,2070872,5,0
80,312,2071953,1,0
160,248,2072224,1,0
256,224,2072494,1,0
352,248,2072764,1,0
432,312,2073034,6,0,B|456:264|448:208,1,100,4|2
403,109,2073575,2,0,B|376:152,1,50,8|2
352,24,2073980,2,0,B|304:56,1,50,0|2
160,24,2074386,2,0,B|208:56,1,50,0|2
108,109,2074792,2,0,B|136:152,1,50,0|2
168,248,2075197,6,0,B|208:300|304:300|344:248,1,200,0|8
344,136,2076007,2,0,B|304:84|208:84|168:136,1,200,0|0
88,192,2076818,1,8
256,304,2077359,6,0,B|256:192,2,100,0|2|8
256,304,2078034,1,2
168,264,2078305,2,0,B|123:241,1,50,0|2
256,204,2078710,2,0,B|256:148,1,50,0|2
344,264,2079116,2,0,B|388:241,1,50,0|2
472,192,2079521,5,0
344,40,2080061,2,0,B|256:112|160:40,2,200
472,192,2081683,6,0,B|472:248|424:280,2,100,4|0|8
472,88,2082494,1,0
384,40,2082764,1,0
344,128,2083034,2,2,B|304:180|208:180|168:128,1,200,2|2
128,40,2083845,1,0
40,88,2084116,1,0
40,192,2084386,2,0,B|40:248|88:280,2,100,8|0|0
128,144,2085197,2,0,B|176:168|224:144,2,100,0|8|0
176,56,2086007,5,0
272,40,2086278,1,0
336,120,2086548,1,8
288,208,2086818,1,0
288,208,2087089,2,0,B|288:320,2,100,0|0|8
104,120,2088170,6,2,B|64:192|104:264,1,150,0|0
176,192,2088845,1,0
176,192,2088980,2,2,B|336:192,1,150,0|0
392,120,2090061,1,0
464,192,2090332,6,0,B|496:240|488:288,2,100,4|0|8
392,256,2091143,1,0
344,168,2091413,1,0
344,168,2091683,2,2,B|304:116|208:116|168:168,1,200,2|2
168,168,2092494,1,0
120,256,2092764,1,0
48,192,2093034,2,0,B|16:240|24:288,2,100,8|0|0
88,104,2093845,2,0,B|120:56|112:8,2,100,0|8|0
48,192,2094656,6,0,B|-8:304|72:376,1,200,4|8
168,352,2095467,1,0
256,304,2095737,1,0
344,352,2096007,1,0
441,374,2096278,2,0,B|520:304|464:192,2,200,8|4|0
392,288,2097629,5,0
336,200,2097899,2,0,B|257:270|313:382,2,200,4|0|4
424,160,2099251,6,0,B|464:128|464:72,2,100,2|8|2
344,96,2100061,2,2,B|304:44|208:44|168:96,1,200,0|8
88,160,2100872,2,0,B|48:128|48:72,2,100,2|0|2
168,224,2101683,2,2,B|208:276|304:276|344:224,1,200,8|0
360,128,2102494,2,0,B|416:136|440:192,2,100,0|8|0
256,128,2103305,5,4
152,128,2103575,2,0,B|96:136|72:192,2,100,0|8|0
152,128,2104251,1,0
256,304,2104791,1,0
256,304,2104926,2,0,B|256:192,1,100,8|0
320,128,2105467,6,0,B|432:128|480:240,1,200,4|0
192,128,2106548,2,0,B|80:128|32:240,2,200,4|0|4
256,208,2107899,6,0,B|256:328,2,100,2|8|2
320,128,2108710,2,0,B|432:128|480:240,1,200,0|8
408,304,2109521,1,0
408,304,2109791,2,0,B|308:304,1,100,0|2
104,304,2110332,2,0,B|204:304,1,100,8|0
256,220,2110872,1,0
308,132,2111143,2,0,B|256:112|212:132,2,100,0|8|0
368,216,2111953,6,0,B|416:184|416:128,2,100,4|0|8
308,132,2112764,1,0
212,132,2113034,1,0
144,216,2113305,2,0,B|96:184|96:128,2,100,0|8|0
208,296,2114116,6,0,B|128:368|16:328,1,200,4|0
304,296,2115197,2,0,B|384:368|496:328,2,200,4|0|4
