osu file format v9

[General]
AudioFilename: 42min_korea_marathon_song.mp3
AudioLeadIn: 0
PreviewTime: 162276
Countdown: 0
SampleSet: Soft
StackLeniency: 0.7
Mode: 0
LetterboxInBreaks: 1

[Editor]
Bookmarks: 1671145,1732373,2122505,2267046
DistanceSpacing: 1.1
BeatDivisor: 4
GridSize: 8

[Metadata]
Title:#korean Compilation
Artist:Various Artists
Creator:woodrockman
Version:BMax
Source:
Tags:

[Difficulty]
HPDrainRate:4
CircleSize:4
OverallDifficulty:5
ApproachRate:8
SliderMultiplier:2
SliderTickRate:1

[Events]
//Background and Video events
//Break Periods
2,1750925,1754844
2,1796748,2121755
2,2153430,2266296
//Storyboard Layer 0 (Background)
//Storyboard Layer 1 (Fail)
//Storyboard Layer 2 (Pass)
//Storyboard Layer 3 (Foreground)
//Storyboard Sound Samples
//Background Colour Transformations
3,100,163,162,255

[TimingPoints]
1671146,306.90537084399,4,1,0,100,1,0
1671452,-133.333333333333,4,1,0,70,0,0
1732407,286.396181384248,4,1,0,70,1,0
1732825,286.396181384248,4,1,0,70,1,0
1732950,-125,4,1,0,70,0,0
2122505,483.870967741935,4,1,0,40,1,0
2122746,-133.333333333333,4,2,0,65,0,0
2123351,-133.333333333333,4,1,0,40,0,0
2123835,-133.333333333333,4,2,0,65,0,0
2124440,-133.333333333333,4,1,0,40,0,0
2124561,-133.333333333333,4,2,0,65,0,0
2125287,-133.333333333333,4,1,0,40,0,0
2125771,-133.333333333333,4,2,0,65,0,0
2126375,-133.333333333333,4,1,0,40,0,0
2126617,-133.333333333333,4,2,0,65,0,0
2127222,-133.333333333333,4,1,0,40,0,0
2127706,-133.333333333333,4,2,0,65,0,0
2130246,-133.333333333333,4,1,0,40,0,0
2130367,-133.333333333333,4,2,0,65,0,0
2131093,-133.333333333333,4,1,0,40,0,0
2131577,-133.333333333333,4,2,0,65,0,0
2132182,-133.333333333333,4,1,0,40,0,0
2132666,-133.333333333333,4,2,0,65,0,0
2133029,-133.333333333333,4,1,0,40,0,0
2133513,-133.333333333333,4,2,0,65,0,0
2134117,-133.333333333333,4,1,0,40,0,0
2134601,-133.333333333333,4,2,0,65,0,0
2134843,-133.333333333333,4,1,0,40,0,0
2135569,-133.333333333333,4,2,0,65,0,0
2136053,-133.333333333333,4,1,0,40,0,0
2136537,-133.333333333333,4,2,0,65,0,0
2136779,-133.333333333333,4,1,0,40,0,0
2137021,-133.333333333333,4,2,0,65,0,0
2137263,-133.333333333333,4,1,0,40,0,0
2137505,-133.333333333333,4,2,0,65,0,0
2137746,-133.333333333333,4,1,0,40,0,0
2138351,-133.333333333333,4,2,0,65,0,0
2138835,-133.333333333333,4,1,0,40,0,0
2139319,-133.333333333333,4,2,0,65,0,0
2139924,-133.333333333333,4,1,0,40,0,0
2140045,-133.333333333333,4,2,0,65,0,0
2140771,-133.333333333333,4,1,0,40,0,0
2141255,-133.333333333333,4,2,0,65,0,0
2141859,-133.333333333333,4,1,0,40,0,0
2141980,-133.333333333333,4,2,0,65,0,0
2142706,-133.333333333333,4,1,0,40,0,0
2142827,-133.333333333333,4,2,0,65,0,0
2143069,-133.333333333333,4,1,0,40,0,0
2143311,-133.333333333333,4,2,0,65,0,0
2145730,-133.333333333333,4,1,0,40,0,0
2146214,-133.333333333333,4,2,0,65,0,0
2146577,-133.333333333333,4,1,0,40,0,0
2147061,-133.333333333333,4,2,0,65,0,0
2147666,-133.333333333333,4,1,0,40,0,0
2148029,-133.333333333333,4,2,0,65,0,0
2148875,-133.333333333333,4,1,0,40,0,0
2149117,-133.333333333333,4,2,0,65,0,0
2149601,-133.333333333333,4,1,0,40,0,0
2150085,-133.333333333333,4,2,0,65,0,0
2150327,-133.333333333333,4,1,0,40,0,0
2150811,-133.333333333333,4,2,0,65,0,0
2153230,-133.333333333333,4,2,0,5,0,0
2267046,422.535211267606,4,1,0,75,1,0
2267046,-166.666666666667,4,1,0,75,0,0
2268524,-166.666666666667,4,2,0,95,0,0
2268630,-166.666666666667,4,1,0,75,0,0
2270215,-166.666666666667,4,2,0,95,0,0
2270426,-166.666666666667,4,1,0,75,0,0
2271905,-166.666666666667,4,2,0,95,0,0
2272116,-166.666666666667,4,1,0,75,0,0
2273595,-166.666666666667,4,2,0,95,0,0
2273700,-166.666666666667,4,1,0,75,0,0
2275285,-166.666666666667,4,2,0,95,0,0
2275391,-166.666666666667,4,1,0,75,0,0
2280355,-166.666666666667,4,2,0,95,0,0
2280567,-166.666666666667,4,1,0,75,0,0
2282046,-166.666666666667,4,2,0,95,0,0
2282151,-166.666666666667,4,1,0,75,0,0
2283736,-166.666666666667,4,2,0,95,0,0
2283947,-166.666666666667,4,1,0,75,0,0
2285426,-166.666666666667,4,2,0,95,0,0
2287327,-166.666666666667,4,1,0,75,0,0
2288806,-166.666666666667,4,2,0,95,0,0
2289017,-166.666666666667,4,1,0,75,0,0
2291764,-166.666666666667,4,2,0,95,0,0
2291869,-166.666666666667,4,1,0,75,0,0
2292186,-166.666666666667,4,2,0,95,0,0
2292398,-166.666666666667,4,1,0,75,0,0
2294088,-133.333333333333,4,2,0,95,0,0
2295778,-133.333333333333,4,2,0,85,0,0
2297468,-133.333333333333,4,2,0,75,0,0
2299158,-133.333333333333,4,2,0,65,0,0
2300848,-133.333333333333,4,2,0,55,0,0
2302538,-133.333333333333,4,2,0,45,0,0
2304229,-133.333333333333,4,2,0,25,0,0

[HitObjects]
48,112,1671145,1,0
72,184,1671299,1,0
32,248,1671452,2,0,B|56:288|112:304,1,74.9999977648259,2|0
160,272,1671759,1,0
224,224,1671913,2,0,B|240:168|216:128,1,74.9999977648259,0|2
160,32,1672220,6,0,B|208:104|312:96,1,149.999995529652,2|0
360,64,1672680,1,2
432,40,1672833,1,0
488,88,1672987,2,0,B|504:160|480:192,1,74.9999977648259
416,168,1673294,2,0,B|400:216|352:232,1,74.9999977648259,2|2
264,256,1673601,5,0
192,224,1673754,1,0
136,272,1673908,2,0,B|120:320|88:336,1,74.9999977648259,2|0
24,352,1674215,1,0
8,280,1674368,2,0,B|16:240|56:208,1,74.9999977648259,0|2
168,144,1674675,6,0,B|208:216|296:216,1,149.999995529652,2|0
360,184,1675135,1,2
352,112,1675289,2,0,B|312:40|224:40,1,149.999995529652,0|0
160,72,1675749,1,2
80,200,1676056,5,0
56,272,1676209,1,0
96,336,1676363,2,0,B|128:384|176:392,1,74.9999977648259,2|0
224,368,1676670,1,0
240,296,1676823,2,0,B|256:248|296:216,1,74.9999977648259,0|2
384,144,1677130,6,0,B|296:144|264:64,1,149.999995529652,2|0
192,48,1677591,1,2
136,96,1677744,2,0,B|128:176|32:208,1,149.999995529652
0,136,1678204,1,2
56,280,1678511,5,4
192,344,1678818,1,2
344,336,1679125,1,4
464,248,1679432,1,2
504,104,1679739,1,4
464,40,1679892,2,0,B|480:24|504:16,2,37.4999988824129
408,96,1680199,1,0
336,128,1680353,1,0
336,128,1680506,1,0
264,96,1680660,1,0
264,96,1680813,1,0
272,168,1680966,1,4
128,104,1681273,5,8
104,176,1681427,1,0
48,224,1681580,2,0,B|24:312|104:352,1,149.999995529652,0|8
248,368,1682194,2,0,B|352:368|352:248,1,149.999995529652,0|8
280,144,1682808,1,0
328,88,1682961,2,0,B|376:64|424:72,1,74.9999977648259,0|8
504,272,1683422,5,0
472,336,1683575,1,0
400,352,1683729,2,0,B|328:328,1,74.9999977648259,8|0
352,256,1684036,2,0,B|288:312|200:288,1,149.999995529652,0|8
96,192,1684649,1,0
32,56,1684956,1,8
184,72,1685263,1,0
248,112,1685417,1,8
320,104,1685570,2,0,B|408:104|448:16,1,149.999995529652,8|0
480,176,1686184,5,8
480,176,1686337,1,0
480,176,1686491,2,0,B|504:336,1,149.999995529652,0|8
352,312,1687105,2,0,B|280:288,1,74.9999977648259
136,352,1687411,2,0,B|192:301,1,74.9999977648259,8|0
208,152,1687718,2,0,B|223:226,1,74.9999977648259
256,360,1688025,1,8
256,360,1688332,1,4
88,240,1688639,6,0,B|112:168,1,74.9999977648259,8|0
48,24,1688946,2,0,B|98:80,1,74.9999977648259,0|0
248,96,1689253,2,0,B|173:111,1,74.9999977648259,8|0
40,144,1689560,1,4
288,192,1689867,6,0,B|360:216,1,74.9999977648259,8|0
504,152,1690174,2,0,B|447:202,1,74.9999977648259,0|0
432,352,1690481,2,0,B|416:277,1,74.9999977648259,8|4
368,64,1690787,2,0,B|383:138,1,74.9999977648259,4|0
400,208,1691094,5,8
360,272,1691248,1,0
304,320,1691401,2,0,B|264:152,1,149.999995529652,0|8
200,376,1692015,2,0,B|160:208,1,149.999995529652,0|8
24,176,1692629,1,0
24,176,1692782,2,0,B|8:96,1,74.9999977648259,0|8
0,24,1693089,2,0,B|48:96|144:104,1,149.999995529652
184,56,1693550,5,8
256,48,1693703,1,0
328,64,1693856,2,0,B|368:232,1,149.999995529652,0|8
504,152,1694470,2,0,B|536:312,1,149.999995529652,0|8
392,360,1695084,1,0
256,296,1695391,1,12
120,360,1695698,1,4
184,168,1696005,6,0,B|256:136|352:176,2,149.999995529652,8|0|8
256,296,1696926,1,0
408,288,1697232,1,8
448,144,1697539,1,0
448,144,1697693,1,0
416,72,1697846,2,0,B|344:40,1,74.9999977648259,8|0
280,16,1698153,6,0,B|320:80|288:176,1,149.999995529652,0|2
24,136,1698767,2,0,B|118:112|184:184,1,149.999995529652,0|2
160,240,1699227,1,0
200,304,1699381,1,0
272,328,1699534,1,0
290,331,1699611,1,2
308,332,1699688,1,0
326,327,1699764,1,0
343,321,1699841,1,0
358,310,1699918,1,0
368,294,1699995,2,0,B|385:241,3,37.4999988824129
370,242,1700302,2,0,B|372:184,3,37.4999988824129,2|0|2|0
360,184,1700608,5,4
400,120,1700762,1,0
360,56,1700915,2,0,B|304:64|256:56,1,74.9999977648259,2|0
240,184,1701222,2,0,B|208:152|208:88,1,74.9999977648259,0|0
248,48,1701529,1,2
176,16,1701683,2,0,B|80:32|72:144,1,149.999995529652,2|0
72,192,1702143,1,2
16,240,1702296,2,0,B|184:272,1,149.999995529652,0|0
176,344,1702757,2,0,B|272:312,1,74.9999977648259,2|2
360,360,1703064,6,0,B|376:312|352:264,1,74.9999977648259
280,176,1703371,2,0,B|272:232|296:256,1,74.9999977648259,2|0
432,312,1703677,2,0,B|408:272|360:264,1,74.9999977648259
216,248,1703984,2,0,B|256:280|312:272,1,74.9999977648259,2|2
424,192,1704291,6,0,B|496:136|456:16|320:16|280:112,2,299.999991059304,4|4|4
280,224,1705826,1,2
176,328,1706133,1,0
280,224,1706440,1,2
280,224,1706593,1,0
136,192,1706900,1,0
136,192,1707053,1,2
240,88,1707360,1,0
240,88,1707514,1,0
240,88,1707667,1,2
96,56,1707974,6,0,B|24:104,1,74.9999977648259,2|0
96,144,1708281,2,0,B|24:192,1,74.9999977648259,2|0
88,240,1708588,2,0,B|16:288,1,74.9999977648259,2|0
80,336,1708895,2,0,B|16:384,1,74.9999977648259,2|0
200,352,1709202,6,0,B|272:304,1,74.9999977648259,2|0
200,264,1709509,2,0,B|272:216,1,74.9999977648259,2|0
208,168,1709816,2,8,B|280:120,1,74.9999977648259,2|0
328,80,1710122,1,2
328,80,1710276,1,2
256,192,1710429,12,0,1711657
256,192,1711695,12,12,1712885
128,256,1713192,6,0,B|96:336,1,74.9999977648259,10|0
120,176,1713498,2,0,B|66:108,1,74.9999977648259,0|8
192,208,1713805,2,0,B|277:195,1,74.9999977648259,2|0
328,88,1714112,2,0,B|248:56,1,74.9999977648259,8|0
376,151,1714419,2,0,B|386:226,1,74.9999977648259,10|0
408,80,1714726,2,0,B|466:33,1,74.9999977648259,0|8
296,168,1715033,1,2
400,288,1715340,6,0,B|416:336|376:368|328:384|288:336,1,149.999995529652,8|10
264,288,1715800,1,0
192,312,1715954,2,0,B|144:328|112:288|96:240|144:200,1,149.999995529652,0|2
400,168,1716567,2,4,B|424:40|256:0|208:120,2,299.999991059304,4|4|12
304,352,1718102,6,0,B|300:295|332:255,1,74.9999977648259,10|0
457,229,1718409,2,0,B|414:254|388:253,1,74.9999977648259,0|8
271,154,1718716,2,0,B|314:168|326:201,1,74.9999977648259,2|0
216,264,1719023,6,0,B|159:267|119:235,1,74.9999977648259,8|0
93,111,1719330,2,0,B|118:153|112:184,1,74.9999977648259,10|0
18,297,1719637,2,0,B|32:253|65:241,1,74.9999977648259,0|8
248,128,1719943,2,0,B|233:171|200:183,1,74.9999977648259,2|0
304,72,1720250,5,2
304,72,1720557,1,8
304,72,1720864,1,2
368,112,1721018,1,8
440,88,1721171,1,8
440,88,1721478,2,4,B|352:80|296:168|344:272|456:272,2,299.999991059304,4|4|12
439,271,1723013,5,10
376,320,1723166,1,0
304,296,1723319,2,0,B|216:312,1,74.9999977648259,0|8
240,192,1723626,2,0,B|168:264,1,74.9999977648259,2|0
112,264,1723933,2,0,B|40:232|32:112,1,149.999995529652,8|10
72,72,1724394,1,0
144,40,1724547,2,0,B|232:48,1,74.9999977648259,0|8
160,152,1724854,2,0,B|240:112,1,74.9999977648259,2|0
288,80,1725161,6,0,B|336:144|424:168,1,149.999995529652,8|10
409,163,1725621,1,0
448,232,1725775,2,0,B|464:305,1,74.9999977648259,0|8
359,248,1726082,2,0,B|336:320,1,74.9999977648259,2|0
280,224,1726388,5,8
208,240,1726542,1,0
136,256,1726695,1,2
0,128,1727002,1,8
72,144,1727156,1,0
144,160,1727309,1,2
320,48,1727616,6,0,B|216:72|160:48,1,149.999995529652,8|10
24,80,1728076,2,0,B|64:56|112:56,1,74.9999977648259,0|0
104,184,1728383,2,0,B|112:136|152:104,1,74.9999977648259,8|2
200,80,1728690,1,0
240,144,1728844,6,0,B|288:208|384:208,1,149.999995529652,8|10
480,96,1729304,2,0,B|432:144|432:192,1,74.9999977648259
480,304,1729611,2,0,B|462:238|420:214,1,74.9999977648259,8|2
360,128,1729918,1,0
256,192,1730071,12,0,1731299
256,192,1731337,12,4,1732407
128,288,1732693,5,0
128,288,1732825,1,8
48,152,1733110,1,0
48,152,1733254,1,0
48,152,1733397,1,8
152,32,1733683,1,0
152,32,1733826,1,0
152,32,1733970,1,8
304,80,1734256,1,0
304,80,1734399,1,0
304,80,1734542,1,8
408,40,1734686,5,4
464,192,1734972,1,0
464,192,1735116,1,8
376,328,1735402,1,0
376,328,1735545,1,0
376,328,1735688,1,8
256,224,1735975,1,0
256,224,1736118,1,0
256,224,1736261,1,8
136,328,1736548,1,0
136,328,1736691,1,0
136,328,1736834,1,8
256,352,1736977,5,4
464,184,1737264,2,0,B|481:123|434:78,1,80,0|8
456,106,1737551,2,0,B|433:56|361:53,1,80
395,58,1737837,2,0,B|343:52|303:79,1,80
360,161,1738123,1,2
360,160,1738410,1,2
360,160,1738696,1,2
360,160,1738983,1,2
360,160,1739269,1,2
200,88,1739555,5,0
200,88,1739699,1,8
72,184,1739985,1,0
72,184,1740128,1,0
72,184,1740271,1,8
136,328,1740558,1,0
136,328,1740701,1,0
136,328,1740844,1,8
296,320,1741131,1,0
296,320,1741274,1,4
296,320,1741417,1,8
408,352,1741560,5,4
472,208,1741847,1,0
472,208,1741990,2,0,B|496:112|416:40,1,160,8|0
360,32,1742419,1,0
280,88,1742562,2,0,B|88:104,1,160,8|0
80,176,1742992,1,0
128,256,1743135,2,0,B|304:240,1,160,8|0
360,200,1743564,1,0
432,240,1743708,1,8
424,328,1743851,6,0,B|352:368|248:360,1,160,4|0
184,352,1744281,2,0,B|80:336|40:232,1,160,8|0
24,192,1744710,1,0
24,112,1744854,2,0,B|88:48|168:40,1,160,8|0
240,32,1745283,1,0
320,32,1745427,2,0,B|400:40|472:128,1,160,8|0
480,176,1745856,1,0
480,256,1745999,1,8
432,320,1746142,1,4
208,336,1746429,5,0
136,304,1746572,2,0,B|80:280|64:224,1,80,8|0
104,176,1746859,2,0,B|152:200|168:240,1,80
162,228,1747288,1,2
162,228,1747575,1,2
162,228,1747861,1,2
162,228,1748147,1,2
162,228,1748434,5,2
270,92,1748720,1,0
270,92,1748863,1,8
334,254,1749150,1,0
334,254,1749293,1,0
334,254,1749436,1,8
256,192,1749579,12,4,1750725
128,88,1755594,5,0
128,88,1755737,1,8
72,240,1756023,1,0
72,240,1756166,1,8
32,88,1756453,2,0,B|128:120|160:192,1,160,0|0
152,264,1756882,1,8
288,352,1757169,1,0
432,288,1757455,1,8
432,288,1757598,1,0
472,136,1757885,2,0,B|456:232|360:192|352:288,2,200,0|8|0
392,136,1758744,1,8
256,336,1759174,5,8
80,256,1759460,1,0
128,192,1759603,1,0
120,112,1759746,1,8
64,56,1759890,6,0,B|128:104|248:96,1,160,2|0
112,296,1760462,2,0,B|192:272|240:200,1,160,2|0
400,344,1761035,2,0,B|400:256|336:184,1,160,2|0
360,40,1761608,1,2
360,40,1761894,1,0
200,56,1762181,6,0,B|104:64|48:144,1,160,2|0
264,152,1762753,2,0,B|216:232|224:328,1,160,2|0
384,184,1763326,2,0,B|400:280|456:352,1,160,2|8
408,352,1763684,2,0,B|352:304,3,40,0|0|0|8
312,336,1764042,1,0
312,336,1764185,5,8
256,280,1764329,1,0
256,280,1764472,1,4
464,224,1764758,1,0
464,224,1764901,1,8
464,224,1765045,2,0,B|448:144|448:144|384:112|392:64,1,160,0|0
464,56,1765474,1,8
392,16,1765617,2,0,B|320:24|312:80|312:80|256:80,1,160
262,80,1766047,1,8
72,40,1766333,1,0
72,40,1766477,5,0
72,40,1766620,1,8
72,40,1766763,2,0,B|56:224,1,160,0|2
168,336,1767336,2,0,B|184:160,1,160,0|2
329,176,1767909,2,0,B|344:336,1,160,0|2
344,336,1768338,1,2
453,199,1768625,1,0
453,199,1768768,5,0
453,199,1768911,1,10
453,199,1769054,2,0,B|440:40,1,160
360,32,1769484,1,2
296,80,1769627,2,0,B|208:88|104:40,1,160
184,200,1770200,2,0,B|72:184|8:136,1,160,2|0
256,344,1770773,2,0,B|160:344|88:296,1,160,2|0
72,232,1771202,1,0
96,160,1771345,5,2
176,144,1771489,1,0
256,168,1771632,2,0,B|304:144|312:80,1,80,2|0
272,16,1771918,2,0,B|224:40|208:96,1,80,2|0
192,224,1772205,1,2
192,224,1772491,6,0,B|200:280|240:304,1,80,2|0
128,184,1772777,2,0,B|88:224|96:280,1,80,2|0
128,104,1773064,2,0,B|88:96|32:128,1,80,2|0
192,56,1773350,2,0,B|168:16|112:0,1,80,2|0
264,72,1773637,1,2
448,192,1773923,1,0
448,192,1774066,1,8
448,192,1774209,1,0
376,152,1774353,6,0,B|360:56,1,80,2|0
416,16,1774639,1,8
362,73,1774782,2,0,B|288:112|176:112,1,160,2|0
88,80,1775212,5,8
88,80,1775355,1,0
32,144,1775498,2,0,B|48:248,1,80,2|0
8,296,1775785,1,8
44,223,1775928,2,0,B|120:216|208:256,1,160,2|2
248,320,1776357,2,0,B|336:272|344:160,1,160,8|2
296,128,1776787,5,0
352,72,1776930,1,8
432,72,1777073,1,2
472,144,1777217,1,0
477,163,1777288,1,0
480,182,1777360,1,0
480,202,1777431,1,0
475,221,1777503,1,0
466,238,1777575,1,0
457,256,1777646,1,0
451,275,1777718,1,0
449,295,1777789,1,0
472,368,1777932,1,0
472,368,1778076,1,0
368,296,1778219,6,0,B|288:248|184:256,1,160,6|0
224,136,1778648,2,0,B|176:160|160:216,1,80,10|0
88,120,1778935,2,0,B|64:160|88:216,1,80,2|0
128,272,1779221,1,8
240,352,1779364,6,0,B|312:288|320:192,1,160,2|0
448,256,1779794,2,0,B|432:208|376:168,1,80,10|0
504,128,1780080,2,0,B|464:104|400:112,1,80,2|0
336,128,1780367,1,8
240,160,1780510,6,0,B|168:168|128:136,1,80,2|0
256,240,1780796,2,0,B|224:272|168:272,1,80,2|8
320,288,1781083,2,0,B|312:328|272:360,1,80,2|0
400,280,1781369,2,0,B|416:328|400:368,1,80,2|8
456,224,1781656,1,2
384,80,1781942,1,0
384,80,1782085,1,8
312,40,1782228,5,0
312,40,1782372,1,4
312,40,1782515,2,0,B|224:64,1,80,2|8
160,24,1782801,2,0,B|72:8|48:88|64:168|192:144,1,240,6|10
224,104,1783374,5,0
232,184,1783517,2,0,B|168:272,1,80,2|0
112,216,1783804,1,8
120,296,1783947,2,0,B|152:376,1,80,2|0
200,296,1784233,2,0,B|232:376,1,80,2|8
280,296,1784520,2,0,B|312:376,1,80,2|0
360,296,1784806,2,0,B|392:376,1,80,2|8
456,328,1785092,2,0,B|424:256|424:256|464:224|456:152,1,160,2|0
376,184,1785522,5,10
416,112,1785665,1,0
416,112,1785808,2,0,B|400:32,1,80,2|0
336,112,1786095,2,0,B|320:32,1,80,8|0
256,112,1786381,2,0,B|240:32,1,80,2|0
176,112,1786668,2,0,B|160:32,1,80,10|0
112,152,1786954,5,2
112,152,1787097,1,0
16,224,1787240,1,8
96,312,1787384,6,0,B|176:344|264:320,1,160,6|0
216,192,1787813,2,0,B|232:232|280:256,1,80,10|0
352,160,1788100,2,0,B|336:208|352:248,1,80,2|0
408,296,1788386,1,8
512,176,1788529,6,0,B|487:93|414:38,1,160,2|0
342,154,1788959,2,0,B|363:116|353:64,1,80,10|0
234,67,1789245,2,0,B|281:50|303:12,1,80,2|0
152,80,1789532,1,8
72,128,1789675,6,0,B|16:120|-8:88,1,80,2|0
96,208,1789961,2,0,B|48:224|-8:216,1,80,2|8
168,248,1790248,2,0,B|152:288|112:320,1,80,2|0
248,232,1790534,2,0,B|264:280|256:328,1,80,2|8
304,176,1790820,2,0,B|344:208|360:248,1,80,2|0
368,320,1791107,1,0
368,320,1791250,1,8
296,360,1791393,5,0
296,360,1791536,1,4
296,360,1791680,2,0,B|208:336,1,80,2|8
144,376,1791966,2,0,B|56:392|32:312|48:232|176:256,1,240,6|10
208,296,1792539,5,0
216,216,1792682,2,0,B|152:128,1,80,2|0
96,184,1792968,1,8
104,104,1793111,2,0,B|136:24,1,80,2|0
184,104,1793398,2,0,B|216:24,1,80,2|8
264,104,1793684,2,0,B|296:24,1,80,2|0
344,104,1793971,2,0,B|376:24,1,80,2|8
440,72,1794257,2,0,B|408:144|408:144|448:176|440:248,1,160,2|0
360,216,1794687,5,10
400,288,1794830,1,0
336,336,1794973,2,0,B|280:360|232:352,1,80,2|0
184,336,1795259,2,0,B|152:248,1,80,8|0
88,216,1795546,5,2
112,136,1795689,2,0,B|96:88,2,40
176,184,1795975,1,0
256,192,1796119,1,0
256,192,1796262,1,0
336,184,1796405,1,0
336,184,1796548,1,0
112,72,2122505,5,0
40,104,2122746,1,0
80,176,2122988,1,2
56,296,2123351,1,0
168,344,2123714,1,0
168,344,2123835,1,0
168,344,2123956,1,2
248,312,2124198,1,0
328,304,2124440,6,0,B|368:336|416:320|440:272|392:216,1,149.999995529652,0|2
328,152,2125287,1,0
408,64,2125650,1,0
408,64,2125771,1,0
408,64,2125892,1,2
408,64,2126134,1,0
256,32,2126375,5,0
192,80,2126617,1,0
256,136,2126859,1,2
360,208,2127222,1,0
256,272,2127585,1,0
256,272,2127706,1,0
256,272,2127827,1,2
256,272,2128069,1,0
128,320,2128311,5,2
128,64,2128795,1,2
384,64,2129279,1,0
384,320,2129763,1,2
312,272,2130005,1,0
352,200,2130246,6,0,B|352:112|280:80,1,149.999995529652,0|2
184,152,2131093,1,0
64,112,2131456,1,0
64,112,2131577,1,0
64,112,2131698,1,2
64,112,2131940,1,0
80,240,2132182,5,0
184,368,2132666,1,2
272,280,2133029,1,0
392,288,2133392,1,0
392,288,2133513,1,0
392,288,2133634,1,2
392,288,2133875,1,0
344,184,2134117,5,0
344,184,2134601,1,2
376,104,2134843,1,0
376,104,2135327,1,0
456,72,2135569,1,2
456,72,2136053,5,0
480,152,2136295,1,0
480,152,2136416,1,0
480,152,2136537,2,0,B|480:248,1,74.9999977648259,2|0
416,280,2137021,2,0,B|416:360,1,74.9999977648259,2|0
336,336,2137505,1,2
318,329,2137625,1,2
299,324,2137746,1,0
280,324,2137867,1,0
261,328,2137988,1,4
144,360,2138351,5,0
104,288,2138593,1,2
64,216,2138835,1,0
112,48,2139198,1,0
112,48,2139319,1,0
112,48,2139440,1,2
166,110,2139682,1,0
190,186,2139924,5,0
190,186,2140045,1,0
190,186,2140166,1,0
190,186,2140287,1,2
243,126,2140529,1,0
306,80,2140771,1,0
440,96,2141134,1,0
440,96,2141255,1,0
440,96,2141375,2,0,B|488:88|512:32,2,74.9999977648259,2|0|0
440,96,2141980,5,0
368,48,2142222,1,2
288,72,2142464,1,2
256,144,2142706,2,0,B|264:192|288:216,1,74.9999977648259
284,212,2143069,1,0
352,264,2143311,1,2
336,344,2143553,1,0
256,360,2143795,5,0
88,192,2144279,1,2
256,24,2144763,1,0
424,192,2145246,1,2
256,360,2145730,5,0
256,192,2146214,1,2
192,88,2146577,1,0
320,88,2146940,1,0
320,88,2147061,1,0
320,88,2147182,1,2
320,88,2147424,1,0
256,192,2147666,5,0
256,312,2148029,1,0
256,312,2148150,1,2
256,312,2148392,1,0
112,352,2148634,5,2
40,280,2148875,1,0
64,176,2149117,1,2
160,136,2149359,1,2
216,72,2149601,5,0
344,176,2150085,1,2
344,176,2150327,1,0
376,16,2150811,1,0
376,16,2151053,1,2
376,16,2151295,1,0
256,192,2151355,12,0,2153230
160,280,2267046,6,0,B|240:304|280:232,1,120.000002861023,0|0
232,176,2267679,1,0
80,96,2268102,1,0
240,32,2268524,2,0,B|288:88|344:96|416:64,2,180.000004291535,2|0|0
168,72,2270003,1,0
56,160,2270215,5,2
136,360,2270637,1,0
200,152,2271060,1,0
32,288,2271482,1,0
248,280,2271905,1,2
136,248,2272327,1,0
136,248,2272538,1,0
448,144,2273172,5,0
448,144,2273384,1,0
448,144,2273595,2,0,B|487:104|448:42|397:13|346:64,1,180.000004291535,2|0
362,137,2274440,1,0
96,232,2274862,5,0
96,232,2275074,1,0
96,232,2275285,2,0,B|56:192|95:130|146:101|197:152,1,180.000004291535,2|0
182,225,2276130,1,0
376,248,2276764,5,0
376,248,2277186,2,0,B|320:352|192:352|128:248,1,300.000007152558
72,192,2278454,1,0
136,136,2278665,2,0,B|192:32|320:32|384:144,1,300.000007152558
320,192,2279933,1,0
256,248,2280144,1,0
256,328,2280355,1,2
144,352,2280567,6,0,B|96:312|88:224,1,120.000002861023,4|0
144,184,2281200,1,0
144,184,2281623,1,0
320,240,2282045,2,0,B|416:248|472:160,2,180.000004291535,2|0|0
264,176,2283524,1,0
336,64,2283736,5,2
128,120,2284158,1,0
328,208,2284581,1,0
216,24,2285003,1,0
192,240,2285426,1,2
112,80,2287116,5,2
40,128,2287327,2,0,B|48:208|96:240,1,120.000002861023,0|0
168,248,2287961,2,0,B|224:216|304:232,2,120.000002861023,0|0|2
144,328,2289017,1,0
384,312,2289440,1,0
384,312,2289651,2,0,B|448:280|448:192,1,120.000002861023
352,56,2290496,1,0
352,56,2290707,6,0,B|256:64,2,90.0000021457673
416,112,2291553,1,0
360,176,2291764,1,2
360,176,2291869,1,0
360,176,2291975,1,0
408,248,2292186,1,2
408,248,2292398,1,4
256,328,2292820,1,0
104,248,2293243,1,0
128,80,2293665,1,0
336,64,2294088,5,0
368,144,2294299,1,0
288,176,2294510,1,2
256,96,2294722,1,0
112,208,2295144,1,0
40,168,2295355,1,2
0,240,2295567,1,0
72,288,2295778,5,0
96,368,2295989,1,0
176,344,2296200,1,2
152,264,2296412,1,0
360,264,2296834,1,0
336,344,2297045,1,2
416,368,2297257,1,0
440,288,2297468,5,0
512,248,2297679,1,0
472,176,2297891,1,2
400,216,2298102,1,0
312,32,2298524,1,0
376,80,2298736,1,2
328,152,2298947,1,0
256,104,2299158,5,0
232,184,2299369,1,0
152,160,2299581,1,2
168,80,2299792,1,0
72,176,2300215,1,0
72,176,2300426,1,2
72,176,2300637,1,0
176,272,2300848,6,0,B|72:248,1,74.9999977648259
102,255,2301271,1,2
102,255,2301482,1,0
440,248,2301905,1,0
440,248,2302116,1,2
440,248,2302327,1,0
336,344,2302538,6,0,B|440:320,1,74.9999977648259
410,327,2302961,1,2
410,327,2303172,1,0
256,240,2303595,1,0
312,176,2303806,1,0
256,112,2304017,1,0
256,32,2304229,5,0
