osu file format v14

[General]
AudioFilename: the Last effect.mp3
AudioLeadIn: 2
PreviewTime: 73500
Countdown: 0
SampleSet: None
StackLeniency: 0.7
Mode: 3
LetterboxInBreaks: 0
SpecialStyle: 0
WidescreenStoryboard: 0

[Editor]
DistanceSpacing: 0.8
BeatDivisor: 4
GridSize: 8
TimelineZoom: 1

[Metadata]
Title:dakemoto's Collection Pack Vol.2
TitleUnicode:dakemoto's Collection Pack Vol.2
Artist:Various Artist
ArtistUnicode:Various Artist
Creator:dakemoto
Version:the Last effect (Challenge)
Source:Stepmania
Tags:
BeatmapID:741034
BeatmapSetID:334680

[Difficulty]
HPDrainRate:7
CircleSize:4
OverallDifficulty:8
ApproachRate:10
SliderMultiplier:1.4
SliderTickRate:1

[Events]
//Background and Video events
0,0,"the Last effect bg.jpg",0,0
//Break Periods
//Storyboard Layer 0 (Background)
//Storyboard Layer 1 (Fail)
//Storyboard Layer 2 (Pass)
//Storyboard Layer 3 (Foreground)
//Storyboard Sound Samples

[TimingPoints]
-910,315.7895,4,1,0,15,1,0

[HitObjects]
64,192,353,5,0,0:0:0:0:
320,192,353,1,0,0:0:0:0:
448,192,353,1,0,0:0:0:0:
192,192,511,1,0,0:0:0:0:
448,192,668,1,0,0:0:0:0:
192,192,826,1,0,0:0:0:0:
448,192,984,1,0,0:0:0:0:
192,192,1142,1,0,0:0:0:0:
448,192,1300,1,0,0:0:0:0:
192,192,1379,1,0,0:0:0:0:
320,192,1458,1,0,0:0:0:0:
64,192,1537,1,0,0:0:0:0:
448,192,1616,1,0,0:0:0:0:
192,192,1774,1,0,0:0:0:0:
320,192,1853,1,0,0:0:0:0:
64,192,1932,1,0,0:0:0:0:
192,192,2011,1,0,0:0:0:0:
448,192,2090,1,0,0:0:0:0:
192,192,2228,1,0,0:0:0:0:
448,192,2247,1,0,0:0:0:0:
64,192,2405,1,0,0:0:0:0:
192,192,2543,1,0,0:0:0:0:
448,0,2563,128,0,2583:1:0:0:0:
64,192,2879,1,0,0:0:0:0:
320,192,2879,1,0,0:0:0:0:
448,192,2879,1,0,0:0:0:0:
320,192,3037,1,0,0:0:0:0:
448,192,3037,1,0,0:0:0:0:
64,192,3195,1,0,0:0:0:0:
192,192,3195,1,0,0:0:0:0:
320,192,3353,1,0,0:0:0:0:
448,192,3353,1,0,0:0:0:0:
64,192,3432,1,0,0:0:0:0:
320,192,3511,1,0,0:0:0:0:
448,192,3511,1,0,0:0:0:0:
192,192,3590,1,0,0:0:0:0:
64,192,3668,1,0,0:0:0:0:
320,192,3668,1,0,0:0:0:0:
192,192,3826,1,0,0:0:0:0:
320,192,3826,1,0,0:0:0:0:
192,192,3984,1,0,0:0:0:0:
448,192,3984,1,0,0:0:0:0:
320,192,4142,1,0,0:0:0:0:
448,192,4142,1,0,0:0:0:0:
320,192,4300,1,0,0:0:0:0:
448,192,4300,1,0,0:0:0:0:
64,192,4458,1,0,0:0:0:0:
448,192,4458,1,0,0:0:0:0:
64,192,4616,1,0,0:0:0:0:
192,192,4616,1,0,0:0:0:0:
320,192,4695,1,0,0:0:0:0:
64,192,4774,1,0,0:0:0:0:
448,192,4774,1,0,0:0:0:0:
192,192,4853,1,0,0:0:0:0:
64,192,4932,1,0,0:0:0:0:
320,192,4932,1,0,0:0:0:0:
192,192,5090,1,0,0:0:0:0:
448,192,5090,1,0,0:0:0:0:
64,192,5247,1,0,0:0:0:0:
320,192,5247,1,0,0:0:0:0:
448,192,5326,1,0,0:0:0:0:
64,192,5405,1,0,0:0:0:0:
192,192,5405,1,0,0:0:0:0:
320,192,5405,1,0,0:0:0:0:
64,192,5563,1,0,0:0:0:0:
192,192,5563,1,0,0:0:0:0:
64,192,5721,1,0,0:0:0:0:
320,0,5721,128,0,5879:1:0:0:0:
448,0,5721,128,0,5879:1:0:0:0:
192,192,5879,1,0,0:0:0:0:
448,192,5958,1,0,0:0:0:0:
64,192,6037,1,0,0:0:0:0:
192,192,6037,1,0,0:0:0:0:
320,192,6116,1,0,0:0:0:0:
64,192,6195,1,0,0:0:0:0:
192,192,6195,1,0,0:0:0:0:
64,192,6353,1,0,0:0:0:0:
320,0,6353,128,0,6432:1:0:0:0:
448,0,6353,128,0,6432:1:0:0:0:
192,0,6511,128,0,6550:1:0:0:0:
448,0,6511,128,0,6550:1:0:0:0:
192,0,6826,128,0,6866:1:0:0:0:
320,0,6826,128,0,6866:1:0:0:0:
64,0,7142,128,0,7182:1:0:0:0:
320,0,7142,128,0,7182:1:0:0:0:
192,192,7221,1,0,0:0:0:0:
320,192,7300,1,0,0:0:0:0:
448,192,7300,1,0,0:0:0:0:
192,192,7379,1,0,0:0:0:0:
64,192,7458,1,0,0:0:0:0:
448,192,7458,1,0,0:0:0:0:
320,192,7537,1,0,0:0:0:0:
192,192,7616,1,0,0:0:0:0:
448,192,7616,1,0,0:0:0:0:
64,192,7695,1,0,0:0:0:0:
320,192,7774,1,0,0:0:0:0:
448,192,7774,1,0,0:0:0:0:
64,192,7853,1,0,0:0:0:0:
192,192,7853,1,0,0:0:0:0:
64,192,7932,1,0,0:0:0:0:
320,192,7932,1,0,0:0:0:0:
448,192,7932,1,0,0:0:0:0:
320,192,8090,1,0,0:0:0:0:
448,192,8090,1,0,0:0:0:0:
64,192,8247,1,0,0:0:0:0:
192,192,8247,1,0,0:0:0:0:
320,192,8405,1,0,0:0:0:0:
448,192,8405,1,0,0:0:0:0:
64,192,8484,1,0,0:0:0:0:
320,192,8563,1,0,0:0:0:0:
448,192,8563,1,0,0:0:0:0:
192,192,8642,1,0,0:0:0:0:
64,192,8721,1,0,0:0:0:0:
320,192,8721,1,0,0:0:0:0:
192,192,8879,1,0,0:0:0:0:
320,192,8879,1,0,0:0:0:0:
192,192,9037,1,0,0:0:0:0:
448,192,9037,1,0,0:0:0:0:
320,192,9195,1,0,0:0:0:0:
448,192,9195,1,0,0:0:0:0:
320,192,9353,1,0,0:0:0:0:
448,192,9353,1,0,0:0:0:0:
64,192,9511,1,0,0:0:0:0:
448,192,9511,1,0,0:0:0:0:
64,192,9668,1,0,0:0:0:0:
192,192,9668,1,0,0:0:0:0:
320,192,9747,1,0,0:0:0:0:
64,192,9826,1,0,0:0:0:0:
448,192,9826,1,0,0:0:0:0:
192,192,9905,1,0,0:0:0:0:
64,192,9984,1,0,0:0:0:0:
320,192,9984,1,0,0:0:0:0:
192,192,10142,1,0,0:0:0:0:
448,192,10142,1,0,0:0:0:0:
64,192,10300,1,0,0:0:0:0:
320,192,10300,1,0,0:0:0:0:
448,192,10379,1,0,0:0:0:0:
64,192,10458,1,0,0:0:0:0:
192,192,10458,1,0,0:0:0:0:
320,192,10458,1,0,0:0:0:0:
64,192,10616,1,0,0:0:0:0:
192,192,10616,1,0,0:0:0:0:
64,192,10774,1,0,0:0:0:0:
320,0,10774,128,0,10932:1:0:0:0:
448,0,10774,128,0,10932:1:0:0:0:
192,192,10932,1,0,0:0:0:0:
448,192,11011,1,0,0:0:0:0:
64,192,11090,1,0,0:0:0:0:
192,192,11090,1,0,0:0:0:0:
320,192,11168,1,0,0:0:0:0:
64,192,11247,1,0,0:0:0:0:
192,192,11247,1,0,0:0:0:0:
64,192,11405,1,0,0:0:0:0:
320,0,11405,128,0,11484:1:0:0:0:
448,0,11405,128,0,11484:1:0:0:0:
192,0,11563,128,0,11603:1:0:0:0:
448,0,11563,128,0,11603:1:0:0:0:
192,0,11879,128,0,11918:1:0:0:0:
320,0,11879,128,0,11918:1:0:0:0:
64,0,12195,128,0,12234:1:0:0:0:
320,0,12195,128,0,12234:1:0:0:0:
448,192,12274,1,0,0:0:0:0:
64,192,12353,1,0,0:0:0:0:
192,192,12353,1,0,0:0:0:0:
320,192,12432,1,0,0:0:0:0:
64,192,12511,1,0,0:0:0:0:
448,192,12511,1,0,0:0:0:0:
192,192,12590,1,0,0:0:0:0:
64,192,12668,1,0,0:0:0:0:
320,192,12668,1,0,0:0:0:0:
192,192,12747,1,0,0:0:0:0:
320,192,12826,1,0,0:0:0:0:
448,192,12826,1,0,0:0:0:0:
64,192,12905,1,0,0:0:0:0:
192,192,12905,1,0,0:0:0:0:
64,192,12984,1,0,0:0:0:0:
320,192,12984,1,0,0:0:0:0:
448,192,12984,1,0,0:0:0:0:
448,192,13142,1,0,0:0:0:0:
64,192,13300,1,0,0:0:0:0:
192,192,13300,1,0,0:0:0:0:
320,192,13458,1,0,0:0:0:0:
64,192,13537,1,0,0:0:0:0:
192,192,13616,1,0,0:0:0:0:
448,192,13616,1,0,0:0:0:0:
64,192,13695,1,0,0:0:0:0:
320,192,13774,1,0,0:0:0:0:
64,192,13932,1,0,0:0:0:0:
192,192,13932,1,0,0:0:0:0:
64,192,14090,1,0,0:0:0:0:
320,192,14090,1,0,0:0:0:0:
320,192,14247,1,0,0:0:0:0:
448,192,14247,1,0,0:0:0:0:
192,192,14405,1,0,0:0:0:0:
448,192,14405,1,0,0:0:0:0:
64,192,14563,1,0,0:0:0:0:
192,192,14563,1,0,0:0:0:0:
320,192,14721,1,0,0:0:0:0:
64,192,14800,1,0,0:0:0:0:
192,192,14879,1,0,0:0:0:0:
448,192,14879,1,0,0:0:0:0:
64,192,14958,1,0,0:0:0:0:
320,192,15037,1,0,0:0:0:0:
64,192,15195,1,0,0:0:0:0:
192,192,15195,1,0,0:0:0:0:
320,192,15353,1,0,0:0:0:0:
192,192,15432,1,0,0:0:0:0:
64,192,15511,1,0,0:0:0:0:
320,192,15511,1,0,0:0:0:0:
448,192,15511,1,0,0:0:0:0:
448,192,15668,1,0,0:0:0:0:
64,192,15826,1,0,0:0:0:0:
192,192,15826,1,0,0:0:0:0:
192,192,15984,1,0,0:0:0:0:
448,192,16063,1,0,0:0:0:0:
64,192,16142,1,0,0:0:0:0:
320,192,16142,1,0,0:0:0:0:
448,192,16221,1,0,0:0:0:0:
192,192,16300,1,0,0:0:0:0:
320,192,16458,1,0,0:0:0:0:
448,192,16458,1,0,0:0:0:0:
64,192,16616,1,0,0:0:0:0:
192,192,16616,1,0,0:0:0:0:
64,192,16774,1,0,0:0:0:0:
320,192,16774,1,0,0:0:0:0:
448,192,16774,1,0,0:0:0:0:
320,192,16932,1,0,0:0:0:0:
448,192,16932,1,0,0:0:0:0:
64,192,17090,1,0,0:0:0:0:
192,192,17090,1,0,0:0:0:0:
64,192,17247,1,0,0:0:0:0:
320,192,17247,1,0,0:0:0:0:
448,192,17247,1,0,0:0:0:0:
64,192,17563,1,0,0:0:0:0:
192,192,17563,1,0,0:0:0:0:
320,192,17563,1,0,0:0:0:0:
448,192,17642,1,0,0:0:0:0:
448,192,17721,1,0,0:0:0:0:
64,192,17879,1,0,0:0:0:0:
192,192,17879,1,0,0:0:0:0:
64,192,18037,1,0,0:0:0:0:
320,192,18037,1,0,0:0:0:0:
448,192,18037,1,0,0:0:0:0:
448,192,18195,1,0,0:0:0:0:
64,192,18353,1,0,0:0:0:0:
320,192,18353,1,0,0:0:0:0:
192,192,18511,1,0,0:0:0:0:
448,192,18590,1,0,0:0:0:0:
64,192,18668,1,0,0:0:0:0:
320,192,18668,1,0,0:0:0:0:
448,192,18747,1,0,0:0:0:0:
192,192,18826,1,0,0:0:0:0:
320,192,18984,1,0,0:0:0:0:
448,192,18984,1,0,0:0:0:0:
64,192,19142,1,0,0:0:0:0:
320,192,19142,1,0,0:0:0:0:
192,192,19300,1,0,0:0:0:0:
448,192,19300,1,0,0:0:0:0:
448,192,19458,1,0,0:0:0:0:
192,192,19616,1,0,0:0:0:0:
320,192,19616,1,0,0:0:0:0:
192,192,19774,1,0,0:0:0:0:
448,192,19853,1,0,0:0:0:0:
64,192,19932,1,0,0:0:0:0:
320,192,19932,1,0,0:0:0:0:
448,192,20011,1,0,0:0:0:0:
192,192,20090,1,0,0:0:0:0:
320,192,20247,1,0,0:0:0:0:
448,192,20247,1,0,0:0:0:0:
192,192,20405,1,0,0:0:0:0:
320,192,20484,1,0,0:0:0:0:
64,192,20563,1,0,0:0:0:0:
192,192,20563,1,0,0:0:0:0:
448,192,20563,1,0,0:0:0:0:
64,192,20721,1,0,0:0:0:0:
320,192,20879,1,0,0:0:0:0:
448,192,20879,1,0,0:0:0:0:
448,192,21037,1,0,0:0:0:0:
192,192,21116,1,0,0:0:0:0:
320,192,21195,1,0,0:0:0:0:
448,192,21195,1,0,0:0:0:0:
64,192,21274,1,0,0:0:0:0:
320,192,21353,1,0,0:0:0:0:
192,192,21511,1,0,0:0:0:0:
448,192,21511,1,0,0:0:0:0:
64,192,21668,1,0,0:0:0:0:
320,192,21668,1,0,0:0:0:0:
64,192,21826,1,0,0:0:0:0:
192,192,21826,1,0,0:0:0:0:
448,192,21826,1,0,0:0:0:0:
64,192,21984,1,0,0:0:0:0:
320,192,22142,1,0,0:0:0:0:
448,192,22142,1,0,0:0:0:0:
192,192,22300,1,0,0:0:0:0:
448,192,22300,1,0,0:0:0:0:
64,192,22458,1,0,0:0:0:0:
192,192,22458,1,0,0:0:0:0:
320,192,22458,1,0,0:0:0:0:
64,192,22616,1,0,0:0:0:0:
64,192,22695,1,0,0:0:0:0:
320,192,22774,1,0,0:0:0:0:
448,192,22774,1,0,0:0:0:0:
192,192,22853,1,0,0:0:0:0:
320,192,22932,1,0,0:0:0:0:
64,192,23011,1,0,0:0:0:0:
192,192,23090,1,0,0:0:0:0:
320,192,23090,1,0,0:0:0:0:
448,192,23090,1,0,0:0:0:0:
192,192,23247,1,0,0:0:0:0:
448,192,23247,1,0,0:0:0:0:
64,192,23405,1,0,0:0:0:0:
192,192,23405,1,0,0:0:0:0:
320,192,23563,1,0,0:0:0:0:
448,192,23563,1,0,0:0:0:0:
64,192,23642,1,0,0:0:0:0:
192,192,23721,1,0,0:0:0:0:
448,192,23721,1,0,0:0:0:0:
64,192,23800,1,0,0:0:0:0:
320,192,23879,1,0,0:0:0:0:
448,192,23879,1,0,0:0:0:0:
192,192,24037,1,0,0:0:0:0:
448,192,24037,1,0,0:0:0:0:
64,192,24195,1,0,0:0:0:0:
192,192,24195,1,0,0:0:0:0:
64,192,24353,1,0,0:0:0:0:
320,192,24353,1,0,0:0:0:0:
448,192,24353,1,0,0:0:0:0:
320,192,24511,1,0,0:0:0:0:
448,192,24511,1,0,0:0:0:0:
64,192,24668,1,0,0:0:0:0:
192,192,24668,1,0,0:0:0:0:
320,192,24826,1,0,0:0:0:0:
448,192,24826,1,0,0:0:0:0:
64,192,24905,1,0,0:0:0:0:
192,192,24984,1,0,0:0:0:0:
448,192,24984,1,0,0:0:0:0:
64,192,25063,1,0,0:0:0:0:
320,192,25142,1,0,0:0:0:0:
448,192,25142,1,0,0:0:0:0:
64,192,25300,1,0,0:0:0:0:
192,192,25300,1,0,0:0:0:0:
64,192,25458,1,0,0:0:0:0:
320,192,25458,1,0,0:0:0:0:
192,192,25537,1,0,0:0:0:0:
64,192,25616,1,0,0:0:0:0:
320,192,25616,1,0,0:0:0:0:
448,192,25616,1,0,0:0:0:0:
64,192,25774,1,0,0:0:0:0:
320,192,25774,1,0,0:0:0:0:
192,192,25932,1,0,0:0:0:0:
448,192,25932,1,0,0:0:0:0:
64,192,26090,1,0,0:0:0:0:
192,192,26090,1,0,0:0:0:0:
448,192,26168,1,0,0:0:0:0:
64,192,26247,1,0,0:0:0:0:
320,192,26247,1,0,0:0:0:0:
448,192,26326,1,0,0:0:0:0:
64,192,26405,1,0,0:0:0:0:
192,192,26405,1,0,0:0:0:0:
320,192,26563,1,0,0:0:0:0:
448,192,26563,1,0,0:0:0:0:
192,192,26721,1,0,0:0:0:0:
448,192,26721,1,0,0:0:0:0:
64,192,26879,1,0,0:0:0:0:
320,192,26879,1,0,0:0:0:0:
448,192,26879,1,0,0:0:0:0:
64,192,27037,1,0,0:0:0:0:
320,192,27037,1,0,0:0:0:0:
448,192,27037,1,0,0:0:0:0:
64,192,27195,1,0,0:0:0:0:
192,192,27195,1,0,0:0:0:0:
64,192,27353,1,0,0:0:0:0:
320,192,27353,1,0,0:0:0:0:
448,192,27353,1,0,0:0:0:0:
64,192,27668,1,0,0:0:0:0:
192,192,27668,1,0,0:0:0:0:
320,192,27668,1,0,0:0:0:0:
448,192,27747,1,0,0:0:0:0:
448,192,27826,1,0,0:0:0:0:
64,192,27984,1,0,0:0:0:0:
192,192,27984,1,0,0:0:0:0:
320,192,27984,1,0,0:0:0:0:
64,192,28142,1,0,0:0:0:0:
320,192,28142,1,0,0:0:0:0:
448,192,28142,1,0,0:0:0:0:
64,192,28300,1,0,0:0:0:0:
448,192,28300,1,0,0:0:0:0:
192,192,28458,1,0,0:0:0:0:
320,192,28458,1,0,0:0:0:0:
64,192,28616,1,0,0:0:0:0:
192,192,28616,1,0,0:0:0:0:
448,192,28695,1,0,0:0:0:0:
64,192,28774,1,0,0:0:0:0:
320,192,28774,1,0,0:0:0:0:
448,192,28853,1,0,0:0:0:0:
64,192,28932,1,0,0:0:0:0:
192,192,28932,1,0,0:0:0:0:
192,192,29090,1,0,0:0:0:0:
448,192,29090,1,0,0:0:0:0:
64,192,29247,1,0,0:0:0:0:
320,192,29247,1,0,0:0:0:0:
320,192,29405,1,0,0:0:0:0:
448,192,29405,1,0,0:0:0:0:
320,192,29563,1,0,0:0:0:0:
448,192,29563,1,0,0:0:0:0:
64,192,29721,1,0,0:0:0:0:
192,192,29721,1,0,0:0:0:0:
64,192,29879,1,0,0:0:0:0:
192,192,29879,1,0,0:0:0:0:
448,192,29958,1,0,0:0:0:0:
64,192,30037,1,0,0:0:0:0:
320,192,30037,1,0,0:0:0:0:
448,192,30116,1,0,0:0:0:0:
64,192,30195,1,0,0:0:0:0:
192,192,30195,1,0,0:0:0:0:
192,192,30353,1,0,0:0:0:0:
448,192,30353,1,0,0:0:0:0:
192,192,30511,1,0,0:0:0:0:
448,192,30511,1,0,0:0:0:0:
64,192,30590,1,0,0:0:0:0:
192,192,30668,1,0,0:0:0:0:
320,192,30668,1,0,0:0:0:0:
448,192,30668,1,0,0:0:0:0:
192,192,30826,1,0,0:0:0:0:
448,192,30826,1,0,0:0:0:0:
64,192,30984,1,0,0:0:0:0:
192,192,30984,1,0,0:0:0:0:
320,192,31142,1,0,0:0:0:0:
448,192,31142,1,0,0:0:0:0:
64,192,31221,1,0,0:0:0:0:
192,192,31300,1,0,0:0:0:0:
448,192,31300,1,0,0:0:0:0:
64,192,31379,1,0,0:0:0:0:
320,192,31458,1,0,0:0:0:0:
448,192,31458,1,0,0:0:0:0:
64,192,31616,1,0,0:0:0:0:
192,192,31616,1,0,0:0:0:0:
192,192,31774,1,0,0:0:0:0:
448,192,31774,1,0,0:0:0:0:
64,192,31932,1,0,0:0:0:0:
320,192,31932,1,0,0:0:0:0:
448,192,31932,1,0,0:0:0:0:
320,192,32090,1,0,0:0:0:0:
448,192,32090,1,0,0:0:0:0:
64,192,32247,1,0,0:0:0:0:
320,192,32247,1,0,0:0:0:0:
448,192,32247,1,0,0:0:0:0:
64,192,32405,1,0,0:0:0:0:
192,192,32405,1,0,0:0:0:0:
448,192,32405,1,0,0:0:0:0:
64,192,32563,1,0,0:0:0:0:
320,192,32563,1,0,0:0:0:0:
448,192,32563,1,0,0:0:0:0:
192,192,32642,1,0,0:0:0:0:
320,192,32721,1,0,0:0:0:0:
192,192,32800,1,0,0:0:0:0:
320,192,32879,1,0,0:0:0:0:
448,192,32879,1,0,0:0:0:0:
64,192,32958,1,0,0:0:0:0:
320,192,33037,1,0,0:0:0:0:
192,192,33116,1,0,0:0:0:0:
64,192,33195,1,0,0:0:0:0:
320,192,33195,1,0,0:0:0:0:
448,192,33195,1,0,0:0:0:0:
320,192,33353,1,0,0:0:0:0:
448,192,33353,1,0,0:0:0:0:
64,192,33511,1,0,0:0:0:0:
192,192,33511,1,0,0:0:0:0:
320,192,33668,1,0,0:0:0:0:
448,192,33668,1,0,0:0:0:0:
64,192,33747,1,0,0:0:0:0:
192,192,33747,1,0,0:0:0:0:
320,192,33826,1,0,0:0:0:0:
448,192,33826,1,0,0:0:0:0:
192,192,33905,1,0,0:0:0:0:
64,192,33984,1,0,0:0:0:0:
320,192,33984,1,0,0:0:0:0:
192,192,34142,1,0,0:0:0:0:
320,192,34142,1,0,0:0:0:0:
192,192,34300,1,0,0:0:0:0:
448,192,34300,1,0,0:0:0:0:
320,192,34458,1,0,0:0:0:0:
448,192,34458,1,0,0:0:0:0:
320,192,34616,1,0,0:0:0:0:
448,192,34616,1,0,0:0:0:0:
64,192,34774,1,0,0:0:0:0:
448,192,34774,1,0,0:0:0:0:
64,192,34932,1,0,0:0:0:0:
192,192,34932,1,0,0:0:0:0:
320,192,35011,1,0,0:0:0:0:
64,192,35090,1,0,0:0:0:0:
448,192,35090,1,0,0:0:0:0:
192,192,35168,1,0,0:0:0:0:
64,192,35247,1,0,0:0:0:0:
320,192,35247,1,0,0:0:0:0:
192,192,35405,1,0,0:0:0:0:
448,192,35405,1,0,0:0:0:0:
64,192,35563,1,0,0:0:0:0:
320,192,35563,1,0,0:0:0:0:
448,192,35642,1,0,0:0:0:0:
64,192,35721,1,0,0:0:0:0:
192,192,35721,1,0,0:0:0:0:
320,192,35721,1,0,0:0:0:0:
64,192,35879,1,0,0:0:0:0:
192,192,35879,1,0,0:0:0:0:
64,192,36037,1,0,0:0:0:0:
320,0,36037,128,0,36195:1:0:0:0:
448,0,36037,128,0,36195:1:0:0:0:
192,192,36195,1,0,0:0:0:0:
448,192,36274,1,0,0:0:0:0:
64,192,36353,1,0,0:0:0:0:
192,192,36353,1,0,0:0:0:0:
320,192,36432,1,0,0:0:0:0:
64,192,36511,1,0,0:0:0:0:
192,192,36511,1,0,0:0:0:0:
64,192,36668,1,0,0:0:0:0:
320,0,36668,128,0,36747:1:0:0:0:
448,0,36668,128,0,36747:1:0:0:0:
192,0,36826,128,0,36866:1:0:0:0:
448,0,36826,128,0,36866:1:0:0:0:
192,0,37142,128,0,37182:1:0:0:0:
320,0,37142,128,0,37182:1:0:0:0:
64,0,37458,128,0,37497:1:0:0:0:
320,0,37458,128,0,37497:1:0:0:0:
192,192,37537,1,0,0:0:0:0:
320,192,37616,1,0,0:0:0:0:
448,192,37616,1,0,0:0:0:0:
192,192,37695,1,0,0:0:0:0:
64,192,37774,1,0,0:0:0:0:
448,192,37774,1,0,0:0:0:0:
320,192,37853,1,0,0:0:0:0:
192,192,37932,1,0,0:0:0:0:
448,192,37932,1,0,0:0:0:0:
64,192,38011,1,0,0:0:0:0:
320,192,38090,1,0,0:0:0:0:
448,192,38090,1,0,0:0:0:0:
64,192,38168,1,0,0:0:0:0:
192,192,38168,1,0,0:0:0:0:
64,192,38247,1,0,0:0:0:0:
320,192,38247,1,0,0:0:0:0:
448,192,38247,1,0,0:0:0:0:
320,192,38405,1,0,0:0:0:0:
448,192,38405,1,0,0:0:0:0:
64,192,38563,1,0,0:0:0:0:
192,192,38563,1,0,0:0:0:0:
320,192,38721,1,0,0:0:0:0:
448,192,38721,1,0,0:0:0:0:
64,192,38800,1,0,0:0:0:0:
192,192,38800,1,0,0:0:0:0:
320,192,38879,1,0,0:0:0:0:
448,192,38879,1,0,0:0:0:0:
192,192,38958,1,0,0:0:0:0:
64,192,39037,1,0,0:0:0:0:
320,192,39037,1,0,0:0:0:0:
192,192,39195,1,0,0:0:0:0:
320,192,39195,1,0,0:0:0:0:
192,192,39353,1,0,0:0:0:0:
448,192,39353,1,0,0:0:0:0:
320,192,39511,1,0,0:0:0:0:
448,192,39511,1,0,0:0:0:0:
320,192,39668,1,0,0:0:0:0:
448,192,39668,1,0,0:0:0:0:
64,192,39826,1,0,0:0:0:0:
448,192,39826,1,0,0:0:0:0:
64,192,39984,1,0,0:0:0:0:
192,192,39984,1,0,0:0:0:0:
320,192,40063,1,0,0:0:0:0:
64,192,40142,1,0,0:0:0:0:
448,192,40142,1,0,0:0:0:0:
192,192,40221,1,0,0:0:0:0:
64,192,40300,1,0,0:0:0:0:
320,192,40300,1,0,0:0:0:0:
192,192,40458,1,0,0:0:0:0:
448,192,40458,1,0,0:0:0:0:
64,192,40616,1,0,0:0:0:0:
320,192,40616,1,0,0:0:0:0:
448,192,40695,1,0,0:0:0:0:
64,192,40774,1,0,0:0:0:0:
192,192,40774,1,0,0:0:0:0:
320,192,40774,1,0,0:0:0:0:
64,192,40932,1,0,0:0:0:0:
192,192,40932,1,0,0:0:0:0:
64,192,41090,1,0,0:0:0:0:
320,0,41090,128,0,41247:1:0:0:0:
448,0,41090,128,0,41247:1:0:0:0:
192,192,41247,1,0,0:0:0:0:
448,192,41326,1,0,0:0:0:0:
64,192,41405,1,0,0:0:0:0:
192,192,41405,1,0,0:0:0:0:
320,192,41484,1,0,0:0:0:0:
64,192,41563,1,0,0:0:0:0:
192,192,41563,1,0,0:0:0:0:
64,192,41721,1,0,0:0:0:0:
320,0,41721,128,0,41800:1:0:0:0:
448,0,41721,128,0,41800:1:0:0:0:
192,0,41879,128,0,41918:1:0:0:0:
448,0,41879,128,0,41918:1:0:0:0:
192,0,42195,128,0,42234:1:0:0:0:
320,0,42195,128,0,42234:1:0:0:0:
64,0,42511,128,0,42550:1:0:0:0:
320,0,42511,128,0,42550:1:0:0:0:
448,192,42590,1,0,0:0:0:0:
64,192,42668,1,0,0:0:0:0:
192,192,42668,1,0,0:0:0:0:
320,192,42747,1,0,0:0:0:0:
192,192,42826,1,0,0:0:0:0:
448,192,42826,1,0,0:0:0:0:
64,192,42905,1,0,0:0:0:0:
192,192,42984,1,0,0:0:0:0:
320,192,42984,1,0,0:0:0:0:
64,192,43063,1,0,0:0:0:0:
320,192,43142,1,0,0:0:0:0:
448,192,43142,1,0,0:0:0:0:
64,192,43221,1,0,0:0:0:0:
192,192,43221,1,0,0:0:0:0:
64,192,43300,1,0,0:0:0:0:
320,192,43300,1,0,0:0:0:0:
448,192,43300,1,0,0:0:0:0:
448,192,43458,1,0,0:0:0:0:
64,192,43616,1,0,0:0:0:0:
192,192,43616,1,0,0:0:0:0:
320,192,43774,1,0,0:0:0:0:
448,192,43774,1,0,0:0:0:0:
64,192,43853,1,0,0:0:0:0:
192,192,43932,1,0,0:0:0:0:
448,192,43932,1,0,0:0:0:0:
64,192,44011,1,0,0:0:0:0:
320,192,44090,1,0,0:0:0:0:
448,192,44090,1,0,0:0:0:0:
64,192,44247,1,0,0:0:0:0:
192,192,44247,1,0,0:0:0:0:
64,192,44405,1,0,0:0:0:0:
320,192,44405,1,0,0:0:0:0:
320,192,44563,1,0,0:0:0:0:
448,192,44563,1,0,0:0:0:0:
192,192,44721,1,0,0:0:0:0:
448,192,44721,1,0,0:0:0:0:
64,192,44879,1,0,0:0:0:0:
192,192,44879,1,0,0:0:0:0:
320,192,45037,1,0,0:0:0:0:
448,192,45037,1,0,0:0:0:0:
64,192,45116,1,0,0:0:0:0:
192,192,45195,1,0,0:0:0:0:
448,192,45195,1,0,0:0:0:0:
64,192,45274,1,0,0:0:0:0:
320,192,45353,1,0,0:0:0:0:
448,192,45353,1,0,0:0:0:0:
64,192,45511,1,0,0:0:0:0:
192,192,45511,1,0,0:0:0:0:
320,192,45668,1,0,0:0:0:0:
192,192,45747,1,0,0:0:0:0:
64,192,45826,1,0,0:0:0:0:
320,192,45826,1,0,0:0:0:0:
448,192,45826,1,0,0:0:0:0:
320,192,45984,1,0,0:0:0:0:
448,192,45984,1,0,0:0:0:0:
64,192,46142,1,0,0:0:0:0:
192,192,46142,1,0,0:0:0:0:
192,192,46300,1,0,0:0:0:0:
448,192,46300,1,0,0:0:0:0:
320,192,46379,1,0,0:0:0:0:
64,192,46458,1,0,0:0:0:0:
192,192,46458,1,0,0:0:0:0:
320,192,46537,1,0,0:0:0:0:
192,192,46616,1,0,0:0:0:0:
448,192,46616,1,0,0:0:0:0:
320,192,46774,1,0,0:0:0:0:
448,192,46774,1,0,0:0:0:0:
64,192,46932,1,0,0:0:0:0:
192,192,46932,1,0,0:0:0:0:
64,192,47090,1,0,0:0:0:0:
320,192,47090,1,0,0:0:0:0:
448,192,47090,1,0,0:0:0:0:
320,192,47247,1,0,0:0:0:0:
448,192,47247,1,0,0:0:0:0:
64,192,47405,1,0,0:0:0:0:
192,192,47405,1,0,0:0:0:0:
64,192,47563,1,0,0:0:0:0:
320,192,47563,1,0,0:0:0:0:
448,192,47563,1,0,0:0:0:0:
192,192,47879,1,0,0:0:0:0:
320,192,47879,1,0,0:0:0:0:
448,192,47879,1,0,0:0:0:0:
64,192,47958,1,0,0:0:0:0:
64,192,48037,1,0,0:0:0:0:
192,192,48195,1,0,0:0:0:0:
320,192,48195,1,0,0:0:0:0:
64,192,48353,1,0,0:0:0:0:
320,192,48353,1,0,0:0:0:0:
448,192,48353,1,0,0:0:0:0:
192,192,48511,1,0,0:0:0:0:
448,192,48511,1,0,0:0:0:0:
64,192,48668,1,0,0:0:0:0:
320,192,48668,1,0,0:0:0:0:
64,192,48826,1,0,0:0:0:0:
192,192,48826,1,0,0:0:0:0:
448,192,48905,1,0,0:0:0:0:
64,192,48984,1,0,0:0:0:0:
320,192,48984,1,0,0:0:0:0:
448,192,49063,1,0,0:0:0:0:
64,192,49142,1,0,0:0:0:0:
192,192,49142,1,0,0:0:0:0:
320,192,49300,1,0,0:0:0:0:
448,192,49300,1,0,0:0:0:0:
64,192,49458,1,0,0:0:0:0:
320,192,49458,1,0,0:0:0:0:
192,192,49616,1,0,0:0:0:0:
448,192,49616,1,0,0:0:0:0:
192,192,49774,1,0,0:0:0:0:
448,192,49774,1,0,0:0:0:0:
192,192,49932,1,0,0:0:0:0:
320,192,49932,1,0,0:0:0:0:
64,192,50090,1,0,0:0:0:0:
192,192,50090,1,0,0:0:0:0:
448,192,50168,1,0,0:0:0:0:
64,192,50247,1,0,0:0:0:0:
320,192,50247,1,0,0:0:0:0:
448,192,50326,1,0,0:0:0:0:
64,192,50405,1,0,0:0:0:0:
192,192,50405,1,0,0:0:0:0:
320,192,50563,1,0,0:0:0:0:
448,192,50563,1,0,0:0:0:0:
64,192,50721,1,0,0:0:0:0:
192,192,50721,1,0,0:0:0:0:
320,192,50800,1,0,0:0:0:0:
64,192,50879,1,0,0:0:0:0:
192,192,50879,1,0,0:0:0:0:
448,192,50879,1,0,0:0:0:0:
64,192,51037,1,0,0:0:0:0:
192,192,51037,1,0,0:0:0:0:
320,192,51195,1,0,0:0:0:0:
448,192,51195,1,0,0:0:0:0:
192,192,51353,1,0,0:0:0:0:
448,192,51353,1,0,0:0:0:0:
64,192,51432,1,0,0:0:0:0:
320,192,51511,1,0,0:0:0:0:
448,192,51511,1,0,0:0:0:0:
64,192,51590,1,0,0:0:0:0:
192,192,51668,1,0,0:0:0:0:
448,192,51668,1,0,0:0:0:0:
320,192,51826,1,0,0:0:0:0:
448,192,51826,1,0,0:0:0:0:
64,192,51984,1,0,0:0:0:0:
320,192,51984,1,0,0:0:0:0:
64,192,52142,1,0,0:0:0:0:
192,192,52142,1,0,0:0:0:0:
448,192,52142,1,0,0:0:0:0:
64,192,52300,1,0,0:0:0:0:
192,192,52300,1,0,0:0:0:0:
320,192,52458,1,0,0:0:0:0:
448,192,52458,1,0,0:0:0:0:
192,192,52616,1,0,0:0:0:0:
448,192,52616,1,0,0:0:0:0:
64,192,52774,1,0,0:0:0:0:
192,192,52774,1,0,0:0:0:0:
64,192,52932,1,0,0:0:0:0:
64,192,53011,1,0,0:0:0:0:
320,192,53090,1,0,0:0:0:0:
448,192,53090,1,0,0:0:0:0:
192,192,53168,1,0,0:0:0:0:
320,192,53247,1,0,0:0:0:0:
64,192,53326,1,0,0:0:0:0:
192,192,53405,1,0,0:0:0:0:
320,192,53405,1,0,0:0:0:0:
448,192,53405,1,0,0:0:0:0:
192,192,53563,1,0,0:0:0:0:
448,192,53563,1,0,0:0:0:0:
64,192,53721,1,0,0:0:0:0:
192,192,53721,1,0,0:0:0:0:
320,192,53879,1,0,0:0:0:0:
448,192,53879,1,0,0:0:0:0:
64,192,53958,1,0,0:0:0:0:
192,192,54037,1,0,0:0:0:0:
448,192,54037,1,0,0:0:0:0:
64,192,54116,1,0,0:0:0:0:
320,192,54195,1,0,0:0:0:0:
448,192,54195,1,0,0:0:0:0:
192,192,54353,1,0,0:0:0:0:
448,192,54353,1,0,0:0:0:0:
64,192,54511,1,0,0:0:0:0:
192,192,54511,1,0,0:0:0:0:
64,192,54668,1,0,0:0:0:0:
320,192,54668,1,0,0:0:0:0:
448,192,54668,1,0,0:0:0:0:
320,192,54826,1,0,0:0:0:0:
448,192,54826,1,0,0:0:0:0:
64,192,54984,1,0,0:0:0:0:
192,192,54984,1,0,0:0:0:0:
320,192,55142,1,0,0:0:0:0:
448,192,55142,1,0,0:0:0:0:
64,192,55221,1,0,0:0:0:0:
192,192,55300,1,0,0:0:0:0:
448,192,55300,1,0,0:0:0:0:
64,192,55379,1,0,0:0:0:0:
320,192,55458,1,0,0:0:0:0:
448,192,55458,1,0,0:0:0:0:
64,192,55616,1,0,0:0:0:0:
192,192,55616,1,0,0:0:0:0:
64,192,55774,1,0,0:0:0:0:
320,192,55774,1,0,0:0:0:0:
192,192,55853,1,0,0:0:0:0:
64,192,55932,1,0,0:0:0:0:
320,192,55932,1,0,0:0:0:0:
448,192,55932,1,0,0:0:0:0:
64,192,56090,1,0,0:0:0:0:
320,192,56090,1,0,0:0:0:0:
192,192,56247,1,0,0:0:0:0:
448,192,56247,1,0,0:0:0:0:
64,192,56405,1,0,0:0:0:0:
192,192,56405,1,0,0:0:0:0:
448,192,56484,1,0,0:0:0:0:
64,192,56563,1,0,0:0:0:0:
320,192,56563,1,0,0:0:0:0:
448,192,56642,1,0,0:0:0:0:
64,192,56721,1,0,0:0:0:0:
192,192,56721,1,0,0:0:0:0:
320,192,56879,1,0,0:0:0:0:
448,192,56879,1,0,0:0:0:0:
192,192,57037,1,0,0:0:0:0:
448,192,57037,1,0,0:0:0:0:
64,192,57195,1,0,0:0:0:0:
320,192,57195,1,0,0:0:0:0:
448,192,57195,1,0,0:0:0:0:
64,192,57353,1,0,0:0:0:0:
320,192,57353,1,0,0:0:0:0:
448,192,57353,1,0,0:0:0:0:
64,192,57511,1,0,0:0:0:0:
192,192,57511,1,0,0:0:0:0:
64,192,57668,1,0,0:0:0:0:
320,192,57668,1,0,0:0:0:0:
448,192,57668,1,0,0:0:0:0:
192,192,57984,1,0,0:0:0:0:
320,192,57984,1,0,0:0:0:0:
448,192,57984,1,0,0:0:0:0:
64,192,58063,1,0,0:0:0:0:
64,192,58142,1,0,0:0:0:0:
192,192,58300,1,0,0:0:0:0:
320,192,58300,1,0,0:0:0:0:
448,192,58300,1,0,0:0:0:0:
64,192,58458,1,0,0:0:0:0:
320,192,58458,1,0,0:0:0:0:
448,192,58458,1,0,0:0:0:0:
64,192,58616,1,0,0:0:0:0:
448,192,58616,1,0,0:0:0:0:
192,192,58774,1,0,0:0:0:0:
320,192,58774,1,0,0:0:0:0:
64,192,58932,1,0,0:0:0:0:
192,192,58932,1,0,0:0:0:0:
448,192,59011,1,0,0:0:0:0:
64,192,59090,1,0,0:0:0:0:
320,192,59090,1,0,0:0:0:0:
448,192,59168,1,0,0:0:0:0:
64,192,59247,1,0,0:0:0:0:
192,192,59247,1,0,0:0:0:0:
192,192,59405,1,0,0:0:0:0:
448,192,59405,1,0,0:0:0:0:
64,192,59563,1,0,0:0:0:0:
320,192,59563,1,0,0:0:0:0:
320,192,59721,1,0,0:0:0:0:
448,192,59721,1,0,0:0:0:0:
320,192,59879,1,0,0:0:0:0:
448,192,59879,1,0,0:0:0:0:
64,192,60037,1,0,0:0:0:0:
192,192,60037,1,0,0:0:0:0:
64,192,60195,1,0,0:0:0:0:
192,192,60195,1,0,0:0:0:0:
448,192,60274,1,0,0:0:0:0:
64,192,60353,1,0,0:0:0:0:
320,192,60353,1,0,0:0:0:0:
448,192,60432,1,0,0:0:0:0:
64,192,60511,1,0,0:0:0:0:
192,192,60511,1,0,0:0:0:0:
192,192,60668,1,0,0:0:0:0:
448,192,60668,1,0,0:0:0:0:
192,192,60826,1,0,0:0:0:0:
448,192,60826,1,0,0:0:0:0:
64,192,60905,1,0,0:0:0:0:
192,192,60984,1,0,0:0:0:0:
320,192,60984,1,0,0:0:0:0:
448,192,60984,1,0,0:0:0:0:
192,192,61142,1,0,0:0:0:0:
448,192,61142,1,0,0:0:0:0:
64,192,61300,1,0,0:0:0:0:
192,192,61300,1,0,0:0:0:0:
320,192,61458,1,0,0:0:0:0:
448,192,61458,1,0,0:0:0:0:
64,192,61537,1,0,0:0:0:0:
192,192,61616,1,0,0:0:0:0:
448,192,61616,1,0,0:0:0:0:
64,192,61695,1,0,0:0:0:0:
320,192,61774,1,0,0:0:0:0:
448,192,61774,1,0,0:0:0:0:
64,192,61932,1,0,0:0:0:0:
192,192,61932,1,0,0:0:0:0:
192,192,62090,1,0,0:0:0:0:
448,192,62090,1,0,0:0:0:0:
64,192,62247,1,0,0:0:0:0:
320,192,62247,1,0,0:0:0:0:
448,192,62247,1,0,0:0:0:0:
320,192,62405,1,0,0:0:0:0:
448,192,62405,1,0,0:0:0:0:
64,192,62563,1,0,0:0:0:0:
320,192,62563,1,0,0:0:0:0:
448,192,62563,1,0,0:0:0:0:
64,192,62721,1,0,0:0:0:0:
192,192,62721,1,0,0:0:0:0:
448,192,62721,1,0,0:0:0:0:
64,192,62879,1,0,0:0:0:0:
320,192,62879,1,0,0:0:0:0:
448,192,62879,1,0,0:0:0:0:
192,192,62958,1,0,0:0:0:0:
320,192,63037,1,0,0:0:0:0:
192,192,63116,1,0,0:0:0:0:
320,192,63195,1,0,0:0:0:0:
448,192,63195,1,0,0:0:0:0:
64,192,63274,1,0,0:0:0:0:
320,192,63353,1,0,0:0:0:0:
192,192,63432,1,0,0:0:0:0:
320,192,63511,1,0,0:0:0:0:
64,0,63511,128,0,63826:1:0:0:0:
448,0,63511,128,0,63826:1:0:0:0:
320,192,63826,1,0,0:0:0:0:
320,192,63984,1,0,0:0:0:0:
64,192,64063,1,0,0:0:0:0:
192,0,64142,128,0,64300:1:0:0:0:
448,0,64142,128,0,64300:1:0:0:0:
192,192,64458,1,0,0:0:0:0:
448,192,64458,1,0,0:0:0:0:
64,0,64616,128,0,64774:1:0:0:0:
448,0,64616,128,0,64774:1:0:0:0:
320,192,64774,1,0,0:0:0:0:
192,192,64932,1,0,0:0:0:0:
448,192,65090,1,0,0:0:0:0:
320,192,65247,1,0,0:0:0:0:
64,192,65326,1,0,0:0:0:0:
192,0,65405,128,0,65563:1:0:0:0:
448,0,65405,128,0,65563:1:0:0:0:
64,192,65563,1,0,0:0:0:0:
320,0,65721,128,0,65879:1:0:0:0:
448,0,65721,128,0,65879:1:0:0:0:
64,192,65879,1,0,0:0:0:0:
192,192,65879,1,0,0:0:0:0:
320,192,66037,1,0,0:0:0:0:
64,0,66037,128,0,66353:1:0:0:0:
448,0,66037,128,0,66353:1:0:0:0:
320,192,66353,1,0,0:0:0:0:
320,192,66511,1,0,0:0:0:0:
64,192,66590,1,0,0:0:0:0:
192,0,66668,128,0,66826:1:0:0:0:
448,0,66668,128,0,66826:1:0:0:0:
192,192,66984,1,0,0:0:0:0:
448,192,66984,1,0,0:0:0:0:
64,0,67142,128,0,67300:1:0:0:0:
448,0,67142,128,0,67300:1:0:0:0:
320,192,67300,1,0,0:0:0:0:
192,192,67458,1,0,0:0:0:0:
448,192,67616,1,0,0:0:0:0:
320,192,67774,1,0,0:0:0:0:
64,192,67853,1,0,0:0:0:0:
192,0,67932,128,0,68090:1:0:0:0:
448,0,67932,128,0,68090:1:0:0:0:
64,192,68090,1,0,0:0:0:0:
64,192,68247,1,0,0:0:0:0:
448,192,68247,1,0,0:0:0:0:
192,192,68326,1,0,0:0:0:0:
320,192,68326,1,0,0:0:0:0:
64,192,68405,1,0,0:0:0:0:
448,192,68405,1,0,0:0:0:0:
192,192,68484,1,0,0:0:0:0:
320,192,68563,1,0,0:0:0:0:
64,0,68563,128,0,68879:1:0:0:0:
448,0,68563,128,0,68879:1:0:0:0:
320,192,68879,1,0,0:0:0:0:
320,192,69037,1,0,0:0:0:0:
64,192,69116,1,0,0:0:0:0:
192,0,69195,128,0,69353:1:0:0:0:
448,0,69195,128,0,69353:1:0:0:0:
192,192,69511,1,0,0:0:0:0:
448,192,69511,1,0,0:0:0:0:
64,0,69668,128,0,69826:1:0:0:0:
448,0,69668,128,0,69826:1:0:0:0:
320,192,69826,1,0,0:0:0:0:
192,192,69984,1,0,0:0:0:0:
448,192,70142,1,0,0:0:0:0:
320,192,70300,1,0,0:0:0:0:
64,192,70379,1,0,0:0:0:0:
192,0,70458,128,0,70616:1:0:0:0:
448,0,70458,128,0,70616:1:0:0:0:
64,192,70616,1,0,0:0:0:0:
320,192,70774,1,0,0:0:0:0:
448,192,70774,1,0,0:0:0:0:
64,192,70853,1,0,0:0:0:0:
192,192,70853,1,0,0:0:0:0:
320,192,70932,1,0,0:0:0:0:
448,192,70932,1,0,0:0:0:0:
64,192,71011,1,0,0:0:0:0:
192,192,71011,1,0,0:0:0:0:
64,192,71090,1,0,0:0:0:0:
192,192,71090,1,0,0:0:0:0:
320,192,71090,1,0,0:0:0:0:
448,0,71090,128,0,71326:1:0:0:0:
64,192,71405,1,0,0:0:0:0:
192,192,71405,1,0,0:0:0:0:
320,192,71405,1,0,0:0:0:0:
448,192,71405,1,0,0:0:0:0:
64,192,71721,1,0,0:0:0:0:
192,192,71721,1,0,0:0:0:0:
448,192,71721,1,0,0:0:0:0:
320,0,71721,128,0,71879:1:0:0:0:
64,192,72037,1,0,0:0:0:0:
320,192,72037,1,0,0:0:0:0:
448,192,72037,1,0,0:0:0:0:
192,0,72037,128,0,72195:1:0:0:0:
64,192,72353,1,0,0:0:0:0:
192,192,72353,1,0,0:0:0:0:
320,192,72353,1,0,0:0:0:0:
64,192,72511,1,0,0:0:0:0:
192,192,72511,1,0,0:0:0:0:
320,192,72511,1,0,0:0:0:0:
64,192,72984,1,0,0:0:0:0:
192,192,72984,1,0,0:0:0:0:
320,192,72984,1,0,0:0:0:0:
448,192,72984,1,0,0:0:0:0:
64,192,73142,1,0,0:0:0:0:
192,192,73142,1,0,0:0:0:0:
320,192,73142,1,0,0:0:0:0:
448,192,73142,1,0,0:0:0:0:
448,192,73300,1,0,0:0:0:0:
192,192,73379,1,0,0:0:0:0:
320,192,73458,1,0,0:0:0:0:
64,192,73537,1,0,0:0:0:0:
192,192,73616,1,0,0:0:0:0:
320,192,73616,1,0,0:0:0:0:
448,192,73616,1,0,0:0:0:0:
64,192,73695,1,0,0:0:0:0:
320,192,73774,1,0,0:0:0:0:
448,192,73774,1,0,0:0:0:0:
192,192,73853,1,0,0:0:0:0:
64,192,73932,1,0,0:0:0:0:
448,192,73932,1,0,0:0:0:0:
320,192,74011,1,0,0:0:0:0:
64,192,74090,1,0,0:0:0:0:
192,192,74090,1,0,0:0:0:0:
320,192,74168,1,0,0:0:0:0:
64,192,74247,1,0,0:0:0:0:
448,192,74247,1,0,0:0:0:0:
192,192,74326,1,0,0:0:0:0:
320,192,74326,1,0,0:0:0:0:
64,192,74405,1,0,0:0:0:0:
448,192,74405,1,0,0:0:0:0:
192,192,74484,1,0,0:0:0:0:
64,192,74563,1,0,0:0:0:0:
320,192,74563,1,0,0:0:0:0:
448,192,74642,1,0,0:0:0:0:
64,192,74721,1,0,0:0:0:0:
192,192,74721,1,0,0:0:0:0:
320,192,74800,1,0,0:0:0:0:
64,192,74879,1,0,0:0:0:0:
448,192,74879,1,0,0:0:0:0:
192,192,74958,1,0,0:0:0:0:
320,192,75037,1,0,0:0:0:0:
448,192,75037,1,0,0:0:0:0:
64,192,75116,1,0,0:0:0:0:
192,192,75195,1,0,0:0:0:0:
448,192,75195,1,0,0:0:0:0:
320,192,75274,1,0,0:0:0:0:
64,192,75353,1,0,0:0:0:0:
192,192,75353,1,0,0:0:0:0:
320,192,75432,1,0,0:0:0:0:
448,192,75432,1,0,0:0:0:0:
64,192,75511,1,0,0:0:0:0:
192,192,75511,1,0,0:0:0:0:
448,192,75590,1,0,0:0:0:0:
64,192,75668,1,0,0:0:0:0:
192,192,75668,1,0,0:0:0:0:
448,192,75747,1,0,0:0:0:0:
64,192,75826,1,0,0:0:0:0:
320,192,75826,1,0,0:0:0:0:
192,192,75905,1,0,0:0:0:0:
64,192,75984,1,0,0:0:0:0:
448,192,75984,1,0,0:0:0:0:
320,192,76063,1,0,0:0:0:0:
64,192,76142,1,0,0:0:0:0:
192,192,76142,1,0,0:0:0:0:
448,192,76142,1,0,0:0:0:0:
320,192,76221,1,0,0:0:0:0:
64,192,76300,1,0,0:0:0:0:
192,192,76379,1,0,0:0:0:0:
320,192,76458,1,0,0:0:0:0:
448,192,76458,1,0,0:0:0:0:
192,192,76537,1,0,0:0:0:0:
448,192,76616,1,0,0:0:0:0:
64,0,76616,128,0,76655:1:0:0:0:
320,0,76616,128,0,76655:1:0:0:0:
192,192,76695,1,0,0:0:0:0:
448,192,76774,1,0,0:0:0:0:
64,192,76853,1,0,0:0:0:0:
192,0,76932,128,0,77011:1:0:0:0:
320,0,76932,128,0,77011:1:0:0:0:
64,192,77011,1,0,0:0:0:0:
448,192,77090,1,0,0:0:0:0:
192,192,77168,1,0,0:0:0:0:
320,0,77247,128,0,77563:1:0:0:0:
448,0,77247,128,0,77563:1:0:0:0:
192,192,77563,1,0,0:0:0:0:
64,192,77642,1,0,0:0:0:0:
320,192,77721,1,0,0:0:0:0:
448,192,77721,1,0,0:0:0:0:
64,192,77800,1,0,0:0:0:0:
448,192,77879,1,0,0:0:0:0:
320,192,77958,1,0,0:0:0:0:
64,192,78037,1,0,0:0:0:0:
192,192,78037,1,0,0:0:0:0:
448,192,78116,1,0,0:0:0:0:
64,192,78195,1,0,0:0:0:0:
320,192,78195,1,0,0:0:0:0:
192,192,78274,1,0,0:0:0:0:
320,192,78353,1,0,0:0:0:0:
448,192,78353,1,0,0:0:0:0:
64,192,78432,1,0,0:0:0:0:
192,192,78432,1,0,0:0:0:0:
320,192,78511,1,0,0:0:0:0:
448,192,78511,1,0,0:0:0:0:
64,192,78590,1,0,0:0:0:0:
192,192,78590,1,0,0:0:0:0:
320,192,78668,1,0,0:0:0:0:
448,192,78668,1,0,0:0:0:0:
64,192,78747,1,0,0:0:0:0:
192,192,78826,1,0,0:0:0:0:
448,192,78826,1,0,0:0:0:0:
320,192,78905,1,0,0:0:0:0:
192,192,78984,1,0,0:0:0:0:
448,192,78984,1,0,0:0:0:0:
64,192,79063,1,0,0:0:0:0:
320,192,79063,1,0,0:0:0:0:
192,192,79142,1,0,0:0:0:0:
448,192,79142,1,0,0:0:0:0:
320,192,79221,1,0,0:0:0:0:
64,192,79300,1,0,0:0:0:0:
192,192,79300,1,0,0:0:0:0:
448,192,79379,1,0,0:0:0:0:
64,192,79458,1,0,0:0:0:0:
320,192,79458,1,0,0:0:0:0:
448,192,79537,1,0,0:0:0:0:
64,192,79616,1,0,0:0:0:0:
320,192,79616,1,0,0:0:0:0:
192,192,79695,1,0,0:0:0:0:
64,192,79774,1,0,0:0:0:0:
448,192,79774,1,0,0:0:0:0:
320,192,79853,1,0,0:0:0:0:
64,192,79932,1,0,0:0:0:0:
192,192,79932,1,0,0:0:0:0:
448,192,80011,1,0,0:0:0:0:
64,192,80090,1,0,0:0:0:0:
320,192,80090,1,0,0:0:0:0:
192,192,80168,1,0,0:0:0:0:
64,192,80247,1,0,0:0:0:0:
320,192,80247,1,0,0:0:0:0:
448,192,80326,1,0,0:0:0:0:
64,192,80405,1,0,0:0:0:0:
192,192,80405,1,0,0:0:0:0:
320,192,80484,1,0,0:0:0:0:
448,192,80484,1,0,0:0:0:0:
64,192,80563,1,0,0:0:0:0:
192,192,80563,1,0,0:0:0:0:
448,192,80642,1,0,0:0:0:0:
64,192,80721,1,0,0:0:0:0:
320,192,80721,1,0,0:0:0:0:
192,192,80800,1,0,0:0:0:0:
320,192,80879,1,0,0:0:0:0:
448,192,80879,1,0,0:0:0:0:
192,192,80958,1,0,0:0:0:0:
64,192,81037,1,0,0:0:0:0:
448,192,81037,1,0,0:0:0:0:
320,192,81116,1,0,0:0:0:0:
64,192,81195,1,0,0:0:0:0:
192,192,81195,1,0,0:0:0:0:
448,192,81195,1,0,0:0:0:0:
320,192,81274,1,0,0:0:0:0:
64,192,81353,1,0,0:0:0:0:
192,192,81353,1,0,0:0:0:0:
320,192,81432,1,0,0:0:0:0:
192,192,81511,1,0,0:0:0:0:
448,192,81511,1,0,0:0:0:0:
320,192,81590,1,0,0:0:0:0:
64,0,81668,128,0,81708:1:0:0:0:
192,0,81668,128,0,81708:1:0:0:0:
448,0,81668,128,0,81708:1:0:0:0:
320,192,81747,1,0,0:0:0:0:
448,192,81826,1,0,0:0:0:0:
64,192,81905,1,0,0:0:0:0:
192,0,81984,128,0,82063:1:0:0:0:
320,0,81984,128,0,82063:1:0:0:0:
448,0,81984,128,0,82063:1:0:0:0:
64,192,82063,1,0,0:0:0:0:
320,192,82142,1,0,0:0:0:0:
448,192,82142,1,0,0:0:0:0:
192,192,82221,1,0,0:0:0:0:
64,0,82300,128,0,82616:1:0:0:0:
320,0,82300,128,0,82616:1:0:0:0:
448,0,82300,128,0,82616:1:0:0:0:
192,192,82616,1,0,0:0:0:0:
320,192,82695,1,0,0:0:0:0:
64,192,82774,1,0,0:0:0:0:
448,192,82774,1,0,0:0:0:0:
320,192,82853,1,0,0:0:0:0:
192,192,82932,1,0,0:0:0:0:
64,192,83011,1,0,0:0:0:0:
192,192,83090,1,0,0:0:0:0:
320,192,83090,1,0,0:0:0:0:
448,192,83090,1,0,0:0:0:0:
64,192,83168,1,0,0:0:0:0:
320,192,83247,1,0,0:0:0:0:
192,192,83326,1,0,0:0:0:0:
320,192,83405,1,0,0:0:0:0:
448,192,83405,1,0,0:0:0:0:
64,192,83484,1,0,0:0:0:0:
192,192,83484,1,0,0:0:0:0:
320,192,83563,1,0,0:0:0:0:
448,192,83563,1,0,0:0:0:0:
64,192,83642,1,0,0:0:0:0:
192,192,83642,1,0,0:0:0:0:
320,192,83721,1,0,0:0:0:0:
448,192,83721,1,0,0:0:0:0:
64,192,83800,1,0,0:0:0:0:
320,192,83879,1,0,0:0:0:0:
448,192,83879,1,0,0:0:0:0:
192,192,83958,1,0,0:0:0:0:
64,192,84037,1,0,0:0:0:0:
448,192,84037,1,0,0:0:0:0:
320,192,84116,1,0,0:0:0:0:
64,192,84195,1,0,0:0:0:0:
192,192,84195,1,0,0:0:0:0:
320,192,84274,1,0,0:0:0:0:
64,192,84353,1,0,0:0:0:0:
448,192,84353,1,0,0:0:0:0:
192,192,84432,1,0,0:0:0:0:
320,192,84432,1,0,0:0:0:0:
64,192,84511,1,0,0:0:0:0:
448,192,84511,1,0,0:0:0:0:
192,192,84590,1,0,0:0:0:0:
64,192,84668,1,0,0:0:0:0:
320,192,84668,1,0,0:0:0:0:
448,192,84747,1,0,0:0:0:0:
64,192,84826,1,0,0:0:0:0:
192,192,84826,1,0,0:0:0:0:
320,192,84905,1,0,0:0:0:0:
64,192,84984,1,0,0:0:0:0:
448,192,84984,1,0,0:0:0:0:
192,192,85063,1,0,0:0:0:0:
64,192,85142,1,0,0:0:0:0:
448,192,85142,1,0,0:0:0:0:
320,192,85221,1,0,0:0:0:0:
64,192,85300,1,0,0:0:0:0:
192,192,85300,1,0,0:0:0:0:
448,192,85379,1,0,0:0:0:0:
64,192,85458,1,0,0:0:0:0:
320,192,85458,1,0,0:0:0:0:
192,192,85537,1,0,0:0:0:0:
448,192,85537,1,0,0:0:0:0:
64,192,85616,1,0,0:0:0:0:
320,192,85616,1,0,0:0:0:0:
448,192,85695,1,0,0:0:0:0:
64,192,85774,1,0,0:0:0:0:
192,192,85774,1,0,0:0:0:0:
320,192,85853,1,0,0:0:0:0:
192,192,85932,1,0,0:0:0:0:
448,192,85932,1,0,0:0:0:0:
320,192,86011,1,0,0:0:0:0:
64,192,86090,1,0,0:0:0:0:
192,192,86090,1,0,0:0:0:0:
448,192,86168,1,0,0:0:0:0:
64,192,86247,1,0,0:0:0:0:
192,192,86247,1,0,0:0:0:0:
320,192,86247,1,0,0:0:0:0:
448,192,86326,1,0,0:0:0:0:
192,192,86405,1,0,0:0:0:0:
320,192,86484,1,0,0:0:0:0:
64,192,86563,1,0,0:0:0:0:
448,192,86563,1,0,0:0:0:0:
320,192,86642,1,0,0:0:0:0:
192,0,86721,128,0,86761:1:0:0:0:
448,0,86721,128,0,86761:1:0:0:0:
64,192,86800,1,0,0:0:0:0:
320,192,86879,1,0,0:0:0:0:
64,192,86958,1,0,0:0:0:0:
192,0,87037,128,0,87116:1:0:0:0:
320,0,87037,128,0,87116:1:0:0:0:
448,192,87116,1,0,0:0:0:0:
64,192,87195,1,0,0:0:0:0:
320,192,87274,1,0,0:0:0:0:
64,0,87353,128,0,87668:1:0:0:0:
448,0,87353,128,0,87668:1:0:0:0:
192,192,87668,1,0,0:0:0:0:
320,192,87747,1,0,0:0:0:0:
64,192,87826,1,0,0:0:0:0:
448,192,87826,1,0,0:0:0:0:
320,192,87905,1,0,0:0:0:0:
192,192,87984,1,0,0:0:0:0:
448,192,88063,1,0,0:0:0:0:
64,192,88142,1,0,0:0:0:0:
192,192,88142,1,0,0:0:0:0:
448,192,88221,1,0,0:0:0:0:
64,192,88300,1,0,0:0:0:0:
320,192,88300,1,0,0:0:0:0:
192,192,88379,1,0,0:0:0:0:
320,192,88458,1,0,0:0:0:0:
448,192,88458,1,0,0:0:0:0:
64,192,88537,1,0,0:0:0:0:
192,192,88537,1,0,0:0:0:0:
320,192,88616,1,0,0:0:0:0:
448,192,88616,1,0,0:0:0:0:
64,192,88695,1,0,0:0:0:0:
192,192,88695,1,0,0:0:0:0:
320,192,88774,1,0,0:0:0:0:
448,192,88774,1,0,0:0:0:0:
64,192,88853,1,0,0:0:0:0:
192,192,88932,1,0,0:0:0:0:
448,192,88932,1,0,0:0:0:0:
320,192,89011,1,0,0:0:0:0:
64,192,89090,1,0,0:0:0:0:
448,192,89090,1,0,0:0:0:0:
192,192,89168,1,0,0:0:0:0:
320,192,89168,1,0,0:0:0:0:
64,192,89247,1,0,0:0:0:0:
448,192,89247,1,0,0:0:0:0:
320,192,89326,1,0,0:0:0:0:
64,192,89405,1,0,0:0:0:0:
192,192,89405,1,0,0:0:0:0:
320,192,89484,1,0,0:0:0:0:
64,192,89563,1,0,0:0:0:0:
448,192,89563,1,0,0:0:0:0:
192,192,89642,1,0,0:0:0:0:
320,192,89721,1,0,0:0:0:0:
448,192,89721,1,0,0:0:0:0:
192,192,89800,1,0,0:0:0:0:
64,192,89879,1,0,0:0:0:0:
320,192,89879,1,0,0:0:0:0:
448,192,89879,1,0,0:0:0:0:
192,192,89958,1,0,0:0:0:0:
320,192,90037,1,0,0:0:0:0:
448,192,90037,1,0,0:0:0:0:
192,192,90116,1,0,0:0:0:0:
64,192,90195,1,0,0:0:0:0:
320,192,90195,1,0,0:0:0:0:
448,192,90274,1,0,0:0:0:0:
64,192,90353,1,0,0:0:0:0:
192,192,90353,1,0,0:0:0:0:
320,192,90353,1,0,0:0:0:0:
448,192,90432,1,0,0:0:0:0:
64,192,90511,1,0,0:0:0:0:
320,192,90511,1,0,0:0:0:0:
192,192,90590,1,0,0:0:0:0:
64,192,90668,1,0,0:0:0:0:
320,192,90668,1,0,0:0:0:0:
448,192,90668,1,0,0:0:0:0:
192,192,90747,1,0,0:0:0:0:
320,192,90826,1,0,0:0:0:0:
448,192,90826,1,0,0:0:0:0:
64,192,90905,1,0,0:0:0:0:
192,192,90905,1,0,0:0:0:0:
320,192,90984,1,0,0:0:0:0:
448,192,90984,1,0,0:0:0:0:
64,192,91063,1,0,0:0:0:0:
192,192,91142,1,0,0:0:0:0:
448,192,91142,1,0,0:0:0:0:
64,192,91221,1,0,0:0:0:0:
320,192,91221,1,0,0:0:0:0:
192,192,91300,1,0,0:0:0:0:
448,192,91300,1,0,0:0:0:0:
64,192,91379,1,0,0:0:0:0:
320,192,91458,1,0,0:0:0:0:
448,192,91458,1,0,0:0:0:0:
192,192,91537,1,0,0:0:0:0:
64,192,91616,1,0,0:0:0:0:
448,192,91616,1,0,0:0:0:0:
320,192,91695,1,0,0:0:0:0:
64,192,91774,1,0,0:0:0:0:
192,192,91774,1,0,0:0:0:0:
320,192,91853,1,0,0:0:0:0:
64,192,91932,1,0,0:0:0:0:
448,192,91932,1,0,0:0:0:0:
192,192,92011,1,0,0:0:0:0:
320,192,92011,1,0,0:0:0:0:
64,192,92090,1,0,0:0:0:0:
448,192,92090,1,0,0:0:0:0:
192,192,92168,1,0,0:0:0:0:
64,192,92247,1,0,0:0:0:0:
320,192,92247,1,0,0:0:0:0:
448,192,92326,1,0,0:0:0:0:
64,192,92405,1,0,0:0:0:0:
192,192,92405,1,0,0:0:0:0:
320,192,92484,1,0,0:0:0:0:
64,192,92563,1,0,0:0:0:0:
448,192,92563,1,0,0:0:0:0:
192,192,92642,1,0,0:0:0:0:
320,192,92721,1,0,0:0:0:0:
448,192,92721,1,0,0:0:0:0:
64,192,92800,1,0,0:0:0:0:
192,192,92879,1,0,0:0:0:0:
448,192,92879,1,0,0:0:0:0:
320,192,92958,1,0,0:0:0:0:
64,192,93037,1,0,0:0:0:0:
192,192,93037,1,0,0:0:0:0:
320,192,93116,1,0,0:0:0:0:
448,192,93116,1,0,0:0:0:0:
64,192,93195,1,0,0:0:0:0:
192,192,93195,1,0,0:0:0:0:
448,192,93274,1,0,0:0:0:0:
64,192,93353,1,0,0:0:0:0:
192,192,93353,1,0,0:0:0:0:
448,192,93432,1,0,0:0:0:0:
64,192,93511,1,0,0:0:0:0:
320,192,93511,1,0,0:0:0:0:
192,192,93590,1,0,0:0:0:0:
64,192,93668,1,0,0:0:0:0:
448,192,93668,1,0,0:0:0:0:
320,192,93747,1,0,0:0:0:0:
64,192,93826,1,0,0:0:0:0:
192,192,93826,1,0,0:0:0:0:
448,192,93826,1,0,0:0:0:0:
320,192,93905,1,0,0:0:0:0:
64,192,93984,1,0,0:0:0:0:
192,192,94063,1,0,0:0:0:0:
320,192,94142,1,0,0:0:0:0:
448,192,94142,1,0,0:0:0:0:
192,192,94221,1,0,0:0:0:0:
448,192,94300,1,0,0:0:0:0:
64,0,94300,128,0,94340:1:0:0:0:
320,0,94300,128,0,94340:1:0:0:0:
192,192,94379,1,0,0:0:0:0:
448,192,94458,1,0,0:0:0:0:
64,192,94537,1,0,0:0:0:0:
192,0,94616,128,0,94695:1:0:0:0:
320,0,94616,128,0,94695:1:0:0:0:
64,192,94695,1,0,0:0:0:0:
448,192,94774,1,0,0:0:0:0:
192,192,94853,1,0,0:0:0:0:
320,0,94932,128,0,95247:1:0:0:0:
448,0,94932,128,0,95247:1:0:0:0:
192,192,95247,1,0,0:0:0:0:
64,192,95326,1,0,0:0:0:0:
320,192,95405,1,0,0:0:0:0:
448,192,95405,1,0,0:0:0:0:
64,192,95484,1,0,0:0:0:0:
448,192,95563,1,0,0:0:0:0:
320,192,95642,1,0,0:0:0:0:
64,192,95721,1,0,0:0:0:0:
192,192,95721,1,0,0:0:0:0:
448,192,95800,1,0,0:0:0:0:
64,192,95879,1,0,0:0:0:0:
320,192,95879,1,0,0:0:0:0:
192,192,95958,1,0,0:0:0:0:
320,192,96037,1,0,0:0:0:0:
448,192,96037,1,0,0:0:0:0:
64,192,96116,1,0,0:0:0:0:
192,192,96116,1,0,0:0:0:0:
320,192,96195,1,0,0:0:0:0:
448,192,96195,1,0,0:0:0:0:
64,192,96274,1,0,0:0:0:0:
192,192,96274,1,0,0:0:0:0:
320,192,96353,1,0,0:0:0:0:
448,192,96353,1,0,0:0:0:0:
64,192,96432,1,0,0:0:0:0:
192,192,96511,1,0,0:0:0:0:
448,192,96511,1,0,0:0:0:0:
320,192,96590,1,0,0:0:0:0:
192,192,96668,1,0,0:0:0:0:
448,192,96668,1,0,0:0:0:0:
64,192,96747,1,0,0:0:0:0:
320,192,96747,1,0,0:0:0:0:
192,192,96826,1,0,0:0:0:0:
448,192,96826,1,0,0:0:0:0:
320,192,96905,1,0,0:0:0:0:
64,192,96984,1,0,0:0:0:0:
192,192,96984,1,0,0:0:0:0:
448,192,97063,1,0,0:0:0:0:
64,192,97142,1,0,0:0:0:0:
320,192,97142,1,0,0:0:0:0:
448,192,97221,1,0,0:0:0:0:
64,192,97300,1,0,0:0:0:0:
320,192,97300,1,0,0:0:0:0:
192,192,97379,1,0,0:0:0:0:
64,192,97458,1,0,0:0:0:0:
448,192,97458,1,0,0:0:0:0:
320,192,97537,1,0,0:0:0:0:
64,192,97616,1,0,0:0:0:0:
192,192,97616,1,0,0:0:0:0:
448,192,97695,1,0,0:0:0:0:
64,192,97774,1,0,0:0:0:0:
320,192,97774,1,0,0:0:0:0:
192,192,97853,1,0,0:0:0:0:
64,192,97932,1,0,0:0:0:0:
320,192,97932,1,0,0:0:0:0:
448,192,98011,1,0,0:0:0:0:
64,192,98090,1,0,0:0:0:0:
192,192,98090,1,0,0:0:0:0:
320,192,98168,1,0,0:0:0:0:
448,192,98168,1,0,0:0:0:0:
64,192,98247,1,0,0:0:0:0:
192,192,98247,1,0,0:0:0:0:
448,192,98326,1,0,0:0:0:0:
64,192,98405,1,0,0:0:0:0:
320,192,98405,1,0,0:0:0:0:
192,192,98484,1,0,0:0:0:0:
320,192,98563,1,0,0:0:0:0:
448,192,98563,1,0,0:0:0:0:
192,192,98642,1,0,0:0:0:0:
64,192,98721,1,0,0:0:0:0:
448,192,98721,1,0,0:0:0:0:
320,192,98800,1,0,0:0:0:0:
64,192,98879,1,0,0:0:0:0:
192,192,98879,1,0,0:0:0:0:
448,192,98879,1,0,0:0:0:0:
320,192,98958,1,0,0:0:0:0:
64,192,99037,1,0,0:0:0:0:
192,192,99037,1,0,0:0:0:0:
320,192,99116,1,0,0:0:0:0:
192,192,99195,1,0,0:0:0:0:
448,192,99195,1,0,0:0:0:0:
320,192,99274,1,0,0:0:0:0:
64,0,99353,128,0,99392:1:0:0:0:
192,0,99353,128,0,99392:1:0:0:0:
448,0,99353,128,0,99392:1:0:0:0:
320,192,99432,1,0,0:0:0:0:
448,192,99511,1,0,0:0:0:0:
64,192,99590,1,0,0:0:0:0:
192,0,99668,128,0,99747:1:0:0:0:
320,0,99668,128,0,99747:1:0:0:0:
448,0,99668,128,0,99747:1:0:0:0:
64,192,99747,1,0,0:0:0:0:
320,192,99826,1,0,0:0:0:0:
448,192,99826,1,0,0:0:0:0:
192,192,99905,1,0,0:0:0:0:
64,0,99984,128,0,100300:1:0:0:0:
320,0,99984,128,0,100300:1:0:0:0:
448,0,99984,128,0,100300:1:0:0:0:
192,192,100300,1,0,0:0:0:0:
320,192,100379,1,0,0:0:0:0:
64,192,100458,1,0,0:0:0:0:
448,192,100458,1,0,0:0:0:0:
320,192,100537,1,0,0:0:0:0:
192,192,100616,1,0,0:0:0:0:
64,192,100695,1,0,0:0:0:0:
192,192,100774,1,0,0:0:0:0:
320,192,100774,1,0,0:0:0:0:
448,192,100774,1,0,0:0:0:0:
64,192,100853,1,0,0:0:0:0:
320,192,100932,1,0,0:0:0:0:
192,192,101011,1,0,0:0:0:0:
320,192,101090,1,0,0:0:0:0:
448,192,101090,1,0,0:0:0:0:
64,192,101168,1,0,0:0:0:0:
192,192,101168,1,0,0:0:0:0:
320,192,101247,1,0,0:0:0:0:
448,192,101247,1,0,0:0:0:0:
64,192,101326,1,0,0:0:0:0:
192,192,101326,1,0,0:0:0:0:
320,192,101405,1,0,0:0:0:0:
448,192,101405,1,0,0:0:0:0:
64,192,101484,1,0,0:0:0:0:
320,192,101563,1,0,0:0:0:0:
448,192,101563,1,0,0:0:0:0:
192,192,101642,1,0,0:0:0:0:
64,192,101721,1,0,0:0:0:0:
448,192,101721,1,0,0:0:0:0:
320,192,101800,1,0,0:0:0:0:
64,192,101879,1,0,0:0:0:0:
192,192,101879,1,0,0:0:0:0:
320,192,101958,1,0,0:0:0:0:
64,192,102037,1,0,0:0:0:0:
448,192,102037,1,0,0:0:0:0:
192,192,102116,1,0,0:0:0:0:
320,192,102116,1,0,0:0:0:0:
64,192,102195,1,0,0:0:0:0:
448,192,102195,1,0,0:0:0:0:
192,192,102274,1,0,0:0:0:0:
64,192,102353,1,0,0:0:0:0:
320,192,102353,1,0,0:0:0:0:
448,192,102432,1,0,0:0:0:0:
64,192,102511,1,0,0:0:0:0:
192,192,102511,1,0,0:0:0:0:
320,192,102590,1,0,0:0:0:0:
64,192,102668,1,0,0:0:0:0:
448,192,102668,1,0,0:0:0:0:
192,192,102747,1,0,0:0:0:0:
64,192,102826,1,0,0:0:0:0:
448,192,102826,1,0,0:0:0:0:
320,192,102905,1,0,0:0:0:0:
64,192,102984,1,0,0:0:0:0:
192,192,102984,1,0,0:0:0:0:
448,192,103063,1,0,0:0:0:0:
64,192,103142,1,0,0:0:0:0:
320,192,103142,1,0,0:0:0:0:
192,192,103221,1,0,0:0:0:0:
448,192,103221,1,0,0:0:0:0:
64,192,103300,1,0,0:0:0:0:
320,192,103300,1,0,0:0:0:0:
448,192,103379,1,0,0:0:0:0:
64,192,103458,1,0,0:0:0:0:
192,192,103458,1,0,0:0:0:0:
320,192,103537,1,0,0:0:0:0:
192,192,103616,1,0,0:0:0:0:
448,192,103616,1,0,0:0:0:0:
320,192,103695,1,0,0:0:0:0:
64,192,103774,1,0,0:0:0:0:
192,192,103774,1,0,0:0:0:0:
448,192,103853,1,0,0:0:0:0:
64,192,103932,1,0,0:0:0:0:
192,192,103932,1,0,0:0:0:0:
320,192,103932,1,0,0:0:0:0:
448,192,104011,1,0,0:0:0:0:
192,192,104090,1,0,0:0:0:0:
320,192,104168,1,0,0:0:0:0:
64,192,104247,1,0,0:0:0:0:
448,192,104247,1,0,0:0:0:0:
320,192,104326,1,0,0:0:0:0:
192,0,104405,128,0,104445:1:0:0:0:
448,0,104405,128,0,104445:1:0:0:0:
64,192,104484,1,0,0:0:0:0:
320,192,104563,1,0,0:0:0:0:
64,192,104642,1,0,0:0:0:0:
192,0,104721,128,0,104800:1:0:0:0:
320,0,104721,128,0,104800:1:0:0:0:
448,192,104800,1,0,0:0:0:0:
64,192,104879,1,0,0:0:0:0:
320,192,104958,1,0,0:0:0:0:
64,0,105037,128,0,105353:1:0:0:0:
448,0,105037,128,0,105353:1:0:0:0:
192,192,105353,1,0,0:0:0:0:
320,192,105432,1,0,0:0:0:0:
64,192,105511,1,0,0:0:0:0:
448,192,105511,1,0,0:0:0:0:
320,192,105590,1,0,0:0:0:0:
192,192,105668,1,0,0:0:0:0:
448,192,105747,1,0,0:0:0:0:
64,192,105826,1,0,0:0:0:0:
192,192,105826,1,0,0:0:0:0:
448,192,105905,1,0,0:0:0:0:
64,192,105984,1,0,0:0:0:0:
320,192,105984,1,0,0:0:0:0:
192,192,106063,1,0,0:0:0:0:
320,192,106142,1,0,0:0:0:0:
448,192,106142,1,0,0:0:0:0:
64,192,106221,1,0,0:0:0:0:
192,192,106221,1,0,0:0:0:0:
320,192,106300,1,0,0:0:0:0:
448,192,106300,1,0,0:0:0:0:
64,192,106379,1,0,0:0:0:0:
192,192,106379,1,0,0:0:0:0:
320,192,106458,1,0,0:0:0:0:
448,192,106458,1,0,0:0:0:0:
64,192,106537,1,0,0:0:0:0:
192,192,106616,1,0,0:0:0:0:
448,192,106616,1,0,0:0:0:0:
320,192,106695,1,0,0:0:0:0:
64,192,106774,1,0,0:0:0:0:
448,192,106774,1,0,0:0:0:0:
192,192,106853,1,0,0:0:0:0:
320,192,106853,1,0,0:0:0:0:
64,192,106932,1,0,0:0:0:0:
448,192,106932,1,0,0:0:0:0:
320,192,107011,1,0,0:0:0:0:
64,192,107090,1,0,0:0:0:0:
192,192,107090,1,0,0:0:0:0:
320,192,107168,1,0,0:0:0:0:
64,192,107247,1,0,0:0:0:0:
448,192,107247,1,0,0:0:0:0:
192,192,107326,1,0,0:0:0:0:
320,192,107405,1,0,0:0:0:0:
448,192,107405,1,0,0:0:0:0:
192,192,107484,1,0,0:0:0:0:
320,192,107563,1,0,0:0:0:0:
448,192,107563,1,0,0:0:0:0:
64,0,107563,128,0,108668:1:0:0:0:
64,192,108984,1,0,0:0:0:0:
320,192,108984,1,0,0:0:0:0:
448,192,108984,1,0,0:0:0:0:
320,192,109142,1,0,0:0:0:0:
448,192,109142,1,0,0:0:0:0:
64,192,109300,1,0,0:0:0:0:
192,192,109300,1,0,0:0:0:0:
320,192,109458,1,0,0:0:0:0:
448,192,109458,1,0,0:0:0:0:
64,192,109537,1,0,0:0:0:0:
320,192,109616,1,0,0:0:0:0:
448,192,109616,1,0,0:0:0:0:
192,192,109695,1,0,0:0:0:0:
64,192,109774,1,0,0:0:0:0:
320,192,109774,1,0,0:0:0:0:
192,192,109932,1,0,0:0:0:0:
320,192,109932,1,0,0:0:0:0:
192,192,110090,1,0,0:0:0:0:
448,192,110090,1,0,0:0:0:0:
320,192,110247,1,0,0:0:0:0:
448,192,110247,1,0,0:0:0:0:
320,192,110405,1,0,0:0:0:0:
448,192,110405,1,0,0:0:0:0:
64,192,110563,1,0,0:0:0:0:
448,192,110563,1,0,0:0:0:0:
64,192,110721,1,0,0:0:0:0:
192,192,110721,1,0,0:0:0:0:
320,192,110800,1,0,0:0:0:0:
64,192,110879,1,0,0:0:0:0:
448,192,110879,1,0,0:0:0:0:
192,192,110958,1,0,0:0:0:0:
64,192,111037,1,0,0:0:0:0:
320,192,111037,1,0,0:0:0:0:
192,192,111195,1,0,0:0:0:0:
448,192,111195,1,0,0:0:0:0:
64,192,111353,1,0,0:0:0:0:
320,192,111353,1,0,0:0:0:0:
448,192,111432,1,0,0:0:0:0:
64,192,111511,1,0,0:0:0:0:
192,192,111511,1,0,0:0:0:0:
320,192,111511,1,0,0:0:0:0:
64,192,111668,1,0,0:0:0:0:
192,192,111668,1,0,0:0:0:0:
448,192,111668,1,0,0:0:0:0:
64,192,111826,1,0,0:0:0:0:
320,0,111826,128,0,111984:1:0:0:0:
448,0,111826,128,0,111984:1:0:0:0:
64,192,111984,1,0,0:0:0:0:
192,192,111984,1,0,0:0:0:0:
448,192,112063,1,0,0:0:0:0:
64,192,112142,1,0,0:0:0:0:
192,192,112142,1,0,0:0:0:0:
320,192,112221,1,0,0:0:0:0:
64,192,112300,1,0,0:0:0:0:
192,192,112300,1,0,0:0:0:0:
448,192,112300,1,0,0:0:0:0:
64,192,112458,1,0,0:0:0:0:
320,0,112458,128,0,112537:1:0:0:0:
448,0,112458,128,0,112537:1:0:0:0:
320,192,112616,1,0,0:0:0:0:
192,0,112616,128,0,112655:1:0:0:0:
448,0,112616,128,0,112655:1:0:0:0:
64,192,112932,1,0,0:0:0:0:
192,0,112932,128,0,112971:1:0:0:0:
320,0,112932,128,0,112971:1:0:0:0:
448,192,113247,1,0,0:0:0:0:
64,0,113247,128,0,113287:1:0:0:0:
320,0,113247,128,0,113287:1:0:0:0:
192,192,113326,1,0,0:0:0:0:
64,192,113405,1,0,0:0:0:0:
320,192,113405,1,0,0:0:0:0:
448,192,113405,1,0,0:0:0:0:
192,192,113484,1,0,0:0:0:0:
64,192,113563,1,0,0:0:0:0:
448,192,113563,1,0,0:0:0:0:
320,192,113642,1,0,0:0:0:0:
192,192,113721,1,0,0:0:0:0:
448,192,113721,1,0,0:0:0:0:
64,192,113800,1,0,0:0:0:0:
320,192,113879,1,0,0:0:0:0:
448,192,113879,1,0,0:0:0:0:
64,192,113958,1,0,0:0:0:0:
192,192,113958,1,0,0:0:0:0:
64,192,114037,1,0,0:0:0:0:
320,192,114037,1,0,0:0:0:0:
448,192,114037,1,0,0:0:0:0:
192,192,114195,1,0,0:0:0:0:
320,192,114195,1,0,0:0:0:0:
448,192,114195,1,0,0:0:0:0:
64,192,114353,1,0,0:0:0:0:
192,192,114353,1,0,0:0:0:0:
448,192,114353,1,0,0:0:0:0:
192,192,114511,1,0,0:0:0:0:
320,192,114511,1,0,0:0:0:0:
448,192,114511,1,0,0:0:0:0:
64,192,114590,1,0,0:0:0:0:
320,192,114668,1,0,0:0:0:0:
448,192,114668,1,0,0:0:0:0:
192,192,114747,1,0,0:0:0:0:
64,192,114826,1,0,0:0:0:0:
320,192,114826,1,0,0:0:0:0:
448,192,114826,1,0,0:0:0:0:
64,192,114984,1,0,0:0:0:0:
192,192,114984,1,0,0:0:0:0:
320,192,114984,1,0,0:0:0:0:
192,192,115142,1,0,0:0:0:0:
320,192,115142,1,0,0:0:0:0:
448,192,115142,1,0,0:0:0:0:
64,192,115300,1,0,0:0:0:0:
320,192,115300,1,0,0:0:0:0:
448,192,115300,1,0,0:0:0:0:
192,192,115458,1,0,0:0:0:0:
320,192,115458,1,0,0:0:0:0:
448,192,115458,1,0,0:0:0:0:
64,192,115616,1,0,0:0:0:0:
320,192,115616,1,0,0:0:0:0:
448,192,115616,1,0,0:0:0:0:
64,192,115774,1,0,0:0:0:0:
192,192,115774,1,0,0:0:0:0:
448,192,115774,1,0,0:0:0:0:
320,192,115853,1,0,0:0:0:0:
64,192,115932,1,0,0:0:0:0:
448,192,115932,1,0,0:0:0:0:
192,192,116011,1,0,0:0:0:0:
64,192,116090,1,0,0:0:0:0:
320,192,116090,1,0,0:0:0:0:
448,192,116090,1,0,0:0:0:0:
64,192,116247,1,0,0:0:0:0:
192,192,116247,1,0,0:0:0:0:
448,192,116247,1,0,0:0:0:0:
64,192,116405,1,0,0:0:0:0:
192,192,116405,1,0,0:0:0:0:
320,192,116405,1,0,0:0:0:0:
448,192,116484,1,0,0:0:0:0:
64,192,116563,1,0,0:0:0:0:
192,192,116563,1,0,0:0:0:0:
320,192,116563,1,0,0:0:0:0:
64,192,116721,1,0,0:0:0:0:
192,192,116721,1,0,0:0:0:0:
448,192,116721,1,0,0:0:0:0:
64,192,116879,1,0,0:0:0:0:
320,0,116879,128,0,117037:1:0:0:0:
448,0,116879,128,0,117037:1:0:0:0:
64,192,117037,1,0,0:0:0:0:
192,192,117037,1,0,0:0:0:0:
448,192,117116,1,0,0:0:0:0:
64,192,117195,1,0,0:0:0:0:
192,192,117195,1,0,0:0:0:0:
320,192,117274,1,0,0:0:0:0:
64,192,117353,1,0,0:0:0:0:
192,192,117353,1,0,0:0:0:0:
448,192,117353,1,0,0:0:0:0:
64,192,117511,1,0,0:0:0:0:
320,0,117511,128,0,117590:1:0:0:0:
448,0,117511,128,0,117590:1:0:0:0:
192,0,117668,128,0,117708:1:0:0:0:
448,0,117668,128,0,117708:1:0:0:0:
192,0,117984,128,0,118024:1:0:0:0:
320,0,117984,128,0,118024:1:0:0:0:
64,192,118063,1,0,0:0:0:0:
320,192,118142,1,0,0:0:0:0:
192,192,118221,1,0,0:0:0:0:
448,192,118300,1,0,0:0:0:0:
64,0,118300,128,0,118340:1:0:0:0:
320,0,118300,128,0,118340:1:0:0:0:
192,192,118379,1,0,0:0:0:0:
448,192,118458,1,0,0:0:0:0:
320,192,118478,1,0,0:0:0:0:
64,192,118497,1,0,0:0:0:0:
192,192,118517,1,0,0:0:0:0:
448,192,118537,1,0,0:0:0:0:
320,192,118557,1,0,0:0:0:0:
64,192,118576,1,0,0:0:0:0:
192,192,118596,1,0,0:0:0:0:
448,192,118616,1,0,0:0:0:0:
192,192,118695,1,0,0:0:0:0:
448,192,118774,1,0,0:0:0:0:
320,192,118813,1,0,0:0:0:0:
192,192,118853,1,0,0:0:0:0:
64,192,118892,1,0,0:0:0:0:
448,192,118932,1,0,0:0:0:0:
320,192,118971,1,0,0:0:0:0:
192,192,119011,1,0,0:0:0:0:
64,192,119050,1,0,0:0:0:0:
192,192,119090,1,0,0:0:0:0:
320,192,119090,1,0,0:0:0:0:
448,192,119090,1,0,0:0:0:0:
64,192,119247,1,0,0:0:0:0:
320,192,119247,1,0,0:0:0:0:
448,192,119247,1,0,0:0:0:0:
64,192,119405,1,0,0:0:0:0:
192,192,119405,1,0,0:0:0:0:
320,192,119405,1,0,0:0:0:0:
448,192,119405,1,0,0:0:0:0:
192,192,119563,1,0,0:0:0:0:
320,192,119563,1,0,0:0:0:0:
448,192,119563,1,0,0:0:0:0:
64,192,119642,1,0,0:0:0:0:
320,192,119721,1,0,0:0:0:0:
448,192,119721,1,0,0:0:0:0:
192,192,119800,1,0,0:0:0:0:
64,192,119879,1,0,0:0:0:0:
320,192,119879,1,0,0:0:0:0:
448,192,119879,1,0,0:0:0:0:
64,192,120037,1,0,0:0:0:0:
192,192,120037,1,0,0:0:0:0:
320,192,120037,1,0,0:0:0:0:
448,192,120037,1,0,0:0:0:0:
192,192,120195,1,0,0:0:0:0:
448,192,120195,1,0,0:0:0:0:
64,192,120353,1,0,0:0:0:0:
320,192,120353,1,0,0:0:0:0:
448,192,120353,1,0,0:0:0:0:
192,192,120511,1,0,0:0:0:0:
320,192,120511,1,0,0:0:0:0:
448,192,120511,1,0,0:0:0:0:
64,192,120668,1,0,0:0:0:0:
192,192,120668,1,0,0:0:0:0:
320,192,120668,1,0,0:0:0:0:
448,192,120668,1,0,0:0:0:0:
64,192,120826,1,0,0:0:0:0:
192,192,120826,1,0,0:0:0:0:
448,192,120826,1,0,0:0:0:0:
320,192,120905,1,0,0:0:0:0:
64,192,120984,1,0,0:0:0:0:
448,192,120984,1,0,0:0:0:0:
192,192,121063,1,0,0:0:0:0:
64,192,121142,1,0,0:0:0:0:
320,192,121142,1,0,0:0:0:0:
448,192,121142,1,0,0:0:0:0:
64,192,121300,1,0,0:0:0:0:
192,192,121300,1,0,0:0:0:0:
320,192,121300,1,0,0:0:0:0:
448,192,121300,1,0,0:0:0:0:
64,192,121458,1,0,0:0:0:0:
192,192,121458,1,0,0:0:0:0:
320,192,121458,1,0,0:0:0:0:
448,192,121537,1,0,0:0:0:0:
64,192,121616,1,0,0:0:0:0:
192,192,121616,1,0,0:0:0:0:
320,192,121616,1,0,0:0:0:0:
64,192,121774,1,0,0:0:0:0:
192,192,121774,1,0,0:0:0:0:
320,192,121774,1,0,0:0:0:0:
64,192,121932,1,0,0:0:0:0:
192,192,121932,1,0,0:0:0:0:
320,0,121932,128,0,122090:1:0:0:0:
448,0,121932,128,0,122090:1:0:0:0:
64,192,122090,1,0,0:0:0:0:
192,192,122090,1,0,0:0:0:0:
448,192,122168,1,0,0:0:0:0:
64,192,122247,1,0,0:0:0:0:
192,192,122247,1,0,0:0:0:0:
320,192,122326,1,0,0:0:0:0:
64,192,122405,1,0,0:0:0:0:
192,192,122405,1,0,0:0:0:0:
448,192,122405,1,0,0:0:0:0:
64,192,122563,1,0,0:0:0:0:
192,192,122563,1,0,0:0:0:0:
320,0,122563,128,0,122642:1:0:0:0:
448,0,122563,128,0,122642:1:0:0:0:
320,192,122721,1,0,0:0:0:0:
192,0,122721,128,0,122761:1:0:0:0:
448,0,122721,128,0,122761:1:0:0:0:
64,192,123037,1,0,0:0:0:0:
192,0,123037,128,0,123076:1:0:0:0:
320,0,123037,128,0,123076:1:0:0:0:
448,192,123353,1,0,0:0:0:0:
64,0,123353,128,0,123392:1:0:0:0:
320,0,123353,128,0,123392:1:0:0:0:
192,192,123432,1,0,0:0:0:0:
64,192,123511,1,0,0:0:0:0:
320,192,123511,1,0,0:0:0:0:
448,192,123511,1,0,0:0:0:0:
192,192,123590,1,0,0:0:0:0:
64,192,123668,1,0,0:0:0:0:
448,192,123668,1,0,0:0:0:0:
320,192,123747,1,0,0:0:0:0:
192,192,123826,1,0,0:0:0:0:
448,192,123826,1,0,0:0:0:0:
64,192,123905,1,0,0:0:0:0:
320,192,123984,1,0,0:0:0:0:
448,192,123984,1,0,0:0:0:0:
64,192,124063,1,0,0:0:0:0:
192,192,124063,1,0,0:0:0:0:
64,192,124142,1,0,0:0:0:0:
320,192,124142,1,0,0:0:0:0:
448,192,124142,1,0,0:0:0:0:
192,192,124300,1,0,0:0:0:0:
320,192,124300,1,0,0:0:0:0:
448,192,124300,1,0,0:0:0:0:
64,192,124458,1,0,0:0:0:0:
192,192,124458,1,0,0:0:0:0:
448,192,124458,1,0,0:0:0:0:
192,192,124616,1,0,0:0:0:0:
320,192,124616,1,0,0:0:0:0:
448,192,124616,1,0,0:0:0:0:
64,192,124695,1,0,0:0:0:0:
320,192,124774,1,0,0:0:0:0:
448,192,124774,1,0,0:0:0:0:
192,192,124853,1,0,0:0:0:0:
64,192,124932,1,0,0:0:0:0:
320,192,124932,1,0,0:0:0:0:
448,192,124932,1,0,0:0:0:0:
64,192,125090,1,0,0:0:0:0:
192,192,125090,1,0,0:0:0:0:
320,192,125090,1,0,0:0:0:0:
64,192,125247,1,0,0:0:0:0:
192,192,125247,1,0,0:0:0:0:
448,192,125247,1,0,0:0:0:0:
192,192,125405,1,0,0:0:0:0:
320,192,125405,1,0,0:0:0:0:
448,192,125405,1,0,0:0:0:0:
64,192,125563,1,0,0:0:0:0:
320,192,125563,1,0,0:0:0:0:
448,192,125563,1,0,0:0:0:0:
64,192,125721,1,0,0:0:0:0:
192,192,125721,1,0,0:0:0:0:
448,192,125721,1,0,0:0:0:0:
64,192,125879,1,0,0:0:0:0:
192,192,125879,1,0,0:0:0:0:
448,192,125879,1,0,0:0:0:0:
320,192,125958,1,0,0:0:0:0:
64,192,126037,1,0,0:0:0:0:
448,192,126037,1,0,0:0:0:0:
192,192,126116,1,0,0:0:0:0:
64,192,126195,1,0,0:0:0:0:
320,192,126195,1,0,0:0:0:0:
448,192,126195,1,0,0:0:0:0:
192,192,126353,1,0,0:0:0:0:
320,192,126353,1,0,0:0:0:0:
448,192,126353,1,0,0:0:0:0:
64,192,126511,1,0,0:0:0:0:
192,192,126511,1,0,0:0:0:0:
320,192,126511,1,0,0:0:0:0:
448,192,126590,1,0,0:0:0:0:
64,192,126668,1,0,0:0:0:0:
192,192,126668,1,0,0:0:0:0:
320,192,126668,1,0,0:0:0:0:
64,192,126826,1,0,0:0:0:0:
192,192,126826,1,0,0:0:0:0:
64,192,126984,1,0,0:0:0:0:
320,0,126984,128,0,127142:1:0:0:0:
448,0,126984,128,0,127142:1:0:0:0:
192,192,127142,1,0,0:0:0:0:
448,192,127221,1,0,0:0:0:0:
64,192,127300,1,0,0:0:0:0:
192,192,127300,1,0,0:0:0:0:
320,192,127379,1,0,0:0:0:0:
64,192,127458,1,0,0:0:0:0:
192,192,127458,1,0,0:0:0:0:
64,192,127616,1,0,0:0:0:0:
320,0,127616,128,0,127695:1:0:0:0:
448,0,127616,128,0,127695:1:0:0:0:
192,0,127774,128,0,127813:1:0:0:0:
448,0,127774,128,0,127813:1:0:0:0:
192,0,128090,128,0,128129:1:0:0:0:
320,0,128090,128,0,128129:1:0:0:0:
64,0,128405,128,0,128445:1:0:0:0:
320,0,128405,128,0,128445:1:0:0:0:
448,192,128484,1,0,0:0:0:0:
64,192,128563,1,0,0:0:0:0:
192,192,128563,1,0,0:0:0:0:
320,192,128642,1,0,0:0:0:0:
64,192,128721,1,0,0:0:0:0:
448,192,128721,1,0,0:0:0:0:
192,192,128800,1,0,0:0:0:0:
64,192,128879,1,0,0:0:0:0:
320,192,128879,1,0,0:0:0:0:
192,192,128958,1,0,0:0:0:0:
320,192,129037,1,0,0:0:0:0:
448,192,129037,1,0,0:0:0:0:
64,192,129116,1,0,0:0:0:0:
192,192,129116,1,0,0:0:0:0:
