osu file format v14

[General]
AudioFilename: Kagami no Mary Sue.mp3
AudioLeadIn: 2
PreviewTime: 64940
Countdown: 0
SampleSet: None
StackLeniency: 0.7
Mode: 3
LetterboxInBreaks: 0
SpecialStyle: 0
WidescreenStoryboard: 0

[Editor]
DistanceSpacing: 0.8
BeatDivisor: 4
GridSize: 8
TimelineZoom: 4.399998

[Metadata]
Title:dakemoto's Collection Pack Vol.2
TitleUnicode:dakemoto's Collection Pack Vol.2
Artist:Various Artist
ArtistUnicode:Various Artist
Creator:dakemoto
Version:Kagami no Mary Sue (Challenge)
Source:Stepmania
Tags:
BeatmapID:741032
BeatmapSetID:334680

[Difficulty]
HPDrainRate:7
CircleSize:4
OverallDifficulty:8
ApproachRate:10
SliderMultiplier:1.4
SliderTickRate:1

[Events]
//Background and Video events
0,0,"Kagami no Mary Sue bg.jpg",0,0
//Break Periods
//Storyboard Layer 0 (Background)
//Storyboard Layer 1 (Fail)
//Storyboard Layer 2 (Pass)
//Storyboard Layer 3 (Foreground)
//Storyboard Sound Samples

[TimingPoints]
72,324.324324324324,4,1,0,15,1,0
44180.3,324.3243,4,1,0,15,1,0

[HitObjects]
64,192,2666,5,0,0:0:0:0:
320,192,2666,1,0,0:0:0:0:
64,192,2990,1,0,0:0:0:0:
64,192,3315,1,0,0:0:0:0:
64,192,3639,1,0,0:0:0:0:
64,192,3963,1,0,0:0:0:0:
64,192,4288,1,0,0:0:0:0:
64,192,4612,1,0,0:0:0:0:
64,192,4936,1,0,0:0:0:0:
192,192,5261,1,0,0:0:0:0:
448,192,5261,1,0,0:0:0:0:
192,192,5585,1,0,0:0:0:0:
192,192,5909,1,0,0:0:0:0:
192,192,6234,1,0,0:0:0:0:
192,192,6558,1,0,0:0:0:0:
192,192,6882,1,0,0:0:0:0:
192,192,7207,1,0,0:0:0:0:
320,192,7207,1,0,0:0:0:0:
64,192,7450,1,0,0:0:0:0:
192,192,7531,1,0,0:0:0:0:
448,192,7693,1,0,0:0:0:0:
64,192,7774,1,0,0:0:0:0:
320,192,7855,1,0,0:0:0:0:
448,192,7855,1,0,0:0:0:0:
320,192,8180,1,0,0:0:0:0:
320,192,8504,1,0,0:0:0:0:
320,192,8828,1,0,0:0:0:0:
320,192,9153,1,0,0:0:0:0:
320,192,9477,1,0,0:0:0:0:
320,192,9801,1,0,0:0:0:0:
320,192,10126,1,0,0:0:0:0:
320,192,10450,1,0,0:0:0:0:
64,192,10774,1,0,0:0:0:0:
320,192,10774,1,0,0:0:0:0:
320,192,11099,1,0,0:0:0:0:
320,192,11423,1,0,0:0:0:0:
320,192,11747,1,0,0:0:0:0:
448,192,11828,1,0,0:0:0:0:
320,192,12072,1,0,0:0:0:0:
64,192,12396,1,0,0:0:0:0:
320,192,12396,1,0,0:0:0:0:
192,192,12639,1,0,0:0:0:0:
320,192,12720,1,0,0:0:0:0:
448,192,12882,1,0,0:0:0:0:
64,192,13044,1,0,0:0:0:0:
320,192,13044,1,0,0:0:0:0:
64,192,13369,1,0,0:0:0:0:
64,192,13693,1,0,0:0:0:0:
64,192,14017,1,0,0:0:0:0:
64,192,14342,1,0,0:0:0:0:
64,192,14666,1,0,0:0:0:0:
64,192,14990,1,0,0:0:0:0:
64,192,15315,1,0,0:0:0:0:
192,192,15639,1,0,0:0:0:0:
448,192,15639,1,0,0:0:0:0:
192,192,15963,1,0,0:0:0:0:
192,192,16288,1,0,0:0:0:0:
192,192,16612,1,0,0:0:0:0:
192,192,16936,1,0,0:0:0:0:
192,192,17261,1,0,0:0:0:0:
192,192,17585,1,0,0:0:0:0:
448,192,17585,1,0,0:0:0:0:
64,192,17828,1,0,0:0:0:0:
192,192,17909,1,0,0:0:0:0:
448,192,18072,1,0,0:0:0:0:
192,192,18153,1,0,0:0:0:0:
64,192,18234,1,0,0:0:0:0:
320,192,18234,1,0,0:0:0:0:
320,192,18558,1,0,0:0:0:0:
320,192,18882,1,0,0:0:0:0:
320,192,19207,1,0,0:0:0:0:
320,192,19531,1,0,0:0:0:0:
320,192,19855,1,0,0:0:0:0:
192,192,20180,1,0,0:0:0:0:
320,192,20180,1,0,0:0:0:0:
320,192,20504,1,0,0:0:0:0:
64,192,20828,1,0,0:0:0:0:
448,192,20828,1,0,0:0:0:0:
448,192,21153,1,0,0:0:0:0:
448,192,21477,1,0,0:0:0:0:
448,192,21801,1,0,0:0:0:0:
192,192,22126,1,0,0:0:0:0:
192,192,22450,1,0,0:0:0:0:
192,192,22774,1,0,0:0:0:0:
192,192,23099,1,0,0:0:0:0:
64,192,23423,1,0,0:0:0:0:
320,192,23423,1,0,0:0:0:0:
448,192,23423,1,0,0:0:0:0:
64,192,23747,1,0,0:0:0:0:
320,192,23909,1,0,0:0:0:0:
192,192,24072,1,0,0:0:0:0:
448,192,24396,1,0,0:0:0:0:
64,192,24558,1,0,0:0:0:0:
320,192,24720,1,0,0:0:0:0:
192,192,24882,1,0,0:0:0:0:
320,192,25044,1,0,0:0:0:0:
448,192,25369,1,0,0:0:0:0:
64,192,25693,1,0,0:0:0:0:
320,192,25855,1,0,0:0:0:0:
192,192,26017,1,0,0:0:0:0:
448,192,26017,1,0,0:0:0:0:
320,192,26342,1,0,0:0:0:0:
192,192,26504,1,0,0:0:0:0:
448,192,26666,1,0,0:0:0:0:
192,192,26990,1,0,0:0:0:0:
320,192,27153,1,0,0:0:0:0:
64,192,27315,1,0,0:0:0:0:
448,192,27477,1,0,0:0:0:0:
192,192,27639,1,0,0:0:0:0:
64,192,27963,1,0,0:0:0:0:
448,192,27963,1,0,0:0:0:0:
320,192,28207,1,0,0:0:0:0:
64,192,28288,1,0,0:0:0:0:
320,192,28450,1,0,0:0:0:0:
448,192,28450,1,0,0:0:0:0:
64,192,28531,1,0,0:0:0:0:
192,192,28612,1,0,0:0:0:0:
448,192,28612,1,0,0:0:0:0:
320,192,28936,1,0,0:0:0:0:
64,192,29099,1,0,0:0:0:0:
448,192,29261,1,0,0:0:0:0:
192,192,29585,1,0,0:0:0:0:
320,192,29747,1,0,0:0:0:0:
64,192,29909,1,0,0:0:0:0:
448,192,30072,1,0,0:0:0:0:
192,192,30234,1,0,0:0:0:0:
320,192,30558,1,0,0:0:0:0:
192,192,30882,1,0,0:0:0:0:
64,192,31207,1,0,0:0:0:0:
448,192,31531,1,0,0:0:0:0:
192,192,31693,1,0,0:0:0:0:
320,192,31855,1,0,0:0:0:0:
448,192,32180,1,0,0:0:0:0:
64,192,32342,1,0,0:0:0:0:
320,192,32504,1,0,0:0:0:0:
448,192,32585,1,0,0:0:0:0:
192,192,32666,1,0,0:0:0:0:
320,192,32828,1,0,0:0:0:0:
64,192,33153,1,0,0:0:0:0:
448,192,33153,1,0,0:0:0:0:
320,192,33396,1,0,0:0:0:0:
192,192,33477,1,0,0:0:0:0:
64,192,33639,1,0,0:0:0:0:
448,192,33639,1,0,0:0:0:0:
192,192,33801,1,0,0:0:0:0:
320,192,33801,1,0,0:0:0:0:
64,192,34126,1,0,0:0:0:0:
320,192,34288,1,0,0:0:0:0:
192,192,34450,1,0,0:0:0:0:
448,192,34774,1,0,0:0:0:0:
64,192,34936,1,0,0:0:0:0:
320,192,35099,1,0,0:0:0:0:
192,192,35261,1,0,0:0:0:0:
320,192,35423,1,0,0:0:0:0:
448,192,35747,1,0,0:0:0:0:
64,192,36072,1,0,0:0:0:0:
320,192,36234,1,0,0:0:0:0:
192,192,36396,1,0,0:0:0:0:
448,192,36396,1,0,0:0:0:0:
320,192,36720,1,0,0:0:0:0:
192,192,36882,1,0,0:0:0:0:
448,192,37044,1,0,0:0:0:0:
192,192,37369,1,0,0:0:0:0:
320,192,37531,1,0,0:0:0:0:
64,192,37693,1,0,0:0:0:0:
448,192,37855,1,0,0:0:0:0:
192,192,38017,1,0,0:0:0:0:
64,192,38342,1,0,0:0:0:0:
448,192,38342,1,0,0:0:0:0:
320,192,38585,1,0,0:0:0:0:
192,192,38666,1,0,0:0:0:0:
320,192,38828,1,0,0:0:0:0:
448,192,38828,1,0,0:0:0:0:
64,192,38909,1,0,0:0:0:0:
192,192,38990,1,0,0:0:0:0:
448,192,38990,1,0,0:0:0:0:
64,192,39072,1,0,0:0:0:0:
320,192,39153,1,0,0:0:0:0:
192,192,39315,1,0,0:0:0:0:
448,192,39396,1,0,0:0:0:0:
64,192,39558,1,0,0:0:0:0:
320,192,39639,1,0,0:0:0:0:
192,192,39801,1,0,0:0:0:0:
320,192,39882,1,0,0:0:0:0:
64,192,40044,1,0,0:0:0:0:
448,192,40126,1,0,0:0:0:0:
192,192,40207,1,0,0:0:0:0:
64,192,40288,1,0,0:0:0:0:
320,192,40369,1,0,0:0:0:0:
448,192,40450,1,0,0:0:0:0:
192,192,40612,1,0,0:0:0:0:
448,192,40693,1,0,0:0:0:0:
64,192,40855,1,0,0:0:0:0:
320,192,40936,1,0,0:0:0:0:
192,192,41099,1,0,0:0:0:0:
320,192,41180,1,0,0:0:0:0:
192,192,41261,1,0,0:0:0:0:
64,192,41342,1,0,0:0:0:0:
448,192,41423,1,0,0:0:0:0:
192,192,41504,1,0,0:0:0:0:
64,192,41585,1,0,0:0:0:0:
320,192,41666,1,0,0:0:0:0:
448,192,41747,1,0,0:0:0:0:
192,192,41909,1,0,0:0:0:0:
448,192,41990,1,0,0:0:0:0:
64,192,42153,1,0,0:0:0:0:
320,192,42234,1,0,0:0:0:0:
192,192,42396,1,0,0:0:0:0:
320,192,42477,1,0,0:0:0:0:
64,192,42639,1,0,0:0:0:0:
448,192,42720,1,0,0:0:0:0:
192,192,42801,1,0,0:0:0:0:
64,192,42882,1,0,0:0:0:0:
320,192,42963,1,0,0:0:0:0:
448,192,43044,1,0,0:0:0:0:
64,192,43126,1,0,0:0:0:0:
192,192,43207,1,0,0:0:0:0:
448,192,43288,1,0,0:0:0:0:
64,192,43369,1,0,0:0:0:0:
192,192,43450,1,0,0:0:0:0:
64,192,43531,1,0,0:0:0:0:
320,192,43531,1,0,0:0:0:0:
448,192,43612,1,0,0:0:0:0:
64,192,43693,1,0,0:0:0:0:
192,192,43693,1,0,0:0:0:0:
448,192,43774,1,0,0:0:0:0:
64,192,43855,1,0,0:0:0:0:
320,192,43855,1,0,0:0:0:0:
192,192,43936,1,0,0:0:0:0:
64,192,44017,1,0,0:0:0:0:
448,192,44017,1,0,0:0:0:0:
320,192,44099,1,0,0:0:0:0:
64,192,44180,1,0,0:0:0:0:
192,192,44180,1,0,0:0:0:0:
320,192,44261,1,0,0:0:0:0:
448,192,44342,1,0,0:0:0:0:
192,192,44504,1,0,0:0:0:0:
448,192,44585,1,0,0:0:0:0:
64,192,44747,1,0,0:0:0:0:
320,192,44828,1,0,0:0:0:0:
192,192,44991,1,0,0:0:0:0:
320,192,45072,1,0,0:0:0:0:
448,192,45153,1,0,0:0:0:0:
64,192,45234,1,0,0:0:0:0:
448,192,45315,1,0,0:0:0:0:
192,192,45396,1,0,0:0:0:0:
64,192,45477,1,0,0:0:0:0:
320,192,45558,1,0,0:0:0:0:
448,192,45639,1,0,0:0:0:0:
192,192,45801,1,0,0:0:0:0:
448,192,45883,1,0,0:0:0:0:
64,192,46045,1,0,0:0:0:0:
320,192,46126,1,0,0:0:0:0:
192,192,46288,1,0,0:0:0:0:
320,192,46369,1,0,0:0:0:0:
448,192,46450,1,0,0:0:0:0:
64,192,46531,1,0,0:0:0:0:
192,192,46612,1,0,0:0:0:0:
448,192,46612,1,0,0:0:0:0:
320,192,46693,1,0,0:0:0:0:
64,192,46774,1,0,0:0:0:0:
192,192,46774,1,0,0:0:0:0:
320,192,46855,1,0,0:0:0:0:
448,192,46937,1,0,0:0:0:0:
192,192,47099,1,0,0:0:0:0:
448,192,47180,1,0,0:0:0:0:
64,192,47342,1,0,0:0:0:0:
320,192,47423,1,0,0:0:0:0:
192,192,47585,1,0,0:0:0:0:
320,192,47666,1,0,0:0:0:0:
448,192,47747,1,0,0:0:0:0:
64,192,47828,1,0,0:0:0:0:
448,192,47910,1,0,0:0:0:0:
320,192,47991,1,0,0:0:0:0:
64,192,48072,1,0,0:0:0:0:
320,192,48153,1,0,0:0:0:0:
448,192,48234,1,0,0:0:0:0:
192,192,48396,1,0,0:0:0:0:
448,192,48477,1,0,0:0:0:0:
64,192,48639,1,0,0:0:0:0:
320,192,48720,1,0,0:0:0:0:
192,192,48883,1,0,0:0:0:0:
320,192,48964,1,0,0:0:0:0:
448,192,49045,1,0,0:0:0:0:
64,192,49126,1,0,0:0:0:0:
192,192,49207,1,0,0:0:0:0:
448,192,49207,1,0,0:0:0:0:
320,192,49288,1,0,0:0:0:0:
64,192,49369,1,0,0:0:0:0:
192,192,49369,1,0,0:0:0:0:
320,192,49450,1,0,0:0:0:0:
448,192,49531,1,0,0:0:0:0:
192,192,49693,1,0,0:0:0:0:
448,192,49774,1,0,0:0:0:0:
64,192,49937,1,0,0:0:0:0:
320,192,50018,1,0,0:0:0:0:
192,192,50180,1,0,0:0:0:0:
320,192,50261,1,0,0:0:0:0:
448,192,50342,1,0,0:0:0:0:
64,192,50423,1,0,0:0:0:0:
192,192,50504,1,0,0:0:0:0:
448,192,50504,1,0,0:0:0:0:
320,192,50585,1,0,0:0:0:0:
64,192,50666,1,0,0:0:0:0:
192,192,50666,1,0,0:0:0:0:
320,192,50747,1,0,0:0:0:0:
448,192,50828,1,0,0:0:0:0:
192,192,50991,1,0,0:0:0:0:
448,192,51072,1,0,0:0:0:0:
64,192,51234,1,0,0:0:0:0:
320,192,51315,1,0,0:0:0:0:
192,192,51477,1,0,0:0:0:0:
320,192,51558,1,0,0:0:0:0:
448,192,51639,1,0,0:0:0:0:
64,192,51720,1,0,0:0:0:0:
192,192,51801,1,0,0:0:0:0:
448,192,51801,1,0,0:0:0:0:
320,192,51883,1,0,0:0:0:0:
64,192,51964,1,0,0:0:0:0:
192,192,51964,1,0,0:0:0:0:
320,192,52045,1,0,0:0:0:0:
448,192,52126,1,0,0:0:0:0:
192,192,52288,1,0,0:0:0:0:
448,192,52369,1,0,0:0:0:0:
192,192,52450,1,0,0:0:0:0:
64,192,52531,1,0,0:0:0:0:
320,192,52612,1,0,0:0:0:0:
448,192,52612,1,0,0:0:0:0:
192,192,52774,1,0,0:0:0:0:
320,192,52855,1,0,0:0:0:0:
448,192,52937,1,0,0:0:0:0:
64,192,53018,1,0,0:0:0:0:
192,192,53099,1,0,0:0:0:0:
448,192,53099,1,0,0:0:0:0:
64,192,53261,1,0,0:0:0:0:
320,192,53342,1,0,0:0:0:0:
64,192,53423,1,0,0:0:0:0:
448,192,53423,1,0,0:0:0:0:
192,192,53585,1,0,0:0:0:0:
448,192,53666,1,0,0:0:0:0:
192,192,53747,1,0,0:0:0:0:
64,192,53828,1,0,0:0:0:0:
320,192,53910,1,0,0:0:0:0:
192,192,54072,1,0,0:0:0:0:
448,192,54072,1,0,0:0:0:0:
320,192,54153,1,0,0:0:0:0:
64,192,54315,1,0,0:0:0:0:
320,192,54396,1,0,0:0:0:0:
448,192,54396,1,0,0:0:0:0:
192,192,54477,1,0,0:0:0:0:
64,192,54558,1,0,0:0:0:0:
320,192,54558,1,0,0:0:0:0:
448,192,54558,1,0,0:0:0:0:
192,192,54639,1,0,0:0:0:0:
64,192,54720,1,0,0:0:0:0:
320,192,54720,1,0,0:0:0:0:
64,192,54883,1,0,0:0:0:0:
192,192,54883,1,0,0:0:0:0:
448,192,54964,1,0,0:0:0:0:
64,192,55045,1,0,0:0:0:0:
320,192,55126,1,0,0:0:0:0:
64,192,55207,1,0,0:0:0:0:
448,192,55207,1,0,0:0:0:0:
64,192,55369,1,0,0:0:0:0:
192,192,55369,1,0,0:0:0:0:
320,192,55450,1,0,0:0:0:0:
64,192,55531,1,0,0:0:0:0:
192,192,55612,1,0,0:0:0:0:
64,192,55693,1,0,0:0:0:0:
448,192,55693,1,0,0:0:0:0:
64,192,55855,1,0,0:0:0:0:
320,192,55855,1,0,0:0:0:0:
448,192,55855,1,0,0:0:0:0:
192,192,55937,1,0,0:0:0:0:
64,192,56018,1,0,0:0:0:0:
320,192,56018,1,0,0:0:0:0:
64,192,56180,1,0,0:0:0:0:
192,192,56180,1,0,0:0:0:0:
448,192,56261,1,0,0:0:0:0:
64,192,56342,1,0,0:0:0:0:
320,192,56423,1,0,0:0:0:0:
64,192,56504,1,0,0:0:0:0:
448,192,56504,1,0,0:0:0:0:
64,192,56666,1,0,0:0:0:0:
192,192,56666,1,0,0:0:0:0:
320,192,56747,1,0,0:0:0:0:
64,192,56828,1,0,0:0:0:0:
192,192,56910,1,0,0:0:0:0:
64,192,56991,1,0,0:0:0:0:
448,192,56991,1,0,0:0:0:0:
192,192,57072,1,0,0:0:0:0:
64,192,57153,1,0,0:0:0:0:
320,192,57153,1,0,0:0:0:0:
448,192,57153,1,0,0:0:0:0:
192,192,57234,1,0,0:0:0:0:
64,192,57315,1,0,0:0:0:0:
320,192,57315,1,0,0:0:0:0:
64,192,57477,1,0,0:0:0:0:
192,192,57477,1,0,0:0:0:0:
448,192,57558,1,0,0:0:0:0:
64,192,57639,1,0,0:0:0:0:
320,192,57720,1,0,0:0:0:0:
64,192,57801,1,0,0:0:0:0:
448,192,57801,1,0,0:0:0:0:
64,192,57964,1,0,0:0:0:0:
192,192,57964,1,0,0:0:0:0:
320,192,58045,1,0,0:0:0:0:
64,192,58126,1,0,0:0:0:0:
192,192,58207,1,0,0:0:0:0:
64,192,58288,1,0,0:0:0:0:
448,192,58288,1,0,0:0:0:0:
64,192,58450,1,0,0:0:0:0:
320,192,58450,1,0,0:0:0:0:
448,192,58450,1,0,0:0:0:0:
192,192,58531,1,0,0:0:0:0:
64,192,58612,1,0,0:0:0:0:
320,192,58612,1,0,0:0:0:0:
64,192,58774,1,0,0:0:0:0:
192,192,58774,1,0,0:0:0:0:
448,192,58855,1,0,0:0:0:0:
64,192,58937,1,0,0:0:0:0:
320,192,59018,1,0,0:0:0:0:
64,192,59099,1,0,0:0:0:0:
448,192,59099,1,0,0:0:0:0:
64,192,59261,1,0,0:0:0:0:
192,192,59261,1,0,0:0:0:0:
320,192,59342,1,0,0:0:0:0:
64,192,59423,1,0,0:0:0:0:
192,192,59504,1,0,0:0:0:0:
64,192,59585,1,0,0:0:0:0:
448,192,59585,1,0,0:0:0:0:
192,192,59666,1,0,0:0:0:0:
64,192,59747,1,0,0:0:0:0:
320,192,59747,1,0,0:0:0:0:
448,192,59747,1,0,0:0:0:0:
64,192,59828,1,0,0:0:0:0:
192,192,59828,1,0,0:0:0:0:
320,192,59910,1,0,0:0:0:0:
448,192,59910,1,0,0:0:0:0:
64,192,59991,1,0,0:0:0:0:
320,192,59991,1,0,0:0:0:0:
192,192,60072,1,0,0:0:0:0:
448,192,60072,1,0,0:0:0:0:
64,192,60153,1,0,0:0:0:0:
192,192,60153,1,0,0:0:0:0:
320,192,60234,1,0,0:0:0:0:
448,192,60234,1,0,0:0:0:0:
64,192,60315,1,0,0:0:0:0:
192,192,60315,1,0,0:0:0:0:
320,192,60396,1,0,0:0:0:0:
448,192,60396,1,0,0:0:0:0:
64,192,60477,1,0,0:0:0:0:
192,192,60477,1,0,0:0:0:0:
320,192,60558,1,0,0:0:0:0:
448,192,60558,1,0,0:0:0:0:
64,192,60639,1,0,0:0:0:0:
320,192,60639,1,0,0:0:0:0:
192,192,60720,1,0,0:0:0:0:
448,192,60720,1,0,0:0:0:0:
192,192,60801,1,0,0:0:0:0:
320,192,60801,1,0,0:0:0:0:
64,192,60883,1,0,0:0:0:0:
192,192,60923,1,0,0:0:0:0:
320,192,60964,1,0,0:0:0:0:
448,192,61004,1,0,0:0:0:0:
64,192,61045,1,0,0:0:0:0:
192,192,61045,1,0,0:0:0:0:
320,192,61126,1,0,0:0:0:0:
448,192,61126,1,0,0:0:0:0:
64,192,61207,1,0,0:0:0:0:
192,192,61207,1,0,0:0:0:0:
192,192,61288,1,0,0:0:0:0:
448,192,61288,1,0,0:0:0:0:
64,192,61369,1,0,0:0:0:0:
320,192,61369,1,0,0:0:0:0:
320,192,61450,1,0,0:0:0:0:
448,192,61450,1,0,0:0:0:0:
64,192,61531,1,0,0:0:0:0:
192,192,61531,1,0,0:0:0:0:
320,192,61612,1,0,0:0:0:0:
448,192,61612,1,0,0:0:0:0:
64,192,61693,1,0,0:0:0:0:
192,192,61693,1,0,0:0:0:0:
320,192,61774,1,0,0:0:0:0:
448,192,61774,1,0,0:0:0:0:
64,192,61855,1,0,0:0:0:0:
192,192,61855,1,0,0:0:0:0:
192,192,61937,1,0,0:0:0:0:
448,192,61937,1,0,0:0:0:0:
64,192,62018,1,0,0:0:0:0:
320,192,62018,1,0,0:0:0:0:
320,192,62099,1,0,0:0:0:0:
448,192,62099,1,0,0:0:0:0:
64,192,62180,1,0,0:0:0:0:
192,192,62220,1,0,0:0:0:0:
320,192,62261,1,0,0:0:0:0:
448,192,62301,1,0,0:0:0:0:
64,192,62342,1,0,0:0:0:0:
192,192,62342,1,0,0:0:0:0:
320,192,62423,1,0,0:0:0:0:
448,192,62423,1,0,0:0:0:0:
64,192,62504,1,0,0:0:0:0:
192,192,62545,1,0,0:0:0:0:
320,192,62585,1,0,0:0:0:0:
448,192,62626,1,0,0:0:0:0:
64,192,62666,1,0,0:0:0:0:
192,192,62666,1,0,0:0:0:0:
320,192,62747,1,0,0:0:0:0:
448,192,62747,1,0,0:0:0:0:
64,192,62828,1,0,0:0:0:0:
192,192,62869,1,0,0:0:0:0:
320,192,62910,1,0,0:0:0:0:
448,192,62950,1,0,0:0:0:0:
64,192,62991,1,0,0:0:0:0:
192,192,62991,1,0,0:0:0:0:
320,192,63072,1,0,0:0:0:0:
448,192,63072,1,0,0:0:0:0:
64,192,63153,1,0,0:0:0:0:
320,192,63153,1,0,0:0:0:0:
192,192,63234,1,0,0:0:0:0:
448,192,63234,1,0,0:0:0:0:
64,192,63315,1,0,0:0:0:0:
192,192,63355,1,0,0:0:0:0:
320,192,63396,1,0,0:0:0:0:
448,192,63437,1,0,0:0:0:0:
64,192,63477,1,0,0:0:0:0:
192,192,63518,1,0,0:0:0:0:
320,192,63558,1,0,0:0:0:0:
448,192,63599,1,0,0:0:0:0:
64,192,63639,1,0,0:0:0:0:
192,192,63639,1,0,0:0:0:0:
320,192,63639,1,0,0:0:0:0:
64,192,64288,1,0,0:0:0:0:
192,192,64288,1,0,0:0:0:0:
448,192,64288,1,0,0:0:0:0:
192,192,64531,1,0,0:0:0:0:
320,192,64531,1,0,0:0:0:0:
64,192,64774,1,0,0:0:0:0:
448,192,64774,1,0,0:0:0:0:
64,192,64937,1,0,0:0:0:0:
320,192,64937,1,0,0:0:0:0:
448,192,64937,1,0,0:0:0:0:
320,192,65018,1,0,0:0:0:0:
448,192,65018,1,0,0:0:0:0:
64,192,65099,1,0,0:0:0:0:
192,192,65099,1,0,0:0:0:0:
320,192,65180,1,0,0:0:0:0:
192,192,65261,1,0,0:0:0:0:
448,192,65261,1,0,0:0:0:0:
64,192,65342,1,0,0:0:0:0:
320,192,65342,1,0,0:0:0:0:
192,192,65423,1,0,0:0:0:0:
320,192,65504,1,0,0:0:0:0:
448,192,65504,1,0,0:0:0:0:
64,192,65585,1,0,0:0:0:0:
192,192,65585,1,0,0:0:0:0:
192,192,65747,1,0,0:0:0:0:
448,192,65747,1,0,0:0:0:0:
64,192,65828,1,0,0:0:0:0:
320,192,65910,1,0,0:0:0:0:
448,192,65910,1,0,0:0:0:0:
320,192,65991,1,0,0:0:0:0:
448,192,65991,1,0,0:0:0:0:
64,192,66072,1,0,0:0:0:0:
192,192,66153,1,0,0:0:0:0:
320,192,66153,1,0,0:0:0:0:
64,192,66234,1,0,0:0:0:0:
448,192,66234,1,0,0:0:0:0:
64,192,66315,1,0,0:0:0:0:
448,192,66315,1,0,0:0:0:0:
192,192,66396,1,0,0:0:0:0:
320,192,66396,1,0,0:0:0:0:
448,192,66477,1,0,0:0:0:0:
64,192,66558,1,0,0:0:0:0:
320,192,66558,1,0,0:0:0:0:
192,192,66639,1,0,0:0:0:0:
448,192,66639,1,0,0:0:0:0:
320,192,66720,1,0,0:0:0:0:
64,192,66801,1,0,0:0:0:0:
448,192,66801,1,0,0:0:0:0:
192,192,66883,1,0,0:0:0:0:
320,192,66883,1,0,0:0:0:0:
192,192,67045,1,0,0:0:0:0:
320,192,67045,1,0,0:0:0:0:
192,192,67126,1,0,0:0:0:0:
320,192,67126,1,0,0:0:0:0:
64,192,67207,1,0,0:0:0:0:
448,192,67207,1,0,0:0:0:0:
320,192,67288,1,0,0:0:0:0:
64,192,67369,1,0,0:0:0:0:
192,192,67369,1,0,0:0:0:0:
320,192,67450,1,0,0:0:0:0:
448,192,67450,1,0,0:0:0:0:
64,192,67531,1,0,0:0:0:0:
192,192,67531,1,0,0:0:0:0:
64,192,67612,1,0,0:0:0:0:
192,192,67612,1,0,0:0:0:0:
320,192,67693,1,0,0:0:0:0:
448,192,67693,1,0,0:0:0:0:
64,192,67774,1,0,0:0:0:0:
320,192,67855,1,0,0:0:0:0:
448,192,67855,1,0,0:0:0:0:
64,192,67937,1,0,0:0:0:0:
192,192,67937,1,0,0:0:0:0:
320,192,68018,1,0,0:0:0:0:
192,192,68099,1,0,0:0:0:0:
448,192,68099,1,0,0:0:0:0:
64,192,68180,1,0,0:0:0:0:
320,192,68180,1,0,0:0:0:0:
320,192,68342,1,0,0:0:0:0:
448,192,68342,1,0,0:0:0:0:
64,192,68423,1,0,0:0:0:0:
192,192,68423,1,0,0:0:0:0:
192,192,68504,1,0,0:0:0:0:
448,192,68504,1,0,0:0:0:0:
320,192,68585,1,0,0:0:0:0:
64,192,68666,1,0,0:0:0:0:
192,192,68666,1,0,0:0:0:0:
320,192,68747,1,0,0:0:0:0:
448,192,68747,1,0,0:0:0:0:
64,192,68828,1,0,0:0:0:0:
192,192,68828,1,0,0:0:0:0:
64,192,68910,1,0,0:0:0:0:
192,192,68910,1,0,0:0:0:0:
320,192,68991,1,0,0:0:0:0:
448,192,68991,1,0,0:0:0:0:
64,192,69072,1,0,0:0:0:0:
192,192,69153,1,0,0:0:0:0:
320,192,69153,1,0,0:0:0:0:
192,192,69315,1,0,0:0:0:0:
448,192,69315,1,0,0:0:0:0:
64,192,69477,1,0,0:0:0:0:
320,192,69477,1,0,0:0:0:0:
64,192,69558,1,0,0:0:0:0:
192,192,69558,1,0,0:0:0:0:
320,192,69639,1,0,0:0:0:0:
448,192,69639,1,0,0:0:0:0:
64,192,69720,1,0,0:0:0:0:
192,192,69801,1,0,0:0:0:0:
448,192,69801,1,0,0:0:0:0:
64,192,69883,1,0,0:0:0:0:
192,192,69964,1,0,0:0:0:0:
320,192,69964,1,0,0:0:0:0:
320,192,70126,1,0,0:0:0:0:
448,192,70126,1,0,0:0:0:0:
320,192,70207,1,0,0:0:0:0:
448,192,70207,1,0,0:0:0:0:
64,192,70288,1,0,0:0:0:0:
192,192,70288,1,0,0:0:0:0:
320,192,70369,1,0,0:0:0:0:
192,192,70450,1,0,0:0:0:0:
448,192,70450,1,0,0:0:0:0:
64,192,70531,1,0,0:0:0:0:
320,192,70531,1,0,0:0:0:0:
192,192,70612,1,0,0:0:0:0:
320,192,70693,1,0,0:0:0:0:
448,192,70693,1,0,0:0:0:0:
64,192,70774,1,0,0:0:0:0:
192,192,70774,1,0,0:0:0:0:
192,192,70937,1,0,0:0:0:0:
448,192,70937,1,0,0:0:0:0:
64,192,71018,1,0,0:0:0:0:
320,192,71099,1,0,0:0:0:0:
448,192,71099,1,0,0:0:0:0:
320,192,71180,1,0,0:0:0:0:
448,192,71180,1,0,0:0:0:0:
64,192,71261,1,0,0:0:0:0:
192,192,71342,1,0,0:0:0:0:
320,192,71342,1,0,0:0:0:0:
64,192,71423,1,0,0:0:0:0:
448,192,71423,1,0,0:0:0:0:
64,192,71504,1,0,0:0:0:0:
448,192,71504,1,0,0:0:0:0:
192,192,71585,1,0,0:0:0:0:
320,192,71585,1,0,0:0:0:0:
448,192,71666,1,0,0:0:0:0:
64,192,71747,1,0,0:0:0:0:
320,192,71747,1,0,0:0:0:0:
192,192,71828,1,0,0:0:0:0:
448,192,71828,1,0,0:0:0:0:
320,192,71910,1,0,0:0:0:0:
64,192,71991,1,0,0:0:0:0:
448,192,71991,1,0,0:0:0:0:
192,192,72072,1,0,0:0:0:0:
320,192,72072,1,0,0:0:0:0:
192,192,72234,1,0,0:0:0:0:
320,192,72234,1,0,0:0:0:0:
192,192,72315,1,0,0:0:0:0:
320,192,72315,1,0,0:0:0:0:
64,192,72396,1,0,0:0:0:0:
448,192,72396,1,0,0:0:0:0:
320,192,72477,1,0,0:0:0:0:
64,192,72558,1,0,0:0:0:0:
192,192,72558,1,0,0:0:0:0:
320,192,72639,1,0,0:0:0:0:
448,192,72639,1,0,0:0:0:0:
64,192,72720,1,0,0:0:0:0:
192,192,72720,1,0,0:0:0:0:
64,192,72801,1,0,0:0:0:0:
192,192,72801,1,0,0:0:0:0:
320,192,72883,1,0,0:0:0:0:
448,192,72883,1,0,0:0:0:0:
64,192,72964,1,0,0:0:0:0:
320,192,73045,1,0,0:0:0:0:
448,192,73045,1,0,0:0:0:0:
64,192,73126,1,0,0:0:0:0:
192,192,73126,1,0,0:0:0:0:
320,192,73207,1,0,0:0:0:0:
192,192,73288,1,0,0:0:0:0:
448,192,73288,1,0,0:0:0:0:
64,192,73369,1,0,0:0:0:0:
320,192,73369,1,0,0:0:0:0:
320,192,73531,1,0,0:0:0:0:
448,192,73531,1,0,0:0:0:0:
64,192,73612,1,0,0:0:0:0:
192,192,73612,1,0,0:0:0:0:
192,192,73693,1,0,0:0:0:0:
448,192,73693,1,0,0:0:0:0:
320,192,73774,1,0,0:0:0:0:
64,192,73855,1,0,0:0:0:0:
192,192,73855,1,0,0:0:0:0:
320,192,73937,1,0,0:0:0:0:
448,192,73937,1,0,0:0:0:0:
64,192,74018,1,0,0:0:0:0:
192,192,74018,1,0,0:0:0:0:
64,192,74099,1,0,0:0:0:0:
192,192,74099,1,0,0:0:0:0:
320,192,74180,1,0,0:0:0:0:
448,192,74180,1,0,0:0:0:0:
64,192,74261,1,0,0:0:0:0:
320,192,74342,1,0,0:0:0:0:
448,192,74342,1,0,0:0:0:0:
192,192,74504,1,0,0:0:0:0:
320,192,74504,1,0,0:0:0:0:
320,192,74666,1,0,0:0:0:0:
448,192,74666,1,0,0:0:0:0:
64,192,74747,1,0,0:0:0:0:
192,192,74747,1,0,0:0:0:0:
192,192,74828,1,0,0:0:0:0:
448,192,74828,1,0,0:0:0:0:
64,192,74910,1,0,0:0:0:0:
320,192,74910,1,0,0:0:0:0:
320,192,74991,1,0,0:0:0:0:
448,192,74991,1,0,0:0:0:0:
64,192,75072,1,0,0:0:0:0:
192,192,75072,1,0,0:0:0:0:
320,192,75153,1,0,0:0:0:0:
448,192,75153,1,0,0:0:0:0:
64,192,75234,1,0,0:0:0:0:
192,192,75234,1,0,0:0:0:0:
64,192,75315,1,0,0:0:0:0:
320,192,75315,1,0,0:0:0:0:
448,192,75315,1,0,0:0:0:0:
320,192,75396,1,0,0:0:0:0:
448,192,75396,1,0,0:0:0:0:
64,192,75477,1,0,0:0:0:0:
192,192,75477,1,0,0:0:0:0:
320,192,75558,1,0,0:0:0:0:
192,192,75639,1,0,0:0:0:0:
448,192,75639,1,0,0:0:0:0:
64,192,75720,1,0,0:0:0:0:
320,192,75720,1,0,0:0:0:0:
192,192,75801,1,0,0:0:0:0:
320,192,75883,1,0,0:0:0:0:
448,192,75883,1,0,0:0:0:0:
64,192,75964,1,0,0:0:0:0:
192,192,75964,1,0,0:0:0:0:
192,192,76126,1,0,0:0:0:0:
448,192,76126,1,0,0:0:0:0:
64,192,76207,1,0,0:0:0:0:
320,192,76288,1,0,0:0:0:0:
448,192,76288,1,0,0:0:0:0:
320,192,76369,1,0,0:0:0:0:
448,192,76369,1,0,0:0:0:0:
64,192,76450,1,0,0:0:0:0:
192,192,76531,1,0,0:0:0:0:
320,192,76531,1,0,0:0:0:0:
64,192,76612,1,0,0:0:0:0:
448,192,76612,1,0,0:0:0:0:
64,192,76693,1,0,0:0:0:0:
448,192,76693,1,0,0:0:0:0:
192,192,76774,1,0,0:0:0:0:
320,192,76774,1,0,0:0:0:0:
448,192,76855,1,0,0:0:0:0:
64,192,76937,1,0,0:0:0:0:
320,192,76937,1,0,0:0:0:0:
192,192,77018,1,0,0:0:0:0:
448,192,77018,1,0,0:0:0:0:
320,192,77099,1,0,0:0:0:0:
64,192,77180,1,0,0:0:0:0:
448,192,77180,1,0,0:0:0:0:
192,192,77261,1,0,0:0:0:0:
320,192,77261,1,0,0:0:0:0:
192,192,77423,1,0,0:0:0:0:
320,192,77423,1,0,0:0:0:0:
192,192,77504,1,0,0:0:0:0:
320,192,77504,1,0,0:0:0:0:
64,192,77585,1,0,0:0:0:0:
448,192,77585,1,0,0:0:0:0:
320,192,77666,1,0,0:0:0:0:
64,192,77747,1,0,0:0:0:0:
192,192,77747,1,0,0:0:0:0:
320,192,77828,1,0,0:0:0:0:
448,192,77828,1,0,0:0:0:0:
64,192,77910,1,0,0:0:0:0:
192,192,77910,1,0,0:0:0:0:
64,192,77991,1,0,0:0:0:0:
192,192,77991,1,0,0:0:0:0:
320,192,78072,1,0,0:0:0:0:
448,192,78072,1,0,0:0:0:0:
64,192,78153,1,0,0:0:0:0:
320,192,78234,1,0,0:0:0:0:
448,192,78234,1,0,0:0:0:0:
64,192,78315,1,0,0:0:0:0:
192,192,78315,1,0,0:0:0:0:
320,192,78396,1,0,0:0:0:0:
192,192,78477,1,0,0:0:0:0:
448,192,78477,1,0,0:0:0:0:
64,192,78558,1,0,0:0:0:0:
320,192,78558,1,0,0:0:0:0:
320,192,78720,1,0,0:0:0:0:
448,192,78720,1,0,0:0:0:0:
64,192,78801,1,0,0:0:0:0:
192,192,78801,1,0,0:0:0:0:
192,192,78883,1,0,0:0:0:0:
448,192,78883,1,0,0:0:0:0:
320,192,78964,1,0,0:0:0:0:
64,192,79045,1,0,0:0:0:0:
192,192,79045,1,0,0:0:0:0:
320,192,79126,1,0,0:0:0:0:
448,192,79126,1,0,0:0:0:0:
64,192,79207,1,0,0:0:0:0:
192,192,79207,1,0,0:0:0:0:
64,192,79288,1,0,0:0:0:0:
192,192,79288,1,0,0:0:0:0:
320,192,79369,1,0,0:0:0:0:
448,192,79369,1,0,0:0:0:0:
64,192,79450,1,0,0:0:0:0:
192,192,79531,1,0,0:0:0:0:
320,192,79531,1,0,0:0:0:0:
192,192,79693,1,0,0:0:0:0:
448,192,79693,1,0,0:0:0:0:
64,192,79855,1,0,0:0:0:0:
320,192,79855,1,0,0:0:0:0:
64,192,79937,1,0,0:0:0:0:
192,192,79937,1,0,0:0:0:0:
320,192,80018,1,0,0:0:0:0:
448,192,80018,1,0,0:0:0:0:
64,192,80099,1,0,0:0:0:0:
192,192,80180,1,0,0:0:0:0:
448,192,80180,1,0,0:0:0:0:
64,192,80261,1,0,0:0:0:0:
192,192,80342,1,0,0:0:0:0:
320,192,80342,1,0,0:0:0:0:
64,192,80504,1,0,0:0:0:0:
320,192,80504,1,0,0:0:0:0:
448,192,80504,1,0,0:0:0:0:
320,192,80585,1,0,0:0:0:0:
448,192,80585,1,0,0:0:0:0:
64,192,80666,1,0,0:0:0:0:
192,192,80666,1,0,0:0:0:0:
320,192,80747,1,0,0:0:0:0:
192,192,80828,1,0,0:0:0:0:
448,192,80828,1,0,0:0:0:0:
64,192,80910,1,0,0:0:0:0:
320,192,80910,1,0,0:0:0:0:
192,192,80991,1,0,0:0:0:0:
320,192,81072,1,0,0:0:0:0:
448,192,81072,1,0,0:0:0:0:
64,192,81153,1,0,0:0:0:0:
192,192,81153,1,0,0:0:0:0:
192,192,81315,1,0,0:0:0:0:
448,192,81315,1,0,0:0:0:0:
64,192,81396,1,0,0:0:0:0:
320,192,81477,1,0,0:0:0:0:
448,192,81477,1,0,0:0:0:0:
320,192,81558,1,0,0:0:0:0:
448,192,81558,1,0,0:0:0:0:
64,192,81639,1,0,0:0:0:0:
192,192,81720,1,0,0:0:0:0:
320,192,81720,1,0,0:0:0:0:
64,192,81801,1,0,0:0:0:0:
192,192,81801,1,0,0:0:0:0:
448,192,81801,1,0,0:0:0:0:
64,192,81882,1,0,0:0:0:0:
448,192,81882,1,0,0:0:0:0:
192,192,81964,1,0,0:0:0:0:
320,192,81964,1,0,0:0:0:0:
448,192,82045,1,0,0:0:0:0:
64,192,82126,1,0,0:0:0:0:
320,192,82126,1,0,0:0:0:0:
192,192,82207,1,0,0:0:0:0:
448,192,82207,1,0,0:0:0:0:
320,192,82288,1,0,0:0:0:0:
64,192,82369,1,0,0:0:0:0:
448,192,82369,1,0,0:0:0:0:
192,192,82450,1,0,0:0:0:0:
320,192,82450,1,0,0:0:0:0:
192,192,82612,1,0,0:0:0:0:
320,192,82612,1,0,0:0:0:0:
192,192,82693,1,0,0:0:0:0:
320,192,82693,1,0,0:0:0:0:
64,192,82774,1,0,0:0:0:0:
448,192,82774,1,0,0:0:0:0:
320,192,82855,1,0,0:0:0:0:
64,192,82937,1,0,0:0:0:0:
192,192,82937,1,0,0:0:0:0:
320,192,83018,1,0,0:0:0:0:
448,192,83018,1,0,0:0:0:0:
64,192,83099,1,0,0:0:0:0:
192,192,83099,1,0,0:0:0:0:
448,192,83099,1,0,0:0:0:0:
64,192,83180,1,0,0:0:0:0:
192,192,83180,1,0,0:0:0:0:
320,192,83261,1,0,0:0:0:0:
448,192,83261,1,0,0:0:0:0:
64,192,83342,1,0,0:0:0:0:
320,192,83423,1,0,0:0:0:0:
448,192,83423,1,0,0:0:0:0:
64,192,83504,1,0,0:0:0:0:
192,192,83504,1,0,0:0:0:0:
320,192,83585,1,0,0:0:0:0:
192,192,83666,1,0,0:0:0:0:
448,192,83666,1,0,0:0:0:0:
64,192,83747,1,0,0:0:0:0:
320,192,83747,1,0,0:0:0:0:
192,192,83828,1,0,0:0:0:0:
320,192,83910,1,0,0:0:0:0:
448,192,83910,1,0,0:0:0:0:
64,192,83991,1,0,0:0:0:0:
192,192,83991,1,0,0:0:0:0:
192,192,84072,1,0,0:0:0:0:
448,192,84072,1,0,0:0:0:0:
320,192,84153,1,0,0:0:0:0:
64,192,84234,1,0,0:0:0:0:
192,192,84234,1,0,0:0:0:0:
320,192,84315,1,0,0:0:0:0:
448,192,84315,1,0,0:0:0:0:
192,192,84396,1,0,0:0:0:0:
320,0,84396,128,0,84639:1:0:0:0:
192,192,84720,1,0,0:0:0:0:
320,192,84720,1,0,0:0:0:0:
192,192,84801,1,0,0:0:0:0:
320,192,84801,1,0,0:0:0:0:
64,192,84882,1,0,0:0:0:0:
448,192,84882,1,0,0:0:0:0:
192,192,85045,1,0,0:0:0:0:
320,192,85045,1,0,0:0:0:0:
64,192,85207,1,0,0:0:0:0:
192,192,85207,1,0,0:0:0:0:
64,192,85288,1,0,0:0:0:0:
320,192,85288,1,0,0:0:0:0:
448,192,85288,1,0,0:0:0:0:
64,192,85450,1,0,0:0:0:0:
192,192,85450,1,0,0:0:0:0:
64,192,85531,1,0,0:0:0:0:
320,192,85531,1,0,0:0:0:0:
448,192,85531,1,0,0:0:0:0:
64,192,85693,1,0,0:0:0:0:
320,192,85693,1,0,0:0:0:0:
448,192,85693,1,0,0:0:0:0:
192,192,85774,1,0,0:0:0:0:
320,192,85855,1,0,0:0:0:0:
64,192,86018,1,0,0:0:0:0:
320,192,86018,1,0,0:0:0:0:
448,192,86099,1,0,0:0:0:0:
192,192,86180,1,0,0:0:0:0:
64,192,86342,1,0,0:0:0:0:
448,192,86342,1,0,0:0:0:0:
192,192,86504,1,0,0:0:0:0:
448,192,86585,1,0,0:0:0:0:
64,192,86666,1,0,0:0:0:0:
320,192,86666,1,0,0:0:0:0:
192,192,86828,1,0,0:0:0:0:
320,192,86828,1,0,0:0:0:0:
64,192,86991,1,0,0:0:0:0:
448,192,86991,1,0,0:0:0:0:
192,192,87072,1,0,0:0:0:0:
320,192,87153,1,0,0:0:0:0:
64,192,87315,1,0,0:0:0:0:
320,192,87315,1,0,0:0:0:0:
448,192,87396,1,0,0:0:0:0:
192,192,87477,1,0,0:0:0:0:
64,192,87639,1,0,0:0:0:0:
448,192,87639,1,0,0:0:0:0:
192,192,87801,1,0,0:0:0:0:
448,192,87882,1,0,0:0:0:0:
64,192,87964,1,0,0:0:0:0:
320,192,87964,1,0,0:0:0:0:
192,192,88126,1,0,0:0:0:0:
64,192,88288,1,0,0:0:0:0:
448,192,88288,1,0,0:0:0:0:
192,192,88369,1,0,0:0:0:0:
320,192,88450,1,0,0:0:0:0:
64,192,88612,1,0,0:0:0:0:
320,192,88612,1,0,0:0:0:0:
448,192,88693,1,0,0:0:0:0:
192,192,88774,1,0,0:0:0:0:
64,192,88937,1,0,0:0:0:0:
448,192,88937,1,0,0:0:0:0:
192,192,89099,1,0,0:0:0:0:
448,192,89180,1,0,0:0:0:0:
64,192,89261,1,0,0:0:0:0:
320,192,89261,1,0,0:0:0:0:
192,192,89423,1,0,0:0:0:0:
320,192,89423,1,0,0:0:0:0:
64,192,89585,1,0,0:0:0:0:
448,192,89585,1,0,0:0:0:0:
192,192,89666,1,0,0:0:0:0:
320,192,89747,1,0,0:0:0:0:
64,192,89910,1,0,0:0:0:0:
320,192,89910,1,0,0:0:0:0:
448,192,89991,1,0,0:0:0:0:
192,192,90072,1,0,0:0:0:0:
64,192,90234,1,0,0:0:0:0:
448,192,90234,1,0,0:0:0:0:
64,192,90396,1,0,0:0:0:0:
192,192,90396,1,0,0:0:0:0:
448,192,90477,1,0,0:0:0:0:
64,192,90558,1,0,0:0:0:0:
320,192,90558,1,0,0:0:0:0:
448,192,90639,1,0,0:0:0:0:
192,192,90720,1,0,0:0:0:0:
320,192,90720,1,0,0:0:0:0:
64,192,90882,1,0,0:0:0:0:
320,192,90882,1,0,0:0:0:0:
448,192,90882,1,0,0:0:0:0:
192,192,90964,1,0,0:0:0:0:
320,192,91045,1,0,0:0:0:0:
64,192,91207,1,0,0:0:0:0:
320,192,91207,1,0,0:0:0:0:
448,192,91288,1,0,0:0:0:0:
192,192,91369,1,0,0:0:0:0:
64,192,91531,1,0,0:0:0:0:
448,192,91531,1,0,0:0:0:0:
192,192,91693,1,0,0:0:0:0:
448,192,91774,1,0,0:0:0:0:
64,192,91855,1,0,0:0:0:0:
320,192,91855,1,0,0:0:0:0:
192,192,92018,1,0,0:0:0:0:
320,192,92018,1,0,0:0:0:0:
64,192,92180,1,0,0:0:0:0:
448,192,92180,1,0,0:0:0:0:
192,192,92261,1,0,0:0:0:0:
320,192,92342,1,0,0:0:0:0:
64,192,92504,1,0,0:0:0:0:
320,192,92504,1,0,0:0:0:0:
448,192,92585,1,0,0:0:0:0:
192,192,92666,1,0,0:0:0:0:
64,192,92828,1,0,0:0:0:0:
448,192,92828,1,0,0:0:0:0:
192,192,92991,1,0,0:0:0:0:
448,192,93072,1,0,0:0:0:0:
64,192,93153,1,0,0:0:0:0:
320,192,93153,1,0,0:0:0:0:
192,192,93315,1,0,0:0:0:0:
64,192,93477,1,0,0:0:0:0:
448,192,93477,1,0,0:0:0:0:
192,192,93558,1,0,0:0:0:0:
320,192,93639,1,0,0:0:0:0:
64,192,93801,1,0,0:0:0:0:
320,192,93801,1,0,0:0:0:0:
448,192,93882,1,0,0:0:0:0:
192,192,93964,1,0,0:0:0:0:
64,192,94126,1,0,0:0:0:0:
448,192,94126,1,0,0:0:0:0:
192,192,94288,1,0,0:0:0:0:
448,192,94369,1,0,0:0:0:0:
64,192,94450,1,0,0:0:0:0:
320,192,94450,1,0,0:0:0:0:
192,192,94612,1,0,0:0:0:0:
320,192,94612,1,0,0:0:0:0:
64,192,94774,1,0,0:0:0:0:
448,192,94774,1,0,0:0:0:0:
192,192,94855,1,0,0:0:0:0:
320,192,94937,1,0,0:0:0:0:
64,192,95099,1,0,0:0:0:0:
320,192,95099,1,0,0:0:0:0:
448,192,95180,1,0,0:0:0:0:
192,192,95261,1,0,0:0:0:0:
64,192,95423,1,0,0:0:0:0:
320,192,95423,1,0,0:0:0:0:
192,192,95585,1,0,0:0:0:0:
448,192,95666,1,0,0:0:0:0:
64,192,95747,1,0,0:0:0:0:
192,192,95910,1,0,0:0:0:0:
64,192,96072,1,0,0:0:0:0:
320,192,96072,1,0,0:0:0:0:
448,192,96072,1,0,0:0:0:0:
64,192,96153,1,0,0:0:0:0:
192,192,96153,1,0,0:0:0:0:
320,192,96234,1,0,0:0:0:0:
448,192,96234,1,0,0:0:0:0:
64,192,96396,1,0,0:0:0:0:
320,192,96396,1,0,0:0:0:0:
320,192,96477,1,0,0:0:0:0:
448,192,96477,1,0,0:0:0:0:
64,192,96558,1,0,0:0:0:0:
192,192,96558,1,0,0:0:0:0:
64,192,96720,1,0,0:0:0:0:
448,192,96720,1,0,0:0:0:0:
192,192,96882,1,0,0:0:0:0:
320,192,96882,1,0,0:0:0:0:
192,192,96964,1,0,0:0:0:0:
448,192,96964,1,0,0:0:0:0:
64,192,97045,1,0,0:0:0:0:
320,192,97045,1,0,0:0:0:0:
192,192,97207,1,0,0:0:0:0:
320,192,97207,1,0,0:0:0:0:
64,192,97369,1,0,0:0:0:0:
448,192,97369,1,0,0:0:0:0:
64,192,97450,1,0,0:0:0:0:
192,192,97450,1,0,0:0:0:0:
320,192,97531,1,0,0:0:0:0:
448,192,97531,1,0,0:0:0:0:
64,192,97693,1,0,0:0:0:0:
320,192,97693,1,0,0:0:0:0:
320,192,97774,1,0,0:0:0:0:
448,192,97774,1,0,0:0:0:0:
64,192,97855,1,0,0:0:0:0:
192,192,97855,1,0,0:0:0:0:
64,192,98018,1,0,0:0:0:0:
448,192,98018,1,0,0:0:0:0:
192,192,98180,1,0,0:0:0:0:
320,192,98180,1,0,0:0:0:0:
192,192,98261,1,0,0:0:0:0:
448,192,98261,1,0,0:0:0:0:
64,192,98342,1,0,0:0:0:0:
320,192,98342,1,0,0:0:0:0:
64,192,98504,1,0,0:0:0:0:
192,192,98504,1,0,0:0:0:0:
64,192,98666,1,0,0:0:0:0:
320,192,98666,1,0,0:0:0:0:
448,192,98666,1,0,0:0:0:0:
64,192,98747,1,0,0:0:0:0:
192,192,98747,1,0,0:0:0:0:
320,192,98828,1,0,0:0:0:0:
448,192,98828,1,0,0:0:0:0:
64,192,98991,1,0,0:0:0:0:
320,192,98991,1,0,0:0:0:0:
320,192,99072,1,0,0:0:0:0:
448,192,99072,1,0,0:0:0:0:
64,192,99153,1,0,0:0:0:0:
192,192,99153,1,0,0:0:0:0:
64,192,99315,1,0,0:0:0:0:
448,192,99315,1,0,0:0:0:0:
192,192,99477,1,0,0:0:0:0:
320,192,99477,1,0,0:0:0:0:
192,192,99558,1,0,0:0:0:0:
448,192,99558,1,0,0:0:0:0:
64,192,99639,1,0,0:0:0:0:
320,192,99639,1,0,0:0:0:0:
192,192,99801,1,0,0:0:0:0:
320,192,99801,1,0,0:0:0:0:
64,192,99964,1,0,0:0:0:0:
448,192,99964,1,0,0:0:0:0:
64,192,100045,1,0,0:0:0:0:
192,192,100045,1,0,0:0:0:0:
320,192,100126,1,0,0:0:0:0:
448,192,100126,1,0,0:0:0:0:
320,192,100288,1,0,0:0:0:0:
448,192,100369,1,0,0:0:0:0:
192,192,100450,1,0,0:0:0:0:
320,192,100612,1,0,0:0:0:0:
64,192,100774,1,0,0:0:0:0:
192,192,100774,1,0,0:0:0:0:
320,192,100855,1,0,0:0:0:0:
448,192,100855,1,0,0:0:0:0:
64,192,100937,1,0,0:0:0:0:
320,192,100937,1,0,0:0:0:0:
192,192,101099,1,0,0:0:0:0:
320,192,101099,1,0,0:0:0:0:
192,192,101180,1,0,0:0:0:0:
64,192,101261,1,0,0:0:0:0:
320,192,101261,1,0,0:0:0:0:
448,192,101261,1,0,0:0:0:0:
64,192,101342,1,0,0:0:0:0:
192,192,101342,1,0,0:0:0:0:
320,192,101423,1,0,0:0:0:0:
448,192,101423,1,0,0:0:0:0:
64,192,101585,1,0,0:0:0:0:
320,192,101585,1,0,0:0:0:0:
320,192,101666,1,0,0:0:0:0:
448,192,101666,1,0,0:0:0:0:
64,192,101747,1,0,0:0:0:0:
192,192,101747,1,0,0:0:0:0:
64,192,101910,1,0,0:0:0:0:
448,192,101910,1,0,0:0:0:0:
192,192,102072,1,0,0:0:0:0:
320,192,102072,1,0,0:0:0:0:
192,192,102153,1,0,0:0:0:0:
448,192,102153,1,0,0:0:0:0:
64,192,102234,1,0,0:0:0:0:
320,192,102234,1,0,0:0:0:0:
192,192,102396,1,0,0:0:0:0:
320,192,102396,1,0,0:0:0:0:
64,192,102558,1,0,0:0:0:0:
448,192,102558,1,0,0:0:0:0:
64,192,102639,1,0,0:0:0:0:
192,192,102639,1,0,0:0:0:0:
320,192,102720,1,0,0:0:0:0:
448,192,102720,1,0,0:0:0:0:
64,192,102882,1,0,0:0:0:0:
320,192,102882,1,0,0:0:0:0:
320,192,102964,1,0,0:0:0:0:
448,192,102964,1,0,0:0:0:0:
64,192,103045,1,0,0:0:0:0:
192,192,103045,1,0,0:0:0:0:
64,192,103207,1,0,0:0:0:0:
320,192,103207,1,0,0:0:0:0:
448,192,103207,1,0,0:0:0:0:
192,192,103369,1,0,0:0:0:0:
64,192,103450,1,0,0:0:0:0:
320,192,103450,1,0,0:0:0:0:
448,192,103450,1,0,0:0:0:0:
64,192,103531,1,0,0:0:0:0:
192,192,103531,1,0,0:0:0:0:
448,192,103612,1,0,0:0:0:0:
64,192,103693,1,0,0:0:0:0:
192,192,103693,1,0,0:0:0:0:
320,192,103693,1,0,0:0:0:0:
64,192,103855,1,0,0:0:0:0:
320,192,103855,1,0,0:0:0:0:
448,192,103855,1,0,0:0:0:0:
192,192,103937,1,0,0:0:0:0:
64,192,104018,1,0,0:0:0:0:
320,192,104018,1,0,0:0:0:0:
64,192,104180,1,0,0:0:0:0:
192,192,104180,1,0,0:0:0:0:
64,192,104342,1,0,0:0:0:0:
448,192,104342,1,0,0:0:0:0:
64,192,104504,1,0,0:0:0:0:
192,192,104504,1,0,0:0:0:0:
320,192,104585,1,0,0:0:0:0:
448,192,104585,1,0,0:0:0:0:
64,192,104666,1,0,0:0:0:0:
192,192,104666,1,0,0:0:0:0:
320,192,104747,1,0,0:0:0:0:
448,192,104747,1,0,0:0:0:0:
64,192,104828,1,0,0:0:0:0:
192,192,104828,1,0,0:0:0:0:
320,192,104910,1,0,0:0:0:0:
448,192,104910,1,0,0:0:0:0:
64,192,104991,1,0,0:0:0:0:
192,192,104991,1,0,0:0:0:0:
320,192,105072,1,0,0:0:0:0:
448,192,105072,1,0,0:0:0:0:
64,192,105153,1,0,0:0:0:0:
192,192,105193,1,0,0:0:0:0:
320,192,105234,1,0,0:0:0:0:
448,192,105274,1,0,0:0:0:0:
64,192,105315,1,0,0:0:0:0:
192,192,105315,1,0,0:0:0:0:
64,192,105558,1,0,0:0:0:0:
192,192,105558,1,0,0:0:0:0:
320,192,105558,1,0,0:0:0:0:
192,192,105639,1,0,0:0:0:0:
448,192,105639,1,0,0:0:0:0:
64,192,105801,1,0,0:0:0:0:
192,192,105801,1,0,0:0:0:0:
320,192,105801,1,0,0:0:0:0:
192,192,105964,1,0,0:0:0:0:
320,192,105964,1,0,0:0:0:0:
192,192,106045,1,0,0:0:0:0:
448,192,106045,1,0,0:0:0:0:
64,192,106126,1,0,0:0:0:0:
320,192,106126,1,0,0:0:0:0:
448,192,106126,1,0,0:0:0:0:
192,192,106288,1,0,0:0:0:0:
320,192,106288,1,0,0:0:0:0:
64,192,106450,1,0,0:0:0:0:
320,192,106450,1,0,0:0:0:0:
448,192,106450,1,0,0:0:0:0:
64,192,106612,1,0,0:0:0:0:
448,192,106612,1,0,0:0:0:0:
192,192,106693,1,0,0:0:0:0:
320,192,106774,1,0,0:0:0:0:
448,192,106774,1,0,0:0:0:0:
64,192,106937,1,0,0:0:0:0:
192,192,106937,1,0,0:0:0:0:
64,192,107099,1,0,0:0:0:0:
448,192,107099,1,0,0:0:0:0:
192,192,107180,1,0,0:0:0:0:
320,192,107261,1,0,0:0:0:0:
448,192,107261,1,0,0:0:0:0:
64,192,107423,1,0,0:0:0:0:
192,192,107423,1,0,0:0:0:0:
192,192,107585,1,0,0:0:0:0:
320,192,107585,1,0,0:0:0:0:
192,192,107666,1,0,0:0:0:0:
448,192,107666,1,0,0:0:0:0:
64,192,107747,1,0,0:0:0:0:
320,192,107747,1,0,0:0:0:0:
192,192,107828,1,0,0:0:0:0:
320,192,107910,1,0,0:0:0:0:
448,192,107910,1,0,0:0:0:0:
64,192,107991,1,0,0:0:0:0:
192,192,108072,1,0,0:0:0:0:
448,192,108072,1,0,0:0:0:0:
320,192,108153,1,0,0:0:0:0:
64,192,108234,1,0,0:0:0:0:
448,192,108234,1,0,0:0:0:0:
192,192,108396,1,0,0:0:0:0:
320,192,108396,1,0,0:0:0:0:
64,192,108477,1,0,0:0:0:0:
320,192,108558,1,0,0:0:0:0:
448,192,108558,1,0,0:0:0:0:
192,192,108639,1,0,0:0:0:0:
64,192,108720,1,0,0:0:0:0:
448,192,108720,1,0,0:0:0:0:
192,192,108801,1,0,0:0:0:0:
320,192,108882,1,0,0:0:0:0:
448,192,108882,1,0,0:0:0:0:
64,192,108964,1,0,0:0:0:0:
192,192,109045,1,0,0:0:0:0:
448,192,109045,1,0,0:0:0:0:
320,192,109207,1,0,0:0:0:0:
448,192,109207,1,0,0:0:0:0:
64,192,109288,1,0,0:0:0:0:
192,192,109369,1,0,0:0:0:0:
448,192,109369,1,0,0:0:0:0:
192,192,109531,1,0,0:0:0:0:
320,192,109531,1,0,0:0:0:0:
64,192,109612,1,0,0:0:0:0:
320,192,109693,1,0,0:0:0:0:
448,192,109693,1,0,0:0:0:0:
64,192,109774,1,0,0:0:0:0:
192,192,109855,1,0,0:0:0:0:
448,192,109855,1,0,0:0:0:0:
64,192,110018,1,0,0:0:0:0:
320,192,110018,1,0,0:0:0:0:
448,192,110018,1,0,0:0:0:0:
64,192,110180,1,0,0:0:0:0:
192,192,110180,1,0,0:0:0:0:
448,192,110180,1,0,0:0:0:0:
320,192,110261,1,0,0:0:0:0:
64,192,110342,1,0,0:0:0:0:
448,192,110342,1,0,0:0:0:0:
192,192,110423,1,0,0:0:0:0:
320,192,110504,1,0,0:0:0:0:
448,192,110504,1,0,0:0:0:0:
192,192,110666,1,0,0:0:0:0:
448,192,110666,1,0,0:0:0:0:
64,192,110828,1,0,0:0:0:0:
192,192,110828,1,0,0:0:0:0:
320,192,110828,1,0,0:0:0:0:
192,192,110991,1,0,0:0:0:0:
448,192,110991,1,0,0:0:0:0:
64,192,111153,1,0,0:0:0:0:
320,192,111153,1,0,0:0:0:0:
448,192,111153,1,0,0:0:0:0:
64,192,111315,1,0,0:0:0:0:
192,192,111315,1,0,0:0:0:0:
320,192,111315,1,0,0:0:0:0:
192,192,111477,1,0,0:0:0:0:
320,192,111477,1,0,0:0:0:0:
448,192,111477,1,0,0:0:0:0:
64,192,111558,1,0,0:0:0:0:
192,192,111639,1,0,0:0:0:0:
320,192,111639,1,0,0:0:0:0:
448,192,111639,1,0,0:0:0:0:
64,192,111801,1,0,0:0:0:0:
448,192,111801,1,0,0:0:0:0:
192,192,111882,1,0,0:0:0:0:
320,192,111964,1,0,0:0:0:0:
448,192,111964,1,0,0:0:0:0:
64,192,112126,1,0,0:0:0:0:
192,192,112126,1,0,0:0:0:0:
64,192,112288,1,0,0:0:0:0:
448,192,112288,1,0,0:0:0:0:
192,192,112369,1,0,0:0:0:0:
320,192,112450,1,0,0:0:0:0:
448,192,112450,1,0,0:0:0:0:
64,192,112612,1,0,0:0:0:0:
192,192,112612,1,0,0:0:0:0:
64,192,112774,1,0,0:0:0:0:
320,192,112774,1,0,0:0:0:0:
192,192,112855,1,0,0:0:0:0:
320,192,112855,1,0,0:0:0:0:
64,192,112937,1,0,0:0:0:0:
448,192,112937,1,0,0:0:0:0:
320,192,113018,1,0,0:0:0:0:
64,192,113099,1,0,0:0:0:0:
192,192,113099,1,0,0:0:0:0:
448,192,113180,1,0,0:0:0:0:
64,192,113261,1,0,0:0:0:0:
320,192,113261,1,0,0:0:0:0:
192,192,113342,1,0,0:0:0:0:
64,192,113423,1,0,0:0:0:0:
448,192,113423,1,0,0:0:0:0:
320,192,113585,1,0,0:0:0:0:
448,192,113585,1,0,0:0:0:0:
64,192,113666,1,0,0:0:0:0:
192,192,113747,1,0,0:0:0:0:
320,192,113747,1,0,0:0:0:0:
64,192,113828,1,0,0:0:0:0:
192,192,113910,1,0,0:0:0:0:
448,192,113910,1,0,0:0:0:0:
320,192,113991,1,0,0:0:0:0:
64,192,114072,1,0,0:0:0:0:
448,192,114072,1,0,0:0:0:0:
192,192,114153,1,0,0:0:0:0:
64,192,114234,1,0,0:0:0:0:
320,192,114234,1,0,0:0:0:0:
448,192,114315,1,0,0:0:0:0:
64,192,114396,1,0,0:0:0:0:
192,192,114396,1,0,0:0:0:0:
320,192,114558,1,0,0:0:0:0:
448,192,114558,1,0,0:0:0:0:
64,192,114720,1,0,0:0:0:0:
192,192,114720,1,0,0:0:0:0:
448,192,114801,1,0,0:0:0:0:
64,192,114882,1,0,0:0:0:0:
320,192,114882,1,0,0:0:0:0:
448,192,114964,1,0,0:0:0:0:
192,192,115045,1,0,0:0:0:0:
320,192,115045,1,0,0:0:0:0:
64,192,115207,1,0,0:0:0:0:
448,192,115207,1,0,0:0:0:0:
64,192,115369,1,0,0:0:0:0:
192,192,115369,1,0,0:0:0:0:
320,192,115450,1,0,0:0:0:0:
448,192,115450,1,0,0:0:0:0:
64,192,115531,1,0,0:0:0:0:
192,192,115531,1,0,0:0:0:0:
320,192,115531,1,0,0:0:0:0:
192,192,115693,1,0,0:0:0:0:
320,192,115693,1,0,0:0:0:0:
448,192,115693,1,0,0:0:0:0:
64,192,115855,1,0,0:0:0:0:
192,192,115855,1,0,0:0:0:0:
192,192,116018,1,0,0:0:0:0:
320,192,116018,1,0,0:0:0:0:
448,192,116018,1,0,0:0:0:0:
64,192,116180,1,0,0:0:0:0:
448,192,116180,1,0,0:0:0:0:
64,192,116342,1,0,0:0:0:0:
192,192,116342,1,0,0:0:0:0:
448,192,116342,1,0,0:0:0:0:
320,192,116396,1,0,0:0:0:0:
192,192,116450,1,0,0:0:0:0:
64,192,116504,1,0,0:0:0:0:
320,192,116504,1,0,0:0:0:0:
448,192,116504,1,0,0:0:0:0:
64,192,116666,1,0,0:0:0:0:
192,192,116666,1,0,0:0:0:0:
320,192,116666,1,0,0:0:0:0:
64,192,116828,1,0,0:0:0:0:
320,192,116828,1,0,0:0:0:0:
448,192,116828,1,0,0:0:0:0:
64,192,116991,1,0,0:0:0:0:
448,192,116991,1,0,0:0:0:0:
192,192,117072,1,0,0:0:0:0:
320,192,117153,1,0,0:0:0:0:
448,192,117153,1,0,0:0:0:0:
64,192,117315,1,0,0:0:0:0:
192,192,117315,1,0,0:0:0:0:
64,192,117477,1,0,0:0:0:0:
320,192,117477,1,0,0:0:0:0:
448,192,117477,1,0,0:0:0:0:
192,192,117558,1,0,0:0:0:0:
320,192,117639,1,0,0:0:0:0:
448,192,117639,1,0,0:0:0:0:
64,192,117801,1,0,0:0:0:0:
192,192,117801,1,0,0:0:0:0:
320,192,117964,1,0,0:0:0:0:
448,192,117964,1,0,0:0:0:0:
64,192,118126,1,0,0:0:0:0:
192,192,118126,1,0,0:0:0:0:
448,192,118126,1,0,0:0:0:0:
320,192,118207,1,0,0:0:0:0:
64,192,118288,1,0,0:0:0:0:
192,192,118288,1,0,0:0:0:0:
448,192,118369,1,0,0:0:0:0:
64,192,118450,1,0,0:0:0:0:
320,192,118450,1,0,0:0:0:0:
192,192,118531,1,0,0:0:0:0:
64,192,118612,1,0,0:0:0:0:
448,192,118612,1,0,0:0:0:0:
64,192,118774,1,0,0:0:0:0:
192,192,118774,1,0,0:0:0:0:
448,192,118774,1,0,0:0:0:0:
320,192,118855,1,0,0:0:0:0:
64,192,118937,1,0,0:0:0:0:
448,192,118937,1,0,0:0:0:0:
192,192,119018,1,0,0:0:0:0:
320,192,119099,1,0,0:0:0:0:
448,192,119099,1,0,0:0:0:0:
64,192,119180,1,0,0:0:0:0:
320,192,119261,1,0,0:0:0:0:
448,192,119261,1,0,0:0:0:0:
192,192,119342,1,0,0:0:0:0:
64,192,119423,1,0,0:0:0:0:
320,192,119423,1,0,0:0:0:0:
448,192,119423,1,0,0:0:0:0:
192,192,119504,1,0,0:0:0:0:
64,192,119585,1,0,0:0:0:0:
320,192,119585,1,0,0:0:0:0:
320,192,119747,1,0,0:0:0:0:
448,192,119747,1,0,0:0:0:0:
192,192,119910,1,0,0:0:0:0:
448,192,119910,1,0,0:0:0:0:
64,192,119991,1,0,0:0:0:0:
192,192,120072,1,0,0:0:0:0:
320,192,120072,1,0,0:0:0:0:
64,192,120153,1,0,0:0:0:0:
320,192,120234,1,0,0:0:0:0:
448,192,120234,1,0,0:0:0:0:
64,192,120396,1,0,0:0:0:0:
192,192,120396,1,0,0:0:0:0:
448,192,120396,1,0,0:0:0:0:
192,192,120558,1,0,0:0:0:0:
320,192,120558,1,0,0:0:0:0:
64,192,120720,1,0,0:0:0:0:
448,192,120720,1,0,0:0:0:0:
192,192,120801,1,0,0:0:0:0:
64,192,120882,1,0,0:0:0:0:
320,192,120882,1,0,0:0:0:0:
448,192,120882,1,0,0:0:0:0:
192,192,121045,1,0,0:0:0:0:
448,192,121045,1,0,0:0:0:0:
64,192,121207,1,0,0:0:0:0:
320,192,121207,1,0,0:0:0:0:
192,192,121369,1,0,0:0:0:0:
320,192,121369,1,0,0:0:0:0:
448,192,121369,1,0,0:0:0:0:
64,192,121531,1,0,0:0:0:0:
448,192,121531,1,0,0:0:0:0:
192,192,121612,1,0,0:0:0:0:
320,192,121612,1,0,0:0:0:0:
64,192,121693,1,0,0:0:0:0:
448,192,121693,1,0,0:0:0:0:
192,192,121855,1,0,0:0:0:0:
320,192,121855,1,0,0:0:0:0:
448,192,121855,1,0,0:0:0:0:
64,192,122018,1,0,0:0:0:0:
320,192,122018,1,0,0:0:0:0:
448,192,122018,1,0,0:0:0:0:
64,192,122180,1,0,0:0:0:0:
64,192,122342,1,0,0:0:0:0:
64,192,122504,1,0,0:0:0:0:
64,192,122666,1,0,0:0:0:0:
192,192,122666,1,0,0:0:0:0:
448,192,122666,1,0,0:0:0:0:
64,192,122828,1,0,0:0:0:0:
64,192,122991,1,0,0:0:0:0:
64,192,123153,1,0,0:0:0:0:
448,192,123234,1,0,0:0:0:0:
64,192,123315,1,0,0:0:0:0:
192,192,123315,1,0,0:0:0:0:
320,192,123315,1,0,0:0:0:0:
64,192,123477,1,0,0:0:0:0:
64,192,123639,1,0,0:0:0:0:
64,192,123801,1,0,0:0:0:0:
320,192,123801,1,0,0:0:0:0:
448,192,123801,1,0,0:0:0:0:
64,192,123964,1,0,0:0:0:0:
64,192,124126,1,0,0:0:0:0:
64,192,124288,1,0,0:0:0:0:
192,192,124288,1,0,0:0:0:0:
448,192,124288,1,0,0:0:0:0:
64,192,124450,1,0,0:0:0:0:
448,192,124531,1,0,0:0:0:0:
64,192,124612,1,0,0:0:0:0:
192,192,124612,1,0,0:0:0:0:
320,192,124612,1,0,0:0:0:0:
448,192,124693,1,0,0:0:0:0:
64,192,124774,1,0,0:0:0:0:
320,192,124774,1,0,0:0:0:0:
448,192,124855,1,0,0:0:0:0:
64,192,124937,1,0,0:0:0:0:
192,192,124937,1,0,0:0:0:0:
320,192,125018,1,0,0:0:0:0:
64,192,125099,1,0,0:0:0:0:
192,192,125139,1,0,0:0:0:0:
320,192,125180,1,0,0:0:0:0:
448,192,125220,1,0,0:0:0:0:
64,192,125261,1,0,0:0:0:0:
192,192,125261,1,0,0:0:0:0:
320,192,125261,1,0,0:0:0:0:
64,192,125504,1,0,0:0:0:0:
320,192,125504,1,0,0:0:0:0:
448,192,125504,1,0,0:0:0:0:
64,192,125747,1,0,0:0:0:0:
320,192,125747,1,0,0:0:0:0:
448,192,125747,1,0,0:0:0:0:
192,192,125910,1,0,0:0:0:0:
320,192,126072,1,0,0:0:0:0:
448,192,126072,1,0,0:0:0:0:
64,192,126234,1,0,0:0:0:0:
192,192,126234,1,0,0:0:0:0:
320,192,126315,1,0,0:0:0:0:
448,192,126315,1,0,0:0:0:0:
64,192,126396,1,0,0:0:0:0:
320,192,126477,1,0,0:0:0:0:
64,192,126558,1,0,0:0:0:0:
192,192,126599,1,0,0:0:0:0:
320,192,126639,1,0,0:0:0:0:
448,192,126680,1,0,0:0:0:0:
64,192,126720,1,0,0:0:0:0:
192,192,126801,1,0,0:0:0:0:
320,192,126882,1,0,0:0:0:0:
448,192,126882,1,0,0:0:0:0:
64,192,126964,1,0,0:0:0:0:
192,192,126964,1,0,0:0:0:0:
448,192,127045,1,0,0:0:0:0:
320,192,127085,1,0,0:0:0:0:
192,192,127126,1,0,0:0:0:0:
64,192,127166,1,0,0:0:0:0:
320,192,127207,1,0,0:0:0:0:
448,192,127207,1,0,0:0:0:0:
