osu file format v14

[General]
AudioFilename: Jehovah's YaHVeH.mp3
AudioLeadIn: 2
PreviewTime: 88881
Countdown: 0
SampleSet: Normal
StackLeniency: 0.7
Mode: 3
LetterboxInBreaks: 0
SpecialStyle: 0
WidescreenStoryboard: 0

[Editor]
DistanceSpacing: 0.8
BeatDivisor: 4
GridSize: 8
TimelineZoom: 1

[Metadata]
Title:dakemoto's Collection Pack Vol.2
TitleUnicode:dakemoto's Collection Pack Vol.2
Artist:Various Artist
ArtistUnicode:Various Artist
Creator:dakemoto
Version:Jehovah's YaHVeH (Challenge)
Source:Stepmania
Tags:
BeatmapID:740749
BeatmapSetID:334680

[Difficulty]
HPDrainRate:7
CircleSize:4
OverallDifficulty:8
ApproachRate:10
SliderMultiplier:1.4
SliderTickRate:1

[Events]
//Background and Video events
0,0,"Jehovah's YaHVeH bg.jpg",0,0
//Break Periods
//Storyboard Layer 0 (Background)
//Storyboard Layer 1 (Fail)
//Storyboard Layer 2 (Pass)
//Storyboard Layer 3 (Foreground)
//Storyboard Sound Samples

[TimingPoints]
8697,272.727,4,1,0,15,1,0

[HitObjects]
192,192,8697,5,0,0:0:0:0:
320,192,8969,1,0,0:0:0:0:
448,192,9242,1,0,0:0:0:0:
64,192,9787,1,0,0:0:0:0:
448,192,10060,1,0,0:0:0:0:
320,192,10333,1,0,0:0:0:0:
64,192,10878,1,0,0:0:0:0:
192,192,11151,1,0,0:0:0:0:
448,192,11424,1,0,0:0:0:0:
64,192,11969,1,0,0:0:0:0:
192,192,12242,1,0,0:0:0:0:
320,192,12515,1,0,0:0:0:0:
64,192,13060,1,0,0:0:0:0:
192,192,13333,1,0,0:0:0:0:
448,192,13606,1,0,0:0:0:0:
320,192,14151,1,0,0:0:0:0:
192,192,14424,1,0,0:0:0:0:
64,192,14696,1,0,0:0:0:0:
448,192,15242,1,0,0:0:0:0:
320,192,15515,1,0,0:0:0:0:
64,192,15787,1,0,0:0:0:0:
192,192,16333,1,0,0:0:0:0:
320,192,16606,1,0,0:0:0:0:
64,192,16878,1,0,0:0:0:0:
192,192,17151,1,0,0:0:0:0:
448,192,17424,1,0,0:0:0:0:
448,192,17969,1,0,0:0:0:0:
64,192,18515,1,0,0:0:0:0:
192,192,18787,1,0,0:0:0:0:
448,192,19060,1,0,0:0:0:0:
320,192,19606,1,0,0:0:0:0:
192,192,19878,1,0,0:0:0:0:
64,192,20151,1,0,0:0:0:0:
448,192,20696,1,0,0:0:0:0:
320,192,20969,1,0,0:0:0:0:
64,192,21242,1,0,0:0:0:0:
320,192,21787,1,0,0:0:0:0:
192,192,22060,1,0,0:0:0:0:
448,192,22333,1,0,0:0:0:0:
192,192,22878,1,0,0:0:0:0:
320,192,23151,1,0,0:0:0:0:
64,192,23424,1,0,0:0:0:0:
192,192,23969,1,0,0:0:0:0:
320,192,24242,1,0,0:0:0:0:
64,192,24515,1,0,0:0:0:0:
448,192,24787,1,0,0:0:0:0:
192,192,25060,1,0,0:0:0:0:
448,192,25333,1,0,0:0:0:0:
320,192,25606,1,0,0:0:0:0:
448,192,25878,1,0,0:0:0:0:
192,192,26151,1,0,0:0:0:0:
64,192,26424,1,0,0:0:0:0:
448,192,26696,1,0,0:0:0:0:
64,192,26969,1,0,0:0:0:0:
320,192,27242,1,0,0:0:0:0:
448,192,27515,1,0,0:0:0:0:
192,192,27787,1,0,0:0:0:0:
64,192,28060,1,0,0:0:0:0:
448,192,28333,1,0,0:0:0:0:
320,192,28606,1,0,0:0:0:0:
64,192,28878,1,0,0:0:0:0:
192,192,29151,1,0,0:0:0:0:
320,192,29424,1,0,0:0:0:0:
448,192,29696,1,0,0:0:0:0:
64,192,29969,1,0,0:0:0:0:
192,192,30242,1,0,0:0:0:0:
320,192,30515,1,0,0:0:0:0:
448,192,30787,1,0,0:0:0:0:
192,192,31060,1,0,0:0:0:0:
64,192,31333,1,0,0:0:0:0:
448,192,31606,1,0,0:0:0:0:
192,192,31878,1,0,0:0:0:0:
320,192,32151,1,0,0:0:0:0:
448,192,32424,1,0,0:0:0:0:
64,192,32696,1,0,0:0:0:0:
192,192,32969,1,0,0:0:0:0:
320,192,33242,1,0,0:0:0:0:
64,192,33515,1,0,0:0:0:0:
448,192,33787,1,0,0:0:0:0:
192,192,34060,1,0,0:0:0:0:
448,192,34333,1,0,0:0:0:0:
64,192,34606,1,0,0:0:0:0:
320,192,34878,1,0,0:0:0:0:
64,192,35424,1,0,0:0:0:0:
320,192,35424,1,0,0:0:0:0:
448,192,35424,1,0,0:0:0:0:
192,192,35492,1,0,0:0:0:0:
320,192,35560,1,0,0:0:0:0:
448,192,35628,1,0,0:0:0:0:
64,192,35696,1,0,0:0:0:0:
192,192,35765,1,0,0:0:0:0:
320,192,35833,1,0,0:0:0:0:
448,192,35901,1,0,0:0:0:0:
64,192,35969,1,0,0:0:0:0:
192,192,36037,1,0,0:0:0:0:
320,192,36106,1,0,0:0:0:0:
448,192,36174,1,0,0:0:0:0:
64,192,36242,1,0,0:0:0:0:
192,192,36310,1,0,0:0:0:0:
320,192,36378,1,0,0:0:0:0:
448,192,36446,1,0,0:0:0:0:
64,192,36515,1,0,0:0:0:0:
192,192,36583,1,0,0:0:0:0:
320,192,36651,1,0,0:0:0:0:
448,192,36719,1,0,0:0:0:0:
64,192,36787,1,0,0:0:0:0:
192,192,36856,1,0,0:0:0:0:
320,192,36924,1,0,0:0:0:0:
448,192,36992,1,0,0:0:0:0:
64,192,37060,1,0,0:0:0:0:
192,192,37128,1,0,0:0:0:0:
320,192,37196,1,0,0:0:0:0:
448,192,37265,1,0,0:0:0:0:
64,192,37333,1,0,0:0:0:0:
192,192,37401,1,0,0:0:0:0:
320,192,37469,1,0,0:0:0:0:
448,192,37537,1,0,0:0:0:0:
64,192,37606,1,0,0:0:0:0:
192,192,37606,1,0,0:0:0:0:
320,192,37606,1,0,0:0:0:0:
448,192,37674,1,0,0:0:0:0:
192,192,37742,1,0,0:0:0:0:
320,192,37810,1,0,0:0:0:0:
64,192,37878,1,0,0:0:0:0:
448,192,37946,1,0,0:0:0:0:
64,192,38015,1,0,0:0:0:0:
192,192,38015,1,0,0:0:0:0:
320,192,38015,1,0,0:0:0:0:
448,192,38083,1,0,0:0:0:0:
64,192,38151,1,0,0:0:0:0:
320,192,38219,1,0,0:0:0:0:
192,192,38287,1,0,0:0:0:0:
448,192,38356,1,0,0:0:0:0:
64,192,38424,1,0,0:0:0:0:
192,192,38424,1,0,0:0:0:0:
320,192,38424,1,0,0:0:0:0:
448,192,38492,1,0,0:0:0:0:
64,192,38560,1,0,0:0:0:0:
320,192,38628,1,0,0:0:0:0:
192,192,38696,1,0,0:0:0:0:
448,192,38765,1,0,0:0:0:0:
64,192,38833,1,0,0:0:0:0:
320,192,38901,1,0,0:0:0:0:
192,192,38969,1,0,0:0:0:0:
448,192,38969,1,0,0:0:0:0:
64,192,39037,1,0,0:0:0:0:
320,192,39106,1,0,0:0:0:0:
192,192,39174,1,0,0:0:0:0:
64,192,39242,1,0,0:0:0:0:
448,192,39242,1,0,0:0:0:0:
192,192,39310,1,0,0:0:0:0:
448,192,39333,1,0,0:0:0:0:
320,192,39378,1,0,0:0:0:0:
192,192,39424,1,0,0:0:0:0:
64,192,39446,1,0,0:0:0:0:
320,192,39515,1,0,0:0:0:0:
448,192,39515,1,0,0:0:0:0:
192,192,39583,1,0,0:0:0:0:
64,192,39606,1,0,0:0:0:0:
448,192,39651,1,0,0:0:0:0:
192,192,39696,1,0,0:0:0:0:
320,192,39719,1,0,0:0:0:0:
64,192,39787,1,0,0:0:0:0:
192,192,39787,1,0,0:0:0:0:
448,192,39787,1,0,0:0:0:0:
320,192,39856,1,0,0:0:0:0:
448,192,39924,1,0,0:0:0:0:
192,192,39992,1,0,0:0:0:0:
320,192,40060,1,0,0:0:0:0:
64,192,40128,1,0,0:0:0:0:
320,192,40196,1,0,0:0:0:0:
192,192,40265,1,0,0:0:0:0:
448,192,40333,1,0,0:0:0:0:
64,192,40401,1,0,0:0:0:0:
320,192,40469,1,0,0:0:0:0:
192,192,40537,1,0,0:0:0:0:
448,192,40606,1,0,0:0:0:0:
320,192,40674,1,0,0:0:0:0:
192,192,40742,1,0,0:0:0:0:
64,192,40810,1,0,0:0:0:0:
192,192,40878,1,0,0:0:0:0:
320,192,40878,1,0,0:0:0:0:
448,192,40878,1,0,0:0:0:0:
64,192,40946,1,0,0:0:0:0:
320,192,41015,1,0,0:0:0:0:
192,192,41083,1,0,0:0:0:0:
448,192,41151,1,0,0:0:0:0:
64,192,41219,1,0,0:0:0:0:
192,192,41287,1,0,0:0:0:0:
320,192,41356,1,0,0:0:0:0:
448,192,41424,1,0,0:0:0:0:
192,192,41492,1,0,0:0:0:0:
320,192,41560,1,0,0:0:0:0:
448,192,41628,1,0,0:0:0:0:
64,192,41696,1,0,0:0:0:0:
192,192,41696,1,0,0:0:0:0:
320,192,41742,1,0,0:0:0:0:
448,192,41787,1,0,0:0:0:0:
192,192,41833,1,0,0:0:0:0:
320,192,41901,1,0,0:0:0:0:
64,192,41969,1,0,0:0:0:0:
192,192,41969,1,0,0:0:0:0:
448,192,41969,1,0,0:0:0:0:
320,192,42037,1,0,0:0:0:0:
192,192,42106,1,0,0:0:0:0:
448,192,42174,1,0,0:0:0:0:
64,192,42242,1,0,0:0:0:0:
192,192,42242,1,0,0:0:0:0:
448,192,42310,1,0,0:0:0:0:
64,192,42378,1,0,0:0:0:0:
192,192,42378,1,0,0:0:0:0:
320,192,42446,1,0,0:0:0:0:
64,192,42515,1,0,0:0:0:0:
448,192,42515,1,0,0:0:0:0:
320,192,42583,1,0,0:0:0:0:
64,192,42651,1,0,0:0:0:0:
192,192,42651,1,0,0:0:0:0:
448,192,42719,1,0,0:0:0:0:
64,192,42787,1,0,0:0:0:0:
320,192,42787,1,0,0:0:0:0:
448,192,42856,1,0,0:0:0:0:
64,192,42924,1,0,0:0:0:0:
192,192,42924,1,0,0:0:0:0:
320,192,42992,1,0,0:0:0:0:
64,192,43060,1,0,0:0:0:0:
448,192,43060,1,0,0:0:0:0:
320,192,43128,1,0,0:0:0:0:
192,192,43196,1,0,0:0:0:0:
320,192,43265,1,0,0:0:0:0:
64,192,43333,1,0,0:0:0:0:
448,192,43333,1,0,0:0:0:0:
192,192,43401,1,0,0:0:0:0:
320,192,43469,1,0,0:0:0:0:
192,192,43537,1,0,0:0:0:0:
64,192,43606,1,0,0:0:0:0:
448,192,43606,1,0,0:0:0:0:
320,192,43674,1,0,0:0:0:0:
192,192,43742,1,0,0:0:0:0:
64,192,43810,1,0,0:0:0:0:
448,192,43878,1,0,0:0:0:0:
320,192,43946,1,0,0:0:0:0:
192,192,44015,1,0,0:0:0:0:
320,192,44083,1,0,0:0:0:0:
64,192,44151,1,0,0:0:0:0:
192,192,44151,1,0,0:0:0:0:
448,192,44151,1,0,0:0:0:0:
320,192,44219,1,0,0:0:0:0:
64,192,44287,1,0,0:0:0:0:
192,192,44356,1,0,0:0:0:0:
320,192,44424,1,0,0:0:0:0:
448,192,44424,1,0,0:0:0:0:
64,192,44492,1,0,0:0:0:0:
192,192,44560,1,0,0:0:0:0:
320,192,44628,1,0,0:0:0:0:
64,192,44696,1,0,0:0:0:0:
448,192,44696,1,0,0:0:0:0:
320,192,44765,1,0,0:0:0:0:
64,192,44833,1,0,0:0:0:0:
192,192,44901,1,0,0:0:0:0:
320,192,44969,1,0,0:0:0:0:
448,192,44969,1,0,0:0:0:0:
64,192,45037,1,0,0:0:0:0:
320,192,45106,1,0,0:0:0:0:
192,192,45174,1,0,0:0:0:0:
64,192,45242,1,0,0:0:0:0:
448,192,45242,1,0,0:0:0:0:
320,192,45310,1,0,0:0:0:0:
192,192,45378,1,0,0:0:0:0:
448,192,45446,1,0,0:0:0:0:
64,192,45515,1,0,0:0:0:0:
192,192,45515,1,0,0:0:0:0:
320,192,45583,1,0,0:0:0:0:
448,192,45651,1,0,0:0:0:0:
192,192,45719,1,0,0:0:0:0:
64,192,45787,1,0,0:0:0:0:
320,192,45787,1,0,0:0:0:0:
448,192,45856,1,0,0:0:0:0:
192,192,45924,1,0,0:0:0:0:
320,192,45992,1,0,0:0:0:0:
64,192,46060,1,0,0:0:0:0:
448,192,46060,1,0,0:0:0:0:
192,192,46128,1,0,0:0:0:0:
320,192,46196,1,0,0:0:0:0:
64,192,46265,1,0,0:0:0:0:
320,192,46333,1,0,0:0:0:0:
448,192,46333,1,0,0:0:0:0:
192,192,46401,1,0,0:0:0:0:
448,192,46469,1,0,0:0:0:0:
64,192,46537,1,0,0:0:0:0:
192,192,46606,1,0,0:0:0:0:
320,192,46606,1,0,0:0:0:0:
448,192,46674,1,0,0:0:0:0:
192,192,46742,1,0,0:0:0:0:
320,192,46810,1,0,0:0:0:0:
64,192,46878,1,0,0:0:0:0:
192,192,46878,1,0,0:0:0:0:
448,192,46946,1,0,0:0:0:0:
192,192,47015,1,0,0:0:0:0:
320,192,47083,1,0,0:0:0:0:
64,192,47151,1,0,0:0:0:0:
448,192,47151,1,0,0:0:0:0:
192,192,47219,1,0,0:0:0:0:
320,192,47287,1,0,0:0:0:0:
64,192,47356,1,0,0:0:0:0:
192,192,47424,1,0,0:0:0:0:
448,192,47424,1,0,0:0:0:0:
320,192,47492,1,0,0:0:0:0:
64,192,47560,1,0,0:0:0:0:
320,192,47628,1,0,0:0:0:0:
64,192,47696,1,0,0:0:0:0:
192,192,47696,1,0,0:0:0:0:
448,192,47765,1,0,0:0:0:0:
192,192,47833,1,0,0:0:0:0:
320,192,47901,1,0,0:0:0:0:
64,192,47969,1,0,0:0:0:0:
448,192,47969,1,0,0:0:0:0:
320,192,48037,1,0,0:0:0:0:
192,192,48106,1,0,0:0:0:0:
320,192,48174,1,0,0:0:0:0:
64,192,48242,1,0,0:0:0:0:
448,192,48242,1,0,0:0:0:0:
192,192,48287,1,0,0:0:0:0:
320,192,48333,1,0,0:0:0:0:
448,192,48378,1,0,0:0:0:0:
64,192,48446,1,0,0:0:0:0:
192,192,48515,1,0,0:0:0:0:
320,192,48515,1,0,0:0:0:0:
448,192,48515,1,0,0:0:0:0:
64,192,48583,1,0,0:0:0:0:
448,192,48651,1,0,0:0:0:0:
320,192,48719,1,0,0:0:0:0:
64,192,48787,1,0,0:0:0:0:
448,192,48787,1,0,0:0:0:0:
192,192,48856,1,0,0:0:0:0:
320,192,48924,1,0,0:0:0:0:
64,192,48992,1,0,0:0:0:0:
192,192,49060,1,0,0:0:0:0:
320,192,49060,1,0,0:0:0:0:
448,192,49128,1,0,0:0:0:0:
64,192,49196,1,0,0:0:0:0:
192,192,49265,1,0,0:0:0:0:
320,192,49333,1,0,0:0:0:0:
448,192,49333,1,0,0:0:0:0:
64,192,49401,1,0,0:0:0:0:
448,192,49469,1,0,0:0:0:0:
320,192,49537,1,0,0:0:0:0:
64,192,49606,1,0,0:0:0:0:
192,192,49606,1,0,0:0:0:0:
320,192,49674,1,0,0:0:0:0:
448,192,49742,1,0,0:0:0:0:
64,192,49810,1,0,0:0:0:0:
192,192,49878,1,0,0:0:0:0:
320,192,49878,1,0,0:0:0:0:
448,192,49946,1,0,0:0:0:0:
64,192,50015,1,0,0:0:0:0:
192,192,50083,1,0,0:0:0:0:
320,192,50151,1,0,0:0:0:0:
448,192,50151,1,0,0:0:0:0:
64,192,50219,1,0,0:0:0:0:
448,192,50287,1,0,0:0:0:0:
320,192,50356,1,0,0:0:0:0:
64,192,50424,1,0,0:0:0:0:
192,192,50424,1,0,0:0:0:0:
448,192,50492,1,0,0:0:0:0:
192,192,50560,1,0,0:0:0:0:
320,192,50628,1,0,0:0:0:0:
64,192,50696,1,0,0:0:0:0:
448,192,50696,1,0,0:0:0:0:
320,192,50765,1,0,0:0:0:0:
64,192,50833,1,0,0:0:0:0:
192,192,50901,1,0,0:0:0:0:
320,192,50969,1,0,0:0:0:0:
448,192,50969,1,0,0:0:0:0:
64,192,51037,1,0,0:0:0:0:
320,192,51106,1,0,0:0:0:0:
192,192,51174,1,0,0:0:0:0:
64,192,51242,1,0,0:0:0:0:
320,192,51242,1,0,0:0:0:0:
448,192,51310,1,0,0:0:0:0:
192,192,51378,1,0,0:0:0:0:
320,192,51446,1,0,0:0:0:0:
64,192,51515,1,0,0:0:0:0:
448,192,51515,1,0,0:0:0:0:
320,192,51583,1,0,0:0:0:0:
192,192,51651,1,0,0:0:0:0:
64,192,51719,1,0,0:0:0:0:
320,192,51787,1,0,0:0:0:0:
448,192,51787,1,0,0:0:0:0:
192,192,51856,1,0,0:0:0:0:
64,192,51924,1,0,0:0:0:0:
448,192,51924,1,0,0:0:0:0:
320,192,51992,1,0,0:0:0:0:
64,192,52060,1,0,0:0:0:0:
192,192,52060,1,0,0:0:0:0:
320,192,52128,1,0,0:0:0:0:
64,192,52196,1,0,0:0:0:0:
448,192,52196,1,0,0:0:0:0:
192,192,52265,1,0,0:0:0:0:
320,192,52333,1,0,0:0:0:0:
448,192,52333,1,0,0:0:0:0:
64,192,52401,1,0,0:0:0:0:
192,192,52469,1,0,0:0:0:0:
448,192,52469,1,0,0:0:0:0:
320,192,52537,1,0,0:0:0:0:
64,192,52606,1,0,0:0:0:0:
192,192,52606,1,0,0:0:0:0:
320,192,52674,1,0,0:0:0:0:
64,192,52742,1,0,0:0:0:0:
448,192,52742,1,0,0:0:0:0:
192,192,52810,1,0,0:0:0:0:
64,192,52878,1,0,0:0:0:0:
320,192,52878,1,0,0:0:0:0:
448,192,52878,1,0,0:0:0:0:
192,192,52946,1,0,0:0:0:0:
320,192,53015,1,0,0:0:0:0:
448,192,53015,1,0,0:0:0:0:
64,192,53083,1,0,0:0:0:0:
192,192,53151,1,0,0:0:0:0:
448,192,53151,1,0,0:0:0:0:
320,192,53219,1,0,0:0:0:0:
64,192,53287,1,0,0:0:0:0:
448,192,53287,1,0,0:0:0:0:
192,192,53356,1,0,0:0:0:0:
64,192,53424,1,0,0:0:0:0:
448,192,53424,1,0,0:0:0:0:
320,192,53492,1,0,0:0:0:0:
64,192,53560,1,0,0:0:0:0:
192,192,53560,1,0,0:0:0:0:
320,192,53628,1,0,0:0:0:0:
192,192,53696,1,0,0:0:0:0:
448,192,53696,1,0,0:0:0:0:
64,192,53765,1,0,0:0:0:0:
320,192,53833,1,0,0:0:0:0:
448,192,53833,1,0,0:0:0:0:
192,192,53901,1,0,0:0:0:0:
64,192,53969,1,0,0:0:0:0:
448,192,53969,1,0,0:0:0:0:
320,192,54037,1,0,0:0:0:0:
64,192,54106,1,0,0:0:0:0:
192,192,54106,1,0,0:0:0:0:
448,192,54174,1,0,0:0:0:0:
64,192,54242,1,0,0:0:0:0:
192,192,54242,1,0,0:0:0:0:
320,192,54310,1,0,0:0:0:0:
64,192,54378,1,0,0:0:0:0:
448,192,54378,1,0,0:0:0:0:
192,192,54446,1,0,0:0:0:0:
64,192,54515,1,0,0:0:0:0:
320,192,54515,1,0,0:0:0:0:
448,192,54583,1,0,0:0:0:0:
64,192,54651,1,0,0:0:0:0:
192,192,54651,1,0,0:0:0:0:
320,192,54719,1,0,0:0:0:0:
64,192,54787,1,0,0:0:0:0:
448,192,54787,1,0,0:0:0:0:
192,192,54856,1,0,0:0:0:0:
320,192,54924,1,0,0:0:0:0:
448,192,54924,1,0,0:0:0:0:
64,192,54992,1,0,0:0:0:0:
320,192,55060,1,0,0:0:0:0:
448,192,55060,1,0,0:0:0:0:
192,192,55128,1,0,0:0:0:0:
64,192,55196,1,0,0:0:0:0:
448,192,55196,1,0,0:0:0:0:
320,192,55265,1,0,0:0:0:0:
64,192,55333,1,0,0:0:0:0:
192,192,55333,1,0,0:0:0:0:
320,192,55401,1,0,0:0:0:0:
192,192,55469,1,0,0:0:0:0:
448,192,55469,1,0,0:0:0:0:
320,192,55537,1,0,0:0:0:0:
64,192,55606,1,0,0:0:0:0:
192,192,55606,1,0,0:0:0:0:
448,192,55674,1,0,0:0:0:0:
64,192,55742,1,0,0:0:0:0:
192,192,55742,1,0,0:0:0:0:
320,192,55810,1,0,0:0:0:0:
64,192,55878,1,0,0:0:0:0:
448,192,55878,1,0,0:0:0:0:
192,192,55946,1,0,0:0:0:0:
320,192,56015,1,0,0:0:0:0:
448,192,56015,1,0,0:0:0:0:
64,192,56083,1,0,0:0:0:0:
192,192,56151,1,0,0:0:0:0:
448,192,56151,1,0,0:0:0:0:
320,192,56219,1,0,0:0:0:0:
64,192,56287,1,0,0:0:0:0:
192,192,56287,1,0,0:0:0:0:
320,192,56356,1,0,0:0:0:0:
64,192,56424,1,0,0:0:0:0:
192,192,56424,1,0,0:0:0:0:
448,192,56492,1,0,0:0:0:0:
192,192,56560,1,0,0:0:0:0:
320,192,56560,1,0,0:0:0:0:
64,192,56628,1,0,0:0:0:0:
192,192,56696,1,0,0:0:0:0:
448,192,56696,1,0,0:0:0:0:
64,192,56765,1,0,0:0:0:0:
320,192,56833,1,0,0:0:0:0:
448,192,56833,1,0,0:0:0:0:
192,192,56901,1,0,0:0:0:0:
64,192,56969,1,0,0:0:0:0:
448,192,56969,1,0,0:0:0:0:
192,192,57015,1,0,0:0:0:0:
320,192,57060,1,0,0:0:0:0:
64,192,57106,1,0,0:0:0:0:
448,192,57106,1,0,0:0:0:0:
192,192,57174,1,0,0:0:0:0:
64,192,57242,1,0,0:0:0:0:
320,192,57242,1,0,0:0:0:0:
448,192,57242,1,0,0:0:0:0:
192,192,57310,1,0,0:0:0:0:
320,192,57378,1,0,0:0:0:0:
448,192,57378,1,0,0:0:0:0:
64,192,57446,1,0,0:0:0:0:
192,192,57515,1,0,0:0:0:0:
320,192,57515,1,0,0:0:0:0:
448,192,57583,1,0,0:0:0:0:
64,192,57651,1,0,0:0:0:0:
320,192,57651,1,0,0:0:0:0:
192,192,57719,1,0,0:0:0:0:
64,192,57787,1,0,0:0:0:0:
320,192,57787,1,0,0:0:0:0:
448,192,57856,1,0,0:0:0:0:
192,192,57924,1,0,0:0:0:0:
320,192,57924,1,0,0:0:0:0:
64,192,57992,1,0,0:0:0:0:
320,192,58060,1,0,0:0:0:0:
448,192,58060,1,0,0:0:0:0:
192,192,58128,1,0,0:0:0:0:
64,192,58196,1,0,0:0:0:0:
448,192,58196,1,0,0:0:0:0:
320,192,58265,1,0,0:0:0:0:
64,192,58333,1,0,0:0:0:0:
192,192,58333,1,0,0:0:0:0:
320,192,58401,1,0,0:0:0:0:
192,192,58469,1,0,0:0:0:0:
448,192,58469,1,0,0:0:0:0:
64,192,58537,1,0,0:0:0:0:
192,192,58606,1,0,0:0:0:0:
320,192,58606,1,0,0:0:0:0:
448,192,58674,1,0,0:0:0:0:
64,192,58742,1,0,0:0:0:0:
320,192,58742,1,0,0:0:0:0:
192,192,58810,1,0,0:0:0:0:
320,192,58878,1,0,0:0:0:0:
448,192,58878,1,0,0:0:0:0:
64,192,58946,1,0,0:0:0:0:
192,192,59015,1,0,0:0:0:0:
448,192,59015,1,0,0:0:0:0:
320,192,59083,1,0,0:0:0:0:
64,192,59151,1,0,0:0:0:0:
192,192,59151,1,0,0:0:0:0:
448,192,59219,1,0,0:0:0:0:
64,192,59287,1,0,0:0:0:0:
192,192,59287,1,0,0:0:0:0:
320,192,59356,1,0,0:0:0:0:
64,192,59424,1,0,0:0:0:0:
448,192,59424,1,0,0:0:0:0:
320,192,59492,1,0,0:0:0:0:
192,192,59560,1,0,0:0:0:0:
64,192,59628,1,0,0:0:0:0:
192,192,59696,1,0,0:0:0:0:
320,192,59696,1,0,0:0:0:0:
448,192,59696,1,0,0:0:0:0:
64,192,59765,1,0,0:0:0:0:
320,192,59833,1,0,0:0:0:0:
192,192,59901,1,0,0:0:0:0:
64,192,59969,1,0,0:0:0:0:
448,192,60037,1,0,0:0:0:0:
192,192,60106,1,0,0:0:0:0:
320,192,60174,1,0,0:0:0:0:
64,192,60242,1,0,0:0:0:0:
192,192,60242,1,0,0:0:0:0:
448,192,60242,1,0,0:0:0:0:
320,192,60310,1,0,0:0:0:0:
448,192,60378,1,0,0:0:0:0:
64,192,60446,1,0,0:0:0:0:
320,192,60515,1,0,0:0:0:0:
448,192,60515,1,0,0:0:0:0:
192,192,60583,1,0,0:0:0:0:
448,192,60651,1,0,0:0:0:0:
320,192,60719,1,0,0:0:0:0:
64,192,60787,1,0,0:0:0:0:
320,192,60856,1,0,0:0:0:0:
64,192,60924,1,0,0:0:0:0:
448,192,60924,1,0,0:0:0:0:
192,192,60992,1,0,0:0:0:0:
448,192,61060,1,0,0:0:0:0:
64,192,61128,1,0,0:0:0:0:
192,192,61196,1,0,0:0:0:0:
320,192,61265,1,0,0:0:0:0:
64,192,61333,1,0,0:0:0:0:
192,192,61333,1,0,0:0:0:0:
320,192,61401,1,0,0:0:0:0:
64,192,61469,1,0,0:0:0:0:
448,192,61469,1,0,0:0:0:0:
192,192,61537,1,0,0:0:0:0:
448,192,61606,1,0,0:0:0:0:
320,0,61606,128,0,61878:1:0:0:0:
64,192,62151,1,0,0:0:0:0:
192,192,62424,1,0,0:0:0:0:
64,192,62696,1,0,0:0:0:0:
320,192,62696,1,0,0:0:0:0:
448,192,62696,1,0,0:0:0:0:
192,192,62833,1,0,0:0:0:0:
320,192,62969,1,0,0:0:0:0:
448,192,62969,1,0,0:0:0:0:
64,192,63037,1,0,0:0:0:0:
192,192,63106,1,0,0:0:0:0:
448,192,63106,1,0,0:0:0:0:
192,192,63242,1,0,0:0:0:0:
320,192,63242,1,0,0:0:0:0:
64,192,63378,1,0,0:0:0:0:
192,192,63515,1,0,0:0:0:0:
320,192,63515,1,0,0:0:0:0:
448,192,63583,1,0,0:0:0:0:
64,192,63651,1,0,0:0:0:0:
192,192,63651,1,0,0:0:0:0:
192,192,63787,1,0,0:0:0:0:
448,192,63787,1,0,0:0:0:0:
320,192,63924,1,0,0:0:0:0:
192,192,64060,1,0,0:0:0:0:
448,192,64060,1,0,0:0:0:0:
64,192,64128,1,0,0:0:0:0:
320,192,64196,1,0,0:0:0:0:
448,192,64196,1,0,0:0:0:0:
64,192,64333,1,0,0:0:0:0:
192,192,64333,1,0,0:0:0:0:
320,192,64401,1,0,0:0:0:0:
192,192,64469,1,0,0:0:0:0:
448,192,64469,1,0,0:0:0:0:
64,192,64606,1,0,0:0:0:0:
320,192,64606,1,0,0:0:0:0:
448,192,64674,1,0,0:0:0:0:
64,192,64742,1,0,0:0:0:0:
192,192,64742,1,0,0:0:0:0:
192,192,64878,1,0,0:0:0:0:
320,192,64878,1,0,0:0:0:0:
448,192,65015,1,0,0:0:0:0:
64,192,65151,1,0,0:0:0:0:
320,192,65151,1,0,0:0:0:0:
448,192,65219,1,0,0:0:0:0:
64,192,65287,1,0,0:0:0:0:
192,192,65287,1,0,0:0:0:0:
320,192,65424,1,0,0:0:0:0:
448,192,65424,1,0,0:0:0:0:
192,192,65560,1,0,0:0:0:0:
64,192,65696,1,0,0:0:0:0:
448,192,65696,1,0,0:0:0:0:
320,192,65765,1,0,0:0:0:0:
64,192,65833,1,0,0:0:0:0:
192,192,65833,1,0,0:0:0:0:
64,192,65969,1,0,0:0:0:0:
320,192,65969,1,0,0:0:0:0:
192,192,66106,1,0,0:0:0:0:
64,192,66242,1,0,0:0:0:0:
448,192,66242,1,0,0:0:0:0:
192,192,66310,1,0,0:0:0:0:
320,192,66378,1,0,0:0:0:0:
448,192,66378,1,0,0:0:0:0:
64,192,66515,1,0,0:0:0:0:
192,192,66515,1,0,0:0:0:0:
320,192,66583,1,0,0:0:0:0:
192,192,66651,1,0,0:0:0:0:
448,192,66651,1,0,0:0:0:0:
64,192,66787,1,0,0:0:0:0:
448,192,66787,1,0,0:0:0:0:
320,192,66833,1,0,0:0:0:0:
192,192,66878,1,0,0:0:0:0:
64,192,66924,1,0,0:0:0:0:
448,192,66924,1,0,0:0:0:0:
192,192,67060,1,0,0:0:0:0:
320,192,67060,1,0,0:0:0:0:
448,192,67060,1,0,0:0:0:0:
64,192,67196,1,0,0:0:0:0:
320,192,67333,1,0,0:0:0:0:
448,192,67333,1,0,0:0:0:0:
64,192,67401,1,0,0:0:0:0:
192,192,67469,1,0,0:0:0:0:
320,192,67469,1,0,0:0:0:0:
320,192,67606,1,0,0:0:0:0:
448,192,67606,1,0,0:0:0:0:
64,192,67742,1,0,0:0:0:0:
192,192,67878,1,0,0:0:0:0:
320,192,67878,1,0,0:0:0:0:
448,192,67946,1,0,0:0:0:0:
64,192,68015,1,0,0:0:0:0:
320,192,68015,1,0,0:0:0:0:
192,192,68151,1,0,0:0:0:0:
448,192,68151,1,0,0:0:0:0:
64,192,68287,1,0,0:0:0:0:
320,192,68424,1,0,0:0:0:0:
448,192,68424,1,0,0:0:0:0:
64,192,68492,1,0,0:0:0:0:
192,192,68560,1,0,0:0:0:0:
448,192,68560,1,0,0:0:0:0:
64,192,68696,1,0,0:0:0:0:
192,192,68696,1,0,0:0:0:0:
448,192,68833,1,0,0:0:0:0:
64,192,68969,1,0,0:0:0:0:
192,192,68969,1,0,0:0:0:0:
448,192,69037,1,0,0:0:0:0:
64,192,69106,1,0,0:0:0:0:
320,192,69106,1,0,0:0:0:0:
192,192,69242,1,0,0:0:0:0:
448,192,69242,1,0,0:0:0:0:
64,192,69378,1,0,0:0:0:0:
320,192,69515,1,0,0:0:0:0:
448,192,69515,1,0,0:0:0:0:
64,192,69583,1,0,0:0:0:0:
192,192,69651,1,0,0:0:0:0:
448,192,69651,1,0,0:0:0:0:
64,192,69787,1,0,0:0:0:0:
320,192,69787,1,0,0:0:0:0:
448,192,69856,1,0,0:0:0:0:
192,192,69924,1,0,0:0:0:0:
320,192,69924,1,0,0:0:0:0:
64,192,70060,1,0,0:0:0:0:
448,192,70060,1,0,0:0:0:0:
192,192,70128,1,0,0:0:0:0:
64,192,70196,1,0,0:0:0:0:
320,192,70196,1,0,0:0:0:0:
64,192,70333,1,0,0:0:0:0:
448,192,70333,1,0,0:0:0:0:
192,192,70401,1,0,0:0:0:0:
320,192,70401,1,0,0:0:0:0:
64,192,70469,1,0,0:0:0:0:
448,192,70469,1,0,0:0:0:0:
320,192,70537,1,0,0:0:0:0:
192,192,70606,1,0,0:0:0:0:
448,192,70606,1,0,0:0:0:0:
64,192,70674,1,0,0:0:0:0:
320,192,70742,1,0,0:0:0:0:
192,192,70810,1,0,0:0:0:0:
320,192,70878,1,0,0:0:0:0:
448,192,70878,1,0,0:0:0:0:
64,192,70946,1,0,0:0:0:0:
192,192,70946,1,0,0:0:0:0:
320,192,71015,1,0,0:0:0:0:
448,192,71015,1,0,0:0:0:0:
192,192,71083,1,0,0:0:0:0:
64,192,71151,1,0,0:0:0:0:
448,192,71151,1,0,0:0:0:0:
192,192,71219,1,0,0:0:0:0:
320,192,71287,1,0,0:0:0:0:
192,192,71356,1,0,0:0:0:0:
320,192,71424,1,0,0:0:0:0:
448,192,71424,1,0,0:0:0:0:
64,0,71424,128,0,72106:1:0:0:0:
320,192,71560,1,0,0:0:0:0:
448,192,71696,1,0,0:0:0:0:
192,192,71765,1,0,0:0:0:0:
320,192,71833,1,0,0:0:0:0:
448,192,71969,1,0,0:0:0:0:
192,192,72106,1,0,0:0:0:0:
320,0,72106,128,0,72242:1:0:0:0:
192,192,72242,1,0,0:0:0:0:
448,0,72242,128,0,72378:1:0:0:0:
64,192,72310,1,0,0:0:0:0:
320,192,72378,1,0,0:0:0:0:
192,0,72378,128,0,72515:1:0:0:0:
64,192,72515,1,0,0:0:0:0:
448,0,72515,128,0,72856:1:0:0:0:
320,192,72651,1,0,0:0:0:0:
64,192,72787,1,0,0:0:0:0:
320,192,72856,1,0,0:0:0:0:
192,0,72856,128,0,73196:1:0:0:0:
64,192,72924,1,0,0:0:0:0:
448,192,73060,1,0,0:0:0:0:
64,192,73128,1,0,0:0:0:0:
448,192,73196,1,0,0:0:0:0:
320,0,73196,128,0,73469:1:0:0:0:
64,192,73333,1,0,0:0:0:0:
192,192,73401,1,0,0:0:0:0:
64,192,73469,1,0,0:0:0:0:
448,0,73469,128,0,73606:1:0:0:0:
320,192,73606,1,0,0:0:0:0:
64,0,73606,128,0,73878:1:0:0:0:
192,192,73742,1,0,0:0:0:0:
320,192,73878,1,0,0:0:0:0:
448,0,73878,128,0,74015:1:0:0:0:
64,192,73946,1,0,0:0:0:0:
192,192,74015,1,0,0:0:0:0:
320,0,74015,128,0,74287:1:0:0:0:
64,192,74151,1,0,0:0:0:0:
448,192,74287,1,0,0:0:0:0:
192,0,74287,128,0,74424:1:0:0:0:
448,192,74424,1,0,0:0:0:0:
64,0,74424,128,0,75242:1:0:0:0:
192,192,74492,1,0,0:0:0:0:
320,192,74560,1,0,0:0:0:0:
192,192,74696,1,0,0:0:0:0:
448,192,74833,1,0,0:0:0:0:
320,192,74969,1,0,0:0:0:0:
448,192,75037,1,0,0:0:0:0:
192,192,75106,1,0,0:0:0:0:
448,192,75242,1,0,0:0:0:0:
192,192,75310,1,0,0:0:0:0:
448,192,75378,1,0,0:0:0:0:
64,192,75515,1,0,0:0:0:0:
320,0,75515,128,0,75651:1:0:0:0:
192,192,75583,1,0,0:0:0:0:
64,192,75651,1,0,0:0:0:0:
448,0,75651,128,0,75787:1:0:0:0:
64,192,75787,1,0,0:0:0:0:
320,192,75787,1,0,0:0:0:0:
192,0,75787,128,0,76196:1:0:0:0:
448,192,75924,1,0,0:0:0:0:
64,192,76060,1,0,0:0:0:0:
448,192,76128,1,0,0:0:0:0:
64,192,76196,1,0,0:0:0:0:
320,0,76196,128,0,76606:1:0:0:0:
448,192,76333,1,0,0:0:0:0:
64,192,76469,1,0,0:0:0:0:
64,192,76606,1,0,0:0:0:0:
448,0,76606,128,0,76878:1:0:0:0:
320,192,76674,1,0,0:0:0:0:
192,192,76742,1,0,0:0:0:0:
320,192,76878,1,0,0:0:0:0:
64,0,76878,128,0,77287:1:0:0:0:
192,192,77015,1,0,0:0:0:0:
448,192,77151,1,0,0:0:0:0:
320,192,77219,1,0,0:0:0:0:
448,192,77287,1,0,0:0:0:0:
192,0,77287,128,0,77696:1:0:0:0:
320,192,77424,1,0,0:0:0:0:
448,192,77492,1,0,0:0:0:0:
64,192,77560,1,0,0:0:0:0:
448,192,77696,1,0,0:0:0:0:
320,0,77696,128,0,77969:1:0:0:0:
64,192,77765,1,0,0:0:0:0:
192,192,77833,1,0,0:0:0:0:
192,192,77969,1,0,0:0:0:0:
448,192,77969,1,0,0:0:0:0:
64,0,77969,128,0,78378:1:0:0:0:
320,192,78106,1,0,0:0:0:0:
448,192,78242,1,0,0:0:0:0:
192,192,78310,1,0,0:0:0:0:
320,192,78378,1,0,0:0:0:0:
448,0,78378,128,0,78787:1:0:0:0:
192,192,78515,1,0,0:0:0:0:
64,192,78583,1,0,0:0:0:0:
320,192,78651,1,0,0:0:0:0:
64,192,78787,1,0,0:0:0:0:
192,0,78787,128,0,79060:1:0:0:0:
320,192,78856,1,0,0:0:0:0:
64,192,78924,1,0,0:0:0:0:
320,192,79060,1,0,0:0:0:0:
448,0,79060,128,0,79606:1:0:0:0:
64,192,79128,1,0,0:0:0:0:
320,192,79196,1,0,0:0:0:0:
192,192,79265,1,0,0:0:0:0:
64,192,79333,1,0,0:0:0:0:
320,192,79401,1,0,0:0:0:0:
64,192,79469,1,0,0:0:0:0:
192,192,79537,1,0,0:0:0:0:
320,192,79606,1,0,0:0:0:0:
192,192,79674,1,0,0:0:0:0:
448,192,79742,1,0,0:0:0:0:
64,192,79810,1,0,0:0:0:0:
320,192,79878,1,0,0:0:0:0:
192,192,79946,1,0,0:0:0:0:
64,192,80015,1,0,0:0:0:0:
448,192,80083,1,0,0:0:0:0:
64,192,80151,1,0,0:0:0:0:
192,192,80151,1,0,0:0:0:0:
320,192,80151,1,0,0:0:0:0:
448,192,80287,1,0,0:0:0:0:
64,192,80424,1,0,0:0:0:0:
192,192,80424,1,0,0:0:0:0:
448,192,80424,1,0,0:0:0:0:
320,192,80560,1,0,0:0:0:0:
192,192,80628,1,0,0:0:0:0:
64,192,80696,1,0,0:0:0:0:
320,192,80696,1,0,0:0:0:0:
448,192,80696,1,0,0:0:0:0:
320,192,80833,1,0,0:0:0:0:
64,192,80901,1,0,0:0:0:0:
192,192,80969,1,0,0:0:0:0:
320,192,80969,1,0,0:0:0:0:
448,192,80969,1,0,0:0:0:0:
64,192,81106,1,0,0:0:0:0:
64,192,81242,1,0,0:0:0:0:
320,192,81242,1,0,0:0:0:0:
448,192,81242,1,0,0:0:0:0:
192,192,81378,1,0,0:0:0:0:
64,192,81515,1,0,0:0:0:0:
192,192,81515,1,0,0:0:0:0:
448,192,81515,1,0,0:0:0:0:
64,192,81719,1,0,0:0:0:0:
192,192,81787,1,0,0:0:0:0:
320,192,81787,1,0,0:0:0:0:
448,192,81787,1,0,0:0:0:0:
192,192,81924,1,0,0:0:0:0:
320,192,81992,1,0,0:0:0:0:
64,192,82060,1,0,0:0:0:0:
192,192,82060,1,0,0:0:0:0:
448,192,82060,1,0,0:0:0:0:
320,192,82196,1,0,0:0:0:0:
448,192,82265,1,0,0:0:0:0:
64,192,82333,1,0,0:0:0:0:
192,192,82333,1,0,0:0:0:0:
320,192,82333,1,0,0:0:0:0:
192,192,82606,1,0,0:0:0:0:
320,192,82606,1,0,0:0:0:0:
448,192,82606,1,0,0:0:0:0:
64,192,82742,1,0,0:0:0:0:
64,192,82878,1,0,0:0:0:0:
192,192,82878,1,0,0:0:0:0:
320,192,82878,1,0,0:0:0:0:
448,192,83015,1,0,0:0:0:0:
320,192,83083,1,0,0:0:0:0:
64,192,83151,1,0,0:0:0:0:
192,192,83151,1,0,0:0:0:0:
448,192,83151,1,0,0:0:0:0:
320,192,83287,1,0,0:0:0:0:
192,192,83356,1,0,0:0:0:0:
64,192,83424,1,0,0:0:0:0:
320,192,83424,1,0,0:0:0:0:
448,192,83424,1,0,0:0:0:0:
192,192,83560,1,0,0:0:0:0:
64,192,83628,1,0,0:0:0:0:
192,192,83696,1,0,0:0:0:0:
320,192,83696,1,0,0:0:0:0:
448,192,83696,1,0,0:0:0:0:
192,192,83833,1,0,0:0:0:0:
320,192,83901,1,0,0:0:0:0:
64,192,83969,1,0,0:0:0:0:
192,192,83969,1,0,0:0:0:0:
448,192,83969,1,0,0:0:0:0:
192,192,84106,1,0,0:0:0:0:
448,192,84174,1,0,0:0:0:0:
64,192,84242,1,0,0:0:0:0:
192,192,84242,1,0,0:0:0:0:
320,192,84242,1,0,0:0:0:0:
448,192,84378,1,0,0:0:0:0:
320,192,84446,1,0,0:0:0:0:
64,192,84515,1,0,0:0:0:0:
192,192,84515,1,0,0:0:0:0:
448,192,84515,1,0,0:0:0:0:
192,192,84651,1,0,0:0:0:0:
320,192,84651,1,0,0:0:0:0:
64,192,84787,1,0,0:0:0:0:
448,192,84787,1,0,0:0:0:0:
64,192,84924,1,0,0:0:0:0:
192,192,84924,1,0,0:0:0:0:
320,192,85060,1,0,0:0:0:0:
448,192,85060,1,0,0:0:0:0:
64,192,85196,1,0,0:0:0:0:
192,192,85196,1,0,0:0:0:0:
320,192,85265,1,0,0:0:0:0:
192,192,85333,1,0,0:0:0:0:
448,192,85333,1,0,0:0:0:0:
64,192,85469,1,0,0:0:0:0:
320,192,85469,1,0,0:0:0:0:
192,192,85606,1,0,0:0:0:0:
448,192,85606,1,0,0:0:0:0:
64,192,85742,1,0,0:0:0:0:
320,192,85742,1,0,0:0:0:0:
192,192,85878,1,0,0:0:0:0:
320,192,85878,1,0,0:0:0:0:
320,192,86015,1,0,0:0:0:0:
448,192,86015,1,0,0:0:0:0:
192,192,86083,1,0,0:0:0:0:
64,192,86151,1,0,0:0:0:0:
320,192,86151,1,0,0:0:0:0:
192,192,86287,1,0,0:0:0:0:
448,192,86287,1,0,0:0:0:0:
320,192,86356,1,0,0:0:0:0:
64,192,86424,1,0,0:0:0:0:
192,192,86424,1,0,0:0:0:0:
64,192,86560,1,0,0:0:0:0:
192,192,86560,1,0,0:0:0:0:
320,192,86628,1,0,0:0:0:0:
64,192,86696,1,0,0:0:0:0:
448,192,86696,1,0,0:0:0:0:
192,192,86765,1,0,0:0:0:0:
320,192,86833,1,0,0:0:0:0:
64,192,86901,1,0,0:0:0:0:
448,192,86901,1,0,0:0:0:0:
192,192,86969,1,0,0:0:0:0:
320,192,86969,1,0,0:0:0:0:
448,192,87037,1,0,0:0:0:0:
64,192,87106,1,0,0:0:0:0:
192,192,87106,1,0,0:0:0:0:
320,192,87174,1,0,0:0:0:0:
64,192,87242,1,0,0:0:0:0:
448,192,87242,1,0,0:0:0:0:
192,192,87310,1,0,0:0:0:0:
320,192,87378,1,0,0:0:0:0:
448,192,87378,1,0,0:0:0:0:
64,192,87446,1,0,0:0:0:0:
192,192,87515,1,0,0:0:0:0:
448,192,87515,1,0,0:0:0:0:
320,192,87583,1,0,0:0:0:0:
64,192,87651,1,0,0:0:0:0:
448,192,87651,1,0,0:0:0:0:
192,192,87719,1,0,0:0:0:0:
448,192,87787,1,0,0:0:0:0:
320,0,87787,128,0,88060:1:0:0:0:
64,0,87787,128,0,88333:1:0:0:0:
192,0,88060,128,0,88333:1:0:0:0:
320,0,88333,128,0,88606:1:0:0:0:
448,0,88333,128,0,88810:1:0:0:0:
192,0,88606,128,0,88810:1:0:0:0:
64,192,88878,1,0,0:0:0:0:
320,192,88878,1,0,0:0:0:0:
448,192,88878,1,0,0:0:0:0:
64,192,89015,1,0,0:0:0:0:
192,192,89015,1,0,0:0:0:0:
320,192,89151,1,0,0:0:0:0:
448,192,89151,1,0,0:0:0:0:
64,192,89219,1,0,0:0:0:0:
192,192,89287,1,0,0:0:0:0:
448,192,89287,1,0,0:0:0:0:
320,192,89424,1,0,0:0:0:0:
448,192,89424,1,0,0:0:0:0:
64,192,89560,1,0,0:0:0:0:
192,192,89560,1,0,0:0:0:0:
64,192,89696,1,0,0:0:0:0:
448,192,89696,1,0,0:0:0:0:
320,192,89765,1,0,0:0:0:0:
64,192,89833,1,0,0:0:0:0:
192,192,89833,1,0,0:0:0:0:
192,192,89969,1,0,0:0:0:0:
448,192,89969,1,0,0:0:0:0:
64,192,90106,1,0,0:0:0:0:
320,192,90106,1,0,0:0:0:0:
320,192,90242,1,0,0:0:0:0:
448,192,90242,1,0,0:0:0:0:
64,192,90310,1,0,0:0:0:0:
192,192,90378,1,0,0:0:0:0:
448,192,90378,1,0,0:0:0:0:
64,192,90515,1,0,0:0:0:0:
448,192,90515,1,0,0:0:0:0:
320,192,90583,1,0,0:0:0:0:
192,192,90651,1,0,0:0:0:0:
448,192,90651,1,0,0:0:0:0:
64,192,90787,1,0,0:0:0:0:
320,192,90787,1,0,0:0:0:0:
448,192,90856,1,0,0:0:0:0:
64,192,90924,1,0,0:0:0:0:
192,192,90924,1,0,0:0:0:0:
192,192,91060,1,0,0:0:0:0:
320,192,91060,1,0,0:0:0:0:
64,192,91196,1,0,0:0:0:0:
448,192,91196,1,0,0:0:0:0:
192,192,91333,1,0,0:0:0:0:
320,192,91333,1,0,0:0:0:0:
448,192,91401,1,0,0:0:0:0:
64,192,91469,1,0,0:0:0:0:
192,192,91469,1,0,0:0:0:0:
320,192,91606,1,0,0:0:0:0:
448,192,91606,1,0,0:0:0:0:
64,192,91674,1,0,0:0:0:0:
192,192,91742,1,0,0:0:0:0:
448,192,91742,1,0,0:0:0:0:
320,192,91878,1,0,0:0:0:0:
448,192,91878,1,0,0:0:0:0:
64,192,91946,1,0,0:0:0:0:
192,192,92015,1,0,0:0:0:0:
320,192,92015,1,0,0:0:0:0:
64,192,92151,1,0,0:0:0:0:
192,192,92151,1,0,0:0:0:0:
448,0,92151,128,0,92424:1:0:0:0:
64,192,92424,1,0,0:0:0:0:
192,192,92424,1,0,0:0:0:0:
320,0,92424,128,0,92696:1:0:0:0:
64,192,92696,1,0,0:0:0:0:
448,192,92696,1,0,0:0:0:0:
192,0,92696,128,0,92969:1:0:0:0:
320,192,92969,1,0,0:0:0:0:
448,192,92969,1,0,0:0:0:0:
64,0,92969,128,0,93174:1:0:0:0:
192,192,93037,1,0,0:0:0:0:
448,192,93106,1,0,0:0:0:0:
320,192,93174,1,0,0:0:0:0:
64,192,93242,1,0,0:0:0:0:
192,192,93242,1,0,0:0:0:0:
448,192,93242,1,0,0:0:0:0:
64,192,93378,1,0,0:0:0:0:
192,192,93378,1,0,0:0:0:0:
320,192,93515,1,0,0:0:0:0:
448,192,93515,1,0,0:0:0:0:
64,192,93583,1,0,0:0:0:0:
192,192,93651,1,0,0:0:0:0:
320,192,93651,1,0,0:0:0:0:
64,192,93787,1,0,0:0:0:0:
192,192,93787,1,0,0:0:0:0:
320,192,93924,1,0,0:0:0:0:
448,192,93924,1,0,0:0:0:0:
64,192,94060,1,0,0:0:0:0:
192,192,94060,1,0,0:0:0:0:
448,192,94128,1,0,0:0:0:0:
192,192,94196,1,0,0:0:0:0:
320,192,94196,1,0,0:0:0:0:
64,192,94333,1,0,0:0:0:0:
448,192,94333,1,0,0:0:0:0:
64,192,94469,1,0,0:0:0:0:
192,192,94469,1,0,0:0:0:0:
192,192,94606,1,0,0:0:0:0:
448,192,94606,1,0,0:0:0:0:
64,192,94674,1,0,0:0:0:0:
320,192,94742,1,0,0:0:0:0:
448,192,94742,1,0,0:0:0:0:
64,192,94878,1,0,0:0:0:0:
192,192,94878,1,0,0:0:0:0:
64,192,95015,1,0,0:0:0:0:
448,192,95015,1,0,0:0:0:0:
192,192,95151,1,0,0:0:0:0:
448,192,95151,1,0,0:0:0:0:
320,192,95219,1,0,0:0:0:0:
64,192,95287,1,0,0:0:0:0:
448,192,95287,1,0,0:0:0:0:
192,192,95424,1,0,0:0:0:0:
320,192,95424,1,0,0:0:0:0:
448,192,95424,1,0,0:0:0:0:
64,192,95492,1,0,0:0:0:0:
320,192,95560,1,0,0:0:0:0:
448,192,95560,1,0,0:0:0:0:
192,192,95628,1,0,0:0:0:0:
64,192,95696,1,0,0:0:0:0:
448,192,95696,1,0,0:0:0:0:
320,192,95765,1,0,0:0:0:0:
192,192,95833,1,0,0:0:0:0:
448,192,95833,1,0,0:0:0:0:
320,192,95901,1,0,0:0:0:0:
64,192,95969,1,0,0:0:0:0:
448,192,95969,1,0,0:0:0:0:
192,192,96037,1,0,0:0:0:0:
320,192,96106,1,0,0:0:0:0:
448,192,96106,1,0,0:0:0:0:
64,192,96174,1,0,0:0:0:0:
192,192,96242,1,0,0:0:0:0:
448,192,96242,1,0,0:0:0:0:
64,192,96310,1,0,0:0:0:0:
192,192,96378,1,0,0:0:0:0:
320,192,96378,1,0,0:0:0:0:
448,192,96446,1,0,0:0:0:0:
64,192,96515,1,0,0:0:0:0:
320,192,96515,1,0,0:0:0:0:
192,192,96583,1,0,0:0:0:0:
448,192,96583,1,0,0:0:0:0:
64,192,96651,1,0,0:0:0:0:
320,192,96651,1,0,0:0:0:0:
192,192,96719,1,0,0:0:0:0:
320,192,96787,1,0,0:0:0:0:
448,192,96787,1,0,0:0:0:0:
64,192,96856,1,0,0:0:0:0:
192,192,96924,1,0,0:0:0:0:
448,192,96924,1,0,0:0:0:0:
64,192,96992,1,0,0:0:0:0:
320,192,96992,1,0,0:0:0:0:
192,192,97060,1,0,0:0:0:0:
448,192,97060,1,0,0:0:0:0:
64,192,97128,1,0,0:0:0:0:
320,192,97196,1,0,0:0:0:0:
192,192,97265,1,0,0:0:0:0:
64,192,97333,1,0,0:0:0:0:
448,192,97333,1,0,0:0:0:0:
192,192,97401,1,0,0:0:0:0:
448,192,97469,1,0,0:0:0:0:
320,192,97537,1,0,0:0:0:0:
64,192,97606,1,0,0:0:0:0:
192,192,97606,1,0,0:0:0:0:
448,192,97606,1,0,0:0:0:0:
64,192,97742,1,0,0:0:0:0:
192,192,97742,1,0,0:0:0:0:
320,192,97878,1,0,0:0:0:0:
448,192,97878,1,0,0:0:0:0:
64,192,97946,1,0,0:0:0:0:
192,192,98015,1,0,0:0:0:0:
448,192,98015,1,0,0:0:0:0:
320,192,98151,1,0,0:0:0:0:
448,192,98151,1,0,0:0:0:0:
64,192,98287,1,0,0:0:0:0:
192,192,98287,1,0,0:0:0:0:
64,192,98424,1,0,0:0:0:0:
448,192,98424,1,0,0:0:0:0:
320,192,98492,1,0,0:0:0:0:
64,192,98560,1,0,0:0:0:0:
192,192,98560,1,0,0:0:0:0:
192,192,98696,1,0,0:0:0:0:
448,192,98696,1,0,0:0:0:0:
64,192,98833,1,0,0:0:0:0:
320,192,98833,1,0,0:0:0:0:
320,192,98969,1,0,0:0:0:0:
448,192,98969,1,0,0:0:0:0:
64,192,99037,1,0,0:0:0:0:
192,192,99106,1,0,0:0:0:0:
448,192,99106,1,0,0:0:0:0:
64,192,99242,1,0,0:0:0:0:
448,192,99242,1,0,0:0:0:0:
320,192,99310,1,0,0:0:0:0:
192,192,99378,1,0,0:0:0:0:
448,192,99378,1,0,0:0:0:0:
64,192,99515,1,0,0:0:0:0:
320,192,99515,1,0,0:0:0:0:
448,192,99583,1,0,0:0:0:0:
64,192,99651,1,0,0:0:0:0:
192,192,99651,1,0,0:0:0:0:
192,192,99787,1,0,0:0:0:0:
320,192,99787,1,0,0:0:0:0:
64,192,99924,1,0,0:0:0:0:
448,192,99924,1,0,0:0:0:0:
192,192,100060,1,0,0:0:0:0:
320,192,100060,1,0,0:0:0:0:
448,192,100128,1,0,0:0:0:0:
64,192,100196,1,0,0:0:0:0:
192,192,100196,1,0,0:0:0:0:
320,192,100333,1,0,0:0:0:0:
448,192,100333,1,0,0:0:0:0:
192,192,100469,1,0,0:0:0:0:
448,192,100469,1,0,0:0:0:0:
320,192,100605,1,0,0:0:0:0:
448,192,100605,1,0,0:0:0:0:
64,192,100674,1,0,0:0:0:0:
192,192,100742,1,0,0:0:0:0:
320,192,100742,1,0,0:0:0:0:
64,192,100878,1,0,0:0:0:0:
192,192,100878,1,0,0:0:0:0:
448,0,100878,128,0,101151:1:0:0:0:
320,192,101015,1,0,0:0:0:0:
64,192,101151,1,0,0:0:0:0:
192,192,101151,1,0,0:0:0:0:
320,0,101151,128,0,101424:1:0:0:0:
448,192,101219,1,0,0:0:0:0:
64,192,101287,1,0,0:0:0:0:
64,192,101424,1,0,0:0:0:0:
448,192,101424,1,0,0:0:0:0:
192,0,101424,128,0,101696:1:0:0:0:
320,192,101492,1,0,0:0:0:0:
448,192,101560,1,0,0:0:0:0:
320,192,101696,1,0,0:0:0:0:
448,192,101696,1,0,0:0:0:0:
64,0,101696,128,0,101901:1:0:0:0:
192,192,101765,1,0,0:0:0:0:
448,192,101833,1,0,0:0:0:0:
320,192,101901,1,0,0:0:0:0:
64,192,101969,1,0,0:0:0:0:
192,192,101969,1,0,0:0:0:0:
448,192,101969,1,0,0:0:0:0:
64,192,102105,1,0,0:0:0:0:
192,192,102105,1,0,0:0:0:0:
320,192,102242,1,0,0:0:0:0:
448,192,102242,1,0,0:0:0:0:
64,192,102310,1,0,0:0:0:0:
192,192,102378,1,0,0:0:0:0:
320,192,102378,1,0,0:0:0:0:
64,192,102515,1,0,0:0:0:0:
192,192,102515,1,0,0:0:0:0:
320,192,102651,1,0,0:0:0:0:
448,192,102651,1,0,0:0:0:0:
64,192,102787,1,0,0:0:0:0:
192,192,102787,1,0,0:0:0:0:
448,192,102855,1,0,0:0:0:0:
192,192,102924,1,0,0:0:0:0:
320,192,102924,1,0,0:0:0:0:
64,192,103060,1,0,0:0:0:0:
448,192,103060,1,0,0:0:0:0:
64,192,103196,1,0,0:0:0:0:
192,192,103196,1,0,0:0:0:0:
192,192,103333,1,0,0:0:0:0:
448,192,103333,1,0,0:0:0:0:
64,192,103401,1,0,0:0:0:0:
320,192,103469,1,0,0:0:0:0:
448,192,103469,1,0,0:0:0:0:
64,192,103605,1,0,0:0:0:0:
192,192,103605,1,0,0:0:0:0:
320,192,103674,1,0,0:0:0:0:
64,192,103742,1,0,0:0:0:0:
448,192,103742,1,0,0:0:0:0:
192,192,103878,1,0,0:0:0:0:
448,192,103878,1,0,0:0:0:0:
320,192,103946,1,0,0:0:0:0:
64,192,104015,1,0,0:0:0:0:
448,192,104015,1,0,0:0:0:0:
192,192,104151,1,0,0:0:0:0:
320,192,104151,1,0,0:0:0:0:
448,192,104151,1,0,0:0:0:0:
64,192,104287,1,0,0:0:0:0:
320,192,104287,1,0,0:0:0:0:
320,192,104424,1,0,0:0:0:0:
448,192,104424,1,0,0:0:0:0:
64,192,104492,1,0,0:0:0:0:
192,192,104560,1,0,0:0:0:0:
448,192,104560,1,0,0:0:0:0:
64,192,104696,1,0,0:0:0:0:
320,192,104696,1,0,0:0:0:0:
320,192,104833,1,0,0:0:0:0:
448,192,104833,1,0,0:0:0:0:
192,192,104969,1,0,0:0:0:0:
448,192,104969,1,0,0:0:0:0:
64,192,105037,1,0,0:0:0:0:
192,192,105105,1,0,0:0:0:0:
320,192,105105,1,0,0:0:0:0:
64,192,105242,1,0,0:0:0:0:
448,192,105242,1,0,0:0:0:0:
192,192,105310,1,0,0:0:0:0:
320,192,105378,1,0,0:0:0:0:
64,192,105446,1,0,0:0:0:0:
192,192,105515,1,0,0:0:0:0:
448,192,105515,1,0,0:0:0:0:
64,192,105583,1,0,0:0:0:0:
320,192,105651,1,0,0:0:0:0:
192,192,105719,1,0,0:0:0:0:
64,192,105787,1,0,0:0:0:0:
448,192,105787,1,0,0:0:0:0:
192,192,105855,1,0,0:0:0:0:
320,192,105924,1,0,0:0:0:0:
192,192,105992,1,0,0:0:0:0:
64,192,106060,1,0,0:0:0:0:
320,192,106060,1,0,0:0:0:0:
448,192,106060,1,0,0:0:0:0:
192,192,106128,1,0,0:0:0:0:
448,192,106196,1,0,0:0:0:0:
320,192,106265,1,0,0:0:0:0:
64,192,106333,1,0,0:0:0:0:
192,192,106333,1,0,0:0:0:0:
448,192,106333,1,0,0:0:0:0:
320,192,106401,1,0,0:0:0:0:
64,192,106469,1,0,0:0:0:0:
192,192,106537,1,0,0:0:0:0:
320,192,106605,1,0,0:0:0:0:
448,192,106605,1,0,0:0:0:0:
64,192,106674,1,0,0:0:0:0:
192,192,106742,1,0,0:0:0:0:
320,192,106810,1,0,0:0:0:0:
64,192,106878,1,0,0:0:0:0:
448,192,106878,1,0,0:0:0:0:
320,192,106946,1,0,0:0:0:0:
64,192,107015,1,0,0:0:0:0:
192,192,107083,1,0,0:0:0:0:
320,192,107151,1,0,0:0:0:0:
448,192,107151,1,0,0:0:0:0:
64,192,107219,1,0,0:0:0:0:
320,192,107287,1,0,0:0:0:0:
192,192,107355,1,0,0:0:0:0:
64,192,107424,1,0,0:0:0:0:
448,192,107424,1,0,0:0:0:0:
320,192,107492,1,0,0:0:0:0:
192,192,107560,1,0,0:0:0:0:
448,192,107628,1,0,0:0:0:0:
64,192,107696,1,0,0:0:0:0:
192,192,107696,1,0,0:0:0:0:
320,192,107765,1,0,0:0:0:0:
448,192,107833,1,0,0:0:0:0:
192,192,107901,1,0,0:0:0:0:
64,192,107969,1,0,0:0:0:0:
320,192,107969,1,0,0:0:0:0:
448,192,108037,1,0,0:0:0:0:
192,192,108105,1,0,0:0:0:0:
320,192,108174,1,0,0:0:0:0:
64,192,108242,1,0,0:0:0:0:
448,192,108242,1,0,0:0:0:0:
192,192,108310,1,0,0:0:0:0:
320,192,108378,1,0,0:0:0:0:
64,192,108446,1,0,0:0:0:0:
320,192,108515,1,0,0:0:0:0:
448,192,108515,1,0,0:0:0:0:
192,192,108583,1,0,0:0:0:0:
448,192,108651,1,0,0:0:0:0:
64,192,108719,1,0,0:0:0:0:
192,192,108787,1,0,0:0:0:0:
320,192,108787,1,0,0:0:0:0:
448,192,108855,1,0,0:0:0:0:
192,192,108924,1,0,0:0:0:0:
320,192,108992,1,0,0:0:0:0:
64,192,109060,1,0,0:0:0:0:
192,192,109060,1,0,0:0:0:0:
448,192,109128,1,0,0:0:0:0:
192,192,109196,1,0,0:0:0:0:
320,192,109265,1,0,0:0:0:0:
64,192,109333,1,0,0:0:0:0:
448,192,109333,1,0,0:0:0:0:
192,192,109401,1,0,0:0:0:0:
320,192,109469,1,0,0:0:0:0:
64,192,109537,1,0,0:0:0:0:
192,192,109605,1,0,0:0:0:0:
448,192,109605,1,0,0:0:0:0:
320,192,109674,1,0,0:0:0:0:
64,192,109742,1,0,0:0:0:0:
320,192,109810,1,0,0:0:0:0:
64,192,109878,1,0,0:0:0:0:
192,192,109878,1,0,0:0:0:0:
448,192,109946,1,0,0:0:0:0:
192,192,110015,1,0,0:0:0:0:
320,192,110083,1,0,0:0:0:0:
64,192,110151,1,0,0:0:0:0:
448,192,110151,1,0,0:0:0:0:
320,192,110219,1,0,0:0:0:0:
192,192,110287,1,0,0:0:0:0:
320,192,110355,1,0,0:0:0:0:
64,192,110424,1,0,0:0:0:0:
448,192,110424,1,0,0:0:0:0:
192,192,110492,1,0,0:0:0:0:
320,192,110560,1,0,0:0:0:0:
64,192,110628,1,0,0:0:0:0:
192,192,110696,1,0,0:0:0:0:
320,192,110696,1,0,0:0:0:0:
448,192,110696,1,0,0:0:0:0:
64,192,110765,1,0,0:0:0:0:
448,192,110833,1,0,0:0:0:0:
320,192,110901,1,0,0:0:0:0:
64,192,110969,1,0,0:0:0:0:
448,192,110969,1,0,0:0:0:0:
192,192,111037,1,0,0:0:0:0:
320,192,111105,1,0,0:0:0:0:
64,192,111174,1,0,0:0:0:0:
192,192,111242,1,0,0:0:0:0:
320,192,111242,1,0,0:0:0:0:
448,192,111310,1,0,0:0:0:0:
64,192,111378,1,0,0:0:0:0:
192,192,111446,1,0,0:0:0:0:
320,192,111515,1,0,0:0:0:0:
448,192,111515,1,0,0:0:0:0:
64,192,111583,1,0,0:0:0:0:
448,192,111651,1,0,0:0:0:0:
320,192,111719,1,0,0:0:0:0:
64,192,111787,1,0,0:0:0:0:
192,192,111787,1,0,0:0:0:0:
320,192,111855,1,0,0:0:0:0:
448,192,111924,1,0,0:0:0:0:
64,192,111992,1,0,0:0:0:0:
192,192,112060,1,0,0:0:0:0:
320,192,112060,1,0,0:0:0:0:
448,192,112128,1,0,0:0:0:0:
64,192,112196,1,0,0:0:0:0:
192,192,112265,1,0,0:0:0:0:
320,192,112333,1,0,0:0:0:0:
448,192,112333,1,0,0:0:0:0:
64,192,112401,1,0,0:0:0:0:
448,192,112469,1,0,0:0:0:0:
320,192,112537,1,0,0:0:0:0:
64,192,112605,1,0,0:0:0:0:
192,192,112605,1,0,0:0:0:0:
448,192,112674,1,0,0:0:0:0:
192,192,112742,1,0,0:0:0:0:
320,192,112810,1,0,0:0:0:0:
64,192,112878,1,0,0:0:0:0:
448,192,112878,1,0,0:0:0:0:
320,192,112946,1,0,0:0:0:0:
64,192,113015,1,0,0:0:0:0:
192,192,113083,1,0,0:0:0:0:
320,192,113151,1,0,0:0:0:0:
448,192,113151,1,0,0:0:0:0:
64,192,113219,1,0,0:0:0:0:
320,192,113287,1,0,0:0:0:0:
192,192,113355,1,0,0:0:0:0:
64,192,113424,1,0,0:0:0:0:
320,192,113424,1,0,0:0:0:0:
448,192,113492,1,0,0:0:0:0:
192,192,113560,1,0,0:0:0:0:
320,192,113628,1,0,0:0:0:0:
64,192,113696,1,0,0:0:0:0:
448,192,113696,1,0,0:0:0:0:
320,192,113765,1,0,0:0:0:0:
192,192,113833,1,0,0:0:0:0:
64,192,113901,1,0,0:0:0:0:
320,192,113969,1,0,0:0:0:0:
448,192,113969,1,0,0:0:0:0:
192,192,114037,1,0,0:0:0:0:
64,192,114105,1,0,0:0:0:0:
320,192,114174,1,0,0:0:0:0:
448,192,114174,1,0,0:0:0:0:
64,192,114242,1,0,0:0:0:0:
192,192,114242,1,0,0:0:0:0:
320,192,114310,1,0,0:0:0:0:
64,192,114378,1,0,0:0:0:0:
448,192,114378,1,0,0:0:0:0:
192,192,114446,1,0,0:0:0:0:
320,192,114515,1,0,0:0:0:0:
448,192,114515,1,0,0:0:0:0:
64,192,114583,1,0,0:0:0:0:
448,192,114651,1,0,0:0:0:0:
320,192,114719,1,0,0:0:0:0:
64,192,114787,1,0,0:0:0:0:
192,192,114787,1,0,0:0:0:0:
320,192,114855,1,0,0:0:0:0:
448,192,114924,1,0,0:0:0:0:
192,192,114992,1,0,0:0:0:0:
64,192,115060,1,0,0:0:0:0:
320,192,115060,1,0,0:0:0:0:
448,192,115060,1,0,0:0:0:0:
192,192,115128,1,0,0:0:0:0:
320,192,115196,1,0,0:0:0:0:
448,192,115196,1,0,0:0:0:0:
64,192,115265,1,0,0:0:0:0:
192,192,115333,1,0,0:0:0:0:
448,192,115333,1,0,0:0:0:0:
320,192,115401,1,0,0:0:0:0:
64,192,115469,1,0,0:0:0:0:
448,192,115469,1,0,0:0:0:0:
192,192,115537,1,0,0:0:0:0:
64,192,115605,1,0,0:0:0:0:
448,192,115605,1,0,0:0:0:0:
320,192,115674,1,0,0:0:0:0:
64,192,115742,1,0,0:0:0:0:
192,192,115742,1,0,0:0:0:0:
320,192,115810,1,0,0:0:0:0:
192,192,115878,1,0,0:0:0:0:
448,192,115878,1,0,0:0:0:0:
64,192,115946,1,0,0:0:0:0:
320,192,116015,1,0,0:0:0:0:
448,192,116015,1,0,0:0:0:0:
192,192,116083,1,0,0:0:0:0:
64,192,116151,1,0,0:0:0:0:
448,192,116151,1,0,0:0:0:0:
320,192,116219,1,0,0:0:0:0:
64,192,116287,1,0,0:0:0:0:
192,192,116287,1,0,0:0:0:0:
448,192,116355,1,0,0:0:0:0:
64,192,116424,1,0,0:0:0:0:
192,192,116424,1,0,0:0:0:0:
320,192,116492,1,0,0:0:0:0:
64,192,116560,1,0,0:0:0:0:
448,192,116560,1,0,0:0:0:0:
192,192,116628,1,0,0:0:0:0:
64,192,116696,1,0,0:0:0:0:
320,192,116696,1,0,0:0:0:0:
448,192,116765,1,0,0:0:0:0:
64,192,116833,1,0,0:0:0:0:
192,192,116833,1,0,0:0:0:0:
320,192,116901,1,0,0:0:0:0:
64,192,116969,1,0,0:0:0:0:
448,192,116969,1,0,0:0:0:0:
192,192,117037,1,0,0:0:0:0:
320,192,117105,1,0,0:0:0:0:
448,192,117105,1,0,0:0:0:0:
64,192,117174,1,0,0:0:0:0:
320,192,117242,1,0,0:0:0:0:
448,192,117242,1,0,0:0:0:0:
192,192,117310,1,0,0:0:0:0:
64,192,117378,1,0,0:0:0:0:
448,192,117378,1,0,0:0:0:0:
320,192,117446,1,0,0:0:0:0:
64,192,117515,1,0,0:0:0:0:
192,192,117515,1,0,0:0:0:0:
320,192,117583,1,0,0:0:0:0:
192,192,117651,1,0,0:0:0:0:
448,192,117651,1,0,0:0:0:0:
320,192,117719,1,0,0:0:0:0:
64,192,117787,1,0,0:0:0:0:
192,192,117787,1,0,0:0:0:0:
448,192,117855,1,0,0:0:0:0:
64,192,117924,1,0,0:0:0:0:
192,192,117924,1,0,0:0:0:0:
320,192,117992,1,0,0:0:0:0:
64,192,118060,1,0,0:0:0:0:
448,192,118060,1,0,0:0:0:0:
192,192,118128,1,0,0:0:0:0:
320,192,118196,1,0,0:0:0:0:
448,192,118196,1,0,0:0:0:0:
64,192,118265,1,0,0:0:0:0:
192,192,118333,1,0,0:0:0:0:
448,192,118333,1,0,0:0:0:0:
320,192,118401,1,0,0:0:0:0:
64,192,118469,1,0,0:0:0:0:
192,192,118469,1,0,0:0:0:0:
320,192,118537,1,0,0:0:0:0:
64,192,118605,1,0,0:0:0:0:
192,192,118605,1,0,0:0:0:0:
448,192,118674,1,0,0:0:0:0:
192,192,118742,1,0,0:0:0:0:
320,192,118742,1,0,0:0:0:0:
64,192,118810,1,0,0:0:0:0:
192,192,118878,1,0,0:0:0:0:
448,192,118878,1,0,0:0:0:0:
64,192,118946,1,0,0:0:0:0:
320,192,119015,1,0,0:0:0:0:
448,192,119015,1,0,0:0:0:0:
192,192,119083,1,0,0:0:0:0:
64,192,119151,1,0,0:0:0:0:
448,192,119151,1,0,0:0:0:0:
192,192,119219,1,0,0:0:0:0:
320,192,119287,1,0,0:0:0:0:
448,192,119287,1,0,0:0:0:0:
192,192,119355,1,0,0:0:0:0:
64,192,119424,1,0,0:0:0:0:
320,192,119424,1,0,0:0:0:0:
448,192,119424,1,0,0:0:0:0:
192,192,119492,1,0,0:0:0:0:
320,192,119560,1,0,0:0:0:0:
448,192,119560,1,0,0:0:0:0:
64,192,119628,1,0,0:0:0:0:
192,192,119696,1,0,0:0:0:0:
320,192,119696,1,0,0:0:0:0:
448,192,119765,1,0,0:0:0:0:
64,192,119833,1,0,0:0:0:0:
320,192,119833,1,0,0:0:0:0:
192,192,119901,1,0,0:0:0:0:
64,192,119969,1,0,0:0:0:0:
320,192,119969,1,0,0:0:0:0:
448,192,120037,1,0,0:0:0:0:
192,192,120105,1,0,0:0:0:0:
320,192,120105,1,0,0:0:0:0:
64,192,120174,1,0,0:0:0:0:
320,192,120242,1,0,0:0:0:0:
448,192,120242,1,0,0:0:0:0:
192,192,120310,1,0,0:0:0:0:
64,192,120378,1,0,0:0:0:0:
448,192,120378,1,0,0:0:0:0:
320,192,120446,1,0,0:0:0:0:
64,192,120515,1,0,0:0:0:0:
192,192,120515,1,0,0:0:0:0:
320,192,120583,1,0,0:0:0:0:
192,192,120651,1,0,0:0:0:0:
448,192,120651,1,0,0:0:0:0:
64,192,120719,1,0,0:0:0:0:
192,192,120787,1,0,0:0:0:0:
320,192,120787,1,0,0:0:0:0:
448,192,120855,1,0,0:0:0:0:
64,192,120924,1,0,0:0:0:0:
320,192,120924,1,0,0:0:0:0:
192,192,120992,1,0,0:0:0:0:
320,192,121060,1,0,0:0:0:0:
448,192,121060,1,0,0:0:0:0:
64,192,121128,1,0,0:0:0:0:
192,192,121196,1,0,0:0:0:0:
448,192,121196,1,0,0:0:0:0:
320,192,121265,1,0,0:0:0:0:
64,192,121333,1,0,0:0:0:0:
192,192,121333,1,0,0:0:0:0:
448,192,121401,1,0,0:0:0:0:
64,192,121469,1,0,0:0:0:0:
192,192,121469,1,0,0:0:0:0:
320,192,121537,1,0,0:0:0:0:
64,192,121605,1,0,0:0:0:0:
448,192,121605,1,0,0:0:0:0:
320,192,121674,1,0,0:0:0:0:
192,192,121742,1,0,0:0:0:0:
64,192,121810,1,0,0:0:0:0:
192,192,121878,1,0,0:0:0:0:
320,192,121878,1,0,0:0:0:0:
448,192,121878,1,0,0:0:0:0:
64,192,121946,1,0,0:0:0:0:
320,192,122015,1,0,0:0:0:0:
192,192,122083,1,0,0:0:0:0:
64,192,122151,1,0,0:0:0:0:
448,192,122219,1,0,0:0:0:0:
192,192,122287,1,0,0:0:0:0:
320,192,122355,1,0,0:0:0:0:
64,192,122424,1,0,0:0:0:0:
192,192,122424,1,0,0:0:0:0:
448,192,122424,1,0,0:0:0:0:
320,192,122492,1,0,0:0:0:0:
448,192,122560,1,0,0:0:0:0:
64,192,122628,1,0,0:0:0:0:
192,0,122696,128,0,122787:1:0:0:0:
448,0,122696,128,0,122787:1:0:0:0:
64,0,122878,128,0,122969:1:0:0:0:
320,0,122878,128,0,122969:1:0:0:0:
320,0,123060,128,0,123242:1:0:0:0:
448,0,123060,128,0,123242:1:0:0:0:
64,192,124333,1,0,0:0:0:0:
192,192,124333,1,0,0:0:0:0:
320,0,124333,128,0,125015:1:0:0:0:
448,192,124605,1,0,0:0:0:0:
64,192,124742,1,0,0:0:0:0:
448,192,125015,1,0,0:0:0:0:
64,0,125015,128,0,125151:1:0:0:0:
448,192,125151,1,0,0:0:0:0:
192,0,125151,128,0,125287:1:0:0:0:
320,0,125287,128,0,125424:1:0:0:0:
64,192,125424,1,0,0:0:0:0:
448,0,125424,128,0,125833:1:0:0:0:
64,192,125560,1,0,0:0:0:0:
320,192,125696,1,0,0:0:0:0:
192,0,125833,128,0,126105:1:0:0:0:
64,192,125969,1,0,0:0:0:0:
64,192,126105,1,0,0:0:0:0:
320,0,126105,128,0,126378:1:0:0:0:
448,192,126242,1,0,0:0:0:0:
448,0,126378,128,0,126515:1:0:0:0:
64,192,126515,1,0,0:0:0:0:
192,0,126515,128,0,126787:1:0:0:0:
64,192,126651,1,0,0:0:0:0:
320,192,126787,1,0,0:0:0:0:
448,0,126787,128,0,126924:1:0:0:0:
64,192,126924,1,0,0:0:0:0:
320,0,126924,128,0,127196:1:0:0:0:
64,192,127196,1,0,0:0:0:0:
192,0,127196,128,0,127333:1:0:0:0:
448,192,127333,1,0,0:0:0:0:
64,0,127333,128,0,128151:1:0:0:0:
192,192,127605,1,0,0:0:0:0:
192,192,127742,1,0,0:0:0:0:
448,192,127878,1,0,0:0:0:0:
192,192,128151,1,0,0:0:0:0:
64,0,128287,128,0,128424:1:0:0:0:
448,192,128424,1,0,0:0:0:0:
320,0,128424,128,0,128560:1:0:0:0:
192,0,128560,128,0,128696:1:0:0:0:
64,192,128696,1,0,0:0:0:0:
448,192,128696,1,0,0:0:0:0:
320,0,128696,128,0,129105:1:0:0:0:
448,192,128969,1,0,0:0:0:0:
64,192,129105,1,0,0:0:0:0:
192,0,129105,128,0,129515:1:0:0:0:
64,192,129378,1,0,0:0:0:0:
320,192,129515,1,0,0:0:0:0:
448,0,129515,128,0,129787:1:0:0:0:
192,192,129787,1,0,0:0:0:0:
64,0,129787,128,0,130196:1:0:0:0:
192,192,129924,1,0,0:0:0:0:
448,192,130060,1,0,0:0:0:0:
192,0,130196,128,0,130605:1:0:0:0:
64,192,130333,1,0,0:0:0:0:
64,192,130469,1,0,0:0:0:0:
448,192,130605,1,0,0:0:0:0:
320,0,130605,128,0,130878:1:0:0:0:
64,192,130742,1,0,0:0:0:0:
192,192,130878,1,0,0:0:0:0:
448,192,130878,1,0,0:0:0:0:
64,192,130946,1,0,0:0:0:0:
320,192,131015,1,0,0:0:0:0:
192,192,131083,1,0,0:0:0:0:
448,192,131151,1,0,0:0:0:0:
64,192,131219,1,0,0:0:0:0:
448,192,131287,1,0,0:0:0:0:
192,192,131355,1,0,0:0:0:0:
320,192,131424,1,0,0:0:0:0:
64,192,131492,1,0,0:0:0:0:
448,192,131560,1,0,0:0:0:0:
192,192,131628,1,0,0:0:0:0:
320,192,131696,1,0,0:0:0:0:
448,192,131765,1,0,0:0:0:0:
64,192,131833,1,0,0:0:0:0:
448,192,131901,1,0,0:0:0:0:
192,0,131969,128,0,132924:1:0:0:0:
320,0,131969,128,0,132924:1:0:0:0:
64,192,133060,1,0,0:0:0:0:
320,192,133060,1,0,0:0:0:0:
448,192,133060,1,0,0:0:0:0:
192,192,133196,1,0,0:0:0:0:
320,192,133333,1,0,0:0:0:0:
448,192,133333,1,0,0:0:0:0:
64,192,133401,1,0,0:0:0:0:
192,192,133469,1,0,0:0:0:0:
448,192,133469,1,0,0:0:0:0:
192,192,133605,1,0,0:0:0:0:
320,192,133605,1,0,0:0:0:0:
64,192,133742,1,0,0:0:0:0:
320,192,133878,1,0,0:0:0:0:
448,192,133878,1,0,0:0:0:0:
192,192,133946,1,0,0:0:0:0:
64,192,134015,1,0,0:0:0:0:
448,192,134015,1,0,0:0:0:0:
192,192,134151,1,0,0:0:0:0:
320,192,134151,1,0,0:0:0:0:
448,192,134287,1,0,0:0:0:0:
64,192,134424,1,0,0:0:0:0:
192,192,134424,1,0,0:0:0:0:
448,192,134492,1,0,0:0:0:0:
64,192,134560,1,0,0:0:0:0:
320,192,134560,1,0,0:0:0:0:
64,192,134696,1,0,0:0:0:0:
448,192,134696,1,0,0:0:0:0:
320,192,134765,1,0,0:0:0:0:
192,192,134833,1,0,0:0:0:0:
448,192,134833,1,0,0:0:0:0:
64,192,134969,1,0,0:0:0:0:
320,192,134969,1,0,0:0:0:0:
448,192,135037,1,0,0:0:0:0:
64,192,135105,1,0,0:0:0:0:
192,192,135105,1,0,0:0:0:0:
192,192,135242,1,0,0:0:0:0:
320,192,135242,1,0,0:0:0:0:
448,192,135378,1,0,0:0:0:0:
64,192,135515,1,0,0:0:0:0:
320,192,135515,1,0,0:0:0:0:
448,192,135583,1,0,0:0:0:0:
64,192,135651,1,0,0:0:0:0:
192,192,135651,1,0,0:0:0:0:
320,192,135787,1,0,0:0:0:0:
448,192,135787,1,0,0:0:0:0:
192,192,135924,1,0,0:0:0:0:
64,192,136060,1,0,0:0:0:0:
448,192,136060,1,0,0:0:0:0:
192,192,136128,1,0,0:0:0:0:
320,192,136196,1,0,0:0:0:0:
448,192,136196,1,0,0:0:0:0:
64,192,136333,1,0,0:0:0:0:
192,192,136333,1,0,0:0:0:0:
448,192,136469,1,0,0:0:0:0:
192,192,136605,1,0,0:0:0:0:
448,192,136674,1,0,0:0:0:0:
64,192,136742,1,0,0:0:0:0:
320,192,136742,1,0,0:0:0:0:
64,192,136878,1,0,0:0:0:0:
192,192,136878,1,0,0:0:0:0:
320,192,136946,1,0,0:0:0:0:
64,192,137015,1,0,0:0:0:0:
448,192,137015,1,0,0:0:0:0:
192,192,137151,1,0,0:0:0:0:
448,192,137151,1,0,0:0:0:0:
320,192,137219,1,0,0:0:0:0:
64,192,137287,1,0,0:0:0:0:
448,192,137287,1,0,0:0:0:0:
192,192,137355,1,0,0:0:0:0:
64,192,137424,1,0,0:0:0:0:
320,192,137424,1,0,0:0:0:0:
448,192,137424,1,0,0:0:0:0:
192,192,137560,1,0,0:0:0:0:
320,192,137696,1,0,0:0:0:0:
448,192,137696,1,0,0:0:0:0:
64,192,137765,1,0,0:0:0:0:
192,192,137833,1,0,0:0:0:0:
448,192,137833,1,0,0:0:0:0:
192,192,137969,1,0,0:0:0:0:
320,192,137969,1,0,0:0:0:0:
448,192,138105,1,0,0:0:0:0:
64,192,138242,1,0,0:0:0:0:
192,192,138242,1,0,0:0:0:0:
448,192,138310,1,0,0:0:0:0:
192,192,138378,1,0,0:0:0:0:
320,192,138378,1,0,0:0:0:0:
64,192,138515,1,0,0:0:0:0:
448,192,138515,1,0,0:0:0:0:
320,192,138651,1,0,0:0:0:0:
192,192,138787,1,0,0:0:0:0:
448,192,138787,1,0,0:0:0:0:
64,192,138855,1,0,0:0:0:0:
320,192,138924,1,0,0:0:0:0:
448,192,138924,1,0,0:0:0:0:
64,192,139060,1,0,0:0:0:0:
192,192,139060,1,0,0:0:0:0:
320,192,139128,1,0,0:0:0:0:
64,192,139196,1,0,0:0:0:0:
448,192,139196,1,0,0:0:0:0:
192,192,139333,1,0,0:0:0:0:
448,192,139333,1,0,0:0:0:0:
320,192,139401,1,0,0:0:0:0:
64,192,139469,1,0,0:0:0:0:
448,192,139469,1,0,0:0:0:0:
320,192,139605,1,0,0:0:0:0:
448,192,139605,1,0,0:0:0:0:
64,192,139674,1,0,0:0:0:0:
192,192,139674,1,0,0:0:0:0:
320,192,139742,1,0,0:0:0:0:
448,192,139742,1,0,0:0:0:0:
64,192,139810,1,0,0:0:0:0:
192,192,139810,1,0,0:0:0:0:
320,192,139878,1,0,0:0:0:0:
448,192,139878,1,0,0:0:0:0:
64,192,139946,1,0,0:0:0:0:
192,192,140015,1,0,0:0:0:0:
320,192,140083,1,0,0:0:0:0:
64,192,140151,1,0,0:0:0:0:
448,192,140151,1,0,0:0:0:0:
192,192,140219,1,0,0:0:0:0:
320,192,140219,1,0,0:0:0:0:
64,192,140287,1,0,0:0:0:0:
448,192,140287,1,0,0:0:0:0:
192,192,140355,1,0,0:0:0:0:
320,192,140424,1,0,0:0:0:0:
448,192,140424,1,0,0:0:0:0:
64,192,140492,1,0,0:0:0:0:
320,192,140560,1,0,0:0:0:0:
192,192,140628,1,0,0:0:0:0:
64,192,140696,1,0,0:0:0:0:
448,192,140696,1,0,0:0:0:0:
192,192,140833,1,0,0:0:0:0:
320,192,140833,1,0,0:0:0:0:
64,192,141105,1,0,0:0:0:0:
320,192,141105,1,0,0:0:0:0:
192,192,141378,1,0,0:0:0:0:
448,192,141378,1,0,0:0:0:0:
64,192,141515,1,0,0:0:0:0:
320,192,141515,1,0,0:0:0:0:
192,192,141583,1,0,0:0:0:0:
320,192,141651,1,0,0:0:0:0:
448,192,141651,1,0,0:0:0:0:
64,192,141719,1,0,0:0:0:0:
320,192,141787,1,0,0:0:0:0:
448,192,141787,1,0,0:0:0:0:
64,192,141855,1,0,0:0:0:0:
192,192,141924,1,0,0:0:0:0:
320,192,141924,1,0,0:0:0:0:
448,192,141924,1,0,0:0:0:0:
64,192,142196,1,0,0:0:0:0:
320,192,142196,1,0,0:0:0:0:
448,192,142196,1,0,0:0:0:0:
320,192,142333,1,0,0:0:0:0:
448,192,142333,1,0,0:0:0:0:
64,192,142469,1,0,0:0:0:0:
192,192,142469,1,0,0:0:0:0:
448,192,142469,1,0,0:0:0:0:
64,192,142742,1,0,0:0:0:0:
192,192,142742,1,0,0:0:0:0:
448,192,142742,1,0,0:0:0:0:
64,192,142878,1,0,0:0:0:0:
320,192,142878,1,0,0:0:0:0:
192,192,142946,1,0,0:0:0:0:
64,192,143015,1,0,0:0:0:0:
320,192,143015,1,0,0:0:0:0:
448,192,143015,1,0,0:0:0:0:
64,192,143287,1,0,0:0:0:0:
192,192,143287,1,0,0:0:0:0:
448,192,143287,1,0,0:0:0:0:
192,192,143424,1,0,0:0:0:0:
320,192,143424,1,0,0:0:0:0:
64,192,143560,1,0,0:0:0:0:
192,192,143560,1,0,0:0:0:0:
448,192,143560,1,0,0:0:0:0:
320,192,143696,1,0,0:0:0:0:
64,192,143833,1,0,0:0:0:0:
448,192,143833,1,0,0:0:0:0:
192,192,143969,1,0,0:0:0:0:
320,192,143969,1,0,0:0:0:0:
64,192,144037,1,0,0:0:0:0:
192,192,144105,1,0,0:0:0:0:
320,192,144105,1,0,0:0:0:0:
448,192,144105,1,0,0:0:0:0:
64,192,144378,1,0,0:0:0:0:
320,192,144378,1,0,0:0:0:0:
448,192,144378,1,0,0:0:0:0:
320,192,144515,1,0,0:0:0:0:
448,192,144515,1,0,0:0:0:0:
64,192,144651,1,0,0:0:0:0:
320,192,144651,1,0,0:0:0:0:
448,192,144651,1,0,0:0:0:0:
64,192,144924,1,0,0:0:0:0:
192,192,144924,1,0,0:0:0:0:
320,192,144924,1,0,0:0:0:0:
192,192,145060,1,0,0:0:0:0:
448,192,145060,1,0,0:0:0:0:
64,192,145196,1,0,0:0:0:0:
192,192,145196,1,0,0:0:0:0:
320,192,145196,1,0,0:0:0:0:
64,192,145333,1,0,0:0:0:0:
448,192,145333,1,0,0:0:0:0:
192,192,145469,1,0,0:0:0:0:
320,192,145469,1,0,0:0:0:0:
192,192,145605,1,0,0:0:0:0:
448,192,145605,1,0,0:0:0:0:
64,192,145742,1,0,0:0:0:0:
320,192,145742,1,0,0:0:0:0:
448,192,145742,1,0,0:0:0:0:
64,192,145878,1,0,0:0:0:0:
192,192,145878,1,0,0:0:0:0:
64,192,146015,1,0,0:0:0:0:
320,192,146015,1,0,0:0:0:0:
448,192,146015,1,0,0:0:0:0:
192,192,146151,1,0,0:0:0:0:
320,192,146151,1,0,0:0:0:0:
448,192,146151,1,0,0:0:0:0:
64,192,146287,1,0,0:0:0:0:
192,192,146287,1,0,0:0:0:0:
448,192,146424,1,0,0:0:0:0:
64,192,146560,1,0,0:0:0:0:
320,192,146560,1,0,0:0:0:0:
192,192,146696,1,0,0:0:0:0:
64,192,146833,1,0,0:0:0:0:
448,192,146833,1,0,0:0:0:0:
192,192,146969,1,0,0:0:0:0:
320,192,147105,1,0,0:0:0:0:
448,192,147105,1,0,0:0:0:0:
64,192,147242,1,0,0:0:0:0:
192,192,147242,1,0,0:0:0:0:
448,192,147310,1,0,0:0:0:0:
64,192,147378,1,0,0:0:0:0:
320,192,147378,1,0,0:0:0:0:
192,192,147515,1,0,0:0:0:0:
320,192,147515,1,0,0:0:0:0:
64,192,147583,1,0,0:0:0:0:
320,192,147651,1,0,0:0:0:0:
448,192,147651,1,0,0:0:0:0:
64,192,147787,1,0,0:0:0:0:
320,192,147787,1,0,0:0:0:0:
192,192,147855,1,0,0:0:0:0:
320,192,147924,1,0,0:0:0:0:
448,192,147924,1,0,0:0:0:0:
64,192,147992,1,0,0:0:0:0:
192,192,148060,1,0,0:0:0:0:
448,192,148060,1,0,0:0:0:0:
320,192,148128,1,0,0:0:0:0:
64,192,148196,1,0,0:0:0:0:
192,192,148196,1,0,0:0:0:0:
320,192,148265,1,0,0:0:0:0:
64,192,148333,1,0,0:0:0:0:
448,192,148333,1,0,0:0:0:0:
192,192,148401,1,0,0:0:0:0:
320,192,148469,1,0,0:0:0:0:
64,192,148537,1,0,0:0:0:0:
448,192,148537,1,0,0:0:0:0:
192,192,148605,1,0,0:0:0:0:
320,192,148605,1,0,0:0:0:0:
448,192,148674,1,0,0:0:0:0:
64,192,148742,1,0,0:0:0:0:
192,192,148742,1,0,0:0:0:0:
320,192,148810,1,0,0:0:0:0:
448,192,148878,1,0,0:0:0:0:
192,192,148946,1,0,0:0:0:0:
320,192,149015,1,0,0:0:0:0:
64,192,149083,1,0,0:0:0:0:
192,192,149151,1,0,0:0:0:0:
448,192,149151,1,0,0:0:0:0:
320,192,149219,1,0,0:0:0:0:
64,192,149287,1,0,0:0:0:0:
448,192,149287,1,0,0:0:0:0:
192,192,149355,1,0,0:0:0:0:
64,192,149424,1,0,0:0:0:0:
448,192,149424,1,0,0:0:0:0:
320,0,149424,128,0,149696:1:0:0:0:
64,0,149969,128,0,150242:1:0:0:0:
320,0,150242,128,0,150515:1:0:0:0:
64,192,150515,1,0,0:0:0:0:
192,192,150515,1,0,0:0:0:0:
448,192,150515,1,0,0:0:0:0:
64,192,150651,1,0,0:0:0:0:
192,192,150651,1,0,0:0:0:0:
320,192,150787,1,0,0:0:0:0:
448,192,150787,1,0,0:0:0:0:
64,192,150855,1,0,0:0:0:0:
192,192,150924,1,0,0:0:0:0:
448,192,150924,1,0,0:0:0:0:
320,192,151060,1,0,0:0:0:0:
448,192,151060,1,0,0:0:0:0:
64,192,151196,1,0,0:0:0:0:
192,192,151196,1,0,0:0:0:0:
64,192,151333,1,0,0:0:0:0:
448,192,151333,1,0,0:0:0:0:
320,192,151401,1,0,0:0:0:0:
64,192,151469,1,0,0:0:0:0:
192,192,151469,1,0,0:0:0:0:
192,192,151605,1,0,0:0:0:0:
448,192,151605,1,0,0:0:0:0:
64,192,151742,1,0,0:0:0:0:
320,192,151742,1,0,0:0:0:0:
320,192,151878,1,0,0:0:0:0:
448,192,151878,1,0,0:0:0:0:
64,192,151946,1,0,0:0:0:0:
192,192,152015,1,0,0:0:0:0:
448,192,152015,1,0,0:0:0:0:
64,192,152151,1,0,0:0:0:0:
448,192,152151,1,0,0:0:0:0:
320,192,152219,1,0,0:0:0:0:
192,192,152287,1,0,0:0:0:0:
448,192,152287,1,0,0:0:0:0:
64,192,152424,1,0,0:0:0:0:
320,192,152424,1,0,0:0:0:0:
448,192,152492,1,0,0:0:0:0:
64,192,152560,1,0,0:0:0:0:
192,192,152560,1,0,0:0:0:0:
192,192,152696,1,0,0:0:0:0:
320,192,152696,1,0,0:0:0:0:
64,192,152833,1,0,0:0:0:0:
448,192,152833,1,0,0:0:0:0:
192,192,152969,1,0,0:0:0:0:
320,192,152969,1,0,0:0:0:0:
448,192,153037,1,0,0:0:0:0:
64,192,153105,1,0,0:0:0:0:
192,192,153105,1,0,0:0:0:0:
320,192,153242,1,0,0:0:0:0:
448,192,153242,1,0,0:0:0:0:
64,192,153310,1,0,0:0:0:0:
192,192,153378,1,0,0:0:0:0:
448,192,153378,1,0,0:0:0:0:
320,192,153515,1,0,0:0:0:0:
448,192,153515,1,0,0:0:0:0:
64,192,153583,1,0,0:0:0:0:
192,192,153651,1,0,0:0:0:0:
448,192,153651,1,0,0:0:0:0:
320,192,153719,1,0,0:0:0:0:
64,192,153787,1,0,0:0:0:0:
448,0,153787,128,0,154060:1:0:0:0:
320,192,153855,1,0,0:0:0:0:
64,192,153924,1,0,0:0:0:0:
192,192,153992,1,0,0:0:0:0:
64,192,154060,1,0,0:0:0:0:
320,0,154060,128,0,154333:1:0:0:0:
192,192,154128,1,0,0:0:0:0:
448,192,154196,1,0,0:0:0:0:
64,192,154265,1,0,0:0:0:0:
448,192,154333,1,0,0:0:0:0:
192,0,154333,128,0,154605:1:0:0:0:
64,192,154401,1,0,0:0:0:0:
448,192,154469,1,0,0:0:0:0:
320,192,154537,1,0,0:0:0:0:
448,192,154605,1,0,0:0:0:0:
64,0,154605,128,0,154810:1:0:0:0:
192,192,154674,1,0,0:0:0:0:
448,192,154742,1,0,0:0:0:0:
320,192,154810,1,0,0:0:0:0:
64,192,154878,1,0,0:0:0:0:
192,192,154878,1,0,0:0:0:0:
448,192,154878,1,0,0:0:0:0:
64,192,155015,1,0,0:0:0:0:
192,192,155015,1,0,0:0:0:0:
320,192,155151,1,0,0:0:0:0:
448,192,155151,1,0,0:0:0:0:
64,192,155219,1,0,0:0:0:0:
192,192,155287,1,0,0:0:0:0:
320,192,155287,1,0,0:0:0:0:
64,192,155424,1,0,0:0:0:0:
192,192,155424,1,0,0:0:0:0:
320,192,155560,1,0,0:0:0:0:
448,192,155560,1,0,0:0:0:0:
64,192,155696,1,0,0:0:0:0:
192,192,155696,1,0,0:0:0:0:
448,192,155765,1,0,0:0:0:0:
192,192,155833,1,0,0:0:0:0:
320,192,155833,1,0,0:0:0:0:
64,192,155969,1,0,0:0:0:0:
448,192,155969,1,0,0:0:0:0:
64,192,156105,1,0,0:0:0:0:
192,192,156105,1,0,0:0:0:0:
192,192,156242,1,0,0:0:0:0:
448,192,156242,1,0,0:0:0:0:
64,192,156310,1,0,0:0:0:0:
320,192,156378,1,0,0:0:0:0:
448,192,156378,1,0,0:0:0:0:
64,192,156515,1,0,0:0:0:0:
192,192,156515,1,0,0:0:0:0:
64,192,156651,1,0,0:0:0:0:
448,192,156651,1,0,0:0:0:0:
192,192,156787,1,0,0:0:0:0:
448,192,156787,1,0,0:0:0:0:
320,192,156855,1,0,0:0:0:0:
64,192,156924,1,0,0:0:0:0:
448,192,156924,1,0,0:0:0:0:
192,192,157060,1,0,0:0:0:0:
320,192,157060,1,0,0:0:0:0:
448,192,157060,1,0,0:0:0:0:
64,192,157128,1,0,0:0:0:0:
320,192,157196,1,0,0:0:0:0:
448,192,157196,1,0,0:0:0:0:
192,192,157265,1,0,0:0:0:0:
64,192,157333,1,0,0:0:0:0:
448,192,157333,1,0,0:0:0:0:
320,192,157401,1,0,0:0:0:0:
192,192,157469,1,0,0:0:0:0:
448,192,157469,1,0,0:0:0:0:
320,192,157537,1,0,0:0:0:0:
64,192,157605,1,0,0:0:0:0:
448,192,157605,1,0,0:0:0:0:
192,192,157674,1,0,0:0:0:0:
320,192,157742,1,0,0:0:0:0:
448,192,157742,1,0,0:0:0:0:
64,192,157810,1,0,0:0:0:0:
192,192,157878,1,0,0:0:0:0:
448,192,157878,1,0,0:0:0:0:
64,192,157946,1,0,0:0:0:0:
192,192,158015,1,0,0:0:0:0:
320,192,158015,1,0,0:0:0:0:
448,192,158083,1,0,0:0:0:0:
64,192,158151,1,0,0:0:0:0:
320,192,158151,1,0,0:0:0:0:
192,192,158219,1,0,0:0:0:0:
448,192,158219,1,0,0:0:0:0:
64,192,158287,1,0,0:0:0:0:
320,192,158287,1,0,0:0:0:0:
192,192,158355,1,0,0:0:0:0:
320,192,158424,1,0,0:0:0:0:
448,192,158424,1,0,0:0:0:0:
64,192,158492,1,0,0:0:0:0:
192,192,158560,1,0,0:0:0:0:
448,192,158560,1,0,0:0:0:0:
64,192,158628,1,0,0:0:0:0:
320,192,158696,1,0,0:0:0:0:
448,192,158696,1,0,0:0:0:0:
64,192,158765,1,0,0:0:0:0:
192,192,158765,1,0,0:0:0:0:
320,192,158833,1,0,0:0:0:0:
448,192,158833,1,0,0:0:0:0:
192,192,158901,1,0,0:0:0:0:
64,192,158969,1,0,0:0:0:0:
448,192,158969,1,0,0:0:0:0:
320,192,159037,1,0,0:0:0:0:
192,192,159105,1,0,0:0:0:0:
320,192,159174,1,0,0:0:0:0:
64,192,159242,1,0,0:0:0:0:
192,192,159242,1,0,0:0:0:0:
448,192,159242,1,0,0:0:0:0:
64,192,159378,1,0,0:0:0:0:
192,192,159378,1,0,0:0:0:0:
320,192,159515,1,0,0:0:0:0:
448,192,159515,1,0,0:0:0:0:
64,192,159583,1,0,0:0:0:0:
192,192,159651,1,0,0:0:0:0:
448,192,159651,1,0,0:0:0:0:
320,192,159787,1,0,0:0:0:0:
448,192,159787,1,0,0:0:0:0:
64,192,159924,1,0,0:0:0:0:
192,192,159924,1,0,0:0:0:0:
64,192,160060,1,0,0:0:0:0:
448,192,160060,1,0,0:0:0:0:
320,192,160128,1,0,0:0:0:0:
64,192,160196,1,0,0:0:0:0:
192,192,160196,1,0,0:0:0:0:
192,192,160333,1,0,0:0:0:0:
448,192,160333,1,0,0:0:0:0:
64,192,160469,1,0,0:0:0:0:
320,192,160469,1,0,0:0:0:0:
320,192,160605,1,0,0:0:0:0:
448,192,160605,1,0,0:0:0:0:
64,192,160674,1,0,0:0:0:0:
192,192,160742,1,0,0:0:0:0:
448,192,160742,1,0,0:0:0:0:
64,192,160878,1,0,0:0:0:0:
448,192,160878,1,0,0:0:0:0:
320,192,160946,1,0,0:0:0:0:
192,192,161015,1,0,0:0:0:0:
448,192,161015,1,0,0:0:0:0:
64,192,161151,1,0,0:0:0:0:
320,192,161151,1,0,0:0:0:0:
448,192,161219,1,0,0:0:0:0:
64,192,161287,1,0,0:0:0:0:
192,192,161287,1,0,0:0:0:0:
192,192,161424,1,0,0:0:0:0:
320,192,161424,1,0,0:0:0:0:
64,192,161560,1,0,0:0:0:0:
448,192,161560,1,0,0:0:0:0:
192,192,161696,1,0,0:0:0:0:
320,192,161696,1,0,0:0:0:0:
448,192,161765,1,0,0:0:0:0:
64,192,161833,1,0,0:0:0:0:
192,192,161833,1,0,0:0:0:0:
320,192,161969,1,0,0:0:0:0:
448,192,161969,1,0,0:0:0:0:
64,192,162037,1,0,0:0:0:0:
192,192,162105,1,0,0:0:0:0:
448,192,162105,1,0,0:0:0:0:
320,192,162242,1,0,0:0:0:0:
448,192,162242,1,0,0:0:0:0:
64,192,162310,1,0,0:0:0:0:
192,192,162378,1,0,0:0:0:0:
320,192,162378,1,0,0:0:0:0:
64,192,162515,1,0,0:0:0:0:
192,192,162515,1,0,0:0:0:0:
448,0,162515,128,0,162787:1:0:0:0:
320,192,162651,1,0,0:0:0:0:
64,192,162787,1,0,0:0:0:0:
192,192,162787,1,0,0:0:0:0:
320,0,162787,128,0,163060:1:0:0:0:
448,192,162855,1,0,0:0:0:0:
64,192,162924,1,0,0:0:0:0:
64,192,163060,1,0,0:0:0:0:
448,192,163060,1,0,0:0:0:0:
192,0,163060,128,0,163333:1:0:0:0:
320,192,163128,1,0,0:0:0:0:
448,192,163196,1,0,0:0:0:0:
320,192,163333,1,0,0:0:0:0:
448,192,163333,1,0,0:0:0:0:
64,0,163333,128,0,163537:1:0:0:0:
192,192,163401,1,0,0:0:0:0:
448,192,163469,1,0,0:0:0:0:
320,192,163537,1,0,0:0:0:0:
64,192,163605,1,0,0:0:0:0:
192,192,163605,1,0,0:0:0:0:
448,192,163605,1,0,0:0:0:0:
64,192,163742,1,0,0:0:0:0:
192,192,163742,1,0,0:0:0:0:
320,192,163878,1,0,0:0:0:0:
448,192,163878,1,0,0:0:0:0:
64,192,163946,1,0,0:0:0:0:
192,192,164015,1,0,0:0:0:0:
320,192,164015,1,0,0:0:0:0:
64,192,164151,1,0,0:0:0:0:
192,192,164151,1,0,0:0:0:0:
64,192,164287,1,0,0:0:0:0:
320,192,164287,1,0,0:0:0:0:
64,192,164424,1,0,0:0:0:0:
192,192,164424,1,0,0:0:0:0:
448,192,164492,1,0,0:0:0:0:
192,192,164560,1,0,0:0:0:0:
320,192,164560,1,0,0:0:0:0:
64,192,164696,1,0,0:0:0:0:
448,192,164696,1,0,0:0:0:0:
64,192,164833,1,0,0:0:0:0:
192,192,164833,1,0,0:0:0:0:
192,192,164969,1,0,0:0:0:0:
448,192,164969,1,0,0:0:0:0:
64,192,165037,1,0,0:0:0:0:
320,192,165105,1,0,0:0:0:0:
448,192,165105,1,0,0:0:0:0:
64,192,165242,1,0,0:0:0:0:
192,192,165242,1,0,0:0:0:0:
320,192,165310,1,0,0:0:0:0:
64,192,165378,1,0,0:0:0:0:
448,192,165378,1,0,0:0:0:0:
192,192,165515,1,0,0:0:0:0:
448,192,165515,1,0,0:0:0:0:
64,192,165583,1,0,0:0:0:0:
320,192,165651,1,0,0:0:0:0:
448,192,165651,1,0,0:0:0:0:
64,192,165719,1,0,0:0:0:0:
192,192,165787,1,0,0:0:0:0:
320,192,165787,1,0,0:0:0:0:
448,192,165787,1,0,0:0:0:0:
64,192,165855,1,0,0:0:0:0:
320,192,165924,1,0,0:0:0:0:
192,192,165992,1,0,0:0:0:0:
64,192,166060,1,0,0:0:0:0:
448,192,166060,1,0,0:0:0:0:
192,192,166128,1,0,0:0:0:0:
448,192,166196,1,0,0:0:0:0:
64,192,166265,1,0,0:0:0:0:
192,192,166333,1,0,0:0:0:0:
320,192,166333,1,0,0:0:0:0:
448,192,166401,1,0,0:0:0:0:
64,192,166469,1,0,0:0:0:0:
192,192,166537,1,0,0:0:0:0:
320,192,166605,1,0,0:0:0:0:
448,192,166605,1,0,0:0:0:0:
64,192,166674,1,0,0:0:0:0:
320,192,166742,1,0,0:0:0:0:
192,192,166810,1,0,0:0:0:0:
64,192,166878,1,0,0:0:0:0:
448,192,166878,1,0,0:0:0:0:
192,192,166946,1,0,0:0:0:0:
320,192,167015,1,0,0:0:0:0:
64,192,167083,1,0,0:0:0:0:
192,192,167151,1,0,0:0:0:0:
448,192,167151,1,0,0:0:0:0:
64,192,167219,1,0,0:0:0:0:
320,192,167287,1,0,0:0:0:0:
192,192,167355,1,0,0:0:0:0:
64,192,167424,1,0,0:0:0:0:
320,192,167424,1,0,0:0:0:0:
192,192,167492,1,0,0:0:0:0:
448,192,167560,1,0,0:0:0:0:
320,192,167628,1,0,0:0:0:0:
64,192,167696,1,0,0:0:0:0:
192,192,167696,1,0,0:0:0:0:
448,192,167765,1,0,0:0:0:0:
192,192,167833,1,0,0:0:0:0:
320,192,167901,1,0,0:0:0:0:
64,192,167969,1,0,0:0:0:0:
192,192,167969,1,0,0:0:0:0:
448,0,167969,128,0,170151:1:0:0:0:
64,192,169060,1,0,0:0:0:0:
64,192,169196,1,0,0:0:0:0:
64,192,169333,1,0,0:0:0:0:
64,192,169469,1,0,0:0:0:0:
320,192,169742,1,0,0:0:0:0:
192,192,169878,1,0,0:0:0:0:
64,192,170015,1,0,0:0:0:0:
192,192,170151,1,0,0:0:0:0:
320,192,170151,1,0,0:0:0:0:
64,192,170242,1,0,0:0:0:0:
320,192,170333,1,0,0:0:0:0:
192,192,170424,1,0,0:0:0:0:
448,192,170515,1,0,0:0:0:0:
64,192,170605,1,0,0:0:0:0:
320,192,170696,1,0,0:0:0:0:
448,192,170696,1,0,0:0:0:0:
192,192,170787,1,0,0:0:0:0:
64,192,170878,1,0,0:0:0:0:
448,192,170878,1,0,0:0:0:0:
320,192,170969,1,0,0:0:0:0:
64,192,171060,1,0,0:0:0:0:
192,192,171060,1,0,0:0:0:0:
448,192,171151,1,0,0:0:0:0:
64,192,171242,1,0,0:0:0:0:
192,192,171242,1,0,0:0:0:0:
320,192,171310,1,0,0:0:0:0:
448,192,171310,1,0,0:0:0:0:
192,192,171333,1,0,0:0:0:0:
64,192,171424,1,0,0:0:0:0:
448,192,171515,1,0,0:0:0:0:
192,192,171605,1,0,0:0:0:0:
64,192,171651,1,0,0:0:0:0:
448,192,171651,1,0,0:0:0:0:
192,192,171719,1,0,0:0:0:0:
320,192,171719,1,0,0:0:0:0:
64,192,171787,1,0,0:0:0:0:
448,192,171787,1,0,0:0:0:0:
192,192,171855,1,0,0:0:0:0:
320,192,171855,1,0,0:0:0:0:
448,192,171878,1,0,0:0:0:0:
192,192,171969,1,0,0:0:0:0:
320,192,172060,1,0,0:0:0:0:
448,192,172060,1,0,0:0:0:0:
64,192,172128,1,0,0:0:0:0:
192,192,172128,1,0,0:0:0:0:
320,192,172196,1,0,0:0:0:0:
448,192,172196,1,0,0:0:0:0:
64,192,172265,1,0,0:0:0:0:
192,192,172265,1,0,0:0:0:0:
320,192,172333,1,0,0:0:0:0:
448,192,172333,1,0,0:0:0:0:
192,192,172469,1,0,0:0:0:0:
320,192,172605,1,0,0:0:0:0:
448,192,172605,1,0,0:0:0:0:
64,192,172674,1,0,0:0:0:0:
192,192,172742,1,0,0:0:0:0:
320,192,172742,1,0,0:0:0:0:
64,192,172878,1,0,0:0:0:0:
448,192,172878,1,0,0:0:0:0:
192,192,173015,1,0,0:0:0:0:
320,192,173151,1,0,0:0:0:0:
448,192,173151,1,0,0:0:0:0:
192,192,173219,1,0,0:0:0:0:
64,192,173287,1,0,0:0:0:0:
320,192,173287,1,0,0:0:0:0:
192,192,173424,1,0,0:0:0:0:
448,192,173424,1,0,0:0:0:0:
64,192,173560,1,0,0:0:0:0:
320,192,173696,1,0,0:0:0:0:
448,192,173696,1,0,0:0:0:0:
64,192,173765,1,0,0:0:0:0:
192,192,173833,1,0,0:0:0:0:
320,192,173833,1,0,0:0:0:0:
64,192,173969,1,0,0:0:0:0:
192,192,173969,1,0,0:0:0:0:
448,192,174037,1,0,0:0:0:0:
64,192,174105,1,0,0:0:0:0:
320,192,174105,1,0,0:0:0:0:
192,192,174242,1,0,0:0:0:0:
448,192,174242,1,0,0:0:0:0:
64,192,174310,1,0,0:0:0:0:
192,192,174378,1,0,0:0:0:0:
320,192,174378,1,0,0:0:0:0:
64,192,174515,1,0,0:0:0:0:
320,192,174515,1,0,0:0:0:0:
448,192,174515,1,0,0:0:0:0:
192,192,174583,1,0,0:0:0:0:
320,192,174651,1,0,0:0:0:0:
64,192,174719,1,0,0:0:0:0:
192,192,174787,1,0,0:0:0:0:
448,192,174787,1,0,0:0:0:0:
64,192,174855,1,0,0:0:0:0:
320,192,174924,1,0,0:0:0:0:
192,192,174992,1,0,0:0:0:0:
64,192,175060,1,0,0:0:0:0:
448,192,175060,1,0,0:0:0:0:
320,192,175128,1,0,0:0:0:0:
192,192,175196,1,0,0:0:0:0:
448,192,175265,1,0,0:0:0:0:
64,192,175333,1,0,0:0:0:0:
192,192,175333,1,0,0:0:0:0:
320,192,175401,1,0,0:0:0:0:
64,192,175469,1,0,0:0:0:0:
448,192,175469,1,0,0:0:0:0:
192,192,175537,1,0,0:0:0:0:
320,192,175537,1,0,0:0:0:0:
448,192,175605,1,0,0:0:0:0:
64,0,175605,128,0,175878:1:0:0:0:
448,192,175878,1,0,0:0:0:0:
192,0,175878,128,0,176151:1:0:0:0:
64,192,176151,1,0,0:0:0:0:
320,0,176151,128,0,176424:1:0:0:0:
64,192,176424,1,0,0:0:0:0:
448,0,176424,128,0,176628:1:0:0:0:
320,192,176492,1,0,0:0:0:0:
64,192,176560,1,0,0:0:0:0:
320,192,176628,1,0,0:0:0:0:
64,192,176696,1,0,0:0:0:0:
192,192,176696,1,0,0:0:0:0:
448,192,176696,1,0,0:0:0:0:
320,192,176765,1,0,0:0:0:0:
192,192,176833,1,0,0:0:0:0:
64,192,176901,1,0,0:0:0:0:
320,192,176969,1,0,0:0:0:0:
448,192,176969,1,0,0:0:0:0:
192,192,177037,1,0,0:0:0:0:
448,192,177105,1,0,0:0:0:0:
320,192,177174,1,0,0:0:0:0:
192,192,177242,1,0,0:0:0:0:
448,192,177242,1,0,0:0:0:0:
64,192,177310,1,0,0:0:0:0:
320,192,177378,1,0,0:0:0:0:
192,192,177446,1,0,0:0:0:0:
64,192,177515,1,0,0:0:0:0:
448,192,177515,1,0,0:0:0:0:
320,192,177583,1,0,0:0:0:0:
192,192,177651,1,0,0:0:0:0:
64,192,177719,1,0,0:0:0:0:
320,192,177787,1,0,0:0:0:0:
448,192,177787,1,0,0:0:0:0:
192,192,177855,1,0,0:0:0:0:
448,192,177924,1,0,0:0:0:0:
320,192,177992,1,0,0:0:0:0:
192,192,178060,1,0,0:0:0:0:
448,192,178060,1,0,0:0:0:0:
64,192,178128,1,0,0:0:0:0:
320,192,178196,1,0,0:0:0:0:
192,192,178265,1,0,0:0:0:0:
64,192,178333,1,0,0:0:0:0:
448,192,178333,1,0,0:0:0:0:
320,192,178401,1,0,0:0:0:0:
192,192,178469,1,0,0:0:0:0:
64,192,178537,1,0,0:0:0:0:
192,192,178605,1,0,0:0:0:0:
448,192,178605,1,0,0:0:0:0:
320,192,178674,1,0,0:0:0:0:
192,192,178742,1,0,0:0:0:0:
64,192,178810,1,0,0:0:0:0:
192,192,178878,1,0,0:0:0:0:
448,192,178878,1,0,0:0:0:0:
320,192,178946,1,0,0:0:0:0:
192,192,179015,1,0,0:0:0:0:
64,192,179083,1,0,0:0:0:0:
320,192,179151,1,0,0:0:0:0:
448,192,179151,1,0,0:0:0:0:
192,192,179219,1,0,0:0:0:0:
448,192,179287,1,0,0:0:0:0:
320,192,179355,1,0,0:0:0:0:
64,192,179424,1,0,0:0:0:0:
448,192,179424,1,0,0:0:0:0:
192,192,179492,1,0,0:0:0:0:
448,192,179560,1,0,0:0:0:0:
192,192,179628,1,0,0:0:0:0:
64,192,179696,1,0,0:0:0:0:
320,192,179696,1,0,0:0:0:0:
192,192,179765,1,0,0:0:0:0:
320,192,179833,1,0,0:0:0:0:
448,192,179901,1,0,0:0:0:0:
64,192,179969,1,0,0:0:0:0:
320,192,179969,1,0,0:0:0:0:
192,192,180037,1,0,0:0:0:0:
64,192,180105,1,0,0:0:0:0:
320,192,180174,1,0,0:0:0:0:
64,192,180242,1,0,0:0:0:0:
192,192,180242,1,0,0:0:0:0:
448,192,180310,1,0,0:0:0:0:
320,0,180378,128,0,180651:1:0:0:0:
64,192,180515,1,0,0:0:0:0:
448,192,180583,1,0,0:0:0:0:
192,192,180651,1,0,0:0:0:0:
64,192,180787,1,0,0:0:0:0:
448,192,180787,1,0,0:0:0:0:
192,192,180833,1,0,0:0:0:0:
320,192,180878,1,0,0:0:0:0:
64,192,180924,1,0,0:0:0:0:
448,192,180924,1,0,0:0:0:0:
192,192,180992,1,0,0:0:0:0:
64,192,181060,1,0,0:0:0:0:
448,192,181060,1,0,0:0:0:0:
192,192,181128,1,0,0:0:0:0:
320,192,181196,1,0,0:0:0:0:
448,192,181265,1,0,0:0:0:0:
192,192,181333,1,0,0:0:0:0:
320,192,181333,1,0,0:0:0:0:
448,192,181401,1,0,0:0:0:0:
64,192,181469,1,0,0:0:0:0:
192,192,181537,1,0,0:0:0:0:
64,192,181605,1,0,0:0:0:0:
320,192,181605,1,0,0:0:0:0:
448,192,181674,1,0,0:0:0:0:
320,192,181742,1,0,0:0:0:0:
448,192,181810,1,0,0:0:0:0:
64,192,181878,1,0,0:0:0:0:
320,192,181878,1,0,0:0:0:0:
192,192,181946,1,0,0:0:0:0:
320,192,182015,1,0,0:0:0:0:
448,192,182083,1,0,0:0:0:0:
192,192,182151,1,0,0:0:0:0:
320,192,182151,1,0,0:0:0:0:
448,192,182219,1,0,0:0:0:0:
64,192,182287,1,0,0:0:0:0:
192,192,182355,1,0,0:0:0:0:
64,192,182424,1,0,0:0:0:0:
320,192,182424,1,0,0:0:0:0:
448,192,182492,1,0,0:0:0:0:
320,192,182560,1,0,0:0:0:0:
448,192,182628,1,0,0:0:0:0:
64,192,182696,1,0,0:0:0:0:
320,192,182696,1,0,0:0:0:0:
192,192,182765,1,0,0:0:0:0:
320,192,182833,1,0,0:0:0:0:
448,192,182901,1,0,0:0:0:0:
64,192,182969,1,0,0:0:0:0:
320,192,182969,1,0,0:0:0:0:
192,192,183037,1,0,0:0:0:0:
448,192,183105,1,0,0:0:0:0:
320,192,183174,1,0,0:0:0:0:
192,192,183242,1,0,0:0:0:0:
448,192,183242,1,0,0:0:0:0:
64,192,183310,1,0,0:0:0:0:
192,192,183378,1,0,0:0:0:0:
64,192,183446,1,0,0:0:0:0:
320,192,183515,1,0,0:0:0:0:
448,192,183515,1,0,0:0:0:0:
64,192,183583,1,0,0:0:0:0:
320,192,183651,1,0,0:0:0:0:
64,192,183719,1,0,0:0:0:0:
320,192,183787,1,0,0:0:0:0:
448,192,183787,1,0,0:0:0:0:
192,192,183855,1,0,0:0:0:0:
320,192,183924,1,0,0:0:0:0:
192,192,183992,1,0,0:0:0:0:
64,192,184060,1,0,0:0:0:0:
448,192,184060,1,0,0:0:0:0:
320,192,184128,1,0,0:0:0:0:
192,192,184196,1,0,0:0:0:0:
320,192,184265,1,0,0:0:0:0:
64,192,184333,1,0,0:0:0:0:
448,192,184333,1,0,0:0:0:0:
192,192,184401,1,0,0:0:0:0:
320,192,184401,1,0,0:0:0:0:
64,192,184469,1,0,0:0:0:0:
448,192,184469,1,0,0:0:0:0:
192,192,184537,1,0,0:0:0:0:
320,192,184605,1,0,0:0:0:0:
448,192,184605,1,0,0:0:0:0:
64,192,184674,1,0,0:0:0:0:
192,192,184742,1,0,0:0:0:0:
320,192,184810,1,0,0:0:0:0:
64,192,184878,1,0,0:0:0:0:
448,192,184878,1,0,0:0:0:0:
192,192,184946,1,0,0:0:0:0:
320,192,184946,1,0,0:0:0:0:
64,192,185015,1,0,0:0:0:0:
448,192,185015,1,0,0:0:0:0:
320,192,185083,1,0,0:0:0:0:
192,192,185151,1,0,0:0:0:0:
448,192,185219,1,0,0:0:0:0:
192,192,185287,1,0,0:0:0:0:
320,192,185355,1,0,0:0:0:0:
64,192,185424,1,0,0:0:0:0:
448,192,185424,1,0,0:0:0:0:
192,192,185492,1,0,0:0:0:0:
320,192,185560,1,0,0:0:0:0:
448,192,185628,1,0,0:0:0:0:
64,192,185696,1,0,0:0:0:0:
192,192,185696,1,0,0:0:0:0:
320,192,185765,1,0,0:0:0:0:
448,192,185833,1,0,0:0:0:0:
320,192,185901,1,0,0:0:0:0:
192,192,185969,1,0,0:0:0:0:
448,192,185969,1,0,0:0:0:0:
64,192,186037,1,0,0:0:0:0:
320,192,186105,1,0,0:0:0:0:
192,192,186174,1,0,0:0:0:0:
64,192,186242,1,0,0:0:0:0:
448,192,186242,1,0,0:0:0:0:
192,192,186310,1,0,0:0:0:0:
320,192,186378,1,0,0:0:0:0:
448,192,186446,1,0,0:0:0:0:
64,192,186515,1,0,0:0:0:0:
192,192,186515,1,0,0:0:0:0:
320,192,186583,1,0,0:0:0:0:
448,192,186651,1,0,0:0:0:0:
320,192,186719,1,0,0:0:0:0:
192,192,186787,1,0,0:0:0:0:
448,192,186787,1,0,0:0:0:0:
64,192,186855,1,0,0:0:0:0:
320,192,186924,1,0,0:0:0:0:
192,192,186992,1,0,0:0:0:0:
64,192,187060,1,0,0:0:0:0:
448,192,187060,1,0,0:0:0:0:
192,192,187128,1,0,0:0:0:0:
320,192,187196,1,0,0:0:0:0:
448,192,187265,1,0,0:0:0:0:
64,192,187333,1,0,0:0:0:0:
320,192,187333,1,0,0:0:0:0:
192,192,187401,1,0,0:0:0:0:
448,0,187469,128,0,187742:1:0:0:0:
64,192,187605,1,0,0:0:0:0:
192,192,187605,1,0,0:0:0:0:
320,192,187742,1,0,0:0:0:0:
64,192,187878,1,0,0:0:0:0:
192,192,187878,1,0,0:0:0:0:
448,192,187946,1,0,0:0:0:0:
64,192,188015,1,0,0:0:0:0:
320,192,188015,1,0,0:0:0:0:
192,192,188151,1,0,0:0:0:0:
448,192,188151,1,0,0:0:0:0:
64,192,188287,1,0,0:0:0:0:
320,192,188424,1,0,0:0:0:0:
448,192,188424,1,0,0:0:0:0:
64,192,188492,1,0,0:0:0:0:
192,192,188560,1,0,0:0:0:0:
448,192,188560,1,0,0:0:0:0:
192,192,188696,1,0,0:0:0:0:
320,192,188696,1,0,0:0:0:0:
448,192,188833,1,0,0:0:0:0:
64,192,188969,1,0,0:0:0:0:
192,192,188969,1,0,0:0:0:0:
320,192,189037,1,0,0:0:0:0:
64,192,189105,1,0,0:0:0:0:
448,192,189105,1,0,0:0:0:0:
192,192,189242,1,0,0:0:0:0:
448,192,189242,1,0,0:0:0:0:
320,192,189378,1,0,0:0:0:0:
64,192,189515,1,0,0:0:0:0:
448,192,189515,1,0,0:0:0:0:
192,192,189560,1,0,0:0:0:0:
320,192,189605,1,0,0:0:0:0:
64,192,189651,1,0,0:0:0:0:
448,192,189651,1,0,0:0:0:0:
192,192,189719,1,0,0:0:0:0:
64,192,189787,1,0,0:0:0:0:
320,192,189787,1,0,0:0:0:0:
448,192,189787,1,0,0:0:0:0:
192,192,189855,1,0,0:0:0:0:
448,192,189924,1,0,0:0:0:0:
192,192,189992,1,0,0:0:0:0:
320,192,190060,1,0,0:0:0:0:
448,192,190060,1,0,0:0:0:0:
64,192,190128,1,0,0:0:0:0:
448,192,190196,1,0,0:0:0:0:
192,192,190265,1,0,0:0:0:0:
64,192,190333,1,0,0:0:0:0:
320,192,190333,1,0,0:0:0:0:
192,192,190401,1,0,0:0:0:0:
448,192,190469,1,0,0:0:0:0:
320,192,190537,1,0,0:0:0:0:
64,192,190605,1,0,0:0:0:0:
192,192,190605,1,0,0:0:0:0:
320,192,190674,1,0,0:0:0:0:
448,192,190742,1,0,0:0:0:0:
320,192,190810,1,0,0:0:0:0:
64,192,190878,1,0,0:0:0:0:
448,192,190878,1,0,0:0:0:0:
192,192,190946,1,0,0:0:0:0:
448,192,191014,1,0,0:0:0:0:
320,192,191083,1,0,0:0:0:0:
64,192,191151,1,0,0:0:0:0:
192,192,191151,1,0,0:0:0:0:
320,192,191219,1,0,0:0:0:0:
448,192,191287,1,0,0:0:0:0:
192,192,191355,1,0,0:0:0:0:
64,192,191424,1,0,0:0:0:0:
320,192,191424,1,0,0:0:0:0:
448,192,191492,1,0,0:0:0:0:
64,192,191560,1,0,0:0:0:0:
192,192,191628,1,0,0:0:0:0:
320,192,191696,1,0,0:0:0:0:
448,192,191696,1,0,0:0:0:0:
192,192,191764,1,0,0:0:0:0:
64,192,191833,1,0,0:0:0:0:
192,192,191969,1,0,0:0:0:0:
448,192,191969,1,0,0:0:0:0:
64,192,192037,1,0,0:0:0:0:
320,192,192037,1,0,0:0:0:0:
192,192,192105,1,0,0:0:0:0:
448,192,192105,1,0,0:0:0:0:
320,192,192174,1,0,0:0:0:0:
64,192,192242,1,0,0:0:0:0:
448,192,192242,1,0,0:0:0:0:
192,192,192310,1,0,0:0:0:0:
320,192,192310,1,0,0:0:0:0:
64,192,192378,1,0,0:0:0:0:
192,192,192446,1,0,0:0:0:0:
320,192,192446,1,0,0:0:0:0:
448,192,192514,1,0,0:0:0:0:
192,192,192583,1,0,0:0:0:0:
448,192,192651,1,0,0:0:0:0:
192,192,192719,1,0,0:0:0:0:
64,192,192787,1,0,0:0:0:0:
320,192,192787,1,0,0:0:0:0:
448,192,192787,1,0,0:0:0:0:
192,192,192855,1,0,0:0:0:0:
448,192,192924,1,0,0:0:0:0:
192,192,192992,1,0,0:0:0:0:
64,192,193060,1,0,0:0:0:0:
320,192,193060,1,0,0:0:0:0:
448,192,193060,1,0,0:0:0:0:
192,192,193128,1,0,0:0:0:0:
320,192,193196,1,0,0:0:0:0:
192,192,193264,1,0,0:0:0:0:
448,192,193333,1,0,0:0:0:0:
320,192,193401,1,0,0:0:0:0:
64,192,193469,1,0,0:0:0:0:
192,192,193469,1,0,0:0:0:0:
448,192,193469,1,0,0:0:0:0:
320,192,193537,1,0,0:0:0:0:
64,192,193605,1,0,0:0:0:0:
192,192,193674,1,0,0:0:0:0:
64,192,193742,1,0,0:0:0:0:
192,192,193810,1,0,0:0:0:0:
64,192,193878,1,0,0:0:0:0:
320,192,193878,1,0,0:0:0:0:
448,192,193878,1,0,0:0:0:0:
192,192,193946,1,0,0:0:0:0:
320,192,194014,1,0,0:0:0:0:
192,192,194083,1,0,0:0:0:0:
64,192,194151,1,0,0:0:0:0:
320,192,194151,1,0,0:0:0:0:
448,192,194151,1,0,0:0:0:0:
64,192,194424,1,0,0:0:0:0:
192,192,194424,1,0,0:0:0:0:
320,192,194424,1,0,0:0:0:0:
64,192,194560,1,0,0:0:0:0:
320,192,194628,1,0,0:0:0:0:
64,192,194696,1,0,0:0:0:0:
192,192,194696,1,0,0:0:0:0:
448,192,194696,1,0,0:0:0:0:
192,192,194833,1,0,0:0:0:0:
320,192,194901,1,0,0:0:0:0:
64,192,194969,1,0,0:0:0:0:
192,192,194969,1,0,0:0:0:0:
448,192,194969,1,0,0:0:0:0:
320,192,195105,1,0,0:0:0:0:
192,192,195174,1,0,0:0:0:0:
64,192,195242,1,0,0:0:0:0:
320,192,195242,1,0,0:0:0:0:
448,192,195242,1,0,0:0:0:0:
192,192,195514,1,0,0:0:0:0:
320,192,195514,1,0,0:0:0:0:
448,192,195514,1,0,0:0:0:0:
320,192,195651,1,0,0:0:0:0:
64,192,195719,1,0,0:0:0:0:
192,192,195787,1,0,0:0:0:0:
320,192,195787,1,0,0:0:0:0:
448,192,195787,1,0,0:0:0:0:
64,192,195924,1,0,0:0:0:0:
448,192,195992,1,0,0:0:0:0:
64,192,196060,1,0,0:0:0:0:
192,192,196060,1,0,0:0:0:0:
320,192,196060,1,0,0:0:0:0:
320,192,196196,1,0,0:0:0:0:
192,192,196264,1,0,0:0:0:0:
64,192,196333,1,0,0:0:0:0:
320,192,196333,1,0,0:0:0:0:
448,192,196333,1,0,0:0:0:0:
192,192,196605,1,0,0:0:0:0:
320,192,196605,1,0,0:0:0:0:
448,192,196605,1,0,0:0:0:0:
64,192,196742,1,0,0:0:0:0:
64,192,196878,1,0,0:0:0:0:
320,192,196878,1,0,0:0:0:0:
448,192,196878,1,0,0:0:0:0:
192,192,197014,1,0,0:0:0:0:
448,192,197083,1,0,0:0:0:0:
64,192,197151,1,0,0:0:0:0:
192,192,197151,1,0,0:0:0:0:
320,192,197151,1,0,0:0:0:0:
448,192,197287,1,0,0:0:0:0:
192,192,197355,1,0,0:0:0:0:
64,192,197424,1,0,0:0:0:0:
320,192,197424,1,0,0:0:0:0:
448,192,197424,1,0,0:0:0:0:
192,192,197560,1,0,0:0:0:0:
64,192,197628,1,0,0:0:0:0:
192,192,197696,1,0,0:0:0:0:
320,192,197696,1,0,0:0:0:0:
448,192,197696,1,0,0:0:0:0:
64,192,197833,1,0,0:0:0:0:
448,192,197901,1,0,0:0:0:0:
64,192,197969,1,0,0:0:0:0:
192,192,197969,1,0,0:0:0:0:
320,192,197969,1,0,0:0:0:0:
320,192,198105,1,0,0:0:0:0:
64,192,198174,1,0,0:0:0:0:
192,192,198242,1,0,0:0:0:0:
320,192,198242,1,0,0:0:0:0:
448,192,198242,1,0,0:0:0:0:
192,192,198378,1,0,0:0:0:0:
448,192,198446,1,0,0:0:0:0:
64,192,198514,1,0,0:0:0:0:
192,192,198514,1,0,0:0:0:0:
320,192,198514,1,0,0:0:0:0:
320,192,198651,1,0,0:0:0:0:
64,192,198787,1,0,0:0:0:0:
192,192,198787,1,0,0:0:0:0:
448,192,198787,1,0,0:0:0:0:
64,192,198924,1,0,0:0:0:0:
192,192,199060,1,0,0:0:0:0:
320,192,199060,1,0,0:0:0:0:
448,192,199060,1,0,0:0:0:0:
320,192,199196,1,0,0:0:0:0:
192,192,199264,1,0,0:0:0:0:
64,192,199333,1,0,0:0:0:0:
320,192,199333,1,0,0:0:0:0:
448,192,199333,1,0,0:0:0:0:
192,192,199469,1,0,0:0:0:0:
64,192,199605,1,0,0:0:0:0:
192,192,199605,1,0,0:0:0:0:
448,192,199605,1,0,0:0:0:0:
320,192,199742,1,0,0:0:0:0:
192,192,199878,1,0,0:0:0:0:
320,192,199878,1,0,0:0:0:0:
448,192,199878,1,0,0:0:0:0:
64,192,200014,1,0,0:0:0:0:
192,192,200083,1,0,0:0:0:0:
64,192,200151,1,0,0:0:0:0:
320,192,200151,1,0,0:0:0:0:
448,192,200151,1,0,0:0:0:0:
320,192,200287,1,0,0:0:0:0:
192,192,200355,1,0,0:0:0:0:
64,192,200424,1,0,0:0:0:0:
320,192,200424,1,0,0:0:0:0:
448,192,200424,1,0,0:0:0:0:
192,192,200560,1,0,0:0:0:0:
448,192,200628,1,0,0:0:0:0:
64,192,200696,1,0,0:0:0:0:
192,192,200696,1,0,0:0:0:0:
320,192,200696,1,0,0:0:0:0:
448,192,200764,1,0,0:0:0:0:
192,192,200833,1,0,0:0:0:0:
448,192,200901,1,0,0:0:0:0:
64,192,200969,1,0,0:0:0:0:
192,192,200969,1,0,0:0:0:0:
320,192,200969,1,0,0:0:0:0:
448,192,201037,1,0,0:0:0:0:
192,192,201105,1,0,0:0:0:0:
320,192,201174,1,0,0:0:0:0:
64,192,201242,1,0,0:0:0:0:
192,192,201242,1,0,0:0:0:0:
448,192,201242,1,0,0:0:0:0:
320,192,201310,1,0,0:0:0:0:
64,192,201378,1,0,0:0:0:0:
192,192,201446,1,0,0:0:0:0:
64,192,201514,1,0,0:0:0:0:
320,192,201514,1,0,0:0:0:0:
448,192,201514,1,0,0:0:0:0:
192,192,201583,1,0,0:0:0:0:
320,192,201651,1,0,0:0:0:0:
64,192,201719,1,0,0:0:0:0:
192,192,201787,1,0,0:0:0:0:
320,192,201787,1,0,0:0:0:0:
448,192,201787,1,0,0:0:0:0:
192,192,201924,1,0,0:0:0:0:
320,192,201924,1,0,0:0:0:0:
448,192,201924,1,0,0:0:0:0:
192,192,202196,1,0,0:0:0:0:
320,192,202196,1,0,0:0:0:0:
448,192,202196,1,0,0:0:0:0:
320,192,202469,1,0,0:0:0:0:
448,192,202469,1,0,0:0:0:0:
64,192,202605,1,0,0:0:0:0:
192,192,202605,1,0,0:0:0:0:
192,192,202742,1,0,0:0:0:0:
320,192,202742,1,0,0:0:0:0:
64,192,202878,1,0,0:0:0:0:
192,192,202878,1,0,0:0:0:0:
448,192,202878,1,0,0:0:0:0:
320,192,202946,1,0,0:0:0:0:
448,192,203014,1,0,0:0:0:0:
192,192,203083,1,0,0:0:0:0:
64,192,203151,1,0,0:0:0:0:
448,192,203151,1,0,0:0:0:0:
320,192,203219,1,0,0:0:0:0:
64,192,203287,1,0,0:0:0:0:
192,192,203287,1,0,0:0:0:0:
448,192,203355,1,0,0:0:0:0:
64,192,203424,1,0,0:0:0:0:
320,192,203424,1,0,0:0:0:0:
192,192,203492,1,0,0:0:0:0:
320,192,203560,1,0,0:0:0:0:
64,192,203628,1,0,0:0:0:0:
192,192,203696,1,0,0:0:0:0:
320,192,203696,1,0,0:0:0:0:
448,192,203696,1,0,0:0:0:0:
64,192,203764,1,0,0:0:0:0:
448,192,203833,1,0,0:0:0:0:
192,192,203901,1,0,0:0:0:0:
64,192,203969,1,0,0:0:0:0:
320,192,203969,1,0,0:0:0:0:
448,192,203969,1,0,0:0:0:0:
192,192,204037,1,0,0:0:0:0:
448,192,204105,1,0,0:0:0:0:
320,192,204174,1,0,0:0:0:0:
64,192,204242,1,0,0:0:0:0:
192,192,204242,1,0,0:0:0:0:
448,192,204310,1,0,0:0:0:0:
64,192,204378,1,0,0:0:0:0:
192,192,204378,1,0,0:0:0:0:
320,192,204446,1,0,0:0:0:0:
64,192,204514,1,0,0:0:0:0:
448,192,204514,1,0,0:0:0:0:
192,192,204583,1,0,0:0:0:0:
320,192,204651,1,0,0:0:0:0:
448,192,204719,1,0,0:0:0:0:
64,192,204787,1,0,0:0:0:0:
192,192,204787,1,0,0:0:0:0:
448,192,204855,1,0,0:0:0:0:
320,192,204924,1,0,0:0:0:0:
192,192,204992,1,0,0:0:0:0:
64,192,205060,1,0,0:0:0:0:
320,192,205060,1,0,0:0:0:0:
448,192,205060,1,0,0:0:0:0:
192,192,205128,1,0,0:0:0:0:
320,192,205196,1,0,0:0:0:0:
64,192,205264,1,0,0:0:0:0:
320,192,205333,1,0,0:0:0:0:
448,192,205333,1,0,0:0:0:0:
64,192,205401,1,0,0:0:0:0:
192,192,205469,1,0,0:0:0:0:
320,192,205469,1,0,0:0:0:0:
448,192,205537,1,0,0:0:0:0:
64,192,205605,1,0,0:0:0:0:
192,192,205605,1,0,0:0:0:0:
320,192,205674,1,0,0:0:0:0:
64,192,205742,1,0,0:0:0:0:
192,192,205810,1,0,0:0:0:0:
64,192,205878,1,0,0:0:0:0:
320,192,205878,1,0,0:0:0:0:
448,192,205878,1,0,0:0:0:0:
192,192,205946,1,0,0:0:0:0:
448,192,206014,1,0,0:0:0:0:
320,192,206083,1,0,0:0:0:0:
64,192,206151,1,0,0:0:0:0:
192,192,206151,1,0,0:0:0:0:
448,192,206151,1,0,0:0:0:0:
320,192,206219,1,0,0:0:0:0:
448,192,206287,1,0,0:0:0:0:
64,192,206355,1,0,0:0:0:0:
192,192,206424,1,0,0:0:0:0:
320,192,206424,1,0,0:0:0:0:
448,192,206424,1,0,0:0:0:0:
64,192,206492,1,0,0:0:0:0:
448,192,206560,1,0,0:0:0:0:
192,192,206628,1,0,0:0:0:0:
64,192,206696,1,0,0:0:0:0:
320,192,206696,1,0,0:0:0:0:
448,192,206696,1,0,0:0:0:0:
192,192,206764,1,0,0:0:0:0:
320,192,206833,1,0,0:0:0:0:
64,192,206901,1,0,0:0:0:0:
192,192,206969,1,0,0:0:0:0:
320,192,206969,1,0,0:0:0:0:
448,192,206969,1,0,0:0:0:0:
64,192,207037,1,0,0:0:0:0:
448,192,207105,1,0,0:0:0:0:
192,192,207174,1,0,0:0:0:0:
64,192,207242,1,0,0:0:0:0:
320,192,207242,1,0,0:0:0:0:
448,192,207242,1,0,0:0:0:0:
192,192,207310,1,0,0:0:0:0:
64,192,207378,1,0,0:0:0:0:
320,192,207446,1,0,0:0:0:0:
192,192,207514,1,0,0:0:0:0:
448,192,207514,1,0,0:0:0:0:
320,192,207583,1,0,0:0:0:0:
64,192,207651,1,0,0:0:0:0:
448,192,207651,1,0,0:0:0:0:
192,192,207719,1,0,0:0:0:0:
320,192,207787,1,0,0:0:0:0:
448,192,207787,1,0,0:0:0:0:
64,192,207855,1,0,0:0:0:0:
192,192,207924,1,0,0:0:0:0:
320,192,207992,1,0,0:0:0:0:
64,192,208060,1,0,0:0:0:0:
448,192,208060,1,0,0:0:0:0:
192,192,208128,1,0,0:0:0:0:
320,192,208196,1,0,0:0:0:0:
64,192,208264,1,0,0:0:0:0:
192,192,208333,1,0,0:0:0:0:
448,192,208333,1,0,0:0:0:0:
320,192,208401,1,0,0:0:0:0:
192,192,208469,1,0,0:0:0:0:
448,192,208537,1,0,0:0:0:0:
64,192,208605,1,0,0:0:0:0:
192,192,208605,1,0,0:0:0:0:
448,192,208674,1,0,0:0:0:0:
64,192,208742,1,0,0:0:0:0:
320,192,208742,1,0,0:0:0:0:
192,192,208810,1,0,0:0:0:0:
320,192,208878,1,0,0:0:0:0:
448,192,208878,1,0,0:0:0:0:
64,192,208946,1,0,0:0:0:0:
320,192,209014,1,0,0:0:0:0:
192,192,209083,1,0,0:0:0:0:
64,192,209151,1,0,0:0:0:0:
448,192,209151,1,0,0:0:0:0:
320,192,209219,1,0,0:0:0:0:
192,192,209287,1,0,0:0:0:0:
320,192,209355,1,0,0:0:0:0:
64,192,209424,1,0,0:0:0:0:
448,192,209424,1,0,0:0:0:0:
192,192,209492,1,0,0:0:0:0:
320,192,209492,1,0,0:0:0:0:
64,192,209560,1,0,0:0:0:0:
448,192,209560,1,0,0:0:0:0:
192,192,209628,1,0,0:0:0:0:
320,192,209696,1,0,0:0:0:0:
448,192,209696,1,0,0:0:0:0:
192,192,209764,1,0,0:0:0:0:
64,192,209833,1,0,0:0:0:0:
448,192,209833,1,0,0:0:0:0:
192,192,209901,1,0,0:0:0:0:
320,192,209969,1,0,0:0:0:0:
448,192,209969,1,0,0:0:0:0:
64,192,210037,1,0,0:0:0:0:
192,192,210037,1,0,0:0:0:0:
320,192,210105,1,0,0:0:0:0:
448,192,210105,1,0,0:0:0:0:
64,192,210174,1,0,0:0:0:0:
192,192,210242,1,0,0:0:0:0:
320,192,210242,1,0,0:0:0:0:
448,192,210310,1,0,0:0:0:0:
64,192,210378,1,0,0:0:0:0:
192,192,210446,1,0,0:0:0:0:
320,192,210514,1,0,0:0:0:0:
448,192,210514,1,0,0:0:0:0:
320,192,210605,1,0,0:0:0:0:
448,192,210605,1,0,0:0:0:0:
320,192,210696,1,0,0:0:0:0:
448,192,210696,1,0,0:0:0:0:
64,192,210787,1,0,0:0:0:0:
192,192,210787,1,0,0:0:0:0:
64,192,210878,1,0,0:0:0:0:
192,192,210878,1,0,0:0:0:0:
320,192,210969,1,0,0:0:0:0:
448,192,210969,1,0,0:0:0:0:
192,192,211060,1,0,0:0:0:0:
448,192,211060,1,0,0:0:0:0:
320,192,211151,1,0,0:0:0:0:
64,192,211242,1,0,0:0:0:0:
320,192,211333,1,0,0:0:0:0:
448,192,211333,1,0,0:0:0:0:
192,192,211424,1,0,0:0:0:0:
320,192,211514,1,0,0:0:0:0:
64,192,211605,1,0,0:0:0:0:
192,0,211605,128,0,212287:1:0:0:0:
448,0,211605,128,0,213787:1:0:0:0:
64,0,212287,128,0,212424:1:0:0:0:
192,0,212424,128,0,212560:1:0:0:0:
320,0,212560,128,0,212696:1:0:0:0:
192,0,212696,128,0,213105:1:0:0:0:
64,0,213105,128,0,213514:1:0:0:0:
320,0,213514,128,0,213787:1:0:0:0:
64,192,213787,1,0,0:0:0:0:
192,0,213787,128,0,214060:1:0:0:0:
448,0,214060,128,0,214196:1:0:0:0:
320,0,214196,128,0,214469:1:0:0:0:
192,0,214469,128,0,214605:1:0:0:0:
64,0,214605,128,0,215424:1:0:0:0:
448,192,214742,1,0,0:0:0:0:
320,192,214810,1,0,0:0:0:0:
448,192,214878,1,0,0:0:0:0:
448,192,215014,1,0,0:0:0:0:
192,192,215287,1,0,0:0:0:0:
448,192,215560,1,0,0:0:0:0:
320,192,215696,1,0,0:0:0:0:
64,0,215696,128,0,215833:1:0:0:0:
192,192,215833,1,0,0:0:0:0:
320,0,215833,128,0,215969:1:0:0:0:
64,192,215969,1,0,0:0:0:0:
448,0,215969,128,0,216378:1:0:0:0:
320,192,216378,1,0,0:0:0:0:
192,0,216378,128,0,216787:1:0:0:0:
64,192,216446,1,0,0:0:0:0:
448,192,216514,1,0,0:0:0:0:
64,192,216787,1,0,0:0:0:0:
320,0,216787,128,0,217060:1:0:0:0:
64,192,216924,1,0,0:0:0:0:
192,192,216992,1,0,0:0:0:0:
448,192,217060,1,0,0:0:0:0:
64,0,217060,128,0,217469:1:0:0:0:
192,192,217196,1,0,0:0:0:0:
448,0,217469,128,0,217878:1:0:0:0:
320,192,217605,1,0,0:0:0:0:
320,192,217742,1,0,0:0:0:0:
64,192,217878,1,0,0:0:0:0:
192,0,217878,128,0,218151:1:0:0:0:
448,192,218014,1,0,0:0:0:0:
64,192,218151,1,0,0:0:0:0:
320,0,218151,128,0,218560:1:0:0:0:
64,192,218424,1,0,0:0:0:0:
192,192,218424,1,0,0:0:0:0:
64,192,218560,1,0,0:0:0:0:
192,192,218560,1,0,0:0:0:0:
448,0,218560,128,0,218969:1:0:0:0:
64,192,218696,1,0,0:0:0:0:
320,192,218696,1,0,0:0:0:0:
64,192,218833,1,0,0:0:0:0:
320,192,218833,1,0,0:0:0:0:
192,192,218969,1,0,0:0:0:0:
320,192,218969,1,0,0:0:0:0:
64,0,218969,128,0,219242:1:0:0:0:
192,192,219105,1,0,0:0:0:0:
320,192,219105,1,0,0:0:0:0:
448,192,219242,1,0,0:0:0:0:
320,0,219242,128,0,220060:1:0:0:0:
64,192,219310,1,0,0:0:0:0:
448,192,219378,1,0,0:0:0:0:
192,192,219446,1,0,0:0:0:0:
448,192,219514,1,0,0:0:0:0:
64,192,219583,1,0,0:0:0:0:
192,192,219651,1,0,0:0:0:0:
64,192,219719,1,0,0:0:0:0:
448,192,219787,1,0,0:0:0:0:
192,192,219855,1,0,0:0:0:0:
448,192,219924,1,0,0:0:0:0:
64,192,219992,1,0,0:0:0:0:
192,192,220060,1,0,0:0:0:0:
448,192,220128,1,0,0:0:0:0:
64,192,220196,1,0,0:0:0:0:
320,192,220264,1,0,0:0:0:0:
192,192,220333,1,0,0:0:0:0:
448,192,220333,1,0,0:0:0:0:
64,0,220333,128,0,221014:1:0:0:0:
320,192,220469,1,0,0:0:0:0:
448,192,220605,1,0,0:0:0:0:
192,192,220674,1,0,0:0:0:0:
320,192,220742,1,0,0:0:0:0:
448,192,220878,1,0,0:0:0:0:
192,192,221014,1,0,0:0:0:0:
320,0,221014,128,0,221151:1:0:0:0:
192,192,221151,1,0,0:0:0:0:
448,0,221151,128,0,221287:1:0:0:0:
64,192,221219,1,0,0:0:0:0:
320,192,221287,1,0,0:0:0:0:
192,0,221287,128,0,221424:1:0:0:0:
64,192,221424,1,0,0:0:0:0:
448,0,221424,128,0,221764:1:0:0:0:
320,192,221560,1,0,0:0:0:0:
64,192,221696,1,0,0:0:0:0:
320,192,221764,1,0,0:0:0:0:
192,0,221764,128,0,222105:1:0:0:0:
64,192,221833,1,0,0:0:0:0:
448,192,221969,1,0,0:0:0:0:
64,192,222037,1,0,0:0:0:0:
448,192,222105,1,0,0:0:0:0:
320,0,222105,128,0,222378:1:0:0:0:
64,192,222242,1,0,0:0:0:0:
192,192,222310,1,0,0:0:0:0:
64,192,222378,1,0,0:0:0:0:
448,0,222378,128,0,222514:1:0:0:0:
320,192,222514,1,0,0:0:0:0:
64,0,222514,128,0,222787:1:0:0:0:
192,192,222651,1,0,0:0:0:0:
320,192,222787,1,0,0:0:0:0:
448,0,222787,128,0,222924:1:0:0:0:
64,192,222855,1,0,0:0:0:0:
192,192,222924,1,0,0:0:0:0:
320,0,222924,128,0,223196:1:0:0:0:
64,192,223060,1,0,0:0:0:0:
448,192,223196,1,0,0:0:0:0:
192,0,223196,128,0,223333:1:0:0:0:
448,192,223333,1,0,0:0:0:0:
64,0,223333,128,0,224151:1:0:0:0:
192,192,223401,1,0,0:0:0:0:
320,192,223469,1,0,0:0:0:0:
192,192,223605,1,0,0:0:0:0:
448,192,223742,1,0,0:0:0:0:
320,192,223878,1,0,0:0:0:0:
448,192,223946,1,0,0:0:0:0:
192,192,224014,1,0,0:0:0:0:
448,192,224151,1,0,0:0:0:0:
192,192,224219,1,0,0:0:0:0:
448,192,224287,1,0,0:0:0:0:
192,192,224424,1,0,0:0:0:0:
320,192,224424,1,0,0:0:0:0:
448,192,224492,1,0,0:0:0:0:
64,192,224560,1,0,0:0:0:0:
192,192,224560,1,0,0:0:0:0:
320,192,224628,1,0,0:0:0:0:
64,192,224696,1,0,0:0:0:0:
448,192,224696,1,0,0:0:0:0:
192,192,224764,1,0,0:0:0:0:
320,192,224833,1,0,0:0:0:0:
448,192,224833,1,0,0:0:0:0:
64,192,224901,1,0,0:0:0:0:
192,192,224969,1,0,0:0:0:0:
320,192,224969,1,0,0:0:0:0:
64,192,225037,1,0,0:0:0:0:
192,192,225105,1,0,0:0:0:0:
448,192,225105,1,0,0:0:0:0:
320,192,225174,1,0,0:0:0:0:
64,192,225242,1,0,0:0:0:0:
448,192,225242,1,0,0:0:0:0:
192,192,225310,1,0,0:0:0:0:
320,192,225378,1,0,0:0:0:0:
448,192,225378,1,0,0:0:0:0:
192,192,225446,1,0,0:0:0:0:
64,192,225514,1,0,0:0:0:0:
448,192,225514,1,0,0:0:0:0:
320,192,225583,1,0,0:0:0:0:
64,192,225651,1,0,0:0:0:0:
192,192,225651,1,0,0:0:0:0:
448,192,225719,1,0,0:0:0:0:
64,192,225787,1,0,0:0:0:0:
192,192,225787,1,0,0:0:0:0:
320,192,225855,1,0,0:0:0:0:
448,192,225855,1,0,0:0:0:0:
64,192,225924,1,0,0:0:0:0:
192,192,225924,1,0,0:0:0:0:
448,192,225992,1,0,0:0:0:0:
192,192,226060,1,0,0:0:0:0:
320,192,226060,1,0,0:0:0:0:
64,192,226128,1,0,0:0:0:0:
320,192,226196,1,0,0:0:0:0:
448,192,226196,1,0,0:0:0:0:
64,192,226264,1,0,0:0:0:0:
192,192,226264,1,0,0:0:0:0:
320,192,226333,1,0,0:0:0:0:
448,192,226333,1,0,0:0:0:0:
64,192,226401,1,0,0:0:0:0:
192,192,226469,1,0,0:0:0:0:
320,192,226469,1,0,0:0:0:0:
448,192,226537,1,0,0:0:0:0:
64,192,226605,1,0,0:0:0:0:
192,192,226605,1,0,0:0:0:0:
320,192,226674,1,0,0:0:0:0:
64,192,226742,1,0,0:0:0:0:
448,192,226742,1,0,0:0:0:0:
192,192,226810,1,0,0:0:0:0:
64,192,226878,1,0,0:0:0:0:
320,192,226878,1,0,0:0:0:0:
448,192,226878,1,0,0:0:0:0:
192,192,226946,1,0,0:0:0:0:
448,192,227014,1,0,0:0:0:0:
320,192,227083,1,0,0:0:0:0:
64,192,227151,1,0,0:0:0:0:
192,192,227151,1,0,0:0:0:0:
448,192,227151,1,0,0:0:0:0:
320,192,227219,1,0,0:0:0:0:
448,192,227287,1,0,0:0:0:0:
192,192,227355,1,0,0:0:0:0:
64,192,227424,1,0,0:0:0:0:
320,192,227424,1,0,0:0:0:0:
448,192,227424,1,0,0:0:0:0:
192,192,227492,1,0,0:0:0:0:
320,192,227560,1,0,0:0:0:0:
64,192,227628,1,0,0:0:0:0:
448,192,227696,1,0,0:0:0:0:
192,192,227764,1,0,0:0:0:0:
320,192,227833,1,0,0:0:0:0:
448,192,227833,1,0,0:0:0:0:
64,192,227901,1,0,0:0:0:0:
192,192,227901,1,0,0:0:0:0:
320,192,227969,1,0,0:0:0:0:
448,192,227969,1,0,0:0:0:0:
64,192,228060,1,0,0:0:0:0:
192,192,228060,1,0,0:0:0:0:
320,192,228151,1,0,0:0:0:0:
448,192,228151,1,0,0:0:0:0:
64,192,228242,1,0,0:0:0:0:
192,192,228242,1,0,0:0:0:0:
192,192,228333,1,0,0:0:0:0:
448,192,228333,1,0,0:0:0:0:
64,192,228424,1,0,0:0:0:0:
320,192,228424,1,0,0:0:0:0:
64,192,228514,1,0,0:0:0:0:
192,192,228514,1,0,0:0:0:0:
448,192,228514,1,0,0:0:0:0:
320,192,228583,1,0,0:0:0:0:
448,192,228651,1,0,0:0:0:0:
192,192,228719,1,0,0:0:0:0:
64,192,228787,1,0,0:0:0:0:
320,192,228787,1,0,0:0:0:0:
448,192,228855,1,0,0:0:0:0:
192,192,228924,1,0,0:0:0:0:
320,192,228992,1,0,0:0:0:0:
64,192,229060,1,0,0:0:0:0:
192,192,229060,1,0,0:0:0:0:
448,192,229060,1,0,0:0:0:0:
320,192,229196,1,0,0:0:0:0:
192,192,229264,1,0,0:0:0:0:
64,192,229333,1,0,0:0:0:0:
320,192,229333,1,0,0:0:0:0:
448,192,229333,1,0,0:0:0:0:
320,192,229469,1,0,0:0:0:0:
64,192,229537,1,0,0:0:0:0:
192,192,229605,1,0,0:0:0:0:
320,192,229605,1,0,0:0:0:0:
448,192,229605,1,0,0:0:0:0:
64,192,229674,1,0,0:0:0:0:
320,192,229742,1,0,0:0:0:0:
192,192,229810,1,0,0:0:0:0:
64,192,229878,1,0,0:0:0:0:
320,192,229878,1,0,0:0:0:0:
448,192,229878,1,0,0:0:0:0:
192,192,230014,1,0,0:0:0:0:
448,192,230083,1,0,0:0:0:0:
64,192,230151,1,0,0:0:0:0:
192,192,230151,1,0,0:0:0:0:
320,192,230151,1,0,0:0:0:0:
448,192,230287,1,0,0:0:0:0:
192,192,230355,1,0,0:0:0:0:
64,192,230424,1,0,0:0:0:0:
320,192,230424,1,0,0:0:0:0:
448,192,230424,1,0,0:0:0:0:
192,192,230560,1,0,0:0:0:0:
64,192,230696,1,0,0:0:0:0:
320,192,230696,1,0,0:0:0:0:
448,192,230696,1,0,0:0:0:0:
192,192,230833,1,0,0:0:0:0:
448,192,230901,1,0,0:0:0:0:
64,192,230969,1,0,0:0:0:0:
192,192,230969,1,0,0:0:0:0:
320,192,230969,1,0,0:0:0:0:
448,192,231037,1,0,0:0:0:0:
64,192,231105,1,0,0:0:0:0:
192,192,231174,1,0,0:0:0:0:
64,192,231242,1,0,0:0:0:0:
320,192,231242,1,0,0:0:0:0:
448,192,231242,1,0,0:0:0:0:
320,192,231378,1,0,0:0:0:0:
192,192,231446,1,0,0:0:0:0:
64,192,231514,1,0,0:0:0:0:
320,192,231514,1,0,0:0:0:0:
448,192,231514,1,0,0:0:0:0:
64,192,231651,1,0,0:0:0:0:
448,192,231719,1,0,0:0:0:0:
64,192,231787,1,0,0:0:0:0:
192,192,231787,1,0,0:0:0:0:
320,192,231787,1,0,0:0:0:0:
448,192,231924,1,0,0:0:0:0:
320,192,231992,1,0,0:0:0:0:
64,192,232060,1,0,0:0:0:0:
192,192,232060,1,0,0:0:0:0:
448,192,232060,1,0,0:0:0:0:
320,192,232196,1,0,0:0:0:0:
192,192,232264,1,0,0:0:0:0:
64,192,232333,1,0,0:0:0:0:
320,192,232333,1,0,0:0:0:0:
448,192,232333,1,0,0:0:0:0:
192,192,232401,1,0,0:0:0:0:
320,192,232469,1,0,0:0:0:0:
64,192,232537,1,0,0:0:0:0:
192,192,232605,1,0,0:0:0:0:
320,192,232605,1,0,0:0:0:0:
448,192,232605,1,0,0:0:0:0:
64,192,232674,1,0,0:0:0:0:
448,192,232742,1,0,0:0:0:0:
320,192,232810,1,0,0:0:0:0:
64,192,232878,1,0,0:0:0:0:
192,192,232878,1,0,0:0:0:0:
448,192,232878,1,0,0:0:0:0:
320,192,232946,1,0,0:0:0:0:
192,192,233014,1,0,0:0:0:0:
448,192,233083,1,0,0:0:0:0:
64,192,233151,1,0,0:0:0:0:
192,192,233151,1,0,0:0:0:0:
320,192,233151,1,0,0:0:0:0:
448,192,233219,1,0,0:0:0:0:
192,192,233287,1,0,0:0:0:0:
320,192,233355,1,0,0:0:0:0:
64,192,233424,1,0,0:0:0:0:
192,192,233424,1,0,0:0:0:0:
448,192,233424,1,0,0:0:0:0:
192,192,233560,1,0,0:0:0:0:
320,192,233560,1,0,0:0:0:0:
64,192,233628,1,0,0:0:0:0:
320,192,233696,1,0,0:0:0:0:
448,192,233696,1,0,0:0:0:0:
64,192,233833,1,0,0:0:0:0:
192,192,233833,1,0,0:0:0:0:
448,192,233901,1,0,0:0:0:0:
64,192,233969,1,0,0:0:0:0:
320,192,233969,1,0,0:0:0:0:
64,192,234105,1,0,0:0:0:0:
192,192,234105,1,0,0:0:0:0:
320,192,234174,1,0,0:0:0:0:
192,192,234242,1,0,0:0:0:0:
448,192,234242,1,0,0:0:0:0:
64,192,234378,1,0,0:0:0:0:
320,192,234378,1,0,0:0:0:0:
192,192,234446,1,0,0:0:0:0:
320,192,234514,1,0,0:0:0:0:
448,192,234514,1,0,0:0:0:0:
192,192,234583,1,0,0:0:0:0:
64,192,234651,1,0,0:0:0:0:
320,192,234651,1,0,0:0:0:0:
448,192,234719,1,0,0:0:0:0:
64,192,234787,1,0,0:0:0:0:
192,192,234787,1,0,0:0:0:0:
320,192,234855,1,0,0:0:0:0:
64,192,234924,1,0,0:0:0:0:
448,192,234924,1,0,0:0:0:0:
192,192,234992,1,0,0:0:0:0:
64,192,235060,1,0,0:0:0:0:
320,192,235060,1,0,0:0:0:0:
448,192,235128,1,0,0:0:0:0:
192,192,235196,1,0,0:0:0:0:
320,192,235196,1,0,0:0:0:0:
64,192,235264,1,0,0:0:0:0:
320,192,235333,1,0,0:0:0:0:
448,192,235333,1,0,0:0:0:0:
192,192,235401,1,0,0:0:0:0:
448,192,235469,1,0,0:0:0:0:
320,192,235537,1,0,0:0:0:0:
64,192,235605,1,0,0:0:0:0:
448,192,235605,1,0,0:0:0:0:
192,192,235674,1,0,0:0:0:0:
320,192,235742,1,0,0:0:0:0:
64,192,235810,1,0,0:0:0:0:
448,192,235810,1,0,0:0:0:0:
192,192,235878,1,0,0:0:0:0:
320,192,235878,1,0,0:0:0:0:
448,192,235946,1,0,0:0:0:0:
64,192,236014,1,0,0:0:0:0:
192,192,236014,1,0,0:0:0:0:
320,192,236083,1,0,0:0:0:0:
64,192,236151,1,0,0:0:0:0:
448,192,236151,1,0,0:0:0:0:
192,192,236219,1,0,0:0:0:0:
320,192,236287,1,0,0:0:0:0:
448,192,236287,1,0,0:0:0:0:
64,192,236355,1,0,0:0:0:0:
192,192,236424,1,0,0:0:0:0:
448,192,236424,1,0,0:0:0:0:
320,192,236492,1,0,0:0:0:0:
448,192,236560,1,0,0:0:0:0:
192,192,236628,1,0,0:0:0:0:
64,192,236696,1,0,0:0:0:0:
320,192,236696,1,0,0:0:0:0:
448,192,236696,1,0,0:0:0:0:
64,192,236833,1,0,0:0:0:0:
320,192,236833,1,0,0:0:0:0:
448,192,236833,1,0,0:0:0:0:
192,0,237242,128,0,237514:1:0:0:0:
320,0,237514,128,0,237787:1:0:0:0:
64,192,237787,1,0,0:0:0:0:
192,192,237787,1,0,0:0:0:0:
448,192,237787,1,0,0:0:0:0:
320,192,237855,1,0,0:0:0:0:
64,192,237924,1,0,0:0:0:0:
448,192,237924,1,0,0:0:0:0:
192,192,237992,1,0,0:0:0:0:
320,192,238060,1,0,0:0:0:0:
448,192,238128,1,0,0:0:0:0:
192,192,238196,1,0,0:0:0:0:
64,192,238264,1,0,0:0:0:0:
448,192,238333,1,0,0:0:0:0:
192,192,238401,1,0,0:0:0:0:
448,192,238469,1,0,0:0:0:0:
320,192,238537,1,0,0:0:0:0:
64,192,238605,1,0,0:0:0:0:
320,192,238674,1,0,0:0:0:0:
64,192,238742,1,0,0:0:0:0:
192,192,238810,1,0,0:0:0:0:
64,192,238878,1,0,0:0:0:0:
320,192,238878,1,0,0:0:0:0:
448,192,238878,1,0,0:0:0:0:
64,192,239014,1,0,0:0:0:0:
192,192,239014,1,0,0:0:0:0:
320,192,239151,1,0,0:0:0:0:
448,192,239151,1,0,0:0:0:0:
64,192,239219,1,0,0:0:0:0:
192,192,239287,1,0,0:0:0:0:
448,192,239287,1,0,0:0:0:0:
320,192,239424,1,0,0:0:0:0:
448,192,239424,1,0,0:0:0:0:
64,192,239560,1,0,0:0:0:0:
192,192,239560,1,0,0:0:0:0:
64,192,239696,1,0,0:0:0:0:
448,192,239696,1,0,0:0:0:0:
320,192,239764,1,0,0:0:0:0:
64,192,239833,1,0,0:0:0:0:
192,192,239833,1,0,0:0:0:0:
192,192,239969,1,0,0:0:0:0:
448,192,239969,1,0,0:0:0:0:
64,192,240105,1,0,0:0:0:0:
320,192,240105,1,0,0:0:0:0:
320,192,240242,1,0,0:0:0:0:
448,192,240242,1,0,0:0:0:0:
64,192,240310,1,0,0:0:0:0:
192,192,240378,1,0,0:0:0:0:
448,192,240378,1,0,0:0:0:0:
64,192,240514,1,0,0:0:0:0:
448,192,240514,1,0,0:0:0:0:
320,192,240583,1,0,0:0:0:0:
192,192,240651,1,0,0:0:0:0:
448,192,240651,1,0,0:0:0:0:
64,192,240787,1,0,0:0:0:0:
320,192,240787,1,0,0:0:0:0:
448,192,240855,1,0,0:0:0:0:
64,192,240924,1,0,0:0:0:0:
192,192,240924,1,0,0:0:0:0:
192,192,241060,1,0,0:0:0:0:
320,192,241060,1,0,0:0:0:0:
64,192,241196,1,0,0:0:0:0:
448,192,241196,1,0,0:0:0:0:
192,192,241333,1,0,0:0:0:0:
320,192,241333,1,0,0:0:0:0:
448,192,241401,1,0,0:0:0:0:
64,192,241469,1,0,0:0:0:0:
192,192,241469,1,0,0:0:0:0:
320,192,241605,1,0,0:0:0:0:
448,192,241605,1,0,0:0:0:0:
64,192,241674,1,0,0:0:0:0:
192,192,241742,1,0,0:0:0:0:
448,192,241742,1,0,0:0:0:0:
64,192,241878,1,0,0:0:0:0:
320,192,241878,1,0,0:0:0:0:
192,192,241946,1,0,0:0:0:0:
320,192,242014,1,0,0:0:0:0:
448,192,242014,1,0,0:0:0:0:
192,192,242083,1,0,0:0:0:0:
64,192,242151,1,0,0:0:0:0:
448,0,242151,128,0,242424:1:0:0:0:
320,192,242219,1,0,0:0:0:0:
64,192,242287,1,0,0:0:0:0:
192,192,242355,1,0,0:0:0:0:
64,192,242424,1,0,0:0:0:0:
320,0,242424,128,0,242696:1:0:0:0:
192,192,242492,1,0,0:0:0:0:
448,192,242560,1,0,0:0:0:0:
64,192,242628,1,0,0:0:0:0:
448,192,242696,1,0,0:0:0:0:
192,0,242696,128,0,242969:1:0:0:0:
64,192,242764,1,0,0:0:0:0:
448,192,242833,1,0,0:0:0:0:
320,192,242901,1,0,0:0:0:0:
448,192,242969,1,0,0:0:0:0:
64,0,242969,128,0,243174:1:0:0:0:
192,192,243037,1,0,0:0:0:0:
448,192,243105,1,0,0:0:0:0:
320,192,243174,1,0,0:0:0:0:
64,192,243242,1,0,0:0:0:0:
192,192,243242,1,0,0:0:0:0:
448,192,243242,1,0,0:0:0:0:
64,192,243378,1,0,0:0:0:0:
192,192,243378,1,0,0:0:0:0:
320,192,243514,1,0,0:0:0:0:
448,192,243514,1,0,0:0:0:0:
64,192,243583,1,0,0:0:0:0:
192,192,243651,1,0,0:0:0:0:
320,192,243651,1,0,0:0:0:0:
64,192,243787,1,0,0:0:0:0:
192,192,243787,1,0,0:0:0:0:
320,192,243924,1,0,0:0:0:0:
448,192,243924,1,0,0:0:0:0:
64,192,244060,1,0,0:0:0:0:
192,192,244060,1,0,0:0:0:0:
448,192,244128,1,0,0:0:0:0:
192,192,244196,1,0,0:0:0:0:
320,192,244196,1,0,0:0:0:0:
64,192,244333,1,0,0:0:0:0:
448,192,244333,1,0,0:0:0:0:
64,192,244469,1,0,0:0:0:0:
192,192,244469,1,0,0:0:0:0:
192,192,244605,1,0,0:0:0:0:
448,192,244605,1,0,0:0:0:0:
64,192,244674,1,0,0:0:0:0:
320,192,244742,1,0,0:0:0:0:
448,192,244742,1,0,0:0:0:0:
64,192,244878,1,0,0:0:0:0:
192,192,244878,1,0,0:0:0:0:
64,192,245014,1,0,0:0:0:0:
448,192,245014,1,0,0:0:0:0:
192,192,245151,1,0,0:0:0:0:
448,192,245151,1,0,0:0:0:0:
320,192,245219,1,0,0:0:0:0:
64,192,245287,1,0,0:0:0:0:
448,192,245287,1,0,0:0:0:0:
192,192,245424,1,0,0:0:0:0:
320,192,245424,1,0,0:0:0:0:
448,192,245424,1,0,0:0:0:0:
64,192,245492,1,0,0:0:0:0:
320,192,245560,1,0,0:0:0:0:
448,192,245560,1,0,0:0:0:0:
192,192,245628,1,0,0:0:0:0:
64,192,245696,1,0,0:0:0:0:
448,192,245696,1,0,0:0:0:0:
320,192,245764,1,0,0:0:0:0:
192,192,245833,1,0,0:0:0:0:
448,192,245833,1,0,0:0:0:0:
320,192,245901,1,0,0:0:0:0:
64,192,245969,1,0,0:0:0:0:
448,192,245969,1,0,0:0:0:0:
192,192,246037,1,0,0:0:0:0:
320,192,246105,1,0,0:0:0:0:
448,192,246105,1,0,0:0:0:0:
64,192,246174,1,0,0:0:0:0:
192,192,246242,1,0,0:0:0:0:
448,192,246242,1,0,0:0:0:0:
64,192,246310,1,0,0:0:0:0:
192,192,246378,1,0,0:0:0:0:
320,192,246378,1,0,0:0:0:0:
448,192,246446,1,0,0:0:0:0:
64,192,246514,1,0,0:0:0:0:
320,192,246514,1,0,0:0:0:0:
192,192,246583,1,0,0:0:0:0:
448,192,246583,1,0,0:0:0:0:
64,192,246651,1,0,0:0:0:0:
320,192,246651,1,0,0:0:0:0:
192,192,246719,1,0,0:0:0:0:
320,192,246787,1,0,0:0:0:0:
448,192,246787,1,0,0:0:0:0:
64,192,246855,1,0,0:0:0:0:
448,192,246924,1,0,0:0:0:0:
320,192,246992,1,0,0:0:0:0:
192,192,247060,1,0,0:0:0:0:
448,192,247060,1,0,0:0:0:0:
64,192,247128,1,0,0:0:0:0:
448,192,247196,1,0,0:0:0:0:
320,192,247264,1,0,0:0:0:0:
64,192,247333,1,0,0:0:0:0:
448,192,247333,1,0,0:0:0:0:
192,192,247401,1,0,0:0:0:0:
448,192,247469,1,0,0:0:0:0:
320,192,247537,1,0,0:0:0:0:
64,192,247605,1,0,0:0:0:0:
192,192,247605,1,0,0:0:0:0:
448,192,247605,1,0,0:0:0:0:
64,192,247742,1,0,0:0:0:0:
192,192,247742,1,0,0:0:0:0:
320,192,247878,1,0,0:0:0:0:
448,192,247878,1,0,0:0:0:0:
64,192,247946,1,0,0:0:0:0:
192,192,248014,1,0,0:0:0:0:
448,192,248014,1,0,0:0:0:0:
320,192,248151,1,0,0:0:0:0:
448,192,248151,1,0,0:0:0:0:
64,192,248287,1,0,0:0:0:0:
192,192,248287,1,0,0:0:0:0:
64,192,248424,1,0,0:0:0:0:
448,192,248424,1,0,0:0:0:0:
320,192,248492,1,0,0:0:0:0:
64,192,248560,1,0,0:0:0:0:
192,192,248560,1,0,0:0:0:0:
192,192,248696,1,0,0:0:0:0:
448,192,248696,1,0,0:0:0:0:
64,192,248833,1,0,0:0:0:0:
320,192,248833,1,0,0:0:0:0:
320,192,248969,1,0,0:0:0:0:
448,192,248969,1,0,0:0:0:0:
64,192,249037,1,0,0:0:0:0:
192,192,249105,1,0,0:0:0:0:
448,192,249105,1,0,0:0:0:0:
64,192,249242,1,0,0:0:0:0:
448,192,249242,1,0,0:0:0:0:
320,192,249310,1,0,0:0:0:0:
192,192,249378,1,0,0:0:0:0:
448,192,249378,1,0,0:0:0:0:
64,192,249514,1,0,0:0:0:0:
320,192,249514,1,0,0:0:0:0:
448,192,249583,1,0,0:0:0:0:
64,192,249651,1,0,0:0:0:0:
192,192,249651,1,0,0:0:0:0:
192,192,249787,1,0,0:0:0:0:
320,192,249787,1,0,0:0:0:0:
64,192,249924,1,0,0:0:0:0:
448,192,249924,1,0,0:0:0:0:
192,192,250060,1,0,0:0:0:0:
320,192,250060,1,0,0:0:0:0:
448,192,250128,1,0,0:0:0:0:
64,192,250196,1,0,0:0:0:0:
192,192,250196,1,0,0:0:0:0:
320,192,250333,1,0,0:0:0:0:
448,192,250333,1,0,0:0:0:0:
64,192,250401,1,0,0:0:0:0:
192,192,250469,1,0,0:0:0:0:
448,192,250469,1,0,0:0:0:0:
320,192,250605,1,0,0:0:0:0:
448,192,250605,1,0,0:0:0:0:
64,192,250674,1,0,0:0:0:0:
192,192,250742,1,0,0:0:0:0:
320,192,250742,1,0,0:0:0:0:
64,192,250878,1,0,0:0:0:0:
192,192,250878,1,0,0:0:0:0:
448,0,250878,128,0,251151:1:0:0:0:
320,192,251014,1,0,0:0:0:0:
64,192,251151,1,0,0:0:0:0:
192,192,251151,1,0,0:0:0:0:
320,0,251151,128,0,251424:1:0:0:0:
448,192,251219,1,0,0:0:0:0:
64,192,251287,1,0,0:0:0:0:
64,192,251424,1,0,0:0:0:0:
448,192,251424,1,0,0:0:0:0:
192,0,251424,128,0,251696:1:0:0:0:
320,192,251492,1,0,0:0:0:0:
448,192,251560,1,0,0:0:0:0:
320,192,251696,1,0,0:0:0:0:
448,192,251696,1,0,0:0:0:0:
64,0,251696,128,0,251901:1:0:0:0:
448,192,251833,1,0,0:0:0:0:
320,192,251901,1,0,0:0:0:0:
64,192,251969,1,0,0:0:0:0:
192,192,251969,1,0,0:0:0:0:
448,192,251969,1,0,0:0:0:0:
64,192,252105,1,0,0:0:0:0:
192,192,252105,1,0,0:0:0:0:
320,192,252242,1,0,0:0:0:0:
448,192,252242,1,0,0:0:0:0:
64,192,252310,1,0,0:0:0:0:
192,192,252378,1,0,0:0:0:0:
320,192,252378,1,0,0:0:0:0:
64,192,252514,1,0,0:0:0:0:
192,192,252514,1,0,0:0:0:0:
320,192,252651,1,0,0:0:0:0:
448,192,252651,1,0,0:0:0:0:
64,192,252787,1,0,0:0:0:0:
192,192,252787,1,0,0:0:0:0:
448,192,252855,1,0,0:0:0:0:
192,192,252924,1,0,0:0:0:0:
320,192,252924,1,0,0:0:0:0:
64,192,253060,1,0,0:0:0:0:
448,192,253060,1,0,0:0:0:0:
64,192,253196,1,0,0:0:0:0:
192,192,253196,1,0,0:0:0:0:
192,192,253333,1,0,0:0:0:0:
448,192,253333,1,0,0:0:0:0:
64,192,253401,1,0,0:0:0:0:
320,192,253469,1,0,0:0:0:0:
448,192,253469,1,0,0:0:0:0:
64,192,253605,1,0,0:0:0:0:
192,192,253605,1,0,0:0:0:0:
320,192,253674,1,0,0:0:0:0:
64,192,253742,1,0,0:0:0:0:
448,192,253742,1,0,0:0:0:0:
64,192,253878,1,0,0:0:0:0:
192,192,253878,1,0,0:0:0:0:
448,192,253878,1,0,0:0:0:0:
320,192,253946,1,0,0:0:0:0:
64,192,254014,1,0,0:0:0:0:
448,192,254014,1,0,0:0:0:0:
192,192,254151,1,0,0:0:0:0:
320,192,254151,1,0,0:0:0:0:
448,192,254151,1,0,0:0:0:0:
64,192,254219,1,0,0:0:0:0:
320,192,254287,1,0,0:0:0:0:
448,192,254287,1,0,0:0:0:0:
192,192,254355,1,0,0:0:0:0:
64,192,254424,1,0,0:0:0:0:
448,192,254424,1,0,0:0:0:0:
192,192,254492,1,0,0:0:0:0:
64,192,254560,1,0,0:0:0:0:
320,192,254560,1,0,0:0:0:0:
448,192,254628,1,0,0:0:0:0:
64,192,254696,1,0,0:0:0:0:
192,192,254696,1,0,0:0:0:0:
320,192,254764,1,0,0:0:0:0:
192,192,254833,1,0,0:0:0:0:
448,192,254833,1,0,0:0:0:0:
64,192,254901,1,0,0:0:0:0:
320,192,254969,1,0,0:0:0:0:
448,192,254969,1,0,0:0:0:0:
192,192,255037,1,0,0:0:0:0:
64,192,255105,1,0,0:0:0:0:
320,192,255105,1,0,0:0:0:0:
448,192,255174,1,0,0:0:0:0:
64,192,255242,1,0,0:0:0:0:
192,192,255242,1,0,0:0:0:0:
320,192,255242,1,0,0:0:0:0:
64,192,255378,1,0,0:0:0:0:
192,192,255378,1,0,0:0:0:0:
320,192,255378,1,0,0:0:0:0:
192,192,255514,1,0,0:0:0:0:
448,192,255514,1,0,0:0:0:0:
64,192,255583,1,0,0:0:0:0:
192,192,255651,1,0,0:0:0:0:
320,192,255651,1,0,0:0:0:0:
64,192,255787,1,0,0:0:0:0:
320,192,255787,1,0,0:0:0:0:
448,192,255787,1,0,0:0:0:0:
320,192,255924,1,0,0:0:0:0:
192,192,255992,1,0,0:0:0:0:
64,192,256060,1,0,0:0:0:0:
320,192,256060,1,0,0:0:0:0:
448,192,256060,1,0,0:0:0:0:
192,192,256196,1,0,0:0:0:0:
320,192,256264,1,0,0:0:0:0:
64,192,256333,1,0,0:0:0:0:
192,192,256333,1,0,0:0:0:0:
448,192,256333,1,0,0:0:0:0:
64,192,256469,1,0,0:0:0:0:
192,192,256469,1,0,0:0:0:0:
320,192,256605,1,0,0:0:0:0:
448,192,256605,1,0,0:0:0:0:
64,192,256674,1,0,0:0:0:0:
192,192,256742,1,0,0:0:0:0:
448,192,256742,1,0,0:0:0:0:
320,192,256878,1,0,0:0:0:0:
448,192,256878,1,0,0:0:0:0:
64,192,257014,1,0,0:0:0:0:
192,192,257014,1,0,0:0:0:0:
64,192,257151,1,0,0:0:0:0:
448,192,257151,1,0,0:0:0:0:
320,192,257219,1,0,0:0:0:0:
64,192,257287,1,0,0:0:0:0:
192,192,257287,1,0,0:0:0:0:
192,192,257424,1,0,0:0:0:0:
448,192,257424,1,0,0:0:0:0:
64,192,257560,1,0,0:0:0:0:
320,192,257560,1,0,0:0:0:0:
320,192,257696,1,0,0:0:0:0:
448,192,257696,1,0,0:0:0:0:
64,192,257764,1,0,0:0:0:0:
192,192,257833,1,0,0:0:0:0:
448,192,257833,1,0,0:0:0:0:
64,192,257969,1,0,0:0:0:0:
448,192,257969,1,0,0:0:0:0:
320,192,258037,1,0,0:0:0:0:
192,192,258105,1,0,0:0:0:0:
448,192,258105,1,0,0:0:0:0:
64,192,258242,1,0,0:0:0:0:
320,192,258242,1,0,0:0:0:0:
448,192,258310,1,0,0:0:0:0:
64,192,258378,1,0,0:0:0:0:
192,192,258378,1,0,0:0:0:0:
192,192,258514,1,0,0:0:0:0:
320,192,258514,1,0,0:0:0:0:
64,192,258651,1,0,0:0:0:0:
448,192,258651,1,0,0:0:0:0:
192,192,258787,1,0,0:0:0:0:
320,192,258787,1,0,0:0:0:0:
448,192,258855,1,0,0:0:0:0:
64,192,258924,1,0,0:0:0:0:
192,192,258924,1,0,0:0:0:0:
320,192,259060,1,0,0:0:0:0:
448,192,259060,1,0,0:0:0:0:
64,192,259128,1,0,0:0:0:0:
192,192,259196,1,0,0:0:0:0:
448,192,259196,1,0,0:0:0:0:
320,192,259333,1,0,0:0:0:0:
448,192,259333,1,0,0:0:0:0:
64,192,259401,1,0,0:0:0:0:
192,192,259469,1,0,0:0:0:0:
320,192,259469,1,0,0:0:0:0:
64,192,259605,1,0,0:0:0:0:
192,192,259605,1,0,0:0:0:0:
448,0,259605,128,0,259878:1:0:0:0:
320,192,259742,1,0,0:0:0:0:
64,192,259878,1,0,0:0:0:0:
192,192,259878,1,0,0:0:0:0:
320,0,259878,128,0,260151:1:0:0:0:
448,192,260014,1,0,0:0:0:0:
64,192,260151,1,0,0:0:0:0:
448,192,260151,1,0,0:0:0:0:
192,0,260151,128,0,260424:1:0:0:0:
448,192,260287,1,0,0:0:0:0:
320,192,260355,1,0,0:0:0:0:
448,192,260424,1,0,0:0:0:0:
64,0,260424,128,0,260628:1:0:0:0:
192,192,260492,1,0,0:0:0:0:
448,192,260560,1,0,0:0:0:0:
320,192,260628,1,0,0:0:0:0:
64,192,260696,1,0,0:0:0:0:
192,192,260696,1,0,0:0:0:0:
448,192,260696,1,0,0:0:0:0:
64,192,260833,1,0,0:0:0:0:
192,192,260833,1,0,0:0:0:0:
320,192,260969,1,0,0:0:0:0:
448,192,260969,1,0,0:0:0:0:
64,192,261037,1,0,0:0:0:0:
192,192,261105,1,0,0:0:0:0:
320,192,261105,1,0,0:0:0:0:
64,192,261242,1,0,0:0:0:0:
192,192,261242,1,0,0:0:0:0:
320,192,261378,1,0,0:0:0:0:
448,192,261378,1,0,0:0:0:0:
64,192,261514,1,0,0:0:0:0:
192,192,261514,1,0,0:0:0:0:
448,192,261583,1,0,0:0:0:0:
192,192,261651,1,0,0:0:0:0:
320,192,261651,1,0,0:0:0:0:
64,192,261787,1,0,0:0:0:0:
448,192,261787,1,0,0:0:0:0:
64,192,261924,1,0,0:0:0:0:
192,192,261924,1,0,0:0:0:0:
192,192,262060,1,0,0:0:0:0:
448,192,262060,1,0,0:0:0:0:
64,192,262128,1,0,0:0:0:0:
320,192,262196,1,0,0:0:0:0:
448,192,262196,1,0,0:0:0:0:
64,192,262333,1,0,0:0:0:0:
192,192,262333,1,0,0:0:0:0:
64,192,262469,1,0,0:0:0:0:
448,192,262469,1,0,0:0:0:0:
192,192,262605,1,0,0:0:0:0:
448,192,262605,1,0,0:0:0:0:
320,192,262674,1,0,0:0:0:0:
64,192,262742,1,0,0:0:0:0:
448,192,262742,1,0,0:0:0:0:
192,192,262878,1,0,0:0:0:0:
320,192,262878,1,0,0:0:0:0:
448,192,262878,1,0,0:0:0:0:
64,192,262946,1,0,0:0:0:0:
320,192,263014,1,0,0:0:0:0:
448,192,263014,1,0,0:0:0:0:
192,192,263083,1,0,0:0:0:0:
64,192,263151,1,0,0:0:0:0:
448,192,263151,1,0,0:0:0:0:
320,192,263219,1,0,0:0:0:0:
192,192,263287,1,0,0:0:0:0:
448,192,263287,1,0,0:0:0:0:
320,192,263355,1,0,0:0:0:0:
64,192,263424,1,0,0:0:0:0:
448,192,263424,1,0,0:0:0:0:
192,192,263492,1,0,0:0:0:0:
320,192,263560,1,0,0:0:0:0:
448,192,263560,1,0,0:0:0:0:
64,192,263628,1,0,0:0:0:0:
192,192,263696,1,0,0:0:0:0:
448,192,263696,1,0,0:0:0:0:
64,192,263764,1,0,0:0:0:0:
192,192,263833,1,0,0:0:0:0:
320,192,263833,1,0,0:0:0:0:
448,192,263901,1,0,0:0:0:0:
64,192,263969,1,0,0:0:0:0:
320,192,263969,1,0,0:0:0:0:
192,192,264037,1,0,0:0:0:0:
448,192,264037,1,0,0:0:0:0:
64,192,264105,1,0,0:0:0:0:
320,192,264105,1,0,0:0:0:0:
192,192,264174,1,0,0:0:0:0:
320,192,264242,1,0,0:0:0:0:
448,192,264242,1,0,0:0:0:0:
64,192,264310,1,0,0:0:0:0:
448,192,264378,1,0,0:0:0:0:
320,192,264446,1,0,0:0:0:0:
192,192,264514,1,0,0:0:0:0:
448,192,264514,1,0,0:0:0:0:
64,192,264583,1,0,0:0:0:0:
320,192,264583,1,0,0:0:0:0:
192,192,264651,1,0,0:0:0:0:
448,192,264651,1,0,0:0:0:0:
320,192,264719,1,0,0:0:0:0:
64,192,264787,1,0,0:0:0:0:
448,192,264787,1,0,0:0:0:0:
192,192,264855,1,0,0:0:0:0:
448,192,264924,1,0,0:0:0:0:
320,192,264992,1,0,0:0:0:0:
64,192,265060,1,0,0:0:0:0:
192,192,265060,1,0,0:0:0:0:
448,192,265060,1,0,0:0:0:0:
64,192,265196,1,0,0:0:0:0:
192,192,265196,1,0,0:0:0:0:
320,192,265333,1,0,0:0:0:0:
448,192,265333,1,0,0:0:0:0:
64,192,265401,1,0,0:0:0:0:
192,192,265469,1,0,0:0:0:0:
448,192,265469,1,0,0:0:0:0:
320,192,265605,1,0,0:0:0:0:
448,192,265605,1,0,0:0:0:0:
64,192,265742,1,0,0:0:0:0:
192,192,265742,1,0,0:0:0:0:
64,192,265878,1,0,0:0:0:0:
448,192,265878,1,0,0:0:0:0:
320,192,265946,1,0,0:0:0:0:
64,192,266014,1,0,0:0:0:0:
192,192,266014,1,0,0:0:0:0:
192,192,266151,1,0,0:0:0:0:
448,192,266151,1,0,0:0:0:0:
64,192,266287,1,0,0:0:0:0:
320,192,266287,1,0,0:0:0:0:
320,192,266424,1,0,0:0:0:0:
448,192,266424,1,0,0:0:0:0:
64,192,266492,1,0,0:0:0:0:
192,192,266560,1,0,0:0:0:0:
448,192,266560,1,0,0:0:0:0:
64,192,266696,1,0,0:0:0:0:
448,192,266696,1,0,0:0:0:0:
320,192,266764,1,0,0:0:0:0:
192,192,266833,1,0,0:0:0:0:
448,192,266833,1,0,0:0:0:0:
64,192,266969,1,0,0:0:0:0:
320,192,266969,1,0,0:0:0:0:
448,192,267037,1,0,0:0:0:0:
64,192,267105,1,0,0:0:0:0:
192,192,267105,1,0,0:0:0:0:
192,192,267242,1,0,0:0:0:0:
320,192,267242,1,0,0:0:0:0:
64,192,267378,1,0,0:0:0:0:
448,192,267378,1,0,0:0:0:0:
192,192,267514,1,0,0:0:0:0:
320,192,267514,1,0,0:0:0:0:
448,192,267583,1,0,0:0:0:0:
64,192,267651,1,0,0:0:0:0:
192,192,267651,1,0,0:0:0:0:
320,192,267787,1,0,0:0:0:0:
448,192,267787,1,0,0:0:0:0:
64,192,267855,1,0,0:0:0:0:
192,192,267924,1,0,0:0:0:0:
448,192,267924,1,0,0:0:0:0:
320,192,268060,1,0,0:0:0:0:
448,192,268060,1,0,0:0:0:0:
64,192,268128,1,0,0:0:0:0:
192,192,268128,1,0,0:0:0:0:
320,192,268196,1,0,0:0:0:0:
448,192,268196,1,0,0:0:0:0:
64,192,268264,1,0,0:0:0:0:
192,192,268264,1,0,0:0:0:0:
320,192,268333,1,0,0:0:0:0:
448,0,268333,128,0,268605:1:0:0:0:
64,192,268401,1,0,0:0:0:0:
320,192,268469,1,0,0:0:0:0:
192,192,268537,1,0,0:0:0:0:
64,192,268605,1,0,0:0:0:0:
320,0,268605,128,0,268878:1:0:0:0:
448,192,268674,1,0,0:0:0:0:
192,192,268742,1,0,0:0:0:0:
448,192,268810,1,0,0:0:0:0:
64,192,268878,1,0,0:0:0:0:
192,0,268878,128,0,269151:1:0:0:0:
320,192,268946,1,0,0:0:0:0:
448,192,269014,1,0,0:0:0:0:
320,192,269083,1,0,0:0:0:0:
448,192,269151,1,0,0:0:0:0:
64,0,269151,128,0,269355:1:0:0:0:
192,192,269219,1,0,0:0:0:0:
448,192,269287,1,0,0:0:0:0:
320,192,269355,1,0,0:0:0:0:
64,192,269424,1,0,0:0:0:0:
192,192,269424,1,0,0:0:0:0:
448,192,269424,1,0,0:0:0:0:
320,192,269492,1,0,0:0:0:0:
448,192,269560,1,0,0:0:0:0:
192,192,269628,1,0,0:0:0:0:
64,192,269696,1,0,0:0:0:0:
320,192,269696,1,0,0:0:0:0:
448,192,269696,1,0,0:0:0:0:
192,192,269764,1,0,0:0:0:0:
320,192,269833,1,0,0:0:0:0:
448,192,269901,1,0,0:0:0:0:
64,192,269969,1,0,0:0:0:0:
192,192,269969,1,0,0:0:0:0:
320,192,269969,1,0,0:0:0:0:
448,192,270037,1,0,0:0:0:0:
64,192,270105,1,0,0:0:0:0:
192,192,270174,1,0,0:0:0:0:
64,192,270242,1,0,0:0:0:0:
320,192,270242,1,0,0:0:0:0:
448,192,270242,1,0,0:0:0:0:
192,192,270310,1,0,0:0:0:0:
64,192,270378,1,0,0:0:0:0:
320,192,270446,1,0,0:0:0:0:
64,192,270514,1,0,0:0:0:0:
192,192,270514,1,0,0:0:0:0:
448,192,270514,1,0,0:0:0:0:
320,192,270583,1,0,0:0:0:0:
448,192,270651,1,0,0:0:0:0:
192,192,270719,1,0,0:0:0:0:
64,192,270787,1,0,0:0:0:0:
320,192,270787,1,0,0:0:0:0:
448,192,270787,1,0,0:0:0:0:
192,192,270855,1,0,0:0:0:0:
64,192,270924,1,0,0:0:0:0:
448,192,270992,1,0,0:0:0:0:
64,192,271060,1,0,0:0:0:0:
192,192,271060,1,0,0:0:0:0:
320,192,271060,1,0,0:0:0:0:
448,192,271128,1,0,0:0:0:0:
64,192,271196,1,0,0:0:0:0:
192,192,271264,1,0,0:0:0:0:
64,192,271333,1,0,0:0:0:0:
320,192,271333,1,0,0:0:0:0:
448,192,271333,1,0,0:0:0:0:
192,192,271401,1,0,0:0:0:0:
448,192,271469,1,0,0:0:0:0:
320,192,271537,1,0,0:0:0:0:
64,192,271605,1,0,0:0:0:0:
192,192,271605,1,0,0:0:0:0:
448,192,271605,1,0,0:0:0:0:
320,192,271674,1,0,0:0:0:0:
448,192,271742,1,0,0:0:0:0:
64,192,271810,1,0,0:0:0:0:
320,192,271878,1,0,0:0:0:0:
192,192,271946,1,0,0:0:0:0:
64,192,272014,1,0,0:0:0:0:
320,192,272014,1,0,0:0:0:0:
448,192,272014,1,0,0:0:0:0:
192,192,272083,1,0,0:0:0:0:
320,192,272151,1,0,0:0:0:0:
448,192,272219,1,0,0:0:0:0:
64,192,272287,1,0,0:0:0:0:
320,192,272355,1,0,0:0:0:0:
64,192,272424,1,0,0:0:0:0:
192,192,272424,1,0,0:0:0:0:
448,192,272424,1,0,0:0:0:0:
320,192,272492,1,0,0:0:0:0:
192,192,272560,1,0,0:0:0:0:
448,192,272628,1,0,0:0:0:0:
64,192,272696,1,0,0:0:0:0:
192,192,272696,1,0,0:0:0:0:
320,192,272696,1,0,0:0:0:0:
448,192,272764,1,0,0:0:0:0:
192,192,272833,1,0,0:0:0:0:
320,192,272901,1,0,0:0:0:0:
448,192,272969,1,0,0:0:0:0:
64,192,273037,1,0,0:0:0:0:
320,192,273105,1,0,0:0:0:0:
192,192,273174,1,0,0:0:0:0:
64,192,273242,1,0,0:0:0:0:
448,192,273242,1,0,0:0:0:0:
192,192,273310,1,0,0:0:0:0:
320,192,273378,1,0,0:0:0:0:
64,192,273446,1,0,0:0:0:0:
320,192,273514,1,0,0:0:0:0:
448,192,273514,1,0,0:0:0:0:
192,192,273583,1,0,0:0:0:0:
448,192,273651,1,0,0:0:0:0:
320,192,273719,1,0,0:0:0:0:
64,192,273787,1,0,0:0:0:0:
192,192,273787,1,0,0:0:0:0:
448,192,273787,1,0,0:0:0:0:
320,192,273855,1,0,0:0:0:0:
64,192,273924,1,0,0:0:0:0:
192,192,273992,1,0,0:0:0:0:
320,192,274060,1,0,0:0:0:0:
448,192,274060,1,0,0:0:0:0:
64,192,274128,1,0,0:0:0:0:
192,192,274196,1,0,0:0:0:0:
320,192,274264,1,0,0:0:0:0:
64,192,274333,1,0,0:0:0:0:
448,192,274333,1,0,0:0:0:0:
320,192,274401,1,0,0:0:0:0:
64,192,274469,1,0,0:0:0:0:
192,192,274537,1,0,0:0:0:0:
320,192,274605,1,0,0:0:0:0:
448,192,274605,1,0,0:0:0:0:
64,192,274674,1,0,0:0:0:0:
320,192,274742,1,0,0:0:0:0:
192,192,274810,1,0,0:0:0:0:
64,192,274878,1,0,0:0:0:0:
448,192,274878,1,0,0:0:0:0:
320,192,274946,1,0,0:0:0:0:
192,192,275014,1,0,0:0:0:0:
448,192,275083,1,0,0:0:0:0:
64,192,275151,1,0,0:0:0:0:
192,192,275151,1,0,0:0:0:0:
320,192,275219,1,0,0:0:0:0:
448,192,275287,1,0,0:0:0:0:
192,192,275355,1,0,0:0:0:0:
64,192,275424,1,0,0:0:0:0:
320,192,275424,1,0,0:0:0:0:
448,192,275492,1,0,0:0:0:0:
192,192,275560,1,0,0:0:0:0:
320,192,275628,1,0,0:0:0:0:
64,192,275696,1,0,0:0:0:0:
448,192,275696,1,0,0:0:0:0:
192,192,275764,1,0,0:0:0:0:
320,192,275833,1,0,0:0:0:0:
64,192,275901,1,0,0:0:0:0:
320,192,275969,1,0,0:0:0:0:
448,192,275969,1,0,0:0:0:0:
192,192,276037,1,0,0:0:0:0:
448,192,276105,1,0,0:0:0:0:
64,192,276174,1,0,0:0:0:0:
192,192,276242,1,0,0:0:0:0:
320,192,276242,1,0,0:0:0:0:
448,192,276310,1,0,0:0:0:0:
192,192,276378,1,0,0:0:0:0:
320,192,276446,1,0,0:0:0:0:
64,192,276514,1,0,0:0:0:0:
192,192,276514,1,0,0:0:0:0:
448,192,276583,1,0,0:0:0:0:
192,192,276651,1,0,0:0:0:0:
320,192,276719,1,0,0:0:0:0:
64,192,276787,1,0,0:0:0:0:
448,192,276787,1,0,0:0:0:0:
192,192,276855,1,0,0:0:0:0:
320,192,276924,1,0,0:0:0:0:
64,192,276992,1,0,0:0:0:0:
192,192,277060,1,0,0:0:0:0:
448,192,277060,1,0,0:0:0:0:
320,192,277128,1,0,0:0:0:0:
64,192,277196,1,0,0:0:0:0:
320,192,277264,1,0,0:0:0:0:
64,192,277333,1,0,0:0:0:0:
192,192,277333,1,0,0:0:0:0:
448,192,277401,1,0,0:0:0:0:
192,192,277469,1,0,0:0:0:0:
320,192,277537,1,0,0:0:0:0:
64,192,277605,1,0,0:0:0:0:
448,192,277605,1,0,0:0:0:0:
320,192,277674,1,0,0:0:0:0:
192,192,277742,1,0,0:0:0:0:
320,192,277810,1,0,0:0:0:0:
64,192,277878,1,0,0:0:0:0:
448,192,277878,1,0,0:0:0:0:
192,192,277924,1,0,0:0:0:0:
320,192,277969,1,0,0:0:0:0:
448,192,278014,1,0,0:0:0:0:
64,192,278083,1,0,0:0:0:0:
192,192,278151,1,0,0:0:0:0:
320,192,278151,1,0,0:0:0:0:
448,192,278151,1,0,0:0:0:0:
64,192,278219,1,0,0:0:0:0:
448,192,278287,1,0,0:0:0:0:
320,192,278355,1,0,0:0:0:0:
64,192,278424,1,0,0:0:0:0:
448,192,278424,1,0,0:0:0:0:
192,192,278492,1,0,0:0:0:0:
320,192,278560,1,0,0:0:0:0:
64,192,278628,1,0,0:0:0:0:
192,192,278696,1,0,0:0:0:0:
320,192,278696,1,0,0:0:0:0:
448,192,278764,1,0,0:0:0:0:
64,192,278833,1,0,0:0:0:0:
192,192,278901,1,0,0:0:0:0:
320,192,278969,1,0,0:0:0:0:
448,192,278969,1,0,0:0:0:0:
64,192,279037,1,0,0:0:0:0:
448,192,279105,1,0,0:0:0:0:
320,192,279174,1,0,0:0:0:0:
64,192,279242,1,0,0:0:0:0:
192,192,279242,1,0,0:0:0:0:
320,192,279310,1,0,0:0:0:0:
448,192,279378,1,0,0:0:0:0:
64,192,279446,1,0,0:0:0:0:
192,192,279514,1,0,0:0:0:0:
320,192,279514,1,0,0:0:0:0:
448,192,279583,1,0,0:0:0:0:
64,192,279651,1,0,0:0:0:0:
192,192,279719,1,0,0:0:0:0:
320,192,279787,1,0,0:0:0:0:
448,192,279787,1,0,0:0:0:0:
64,192,279855,1,0,0:0:0:0:
448,192,279924,1,0,0:0:0:0:
320,192,279992,1,0,0:0:0:0:
64,192,280060,1,0,0:0:0:0:
192,192,280060,1,0,0:0:0:0:
448,192,280128,1,0,0:0:0:0:
192,192,280196,1,0,0:0:0:0:
320,192,280264,1,0,0:0:0:0:
64,192,280333,1,0,0:0:0:0:
448,192,280333,1,0,0:0:0:0:
320,192,280401,1,0,0:0:0:0:
64,192,280469,1,0,0:0:0:0:
192,192,280537,1,0,0:0:0:0:
320,192,280605,1,0,0:0:0:0:
448,192,280605,1,0,0:0:0:0:
64,192,280674,1,0,0:0:0:0:
320,192,280742,1,0,0:0:0:0:
192,192,280810,1,0,0:0:0:0:
64,192,280878,1,0,0:0:0:0:
320,192,280878,1,0,0:0:0:0:
448,192,280946,1,0,0:0:0:0:
192,192,281014,1,0,0:0:0:0:
320,192,281083,1,0,0:0:0:0:
64,192,281151,1,0,0:0:0:0:
448,192,281151,1,0,0:0:0:0:
320,192,281219,1,0,0:0:0:0:
192,192,281287,1,0,0:0:0:0:
64,192,281355,1,0,0:0:0:0:
320,192,281423,1,0,0:0:0:0:
448,192,281423,1,0,0:0:0:0:
192,192,281492,1,0,0:0:0:0:
448,192,281560,1,0,0:0:0:0:
320,192,281628,1,0,0:0:0:0:
64,192,281696,1,0,0:0:0:0:
192,192,281696,1,0,0:0:0:0:
320,192,281764,1,0,0:0:0:0:
64,192,281833,1,0,0:0:0:0:
448,192,281833,1,0,0:0:0:0:
192,192,281901,1,0,0:0:0:0:
320,192,281969,1,0,0:0:0:0:
448,192,281969,1,0,0:0:0:0:
64,192,282037,1,0,0:0:0:0:
192,192,282105,1,0,0:0:0:0:
448,192,282105,1,0,0:0:0:0:
320,192,282173,1,0,0:0:0:0:
64,192,282242,1,0,0:0:0:0:
192,192,282242,1,0,0:0:0:0:
320,192,282310,1,0,0:0:0:0:
64,192,282378,1,0,0:0:0:0:
448,192,282378,1,0,0:0:0:0:
192,192,282446,1,0,0:0:0:0:
64,192,282514,1,0,0:0:0:0:
320,192,282514,1,0,0:0:0:0:
448,192,282514,1,0,0:0:0:0:
192,192,282583,1,0,0:0:0:0:
320,192,282651,1,0,0:0:0:0:
448,192,282651,1,0,0:0:0:0:
64,192,282719,1,0,0:0:0:0:
192,192,282787,1,0,0:0:0:0:
448,192,282787,1,0,0:0:0:0:
320,192,282855,1,0,0:0:0:0:
64,192,282923,1,0,0:0:0:0:
448,192,282923,1,0,0:0:0:0:
192,192,282992,1,0,0:0:0:0:
64,192,283060,1,0,0:0:0:0:
448,192,283060,1,0,0:0:0:0:
320,192,283128,1,0,0:0:0:0:
64,192,283196,1,0,0:0:0:0:
192,192,283196,1,0,0:0:0:0:
320,192,283264,1,0,0:0:0:0:
192,192,283333,1,0,0:0:0:0:
448,192,283333,1,0,0:0:0:0:
64,192,283401,1,0,0:0:0:0:
320,192,283469,1,0,0:0:0:0:
448,192,283469,1,0,0:0:0:0:
192,192,283537,1,0,0:0:0:0:
64,192,283605,1,0,0:0:0:0:
448,192,283605,1,0,0:0:0:0:
320,192,283673,1,0,0:0:0:0:
64,192,283742,1,0,0:0:0:0:
192,192,283742,1,0,0:0:0:0:
448,192,283810,1,0,0:0:0:0:
64,192,283878,1,0,0:0:0:0:
192,192,283878,1,0,0:0:0:0:
320,192,283946,1,0,0:0:0:0:
64,192,284014,1,0,0:0:0:0:
448,192,284014,1,0,0:0:0:0:
192,192,284083,1,0,0:0:0:0:
64,192,284151,1,0,0:0:0:0:
320,192,284151,1,0,0:0:0:0:
448,192,284219,1,0,0:0:0:0:
64,192,284287,1,0,0:0:0:0:
192,192,284287,1,0,0:0:0:0:
320,192,284355,1,0,0:0:0:0:
64,192,284423,1,0,0:0:0:0:
448,192,284423,1,0,0:0:0:0:
192,192,284492,1,0,0:0:0:0:
320,192,284560,1,0,0:0:0:0:
448,192,284560,1,0,0:0:0:0:
64,192,284628,1,0,0:0:0:0:
320,192,284696,1,0,0:0:0:0:
448,192,284696,1,0,0:0:0:0:
192,192,284764,1,0,0:0:0:0:
64,192,284833,1,0,0:0:0:0:
448,192,284833,1,0,0:0:0:0:
320,192,284901,1,0,0:0:0:0:
64,192,284969,1,0,0:0:0:0:
192,192,284969,1,0,0:0:0:0:
320,192,285037,1,0,0:0:0:0:
192,192,285105,1,0,0:0:0:0:
448,192,285105,1,0,0:0:0:0:
320,192,285173,1,0,0:0:0:0:
64,192,285242,1,0,0:0:0:0:
192,192,285242,1,0,0:0:0:0:
448,192,285310,1,0,0:0:0:0:
64,192,285378,1,0,0:0:0:0:
192,192,285378,1,0,0:0:0:0:
320,192,285446,1,0,0:0:0:0:
64,192,285514,1,0,0:0:0:0:
448,192,285514,1,0,0:0:0:0:
192,192,285583,1,0,0:0:0:0:
320,192,285651,1,0,0:0:0:0:
448,192,285651,1,0,0:0:0:0:
64,192,285719,1,0,0:0:0:0:
192,192,285787,1,0,0:0:0:0:
448,192,285787,1,0,0:0:0:0:
320,192,285855,1,0,0:0:0:0:
64,192,285923,1,0,0:0:0:0:
192,192,285923,1,0,0:0:0:0:
320,192,285992,1,0,0:0:0:0:
64,192,286060,1,0,0:0:0:0:
192,192,286060,1,0,0:0:0:0:
448,192,286128,1,0,0:0:0:0:
192,192,286196,1,0,0:0:0:0:
320,192,286196,1,0,0:0:0:0:
64,192,286264,1,0,0:0:0:0:
192,192,286333,1,0,0:0:0:0:
448,192,286333,1,0,0:0:0:0:
64,192,286401,1,0,0:0:0:0:
320,192,286469,1,0,0:0:0:0:
448,192,286469,1,0,0:0:0:0:
192,192,286537,1,0,0:0:0:0:
64,192,286605,1,0,0:0:0:0:
448,192,286605,1,0,0:0:0:0:
320,192,286673,1,0,0:0:0:0:
64,192,286742,1,0,0:0:0:0:
448,192,286742,1,0,0:0:0:0:
192,192,286810,1,0,0:0:0:0:
64,192,286878,1,0,0:0:0:0:
320,192,286878,1,0,0:0:0:0:
448,192,286878,1,0,0:0:0:0:
192,192,286946,1,0,0:0:0:0:
320,192,287014,1,0,0:0:0:0:
448,192,287014,1,0,0:0:0:0:
64,192,287083,1,0,0:0:0:0:
192,192,287151,1,0,0:0:0:0:
320,192,287151,1,0,0:0:0:0:
448,192,287219,1,0,0:0:0:0:
64,192,287287,1,0,0:0:0:0:
320,192,287287,1,0,0:0:0:0:
192,192,287355,1,0,0:0:0:0:
64,192,287423,1,0,0:0:0:0:
320,192,287423,1,0,0:0:0:0:
448,192,287492,1,0,0:0:0:0:
192,192,287560,1,0,0:0:0:0:
320,192,287560,1,0,0:0:0:0:
64,192,287628,1,0,0:0:0:0:
320,192,287696,1,0,0:0:0:0:
448,192,287696,1,0,0:0:0:0:
192,192,287764,1,0,0:0:0:0:
64,192,287833,1,0,0:0:0:0:
448,192,287833,1,0,0:0:0:0:
320,192,287901,1,0,0:0:0:0:
64,192,287969,1,0,0:0:0:0:
192,192,287969,1,0,0:0:0:0:
320,192,288037,1,0,0:0:0:0:
192,192,288105,1,0,0:0:0:0:
448,192,288105,1,0,0:0:0:0:
64,192,288173,1,0,0:0:0:0:
192,192,288242,1,0,0:0:0:0:
320,192,288242,1,0,0:0:0:0:
448,192,288310,1,0,0:0:0:0:
64,192,288378,1,0,0:0:0:0:
320,192,288378,1,0,0:0:0:0:
192,192,288446,1,0,0:0:0:0:
320,192,288514,1,0,0:0:0:0:
448,192,288514,1,0,0:0:0:0:
64,192,288583,1,0,0:0:0:0:
192,192,288651,1,0,0:0:0:0:
448,192,288651,1,0,0:0:0:0:
320,192,288719,1,0,0:0:0:0:
64,192,288787,1,0,0:0:0:0:
192,192,288787,1,0,0:0:0:0:
448,192,288855,1,0,0:0:0:0:
64,192,288923,1,0,0:0:0:0:
192,192,288923,1,0,0:0:0:0:
320,192,288992,1,0,0:0:0:0:
64,192,289060,1,0,0:0:0:0:
448,192,289060,1,0,0:0:0:0:
320,192,289128,1,0,0:0:0:0:
192,192,289196,1,0,0:0:0:0:
64,192,289264,1,0,0:0:0:0:
192,192,289333,1,0,0:0:0:0:
320,192,289333,1,0,0:0:0:0:
448,192,289333,1,0,0:0:0:0:
64,192,289401,1,0,0:0:0:0:
320,192,289469,1,0,0:0:0:0:
448,192,289537,1,0,0:0:0:0:
64,192,289605,1,0,0:0:0:0:
192,192,289605,1,0,0:0:0:0:
320,192,289673,1,0,0:0:0:0:
64,192,289742,1,0,0:0:0:0:
448,192,289742,1,0,0:0:0:0:
320,192,289810,1,0,0:0:0:0:
64,192,289878,1,0,0:0:0:0:
192,192,289878,1,0,0:0:0:0:
320,192,289946,1,0,0:0:0:0:
64,192,290014,1,0,0:0:0:0:
448,192,290014,1,0,0:0:0:0:
192,192,290083,1,0,0:0:0:0:
320,192,290151,1,0,0:0:0:0:
448,192,290151,1,0,0:0:0:0:
64,192,290219,1,0,0:0:0:0:
192,192,290219,1,0,0:0:0:0:
320,192,290287,1,0,0:0:0:0:
64,192,290355,1,0,0:0:0:0:
192,192,290423,1,0,0:0:0:0:
448,192,290492,1,0,0:0:0:0:
64,192,290560,1,0,0:0:0:0:
320,192,290628,1,0,0:0:0:0:
448,192,290696,1,0,0:0:0:0:
192,192,290764,1,0,0:0:0:0:
448,192,290833,1,0,0:0:0:0:
320,192,290901,1,0,0:0:0:0:
64,192,290969,1,0,0:0:0:0:
448,192,291037,1,0,0:0:0:0:
320,192,291105,1,0,0:0:0:0:
192,192,291173,1,0,0:0:0:0:
448,192,291242,1,0,0:0:0:0:
64,0,291242,128,0,292878:1:0:0:0:
320,192,291310,1,0,0:0:0:0:
448,192,291378,1,0,0:0:0:0:
320,192,291446,1,0,0:0:0:0:
448,192,291514,1,0,0:0:0:0:
192,192,291651,1,0,0:0:0:0:
448,192,291787,1,0,0:0:0:0:
448,192,292060,1,0,0:0:0:0:
192,192,292196,1,0,0:0:0:0:
448,192,292333,1,0,0:0:0:0:
448,192,292605,1,0,0:0:0:0:
192,192,292742,1,0,0:0:0:0:
448,192,292878,1,0,0:0:0:0:
320,0,292878,128,0,293423:1:0:0:0:
448,192,293151,1,0,0:0:0:0:
192,192,293219,1,0,0:0:0:0:
448,192,293287,1,0,0:0:0:0:
192,192,293355,1,0,0:0:0:0:
448,192,293423,1,0,0:0:0:0:
64,0,293423,128,0,295060:1:0:0:0:
320,192,293492,1,0,0:0:0:0:
448,192,293560,1,0,0:0:0:0:
320,192,293628,1,0,0:0:0:0:
448,192,293696,1,0,0:0:0:0:
192,192,293833,1,0,0:0:0:0:
448,192,293969,1,0,0:0:0:0:
448,192,294242,1,0,0:0:0:0:
192,192,294378,1,0,0:0:0:0:
192,192,294514,1,0,0:0:0:0:
448,192,294514,1,0,0:0:0:0:
448,192,294787,1,0,0:0:0:0:
192,192,294923,1,0,0:0:0:0:
448,192,295060,1,0,0:0:0:0:
320,0,295060,128,0,295605:1:0:0:0:
192,192,295196,1,0,0:0:0:0:
192,192,295333,1,0,0:0:0:0:
448,192,295333,1,0,0:0:0:0:
448,192,295469,1,0,0:0:0:0:
192,192,295537,1,0,0:0:0:0:
64,192,295605,1,0,0:0:0:0:
448,192,295605,1,0,0:0:0:0:
192,192,295673,1,0,0:0:0:0:
320,192,295742,1,0,0:0:0:0:
64,192,295810,1,0,0:0:0:0:
192,192,295878,1,0,0:0:0:0:
448,192,295878,1,0,0:0:0:0:
64,192,296014,1,0,0:0:0:0:
320,192,296014,1,0,0:0:0:0:
192,192,296287,1,0,0:0:0:0:
448,192,296423,1,0,0:0:0:0:
64,192,296560,1,0,0:0:0:0:
192,192,296628,1,0,0:0:0:0:
320,192,296696,1,0,0:0:0:0:
448,192,296696,1,0,0:0:0:0:
64,192,296764,1,0,0:0:0:0:
192,192,296764,1,0,0:0:0:0:
320,192,296833,1,0,0:0:0:0:
64,192,296901,1,0,0:0:0:0:
192,192,296969,1,0,0:0:0:0:
320,192,297037,1,0,0:0:0:0:
448,192,297105,1,0,0:0:0:0:
64,192,297173,1,0,0:0:0:0:
320,192,297242,1,0,0:0:0:0:
64,192,297310,1,0,0:0:0:0:
448,192,297378,1,0,0:0:0:0:
320,192,297446,1,0,0:0:0:0:
192,192,297514,1,0,0:0:0:0:
64,192,297583,1,0,0:0:0:0:
320,192,297651,1,0,0:0:0:0:
192,192,297719,1,0,0:0:0:0:
64,192,297787,1,0,0:0:0:0:
320,192,297787,1,0,0:0:0:0:
448,192,297787,1,0,0:0:0:0:
192,192,297855,1,0,0:0:0:0:
448,192,297923,1,0,0:0:0:0:
192,192,297992,1,0,0:0:0:0:
320,192,298060,1,0,0:0:0:0:
64,192,298128,1,0,0:0:0:0:
192,192,298196,1,0,0:0:0:0:
320,192,298196,1,0,0:0:0:0:
448,192,298196,1,0,0:0:0:0:
64,192,298264,1,0,0:0:0:0:
320,192,298333,1,0,0:0:0:0:
64,192,298401,1,0,0:0:0:0:
192,192,298469,1,0,0:0:0:0:
448,192,298537,1,0,0:0:0:0:
64,192,298605,1,0,0:0:0:0:
192,192,298605,1,0,0:0:0:0:
320,192,298605,1,0,0:0:0:0:
448,192,298673,1,0,0:0:0:0:
192,192,298742,1,0,0:0:0:0:
448,192,298810,1,0,0:0:0:0:
320,192,298878,1,0,0:0:0:0:
192,192,298946,1,0,0:0:0:0:
64,192,299014,1,0,0:0:0:0:
320,192,299014,1,0,0:0:0:0:
448,192,299014,1,0,0:0:0:0:
192,192,299083,1,0,0:0:0:0:
320,192,299151,1,0,0:0:0:0:
448,192,299219,1,0,0:0:0:0:
192,192,299287,1,0,0:0:0:0:
64,192,299355,1,0,0:0:0:0:
192,192,299423,1,0,0:0:0:0:
320,192,299423,1,0,0:0:0:0:
448,192,299423,1,0,0:0:0:0:
64,192,299492,1,0,0:0:0:0:
320,192,299560,1,0,0:0:0:0:
448,192,299628,1,0,0:0:0:0:
64,192,299696,1,0,0:0:0:0:
192,192,299696,1,0,0:0:0:0:
320,192,299696,1,0,0:0:0:0:
448,192,299764,1,0,0:0:0:0:
320,192,299833,1,0,0:0:0:0:
192,192,299901,1,0,0:0:0:0:
64,0,299969,128,0,300242:1:0:0:0:
320,0,299969,128,0,300242:1:0:0:0:
448,0,299969,128,0,300242:1:0:0:0:
64,0,300378,128,0,300651:1:0:0:0:
320,0,300378,128,0,300651:1:0:0:0:
448,0,300378,128,0,300651:1:0:0:0:
64,0,300787,128,0,301060:1:0:0:0:
320,0,300787,128,0,301060:1:0:0:0:
448,0,300787,128,0,301060:1:0:0:0:
