osu file format v14

[General]
AudioFilename: Calamity Fortune.mp3
AudioLeadIn: 2
PreviewTime: 102030
Countdown: 0
SampleSet: None
StackLeniency: 0.7
Mode: 3
LetterboxInBreaks: 0
SpecialStyle: 0
WidescreenStoryboard: 0

[Editor]
DistanceSpacing: 0.8
BeatDivisor: 4
GridSize: 8
TimelineZoom: 2.1

[Metadata]
Title:dakemoto's Collection Pack Vol.2
TitleUnicode:dakemoto's Collection Pack Vol.2
Artist:Various Artist
ArtistUnicode:Various Artist
Creator:dakemoto
Version:Calamity Fortune (Challenge)
Source:Stepmania
Tags:
BeatmapID:741031
BeatmapSetID:334680

[Difficulty]
HPDrainRate:7
CircleSize:4
OverallDifficulty:8
ApproachRate:10
SliderMultiplier:1.4
SliderTickRate:1

[Events]
//Background and Video events
0,0,"Calamity Fortune bg.jpg",0,0
//Break Periods
//Storyboard Layer 0 (Background)
//Storyboard Layer 1 (Fail)
//Storyboard Layer 2 (Pass)
//Storyboard Layer 3 (Foreground)
//Storyboard Sound Samples

[TimingPoints]
2395,300,4,1,0,15,1,0

[HitObjects]
320,192,2395,5,0,0:0:0:0:
448,192,2395,1,0,0:0:0:0:
192,192,2545,1,0,0:0:0:0:
64,192,2695,1,0,0:0:0:0:
320,192,2695,1,0,0:0:0:0:
448,192,2695,1,0,0:0:0:0:
192,192,2845,1,0,0:0:0:0:
64,192,2995,1,0,0:0:0:0:
448,192,2995,1,0,0:0:0:0:
320,192,3145,1,0,0:0:0:0:
64,192,3295,1,0,0:0:0:0:
192,192,3295,1,0,0:0:0:0:
448,192,3295,1,0,0:0:0:0:
320,192,3445,1,0,0:0:0:0:
192,192,3595,1,0,0:0:0:0:
64,192,3745,1,0,0:0:0:0:
448,192,3895,1,0,0:0:0:0:
64,192,4045,1,0,0:0:0:0:
448,192,4120,1,0,0:0:0:0:
192,192,4195,1,0,0:0:0:0:
320,192,4270,1,0,0:0:0:0:
64,192,4345,1,0,0:0:0:0:
448,192,4420,1,0,0:0:0:0:
64,192,4795,1,0,0:0:0:0:
192,192,4795,1,0,0:0:0:0:
320,192,4945,1,0,0:0:0:0:
64,192,5095,1,0,0:0:0:0:
192,192,5095,1,0,0:0:0:0:
448,192,5095,1,0,0:0:0:0:
320,192,5245,1,0,0:0:0:0:
64,192,5395,1,0,0:0:0:0:
448,192,5395,1,0,0:0:0:0:
192,192,5545,1,0,0:0:0:0:
64,192,5695,1,0,0:0:0:0:
320,192,5695,1,0,0:0:0:0:
448,192,5695,1,0,0:0:0:0:
192,192,5845,1,0,0:0:0:0:
320,192,5995,1,0,0:0:0:0:
448,192,5995,1,0,0:0:0:0:
64,192,6145,1,0,0:0:0:0:
192,192,6145,1,0,0:0:0:0:
192,192,6295,1,0,0:0:0:0:
448,192,6295,1,0,0:0:0:0:
320,192,6445,1,0,0:0:0:0:
448,192,6445,1,0,0:0:0:0:
64,0,6595,128,0,6895:1:0:0:0:
192,0,6595,128,0,6895:1:0:0:0:
320,192,7045,1,0,0:0:0:0:
192,192,7120,1,0,0:0:0:0:
64,192,7195,1,0,0:0:0:0:
320,192,7195,1,0,0:0:0:0:
448,192,7195,1,0,0:0:0:0:
64,192,7345,1,0,0:0:0:0:
192,192,7495,1,0,0:0:0:0:
320,192,7495,1,0,0:0:0:0:
448,192,7495,1,0,0:0:0:0:
64,192,7645,1,0,0:0:0:0:
320,192,7795,1,0,0:0:0:0:
448,192,7795,1,0,0:0:0:0:
192,192,7945,1,0,0:0:0:0:
64,192,8095,1,0,0:0:0:0:
320,192,8095,1,0,0:0:0:0:
448,192,8095,1,0,0:0:0:0:
192,192,8245,1,0,0:0:0:0:
64,192,8395,1,0,0:0:0:0:
448,192,8395,1,0,0:0:0:0:
320,192,8545,1,0,0:0:0:0:
64,192,8695,1,0,0:0:0:0:
192,192,8695,1,0,0:0:0:0:
448,192,8695,1,0,0:0:0:0:
320,192,8845,1,0,0:0:0:0:
64,192,8995,1,0,0:0:0:0:
192,192,8995,1,0,0:0:0:0:
448,192,9145,1,0,0:0:0:0:
64,192,9295,1,0,0:0:0:0:
192,192,9295,1,0,0:0:0:0:
320,192,9295,1,0,0:0:0:0:
448,192,9445,1,0,0:0:0:0:
192,192,9595,1,0,0:0:0:0:
320,192,9595,1,0,0:0:0:0:
192,192,9820,1,0,0:0:0:0:
320,192,9820,1,0,0:0:0:0:
64,192,9895,1,0,0:0:0:0:
448,192,9895,1,0,0:0:0:0:
64,192,10045,1,0,0:0:0:0:
448,192,10045,1,0,0:0:0:0:
192,192,10195,1,0,0:0:0:0:
320,192,10195,1,0,0:0:0:0:
64,192,10495,1,0,0:0:0:0:
448,192,10495,1,0,0:0:0:0:
64,192,10645,1,0,0:0:0:0:
448,192,10645,1,0,0:0:0:0:
192,192,10795,1,0,0:0:0:0:
320,192,10795,1,0,0:0:0:0:
192,192,10945,1,0,0:0:0:0:
320,192,10945,1,0,0:0:0:0:
192,192,11095,1,0,0:0:0:0:
320,192,11095,1,0,0:0:0:0:
192,0,11395,128,0,11545:1:0:0:0:
320,0,11395,128,0,11545:1:0:0:0:
64,192,11695,1,0,0:0:0:0:
448,192,11695,1,0,0:0:0:0:
192,192,11745,1,0,0:0:0:0:
320,192,11795,1,0,0:0:0:0:
448,192,11845,1,0,0:0:0:0:
64,192,11895,1,0,0:0:0:0:
192,192,11945,1,0,0:0:0:0:
64,192,11995,1,0,0:0:0:0:
320,192,11995,1,0,0:0:0:0:
448,192,11995,1,0,0:0:0:0:
64,192,12145,1,0,0:0:0:0:
192,192,12145,1,0,0:0:0:0:
320,192,12220,1,0,0:0:0:0:
448,192,12220,1,0,0:0:0:0:
64,192,12295,1,0,0:0:0:0:
192,192,12295,1,0,0:0:0:0:
320,192,12370,1,0,0:0:0:0:
64,192,12445,1,0,0:0:0:0:
448,192,12445,1,0,0:0:0:0:
64,192,12595,1,0,0:0:0:0:
192,192,12595,1,0,0:0:0:0:
320,192,12595,1,0,0:0:0:0:
192,192,12745,1,0,0:0:0:0:
448,192,12745,1,0,0:0:0:0:
64,192,12895,1,0,0:0:0:0:
320,192,12895,1,0,0:0:0:0:
192,192,12970,1,0,0:0:0:0:
448,192,12970,1,0,0:0:0:0:
64,192,13045,1,0,0:0:0:0:
320,192,13120,1,0,0:0:0:0:
448,192,13120,1,0,0:0:0:0:
64,192,13195,1,0,0:0:0:0:
192,192,13195,1,0,0:0:0:0:
320,192,13345,1,0,0:0:0:0:
448,192,13345,1,0,0:0:0:0:
64,192,13420,1,0,0:0:0:0:
192,192,13420,1,0,0:0:0:0:
320,192,13495,1,0,0:0:0:0:
448,192,13495,1,0,0:0:0:0:
64,192,13570,1,0,0:0:0:0:
192,192,13645,1,0,0:0:0:0:
448,192,13645,1,0,0:0:0:0:
64,192,13795,1,0,0:0:0:0:
192,192,13795,1,0,0:0:0:0:
320,192,13795,1,0,0:0:0:0:
320,192,13945,1,0,0:0:0:0:
448,192,13945,1,0,0:0:0:0:
64,192,14095,1,0,0:0:0:0:
192,192,14095,1,0,0:0:0:0:
320,192,14170,1,0,0:0:0:0:
448,192,14170,1,0,0:0:0:0:
64,192,14245,1,0,0:0:0:0:
192,192,14320,1,0,0:0:0:0:
448,192,14320,1,0,0:0:0:0:
64,192,14395,1,0,0:0:0:0:
320,192,14395,1,0,0:0:0:0:
192,192,14545,1,0,0:0:0:0:
320,192,14545,1,0,0:0:0:0:
64,192,14620,1,0,0:0:0:0:
448,192,14620,1,0,0:0:0:0:
192,192,14695,1,0,0:0:0:0:
320,192,14695,1,0,0:0:0:0:
64,192,14770,1,0,0:0:0:0:
320,192,14845,1,0,0:0:0:0:
448,192,14845,1,0,0:0:0:0:
64,192,14995,1,0,0:0:0:0:
192,192,14995,1,0,0:0:0:0:
320,192,14995,1,0,0:0:0:0:
192,192,15145,1,0,0:0:0:0:
448,192,15145,1,0,0:0:0:0:
64,192,15295,1,0,0:0:0:0:
320,192,15295,1,0,0:0:0:0:
192,192,15370,1,0,0:0:0:0:
448,192,15370,1,0,0:0:0:0:
320,192,15445,1,0,0:0:0:0:
64,192,15520,1,0,0:0:0:0:
448,192,15520,1,0,0:0:0:0:
192,192,15595,1,0,0:0:0:0:
320,192,15595,1,0,0:0:0:0:
64,192,15745,1,0,0:0:0:0:
320,192,15745,1,0,0:0:0:0:
64,192,15895,1,0,0:0:0:0:
192,192,15895,1,0,0:0:0:0:
448,192,15895,1,0,0:0:0:0:
192,192,16045,1,0,0:0:0:0:
320,192,16045,1,0,0:0:0:0:
320,192,16195,1,0,0:0:0:0:
64,0,16195,128,0,16345:1:0:0:0:
448,0,16195,128,0,16345:1:0:0:0:
64,192,16495,1,0,0:0:0:0:
448,192,16495,1,0,0:0:0:0:
192,192,16570,1,0,0:0:0:0:
320,192,16645,1,0,0:0:0:0:
192,192,16720,1,0,0:0:0:0:
64,192,16795,1,0,0:0:0:0:
320,192,16795,1,0,0:0:0:0:
448,192,16795,1,0,0:0:0:0:
64,192,16945,1,0,0:0:0:0:
192,192,16945,1,0,0:0:0:0:
320,192,17020,1,0,0:0:0:0:
448,192,17020,1,0,0:0:0:0:
64,192,17095,1,0,0:0:0:0:
192,192,17095,1,0,0:0:0:0:
320,192,17170,1,0,0:0:0:0:
64,192,17245,1,0,0:0:0:0:
448,192,17245,1,0,0:0:0:0:
64,192,17395,1,0,0:0:0:0:
192,192,17395,1,0,0:0:0:0:
320,192,17395,1,0,0:0:0:0:
192,192,17545,1,0,0:0:0:0:
448,192,17545,1,0,0:0:0:0:
64,192,17695,1,0,0:0:0:0:
320,192,17695,1,0,0:0:0:0:
192,192,17770,1,0,0:0:0:0:
448,192,17770,1,0,0:0:0:0:
64,192,17845,1,0,0:0:0:0:
320,192,17920,1,0,0:0:0:0:
448,192,17920,1,0,0:0:0:0:
64,192,17995,1,0,0:0:0:0:
192,192,17995,1,0,0:0:0:0:
320,192,18145,1,0,0:0:0:0:
448,192,18145,1,0,0:0:0:0:
64,192,18220,1,0,0:0:0:0:
192,192,18220,1,0,0:0:0:0:
320,192,18295,1,0,0:0:0:0:
448,192,18295,1,0,0:0:0:0:
64,192,18370,1,0,0:0:0:0:
192,192,18445,1,0,0:0:0:0:
448,192,18445,1,0,0:0:0:0:
64,192,18595,1,0,0:0:0:0:
192,192,18595,1,0,0:0:0:0:
320,192,18595,1,0,0:0:0:0:
320,192,18745,1,0,0:0:0:0:
448,192,18745,1,0,0:0:0:0:
64,192,18895,1,0,0:0:0:0:
192,192,18895,1,0,0:0:0:0:
320,192,18970,1,0,0:0:0:0:
448,192,18970,1,0,0:0:0:0:
64,192,19045,1,0,0:0:0:0:
192,192,19120,1,0,0:0:0:0:
448,192,19120,1,0,0:0:0:0:
64,192,19195,1,0,0:0:0:0:
320,192,19195,1,0,0:0:0:0:
192,192,19345,1,0,0:0:0:0:
320,192,19345,1,0,0:0:0:0:
64,192,19420,1,0,0:0:0:0:
448,192,19420,1,0,0:0:0:0:
192,192,19495,1,0,0:0:0:0:
320,192,19495,1,0,0:0:0:0:
64,192,19570,1,0,0:0:0:0:
320,192,19645,1,0,0:0:0:0:
448,192,19645,1,0,0:0:0:0:
64,192,19795,1,0,0:0:0:0:
192,192,19795,1,0,0:0:0:0:
320,192,19795,1,0,0:0:0:0:
192,192,19945,1,0,0:0:0:0:
448,192,19945,1,0,0:0:0:0:
192,192,20095,1,0,0:0:0:0:
320,192,20095,1,0,0:0:0:0:
64,192,20170,1,0,0:0:0:0:
448,192,20170,1,0,0:0:0:0:
320,192,20245,1,0,0:0:0:0:
64,192,20320,1,0,0:0:0:0:
192,192,20320,1,0,0:0:0:0:
320,192,20395,1,0,0:0:0:0:
448,192,20395,1,0,0:0:0:0:
192,192,20545,1,0,0:0:0:0:
448,192,20545,1,0,0:0:0:0:
64,192,20620,1,0,0:0:0:0:
320,192,20620,1,0,0:0:0:0:
192,192,20695,1,0,0:0:0:0:
448,192,20695,1,0,0:0:0:0:
192,192,20845,1,0,0:0:0:0:
320,192,20845,1,0,0:0:0:0:
64,192,20995,1,0,0:0:0:0:
320,192,20995,1,0,0:0:0:0:
448,192,20995,1,0,0:0:0:0:
192,192,21070,1,0,0:0:0:0:
320,0,21145,128,0,21295:1:0:0:0:
448,0,21145,128,0,21295:1:0:0:0:
64,192,21295,1,0,0:0:0:0:
192,192,21295,1,0,0:0:0:0:
320,192,21445,1,0,0:0:0:0:
64,192,21595,1,0,0:0:0:0:
192,192,21745,1,0,0:0:0:0:
448,192,21895,1,0,0:0:0:0:
64,192,22045,1,0,0:0:0:0:
320,192,22195,1,0,0:0:0:0:
448,192,22345,1,0,0:0:0:0:
64,192,22495,1,0,0:0:0:0:
192,192,22645,1,0,0:0:0:0:
448,192,22795,1,0,0:0:0:0:
192,192,22945,1,0,0:0:0:0:
320,192,23095,1,0,0:0:0:0:
192,192,23245,1,0,0:0:0:0:
320,192,23395,1,0,0:0:0:0:
64,192,23995,1,0,0:0:0:0:
192,192,24145,1,0,0:0:0:0:
448,192,24295,1,0,0:0:0:0:
64,192,24445,1,0,0:0:0:0:
320,192,24595,1,0,0:0:0:0:
448,192,24745,1,0,0:0:0:0:
64,192,24895,1,0,0:0:0:0:
192,192,25045,1,0,0:0:0:0:
448,192,25195,1,0,0:0:0:0:
192,192,25345,1,0,0:0:0:0:
320,192,25495,1,0,0:0:0:0:
192,192,25645,1,0,0:0:0:0:
320,192,25795,1,0,0:0:0:0:
64,192,26395,1,0,0:0:0:0:
448,192,26395,1,0,0:0:0:0:
192,192,26470,1,0,0:0:0:0:
320,192,26545,1,0,0:0:0:0:
448,192,26545,1,0,0:0:0:0:
192,192,26620,1,0,0:0:0:0:
64,192,26695,1,0,0:0:0:0:
448,192,26695,1,0,0:0:0:0:
320,192,26770,1,0,0:0:0:0:
64,192,26845,1,0,0:0:0:0:
192,192,26845,1,0,0:0:0:0:
448,192,26920,1,0,0:0:0:0:
64,192,26995,1,0,0:0:0:0:
320,192,26995,1,0,0:0:0:0:
192,192,27070,1,0,0:0:0:0:
320,192,27145,1,0,0:0:0:0:
448,192,27145,1,0,0:0:0:0:
64,192,27220,1,0,0:0:0:0:
192,192,27295,1,0,0:0:0:0:
320,192,27295,1,0,0:0:0:0:
64,192,27370,1,0,0:0:0:0:
192,192,27445,1,0,0:0:0:0:
448,192,27445,1,0,0:0:0:0:
320,192,27520,1,0,0:0:0:0:
64,192,27595,1,0,0:0:0:0:
192,192,27595,1,0,0:0:0:0:
448,192,27595,1,0,0:0:0:0:
192,192,27745,1,0,0:0:0:0:
448,192,27745,1,0,0:0:0:0:
64,192,27820,1,0,0:0:0:0:
320,192,27820,1,0,0:0:0:0:
192,192,27895,1,0,0:0:0:0:
448,192,27895,1,0,0:0:0:0:
64,192,27970,1,0,0:0:0:0:
320,192,28045,1,0,0:0:0:0:
448,192,28045,1,0,0:0:0:0:
64,192,28195,1,0,0:0:0:0:
192,192,28195,1,0,0:0:0:0:
320,192,28270,1,0,0:0:0:0:
448,192,28270,1,0,0:0:0:0:
64,192,28345,1,0,0:0:0:0:
192,192,28345,1,0,0:0:0:0:
64,192,28495,1,0,0:0:0:0:
320,192,28495,1,0,0:0:0:0:
448,192,28495,1,0,0:0:0:0:
192,192,28645,1,0,0:0:0:0:
448,192,28645,1,0,0:0:0:0:
64,192,28795,1,0,0:0:0:0:
320,192,28795,1,0,0:0:0:0:
448,192,28795,1,0,0:0:0:0:
192,192,28945,1,0,0:0:0:0:
448,192,28945,1,0,0:0:0:0:
64,192,29020,1,0,0:0:0:0:
320,192,29020,1,0,0:0:0:0:
192,192,29095,1,0,0:0:0:0:
448,192,29095,1,0,0:0:0:0:
320,192,29170,1,0,0:0:0:0:
64,192,29245,1,0,0:0:0:0:
448,192,29245,1,0,0:0:0:0:
192,192,29395,1,0,0:0:0:0:
320,192,29395,1,0,0:0:0:0:
64,192,29470,1,0,0:0:0:0:
448,192,29470,1,0,0:0:0:0:
192,192,29545,1,0,0:0:0:0:
320,192,29545,1,0,0:0:0:0:
64,192,29695,1,0,0:0:0:0:
192,192,29695,1,0,0:0:0:0:
448,192,29695,1,0,0:0:0:0:
64,192,29845,1,0,0:0:0:0:
320,192,29845,1,0,0:0:0:0:
64,192,29995,1,0,0:0:0:0:
192,192,29995,1,0,0:0:0:0:
448,192,29995,1,0,0:0:0:0:
64,192,30145,1,0,0:0:0:0:
320,192,30145,1,0,0:0:0:0:
192,192,30220,1,0,0:0:0:0:
448,192,30220,1,0,0:0:0:0:
64,192,30295,1,0,0:0:0:0:
320,192,30295,1,0,0:0:0:0:
192,192,30370,1,0,0:0:0:0:
320,192,30445,1,0,0:0:0:0:
448,192,30445,1,0,0:0:0:0:
64,192,30595,1,0,0:0:0:0:
192,192,30595,1,0,0:0:0:0:
320,192,30670,1,0,0:0:0:0:
448,192,30670,1,0,0:0:0:0:
64,192,30745,1,0,0:0:0:0:
192,192,30745,1,0,0:0:0:0:
64,192,30895,1,0,0:0:0:0:
320,192,30895,1,0,0:0:0:0:
448,192,30895,1,0,0:0:0:0:
64,192,31045,1,0,0:0:0:0:
192,192,31045,1,0,0:0:0:0:
192,192,31195,1,0,0:0:0:0:
448,192,31195,1,0,0:0:0:0:
64,192,31345,1,0,0:0:0:0:
320,192,31345,1,0,0:0:0:0:
192,192,31495,1,0,0:0:0:0:
320,192,31495,1,0,0:0:0:0:
448,192,31495,1,0,0:0:0:0:
64,192,31645,1,0,0:0:0:0:
192,192,31645,1,0,0:0:0:0:
320,192,31795,1,0,0:0:0:0:
448,192,31795,1,0,0:0:0:0:
64,192,31870,1,0,0:0:0:0:
192,192,31870,1,0,0:0:0:0:
320,192,31945,1,0,0:0:0:0:
448,192,31945,1,0,0:0:0:0:
64,192,32095,1,0,0:0:0:0:
192,192,32095,1,0,0:0:0:0:
320,192,32095,1,0,0:0:0:0:
192,192,32245,1,0,0:0:0:0:
448,192,32245,1,0,0:0:0:0:
64,192,32395,1,0,0:0:0:0:
320,192,32395,1,0,0:0:0:0:
448,192,32395,1,0,0:0:0:0:
320,192,32545,1,0,0:0:0:0:
448,192,32545,1,0,0:0:0:0:
64,192,32620,1,0,0:0:0:0:
192,192,32620,1,0,0:0:0:0:
320,192,32695,1,0,0:0:0:0:
448,192,32695,1,0,0:0:0:0:
64,192,32770,1,0,0:0:0:0:
192,192,32845,1,0,0:0:0:0:
448,192,32845,1,0,0:0:0:0:
64,192,32995,1,0,0:0:0:0:
320,192,32995,1,0,0:0:0:0:
192,192,33070,1,0,0:0:0:0:
448,192,33070,1,0,0:0:0:0:
64,192,33145,1,0,0:0:0:0:
320,192,33145,1,0,0:0:0:0:
64,192,33295,1,0,0:0:0:0:
192,192,33295,1,0,0:0:0:0:
448,192,33295,1,0,0:0:0:0:
192,192,33445,1,0,0:0:0:0:
320,192,33445,1,0,0:0:0:0:
64,192,33595,1,0,0:0:0:0:
320,192,33595,1,0,0:0:0:0:
448,192,33595,1,0,0:0:0:0:
320,192,33745,1,0,0:0:0:0:
448,192,33745,1,0,0:0:0:0:
64,192,33820,1,0,0:0:0:0:
192,192,33820,1,0,0:0:0:0:
320,192,33895,1,0,0:0:0:0:
448,192,33895,1,0,0:0:0:0:
64,192,33970,1,0,0:0:0:0:
192,192,34045,1,0,0:0:0:0:
448,192,34045,1,0,0:0:0:0:
64,192,34120,1,0,0:0:0:0:
320,192,34120,1,0,0:0:0:0:
192,192,34195,1,0,0:0:0:0:
448,192,34195,1,0,0:0:0:0:
320,192,34345,1,0,0:0:0:0:
448,192,34345,1,0,0:0:0:0:
64,192,34495,1,0,0:0:0:0:
192,192,34495,1,0,0:0:0:0:
448,192,34495,1,0,0:0:0:0:
192,192,34645,1,0,0:0:0:0:
320,192,34645,1,0,0:0:0:0:
64,192,34795,1,0,0:0:0:0:
192,192,34795,1,0,0:0:0:0:
448,192,34795,1,0,0:0:0:0:
64,192,35020,1,0,0:0:0:0:
192,192,35020,1,0,0:0:0:0:
320,192,35095,1,0,0:0:0:0:
448,192,35095,1,0,0:0:0:0:
192,192,35245,1,0,0:0:0:0:
320,192,35245,1,0,0:0:0:0:
64,192,35395,1,0,0:0:0:0:
448,192,35395,1,0,0:0:0:0:
192,192,35695,1,0,0:0:0:0:
320,192,35695,1,0,0:0:0:0:
192,192,35845,1,0,0:0:0:0:
448,192,35845,1,0,0:0:0:0:
64,192,35995,1,0,0:0:0:0:
320,192,35995,1,0,0:0:0:0:
448,192,35995,1,0,0:0:0:0:
192,192,36145,1,0,0:0:0:0:
320,192,36145,1,0,0:0:0:0:
64,192,36295,1,0,0:0:0:0:
192,192,36295,1,0,0:0:0:0:
320,192,36445,1,0,0:0:0:0:
448,192,36445,1,0,0:0:0:0:
64,192,36595,1,0,0:0:0:0:
192,192,36595,1,0,0:0:0:0:
448,192,36595,1,0,0:0:0:0:
64,192,36895,1,0,0:0:0:0:
320,192,36895,1,0,0:0:0:0:
192,192,36970,1,0,0:0:0:0:
320,192,37045,1,0,0:0:0:0:
192,192,37120,1,0,0:0:0:0:
320,192,37195,1,0,0:0:0:0:
448,192,37195,1,0,0:0:0:0:
192,192,37345,1,0,0:0:0:0:
64,192,37495,1,0,0:0:0:0:
320,192,37495,1,0,0:0:0:0:
448,192,37495,1,0,0:0:0:0:
192,192,37645,1,0,0:0:0:0:
64,192,37795,1,0,0:0:0:0:
448,192,37795,1,0,0:0:0:0:
320,192,37945,1,0,0:0:0:0:
64,192,38095,1,0,0:0:0:0:
192,192,38095,1,0,0:0:0:0:
448,192,38095,1,0,0:0:0:0:
320,192,38245,1,0,0:0:0:0:
448,192,38395,1,0,0:0:0:0:
192,192,38545,1,0,0:0:0:0:
64,192,38620,1,0,0:0:0:0:
320,192,38695,1,0,0:0:0:0:
192,192,38845,1,0,0:0:0:0:
192,192,38995,1,0,0:0:0:0:
448,192,39295,1,0,0:0:0:0:
64,192,39595,1,0,0:0:0:0:
192,192,39595,1,0,0:0:0:0:
320,192,39745,1,0,0:0:0:0:
64,192,39895,1,0,0:0:0:0:
192,192,39895,1,0,0:0:0:0:
448,192,39895,1,0,0:0:0:0:
320,192,40045,1,0,0:0:0:0:
64,192,40195,1,0,0:0:0:0:
448,192,40195,1,0,0:0:0:0:
192,192,40345,1,0,0:0:0:0:
64,192,40495,1,0,0:0:0:0:
320,192,40495,1,0,0:0:0:0:
448,192,40495,1,0,0:0:0:0:
192,192,40645,1,0,0:0:0:0:
320,192,40795,1,0,0:0:0:0:
448,192,40795,1,0,0:0:0:0:
64,192,40870,1,0,0:0:0:0:
192,192,40870,1,0,0:0:0:0:
64,192,41020,1,0,0:0:0:0:
320,192,41020,1,0,0:0:0:0:
192,192,41095,1,0,0:0:0:0:
448,192,41095,1,0,0:0:0:0:
320,192,41245,1,0,0:0:0:0:
448,192,41245,1,0,0:0:0:0:
64,0,41395,128,0,41695:1:0:0:0:
192,0,41395,128,0,41695:1:0:0:0:
448,192,41545,1,0,0:0:0:0:
320,192,41620,1,0,0:0:0:0:
448,192,41695,1,0,0:0:0:0:
320,192,41770,1,0,0:0:0:0:
192,192,41845,1,0,0:0:0:0:
64,192,41920,1,0,0:0:0:0:
320,192,41995,1,0,0:0:0:0:
448,192,41995,1,0,0:0:0:0:
192,192,42145,1,0,0:0:0:0:
64,192,42295,1,0,0:0:0:0:
448,192,42295,1,0,0:0:0:0:
320,192,42445,1,0,0:0:0:0:
64,192,42595,1,0,0:0:0:0:
192,192,42595,1,0,0:0:0:0:
320,192,42745,1,0,0:0:0:0:
64,192,42895,1,0,0:0:0:0:
448,192,42895,1,0,0:0:0:0:
192,192,43045,1,0,0:0:0:0:
64,192,43120,1,0,0:0:0:0:
320,192,43195,1,0,0:0:0:0:
448,192,43195,1,0,0:0:0:0:
192,192,43495,1,0,0:0:0:0:
320,192,43495,1,0,0:0:0:0:
64,192,43795,1,0,0:0:0:0:
192,192,43795,1,0,0:0:0:0:
192,192,44095,1,0,0:0:0:0:
320,192,44095,1,0,0:0:0:0:
64,192,44395,1,0,0:0:0:0:
320,192,44395,1,0,0:0:0:0:
448,192,44395,1,0,0:0:0:0:
192,192,44470,1,0,0:0:0:0:
64,192,44545,1,0,0:0:0:0:
320,192,44620,1,0,0:0:0:0:
192,192,44695,1,0,0:0:0:0:
448,192,44770,1,0,0:0:0:0:
192,192,44845,1,0,0:0:0:0:
448,192,44920,1,0,0:0:0:0:
64,192,44995,1,0,0:0:0:0:
192,192,44995,1,0,0:0:0:0:
320,192,44995,1,0,0:0:0:0:
448,192,45070,1,0,0:0:0:0:
192,192,45145,1,0,0:0:0:0:
320,192,45220,1,0,0:0:0:0:
64,192,45295,1,0,0:0:0:0:
448,192,45370,1,0,0:0:0:0:
192,192,45445,1,0,0:0:0:0:
448,192,45520,1,0,0:0:0:0:
64,192,45595,1,0,0:0:0:0:
320,192,45595,1,0,0:0:0:0:
64,192,45745,1,0,0:0:0:0:
192,192,45745,1,0,0:0:0:0:
320,192,45820,1,0,0:0:0:0:
448,192,45820,1,0,0:0:0:0:
64,192,45895,1,0,0:0:0:0:
192,192,45895,1,0,0:0:0:0:
192,192,46045,1,0,0:0:0:0:
320,192,46045,1,0,0:0:0:0:
64,192,46120,1,0,0:0:0:0:
448,192,46120,1,0,0:0:0:0:
192,192,46270,1,0,0:0:0:0:
320,192,46270,1,0,0:0:0:0:
64,192,46420,1,0,0:0:0:0:
448,192,46420,1,0,0:0:0:0:
192,192,46495,1,0,0:0:0:0:
320,192,46495,1,0,0:0:0:0:
320,192,46645,1,0,0:0:0:0:
448,192,46645,1,0,0:0:0:0:
192,192,46795,1,0,0:0:0:0:
320,192,46795,1,0,0:0:0:0:
192,192,47395,1,0,0:0:0:0:
192,192,47620,1,0,0:0:0:0:
320,192,47845,1,0,0:0:0:0:
320,192,47995,1,0,0:0:0:0:
192,192,48595,1,0,0:0:0:0:
192,192,48820,1,0,0:0:0:0:
448,192,49045,1,0,0:0:0:0:
448,192,49195,1,0,0:0:0:0:
320,192,49495,1,0,0:0:0:0:
64,192,49795,1,0,0:0:0:0:
320,192,50095,1,0,0:0:0:0:
192,192,50395,1,0,0:0:0:0:
64,192,51595,1,0,0:0:0:0:
448,192,51670,1,0,0:0:0:0:
64,192,51745,1,0,0:0:0:0:
448,192,51820,1,0,0:0:0:0:
64,192,51895,1,0,0:0:0:0:
448,192,51970,1,0,0:0:0:0:
64,192,52045,1,0,0:0:0:0:
448,192,52120,1,0,0:0:0:0:
64,192,52195,1,0,0:0:0:0:
448,192,52270,1,0,0:0:0:0:
64,192,52345,1,0,0:0:0:0:
448,192,52420,1,0,0:0:0:0:
64,192,52495,1,0,0:0:0:0:
448,192,52570,1,0,0:0:0:0:
64,192,52645,1,0,0:0:0:0:
448,192,52720,1,0,0:0:0:0:
64,192,52795,1,0,0:0:0:0:
448,192,52870,1,0,0:0:0:0:
64,192,52945,1,0,0:0:0:0:
448,192,53020,1,0,0:0:0:0:
64,192,53095,1,0,0:0:0:0:
448,192,53170,1,0,0:0:0:0:
64,192,53245,1,0,0:0:0:0:
448,192,53320,1,0,0:0:0:0:
64,192,53395,1,0,0:0:0:0:
448,192,53470,1,0,0:0:0:0:
64,192,53545,1,0,0:0:0:0:
448,192,53620,1,0,0:0:0:0:
64,192,53695,1,0,0:0:0:0:
448,192,53770,1,0,0:0:0:0:
64,192,53845,1,0,0:0:0:0:
320,192,53920,1,0,0:0:0:0:
64,192,53995,1,0,0:0:0:0:
448,192,53995,1,0,0:0:0:0:
192,192,54045,1,0,0:0:0:0:
320,192,54095,1,0,0:0:0:0:
448,192,54145,1,0,0:0:0:0:
64,192,54220,1,0,0:0:0:0:
448,192,54295,1,0,0:0:0:0:
64,192,54370,1,0,0:0:0:0:
448,192,54445,1,0,0:0:0:0:
192,192,54520,1,0,0:0:0:0:
64,192,54595,1,0,0:0:0:0:
448,192,54595,1,0,0:0:0:0:
320,192,54645,1,0,0:0:0:0:
192,192,54695,1,0,0:0:0:0:
64,192,54745,1,0,0:0:0:0:
448,192,54820,1,0,0:0:0:0:
64,192,54895,1,0,0:0:0:0:
448,192,54970,1,0,0:0:0:0:
64,192,55045,1,0,0:0:0:0:
448,192,55120,1,0,0:0:0:0:
64,192,55195,1,0,0:0:0:0:
192,192,55245,1,0,0:0:0:0:
320,192,55295,1,0,0:0:0:0:
448,192,55345,1,0,0:0:0:0:
64,192,55395,1,0,0:0:0:0:
192,192,55445,1,0,0:0:0:0:
320,192,55495,1,0,0:0:0:0:
448,192,55545,1,0,0:0:0:0:
64,192,55595,1,0,0:0:0:0:
192,192,55645,1,0,0:0:0:0:
320,192,55695,1,0,0:0:0:0:
448,192,55745,1,0,0:0:0:0:
64,192,55795,1,0,0:0:0:0:
192,192,55845,1,0,0:0:0:0:
320,192,55895,1,0,0:0:0:0:
448,192,55945,1,0,0:0:0:0:
64,192,55995,1,0,0:0:0:0:
192,192,56045,1,0,0:0:0:0:
320,192,56095,1,0,0:0:0:0:
448,192,56145,1,0,0:0:0:0:
64,192,56195,1,0,0:0:0:0:
192,192,56245,1,0,0:0:0:0:
320,192,56295,1,0,0:0:0:0:
448,192,56345,1,0,0:0:0:0:
64,192,57595,1,0,0:0:0:0:
448,192,57595,1,0,0:0:0:0:
192,192,57632,1,0,0:0:0:0:
320,192,57670,1,0,0:0:0:0:
448,192,57707,1,0,0:0:0:0:
64,192,57745,1,0,0:0:0:0:
192,192,57782,1,0,0:0:0:0:
320,192,57820,1,0,0:0:0:0:
448,192,57857,1,0,0:0:0:0:
64,192,57895,1,0,0:0:0:0:
320,192,57970,1,0,0:0:0:0:
192,192,58045,1,0,0:0:0:0:
448,192,58120,1,0,0:0:0:0:
192,192,58195,1,0,0:0:0:0:
320,192,58270,1,0,0:0:0:0:
64,192,58345,1,0,0:0:0:0:
448,192,58420,1,0,0:0:0:0:
192,192,58495,1,0,0:0:0:0:
320,192,58532,1,0,0:0:0:0:
448,192,58570,1,0,0:0:0:0:
64,192,58645,1,0,0:0:0:0:
192,192,58682,1,0,0:0:0:0:
320,192,58720,1,0,0:0:0:0:
64,192,58795,1,0,0:0:0:0:
448,192,58795,1,0,0:0:0:0:
192,192,58832,1,0,0:0:0:0:
320,192,58870,1,0,0:0:0:0:
448,192,58907,1,0,0:0:0:0:
64,192,58945,1,0,0:0:0:0:
320,192,59020,1,0,0:0:0:0:
192,192,59095,1,0,0:0:0:0:
448,192,59170,1,0,0:0:0:0:
64,192,59245,1,0,0:0:0:0:
192,192,59320,1,0,0:0:0:0:
448,192,59395,1,0,0:0:0:0:
64,192,59470,1,0,0:0:0:0:
320,192,59507,1,0,0:0:0:0:
448,192,59545,1,0,0:0:0:0:
192,192,59620,1,0,0:0:0:0:
448,192,59695,1,0,0:0:0:0:
320,192,59732,1,0,0:0:0:0:
192,192,59770,1,0,0:0:0:0:
64,192,59807,1,0,0:0:0:0:
448,192,59845,1,0,0:0:0:0:
320,192,59920,1,0,0:0:0:0:
64,192,59995,1,0,0:0:0:0:
192,192,60032,1,0,0:0:0:0:
320,192,60070,1,0,0:0:0:0:
448,192,60107,1,0,0:0:0:0:
64,192,60145,1,0,0:0:0:0:
320,192,60220,1,0,0:0:0:0:
64,192,60295,1,0,0:0:0:0:
192,192,60370,1,0,0:0:0:0:
448,192,60445,1,0,0:0:0:0:
64,192,60520,1,0,0:0:0:0:
320,192,60595,1,0,0:0:0:0:
192,192,60670,1,0,0:0:0:0:
448,192,60745,1,0,0:0:0:0:
320,192,60782,1,0,0:0:0:0:
192,192,60820,1,0,0:0:0:0:
64,192,60857,1,0,0:0:0:0:
448,192,60895,1,0,0:0:0:0:
192,192,60970,1,0,0:0:0:0:
320,192,61045,1,0,0:0:0:0:
64,192,61120,1,0,0:0:0:0:
448,192,61195,1,0,0:0:0:0:
320,192,61270,1,0,0:0:0:0:
192,192,61345,1,0,0:0:0:0:
64,192,61420,1,0,0:0:0:0:
448,192,61495,1,0,0:0:0:0:
320,192,61532,1,0,0:0:0:0:
192,192,61570,1,0,0:0:0:0:
64,192,61607,1,0,0:0:0:0:
320,192,61645,1,0,0:0:0:0:
448,192,61720,1,0,0:0:0:0:
64,192,61795,1,0,0:0:0:0:
192,192,61870,1,0,0:0:0:0:
448,192,61945,1,0,0:0:0:0:
320,192,61982,1,0,0:0:0:0:
64,192,62020,1,0,0:0:0:0:
192,192,62095,1,0,0:0:0:0:
64,192,62170,1,0,0:0:0:0:
320,192,62207,1,0,0:0:0:0:
448,192,62245,1,0,0:0:0:0:
192,192,62320,1,0,0:0:0:0:
64,192,62395,1,0,0:0:0:0:
448,192,62395,1,0,0:0:0:0:
192,192,62432,1,0,0:0:0:0:
320,192,62470,1,0,0:0:0:0:
448,192,62507,1,0,0:0:0:0:
64,192,62545,1,0,0:0:0:0:
192,192,62582,1,0,0:0:0:0:
320,192,62620,1,0,0:0:0:0:
448,192,62657,1,0,0:0:0:0:
64,192,62695,1,0,0:0:0:0:
320,192,62770,1,0,0:0:0:0:
192,192,62845,1,0,0:0:0:0:
448,192,62920,1,0,0:0:0:0:
192,192,62995,1,0,0:0:0:0:
320,192,63070,1,0,0:0:0:0:
64,192,63145,1,0,0:0:0:0:
448,192,63220,1,0,0:0:0:0:
192,192,63295,1,0,0:0:0:0:
320,192,63332,1,0,0:0:0:0:
448,192,63370,1,0,0:0:0:0:
64,192,63445,1,0,0:0:0:0:
192,192,63482,1,0,0:0:0:0:
320,192,63520,1,0,0:0:0:0:
64,192,63595,1,0,0:0:0:0:
448,192,63595,1,0,0:0:0:0:
192,192,63632,1,0,0:0:0:0:
320,192,63670,1,0,0:0:0:0:
448,192,63707,1,0,0:0:0:0:
64,192,63745,1,0,0:0:0:0:
320,192,63820,1,0,0:0:0:0:
192,192,63895,1,0,0:0:0:0:
448,192,63970,1,0,0:0:0:0:
64,192,64045,1,0,0:0:0:0:
192,192,64120,1,0,0:0:0:0:
448,192,64195,1,0,0:0:0:0:
64,192,64270,1,0,0:0:0:0:
320,192,64307,1,0,0:0:0:0:
448,192,64345,1,0,0:0:0:0:
192,192,64420,1,0,0:0:0:0:
448,192,64495,1,0,0:0:0:0:
320,192,64532,1,0,0:0:0:0:
192,192,64570,1,0,0:0:0:0:
64,192,64607,1,0,0:0:0:0:
448,192,64645,1,0,0:0:0:0:
320,192,64720,1,0,0:0:0:0:
64,192,64795,1,0,0:0:0:0:
192,192,64832,1,0,0:0:0:0:
320,192,64870,1,0,0:0:0:0:
448,192,64907,1,0,0:0:0:0:
64,192,64945,1,0,0:0:0:0:
320,192,65020,1,0,0:0:0:0:
64,192,65095,1,0,0:0:0:0:
192,192,65170,1,0,0:0:0:0:
448,192,65245,1,0,0:0:0:0:
64,192,65320,1,0,0:0:0:0:
320,192,65395,1,0,0:0:0:0:
192,192,65470,1,0,0:0:0:0:
448,192,65545,1,0,0:0:0:0:
320,192,65582,1,0,0:0:0:0:
192,192,65620,1,0,0:0:0:0:
64,192,65657,1,0,0:0:0:0:
448,192,65695,1,0,0:0:0:0:
192,192,65770,1,0,0:0:0:0:
320,192,65845,1,0,0:0:0:0:
64,192,65920,1,0,0:0:0:0:
448,192,65995,1,0,0:0:0:0:
320,192,66070,1,0,0:0:0:0:
192,192,66145,1,0,0:0:0:0:
64,192,66220,1,0,0:0:0:0:
448,192,66295,1,0,0:0:0:0:
320,192,66332,1,0,0:0:0:0:
192,192,66370,1,0,0:0:0:0:
64,192,66407,1,0,0:0:0:0:
320,192,66445,1,0,0:0:0:0:
448,192,66520,1,0,0:0:0:0:
64,192,66595,1,0,0:0:0:0:
192,192,66670,1,0,0:0:0:0:
448,192,66745,1,0,0:0:0:0:
320,192,66782,1,0,0:0:0:0:
64,192,66820,1,0,0:0:0:0:
192,192,66895,1,0,0:0:0:0:
64,192,66970,1,0,0:0:0:0:
320,192,67007,1,0,0:0:0:0:
448,192,67045,1,0,0:0:0:0:
192,192,67120,1,0,0:0:0:0:
64,192,67195,1,0,0:0:0:0:
448,192,67195,1,0,0:0:0:0:
192,192,67232,1,0,0:0:0:0:
320,192,67270,1,0,0:0:0:0:
448,192,67307,1,0,0:0:0:0:
64,192,67345,1,0,0:0:0:0:
192,192,67382,1,0,0:0:0:0:
320,192,67420,1,0,0:0:0:0:
448,192,67457,1,0,0:0:0:0:
64,192,67495,1,0,0:0:0:0:
192,192,67495,1,0,0:0:0:0:
448,192,67570,1,0,0:0:0:0:
192,192,67645,1,0,0:0:0:0:
320,192,67720,1,0,0:0:0:0:
64,192,67795,1,0,0:0:0:0:
448,192,67870,1,0,0:0:0:0:
64,192,67945,1,0,0:0:0:0:
192,192,67945,1,0,0:0:0:0:
448,192,68020,1,0,0:0:0:0:
64,192,68095,1,0,0:0:0:0:
192,192,68132,1,0,0:0:0:0:
320,192,68170,1,0,0:0:0:0:
64,192,68245,1,0,0:0:0:0:
448,192,68245,1,0,0:0:0:0:
192,192,68282,1,0,0:0:0:0:
320,192,68320,1,0,0:0:0:0:
64,192,68395,1,0,0:0:0:0:
448,192,68395,1,0,0:0:0:0:
192,192,68432,1,0,0:0:0:0:
320,192,68470,1,0,0:0:0:0:
448,192,68507,1,0,0:0:0:0:
64,192,68545,1,0,0:0:0:0:
192,192,68545,1,0,0:0:0:0:
320,192,68620,1,0,0:0:0:0:
64,192,68695,1,0,0:0:0:0:
448,192,68695,1,0,0:0:0:0:
192,192,68770,1,0,0:0:0:0:
320,192,68845,1,0,0:0:0:0:
448,192,68920,1,0,0:0:0:0:
192,192,68995,1,0,0:0:0:0:
64,192,69070,1,0,0:0:0:0:
320,192,69107,1,0,0:0:0:0:
192,192,69145,1,0,0:0:0:0:
448,192,69145,1,0,0:0:0:0:
64,192,69220,1,0,0:0:0:0:
448,192,69295,1,0,0:0:0:0:
320,192,69332,1,0,0:0:0:0:
192,192,69370,1,0,0:0:0:0:
64,192,69407,1,0,0:0:0:0:
320,192,69445,1,0,0:0:0:0:
448,192,69445,1,0,0:0:0:0:
192,192,69520,1,0,0:0:0:0:
64,192,69595,1,0,0:0:0:0:
448,192,69595,1,0,0:0:0:0:
192,192,69632,1,0,0:0:0:0:
320,192,69670,1,0,0:0:0:0:
448,192,69707,1,0,0:0:0:0:
64,192,69745,1,0,0:0:0:0:
192,192,69745,1,0,0:0:0:0:
320,192,69820,1,0,0:0:0:0:
64,192,69895,1,0,0:0:0:0:
448,192,69895,1,0,0:0:0:0:
192,192,69970,1,0,0:0:0:0:
448,192,70045,1,0,0:0:0:0:
64,192,70120,1,0,0:0:0:0:
320,192,70195,1,0,0:0:0:0:
192,192,70270,1,0,0:0:0:0:
64,192,70345,1,0,0:0:0:0:
448,192,70345,1,0,0:0:0:0:
320,192,70382,1,0,0:0:0:0:
192,192,70420,1,0,0:0:0:0:
64,192,70457,1,0,0:0:0:0:
448,192,70495,1,0,0:0:0:0:
64,192,70570,1,0,0:0:0:0:
192,192,70645,1,0,0:0:0:0:
448,192,70645,1,0,0:0:0:0:
320,192,70720,1,0,0:0:0:0:
64,192,70795,1,0,0:0:0:0:
448,192,70870,1,0,0:0:0:0:
192,192,70945,1,0,0:0:0:0:
320,192,70945,1,0,0:0:0:0:
64,192,71020,1,0,0:0:0:0:
448,192,71095,1,0,0:0:0:0:
320,192,71132,1,0,0:0:0:0:
192,192,71170,1,0,0:0:0:0:
64,192,71207,1,0,0:0:0:0:
320,192,71245,1,0,0:0:0:0:
448,192,71245,1,0,0:0:0:0:
192,192,71320,1,0,0:0:0:0:
64,192,71395,1,0,0:0:0:0:
448,192,71395,1,0,0:0:0:0:
192,192,71470,1,0,0:0:0:0:
448,192,71545,1,0,0:0:0:0:
320,192,71582,1,0,0:0:0:0:
64,192,71620,1,0,0:0:0:0:
192,192,71695,1,0,0:0:0:0:
448,192,71695,1,0,0:0:0:0:
64,192,71770,1,0,0:0:0:0:
192,192,71807,1,0,0:0:0:0:
320,192,71845,1,0,0:0:0:0:
448,192,71845,1,0,0:0:0:0:
192,192,71920,1,0,0:0:0:0:
64,192,71995,1,0,0:0:0:0:
448,192,71995,1,0,0:0:0:0:
192,192,72032,1,0,0:0:0:0:
320,192,72070,1,0,0:0:0:0:
448,192,72107,1,0,0:0:0:0:
64,192,72145,1,0,0:0:0:0:
192,192,72182,1,0,0:0:0:0:
320,192,72220,1,0,0:0:0:0:
448,192,72257,1,0,0:0:0:0:
64,192,72295,1,0,0:0:0:0:
192,192,72295,1,0,0:0:0:0:
448,192,72370,1,0,0:0:0:0:
192,192,72445,1,0,0:0:0:0:
320,192,72520,1,0,0:0:0:0:
64,192,72595,1,0,0:0:0:0:
448,192,72670,1,0,0:0:0:0:
64,192,72745,1,0,0:0:0:0:
192,192,72745,1,0,0:0:0:0:
448,192,72820,1,0,0:0:0:0:
64,192,72895,1,0,0:0:0:0:
192,192,72932,1,0,0:0:0:0:
320,192,72970,1,0,0:0:0:0:
64,192,73045,1,0,0:0:0:0:
448,192,73045,1,0,0:0:0:0:
192,192,73082,1,0,0:0:0:0:
320,192,73120,1,0,0:0:0:0:
64,192,73195,1,0,0:0:0:0:
448,192,73195,1,0,0:0:0:0:
192,192,73232,1,0,0:0:0:0:
320,192,73270,1,0,0:0:0:0:
448,192,73307,1,0,0:0:0:0:
64,192,73345,1,0,0:0:0:0:
192,192,73345,1,0,0:0:0:0:
320,192,73420,1,0,0:0:0:0:
64,192,73495,1,0,0:0:0:0:
448,192,73495,1,0,0:0:0:0:
192,192,73570,1,0,0:0:0:0:
320,192,73645,1,0,0:0:0:0:
448,192,73720,1,0,0:0:0:0:
192,192,73795,1,0,0:0:0:0:
64,192,73870,1,0,0:0:0:0:
320,192,73907,1,0,0:0:0:0:
192,192,73945,1,0,0:0:0:0:
448,192,73945,1,0,0:0:0:0:
64,192,74020,1,0,0:0:0:0:
448,192,74095,1,0,0:0:0:0:
320,192,74132,1,0,0:0:0:0:
192,192,74170,1,0,0:0:0:0:
64,192,74207,1,0,0:0:0:0:
320,192,74245,1,0,0:0:0:0:
448,192,74245,1,0,0:0:0:0:
192,192,74320,1,0,0:0:0:0:
64,192,74395,1,0,0:0:0:0:
448,192,74395,1,0,0:0:0:0:
192,192,74432,1,0,0:0:0:0:
320,192,74470,1,0,0:0:0:0:
448,192,74507,1,0,0:0:0:0:
64,192,74545,1,0,0:0:0:0:
192,192,74545,1,0,0:0:0:0:
320,192,74620,1,0,0:0:0:0:
64,192,74695,1,0,0:0:0:0:
448,192,74695,1,0,0:0:0:0:
192,192,74770,1,0,0:0:0:0:
448,192,74845,1,0,0:0:0:0:
64,192,74920,1,0,0:0:0:0:
320,192,74995,1,0,0:0:0:0:
192,192,75070,1,0,0:0:0:0:
64,192,75145,1,0,0:0:0:0:
448,192,75145,1,0,0:0:0:0:
320,192,75182,1,0,0:0:0:0:
192,192,75220,1,0,0:0:0:0:
64,192,75257,1,0,0:0:0:0:
320,192,75295,1,0,0:0:0:0:
192,192,75370,1,0,0:0:0:0:
64,192,75445,1,0,0:0:0:0:
320,192,75445,1,0,0:0:0:0:
448,192,75445,1,0,0:0:0:0:
64,192,75745,1,0,0:0:0:0:
320,192,75745,1,0,0:0:0:0:
448,192,75745,1,0,0:0:0:0:
64,192,76045,1,0,0:0:0:0:
320,192,76045,1,0,0:0:0:0:
448,192,76045,1,0,0:0:0:0:
64,192,76195,1,0,0:0:0:0:
320,192,76195,1,0,0:0:0:0:
448,192,76195,1,0,0:0:0:0:
192,192,76345,1,0,0:0:0:0:
320,192,76345,1,0,0:0:0:0:
64,192,76495,1,0,0:0:0:0:
448,192,76495,1,0,0:0:0:0:
192,0,76495,128,0,76645:1:0:0:0:
64,192,76795,1,0,0:0:0:0:
320,192,76795,1,0,0:0:0:0:
448,192,76795,1,0,0:0:0:0:
192,192,76945,1,0,0:0:0:0:
320,192,77095,1,0,0:0:0:0:
448,192,77095,1,0,0:0:0:0:
64,192,77245,1,0,0:0:0:0:
320,192,77395,1,0,0:0:0:0:
192,192,77545,1,0,0:0:0:0:
64,192,77695,1,0,0:0:0:0:
448,192,77695,1,0,0:0:0:0:
192,192,77845,1,0,0:0:0:0:
320,192,77845,1,0,0:0:0:0:
64,192,77995,1,0,0:0:0:0:
448,192,77995,1,0,0:0:0:0:
64,192,78295,1,0,0:0:0:0:
448,192,78295,1,0,0:0:0:0:
64,192,78595,1,0,0:0:0:0:
448,192,78595,1,0,0:0:0:0:
64,192,79195,1,0,0:0:0:0:
192,192,79195,1,0,0:0:0:0:
448,192,79195,1,0,0:0:0:0:
320,192,79345,1,0,0:0:0:0:
64,192,79420,1,0,0:0:0:0:
192,192,79495,1,0,0:0:0:0:
448,192,79495,1,0,0:0:0:0:
64,192,79645,1,0,0:0:0:0:
320,192,79645,1,0,0:0:0:0:
192,192,79795,1,0,0:0:0:0:
448,192,79795,1,0,0:0:0:0:
64,192,79945,1,0,0:0:0:0:
320,192,79945,1,0,0:0:0:0:
320,192,80095,1,0,0:0:0:0:
448,192,80095,1,0,0:0:0:0:
64,192,80245,1,0,0:0:0:0:
192,192,80245,1,0,0:0:0:0:
320,192,80395,1,0,0:0:0:0:
448,192,80395,1,0,0:0:0:0:
320,192,80695,1,0,0:0:0:0:
448,192,80695,1,0,0:0:0:0:
320,192,80995,1,0,0:0:0:0:
448,192,80995,1,0,0:0:0:0:
192,192,81445,1,0,0:0:0:0:
320,192,81495,1,0,0:0:0:0:
448,192,81545,1,0,0:0:0:0:
64,192,81595,1,0,0:0:0:0:
192,192,81595,1,0,0:0:0:0:
320,192,81670,1,0,0:0:0:0:
64,192,81745,1,0,0:0:0:0:
448,192,81745,1,0,0:0:0:0:
192,192,81820,1,0,0:0:0:0:
320,192,81895,1,0,0:0:0:0:
448,192,81895,1,0,0:0:0:0:
64,192,81970,1,0,0:0:0:0:
192,192,82045,1,0,0:0:0:0:
448,192,82045,1,0,0:0:0:0:
320,192,82120,1,0,0:0:0:0:
64,192,82195,1,0,0:0:0:0:
192,192,82195,1,0,0:0:0:0:
320,192,82270,1,0,0:0:0:0:
64,192,82345,1,0,0:0:0:0:
448,192,82345,1,0,0:0:0:0:
192,192,82420,1,0,0:0:0:0:
320,192,82495,1,0,0:0:0:0:
448,192,82495,1,0,0:0:0:0:
192,192,82570,1,0,0:0:0:0:
64,192,82645,1,0,0:0:0:0:
448,192,82645,1,0,0:0:0:0:
192,192,82720,1,0,0:0:0:0:
320,192,82795,1,0,0:0:0:0:
448,192,82795,1,0,0:0:0:0:
192,192,82870,1,0,0:0:0:0:
64,192,82945,1,0,0:0:0:0:
448,192,82945,1,0,0:0:0:0:
320,192,83020,1,0,0:0:0:0:
64,192,83095,1,0,0:0:0:0:
192,192,83095,1,0,0:0:0:0:
448,192,83170,1,0,0:0:0:0:
64,192,83245,1,0,0:0:0:0:
320,192,83245,1,0,0:0:0:0:
192,192,83320,1,0,0:0:0:0:
64,192,83395,1,0,0:0:0:0:
448,192,83395,1,0,0:0:0:0:
192,192,83470,1,0,0:0:0:0:
320,192,83545,1,0,0:0:0:0:
448,192,83545,1,0,0:0:0:0:
64,192,83620,1,0,0:0:0:0:
192,192,83695,1,0,0:0:0:0:
448,192,83695,1,0,0:0:0:0:
320,192,83770,1,0,0:0:0:0:
64,192,83845,1,0,0:0:0:0:
448,192,83845,1,0,0:0:0:0:
192,192,83920,1,0,0:0:0:0:
320,192,83995,1,0,0:0:0:0:
448,192,83995,1,0,0:0:0:0:
192,192,84070,1,0,0:0:0:0:
64,192,84145,1,0,0:0:0:0:
448,192,84145,1,0,0:0:0:0:
320,192,84220,1,0,0:0:0:0:
64,192,84295,1,0,0:0:0:0:
192,192,84295,1,0,0:0:0:0:
448,192,84370,1,0,0:0:0:0:
64,192,84445,1,0,0:0:0:0:
320,192,84445,1,0,0:0:0:0:
192,192,84520,1,0,0:0:0:0:
64,192,84595,1,0,0:0:0:0:
448,192,84595,1,0,0:0:0:0:
192,192,84670,1,0,0:0:0:0:
320,192,84745,1,0,0:0:0:0:
448,192,84745,1,0,0:0:0:0:
64,192,84820,1,0,0:0:0:0:
192,192,84895,1,0,0:0:0:0:
320,192,84895,1,0,0:0:0:0:
448,192,84970,1,0,0:0:0:0:
64,192,85045,1,0,0:0:0:0:
320,192,85045,1,0,0:0:0:0:
192,192,85120,1,0,0:0:0:0:
64,192,85195,1,0,0:0:0:0:
448,192,85195,1,0,0:0:0:0:
192,192,85270,1,0,0:0:0:0:
320,192,85345,1,0,0:0:0:0:
448,192,85345,1,0,0:0:0:0:
64,192,85420,1,0,0:0:0:0:
192,192,85495,1,0,0:0:0:0:
448,192,85495,1,0,0:0:0:0:
320,192,85570,1,0,0:0:0:0:
64,192,85645,1,0,0:0:0:0:
448,192,85645,1,0,0:0:0:0:
320,192,85720,1,0,0:0:0:0:
64,192,85795,1,0,0:0:0:0:
192,192,85795,1,0,0:0:0:0:
320,192,85870,1,0,0:0:0:0:
64,192,85945,1,0,0:0:0:0:
448,192,85945,1,0,0:0:0:0:
192,192,86020,1,0,0:0:0:0:
320,192,86095,1,0,0:0:0:0:
448,192,86095,1,0,0:0:0:0:
64,192,86170,1,0,0:0:0:0:
192,192,86245,1,0,0:0:0:0:
448,192,86245,1,0,0:0:0:0:
320,192,86320,1,0,0:0:0:0:
64,192,86395,1,0,0:0:0:0:
192,192,86395,1,0,0:0:0:0:
320,192,86545,1,0,0:0:0:0:
448,192,86545,1,0,0:0:0:0:
64,192,86620,1,0,0:0:0:0:
192,192,86695,1,0,0:0:0:0:
448,0,86695,128,0,86845:1:0:0:0:
64,192,86845,1,0,0:0:0:0:
320,192,86995,1,0,0:0:0:0:
192,192,87070,1,0,0:0:0:0:
320,192,87145,1,0,0:0:0:0:
192,192,87220,1,0,0:0:0:0:
64,192,87295,1,0,0:0:0:0:
320,192,87295,1,0,0:0:0:0:
64,0,87445,128,0,87520:1:0:0:0:
448,0,87445,128,0,87520:1:0:0:0:
64,192,87595,1,0,0:0:0:0:
320,192,87595,1,0,0:0:0:0:
64,192,87745,1,0,0:0:0:0:
192,192,87745,1,0,0:0:0:0:
320,192,87820,1,0,0:0:0:0:
448,192,87820,1,0,0:0:0:0:
64,192,87895,1,0,0:0:0:0:
192,192,87895,1,0,0:0:0:0:
192,192,88045,1,0,0:0:0:0:
320,192,88045,1,0,0:0:0:0:
64,192,88120,1,0,0:0:0:0:
448,192,88120,1,0,0:0:0:0:
192,192,88270,1,0,0:0:0:0:
320,192,88270,1,0,0:0:0:0:
64,192,88420,1,0,0:0:0:0:
448,192,88420,1,0,0:0:0:0:
192,192,88495,1,0,0:0:0:0:
320,192,88495,1,0,0:0:0:0:
320,192,88645,1,0,0:0:0:0:
448,192,88645,1,0,0:0:0:0:
64,192,88795,1,0,0:0:0:0:
192,192,88795,1,0,0:0:0:0:
64,192,89395,1,0,0:0:0:0:
192,192,89620,1,0,0:0:0:0:
320,192,89845,1,0,0:0:0:0:
320,192,89995,1,0,0:0:0:0:
192,192,90595,1,0,0:0:0:0:
320,192,90820,1,0,0:0:0:0:
448,192,91045,1,0,0:0:0:0:
448,192,91195,1,0,0:0:0:0:
320,192,91495,1,0,0:0:0:0:
192,192,91795,1,0,0:0:0:0:
64,192,92095,1,0,0:0:0:0:
320,192,92395,1,0,0:0:0:0:
64,192,93595,1,0,0:0:0:0:
192,192,93595,1,0,0:0:0:0:
448,192,93595,1,0,0:0:0:0:
320,192,93670,1,0,0:0:0:0:
64,192,93745,1,0,0:0:0:0:
192,192,93820,1,0,0:0:0:0:
320,192,93895,1,0,0:0:0:0:
448,192,93895,1,0,0:0:0:0:
64,192,93970,1,0,0:0:0:0:
320,192,94045,1,0,0:0:0:0:
192,192,94120,1,0,0:0:0:0:
64,192,94195,1,0,0:0:0:0:
448,192,94195,1,0,0:0:0:0:
320,192,94270,1,0,0:0:0:0:
64,192,94345,1,0,0:0:0:0:
192,192,94420,1,0,0:0:0:0:
320,192,94420,1,0,0:0:0:0:
64,192,94795,1,0,0:0:0:0:
192,192,94795,1,0,0:0:0:0:
448,192,94795,1,0,0:0:0:0:
320,192,94870,1,0,0:0:0:0:
448,192,94945,1,0,0:0:0:0:
64,192,95020,1,0,0:0:0:0:
320,192,95095,1,0,0:0:0:0:
448,192,95095,1,0,0:0:0:0:
64,192,95170,1,0,0:0:0:0:
320,192,95245,1,0,0:0:0:0:
192,192,95320,1,0,0:0:0:0:
64,192,95395,1,0,0:0:0:0:
448,192,95395,1,0,0:0:0:0:
192,192,95470,1,0,0:0:0:0:
320,192,95545,1,0,0:0:0:0:
64,192,95620,1,0,0:0:0:0:
448,192,95620,1,0,0:0:0:0:
64,192,95995,1,0,0:0:0:0:
320,192,95995,1,0,0:0:0:0:
192,192,96032,1,0,0:0:0:0:
448,192,96070,1,0,0:0:0:0:
320,192,96107,1,0,0:0:0:0:
64,192,96145,1,0,0:0:0:0:
192,192,96182,1,0,0:0:0:0:
448,192,96220,1,0,0:0:0:0:
320,192,96257,1,0,0:0:0:0:
64,192,96295,1,0,0:0:0:0:
192,192,96295,1,0,0:0:0:0:
192,192,96595,1,0,0:0:0:0:
448,192,96595,1,0,0:0:0:0:
320,192,96632,1,0,0:0:0:0:
64,192,96670,1,0,0:0:0:0:
192,192,96707,1,0,0:0:0:0:
448,192,96745,1,0,0:0:0:0:
320,192,96782,1,0,0:0:0:0:
64,192,96820,1,0,0:0:0:0:
192,192,96857,1,0,0:0:0:0:
320,192,96895,1,0,0:0:0:0:
448,192,96895,1,0,0:0:0:0:
64,192,97195,1,0,0:0:0:0:
448,192,97195,1,0,0:0:0:0:
192,192,97232,1,0,0:0:0:0:
320,192,97270,1,0,0:0:0:0:
448,192,97307,1,0,0:0:0:0:
64,192,97345,1,0,0:0:0:0:
192,192,97382,1,0,0:0:0:0:
320,192,97420,1,0,0:0:0:0:
448,192,97457,1,0,0:0:0:0:
64,192,97495,1,0,0:0:0:0:
192,192,97532,1,0,0:0:0:0:
320,192,97570,1,0,0:0:0:0:
448,192,97607,1,0,0:0:0:0:
64,192,97645,1,0,0:0:0:0:
192,192,97682,1,0,0:0:0:0:
320,192,97720,1,0,0:0:0:0:
448,192,97757,1,0,0:0:0:0:
64,0,97795,128,0,98095:1:0:0:0:
192,0,97795,128,0,98095:1:0:0:0:
320,0,98095,128,0,98245:1:0:0:0:
448,0,98095,128,0,98245:1:0:0:0:
448,192,98395,1,0,0:0:0:0:
320,192,98432,1,0,0:0:0:0:
192,192,98470,1,0,0:0:0:0:
64,192,98507,1,0,0:0:0:0:
448,192,98545,1,0,0:0:0:0:
320,192,98582,1,0,0:0:0:0:
192,192,98620,1,0,0:0:0:0:
64,192,98657,1,0,0:0:0:0:
192,192,98695,1,0,0:0:0:0:
320,192,98695,1,0,0:0:0:0:
448,192,98770,1,0,0:0:0:0:
64,192,98845,1,0,0:0:0:0:
320,192,98845,1,0,0:0:0:0:
192,192,98920,1,0,0:0:0:0:
320,192,98995,1,0,0:0:0:0:
448,192,98995,1,0,0:0:0:0:
64,192,99070,1,0,0:0:0:0:
192,192,99145,1,0,0:0:0:0:
448,192,99145,1,0,0:0:0:0:
320,192,99220,1,0,0:0:0:0:
64,192,99295,1,0,0:0:0:0:
448,192,99295,1,0,0:0:0:0:
192,192,99370,1,0,0:0:0:0:
64,192,99445,1,0,0:0:0:0:
448,192,99445,1,0,0:0:0:0:
320,192,99520,1,0,0:0:0:0:
64,192,99595,1,0,0:0:0:0:
192,192,99595,1,0,0:0:0:0:
448,192,99595,1,0,0:0:0:0:
320,192,99670,1,0,0:0:0:0:
448,192,99745,1,0,0:0:0:0:
192,192,99820,1,0,0:0:0:0:
64,192,99895,1,0,0:0:0:0:
320,192,99895,1,0,0:0:0:0:
448,192,99895,1,0,0:0:0:0:
192,192,99970,1,0,0:0:0:0:
320,192,100045,1,0,0:0:0:0:
64,192,100120,1,0,0:0:0:0:
192,192,100195,1,0,0:0:0:0:
320,192,100195,1,0,0:0:0:0:
448,192,100195,1,0,0:0:0:0:
64,192,100270,1,0,0:0:0:0:
320,192,100345,1,0,0:0:0:0:
192,192,100420,1,0,0:0:0:0:
64,192,100495,1,0,0:0:0:0:
320,192,100495,1,0,0:0:0:0:
448,192,100495,1,0,0:0:0:0:
192,192,100570,1,0,0:0:0:0:
320,192,100645,1,0,0:0:0:0:
192,192,100720,1,0,0:0:0:0:
64,192,100795,1,0,0:0:0:0:
320,192,100795,1,0,0:0:0:0:
448,192,100795,1,0,0:0:0:0:
192,192,100845,1,0,0:0:0:0:
320,192,100895,1,0,0:0:0:0:
448,192,100945,1,0,0:0:0:0:
192,192,101020,1,0,0:0:0:0:
64,192,101095,1,0,0:0:0:0:
448,192,101095,1,0,0:0:0:0:
192,192,101145,1,0,0:0:0:0:
320,192,101195,1,0,0:0:0:0:
448,192,101245,1,0,0:0:0:0:
192,192,101320,1,0,0:0:0:0:
64,192,101395,1,0,0:0:0:0:
320,192,101395,1,0,0:0:0:0:
448,192,101395,1,0,0:0:0:0:
192,192,101445,1,0,0:0:0:0:
320,192,101495,1,0,0:0:0:0:
448,192,101545,1,0,0:0:0:0:
64,192,101595,1,0,0:0:0:0:
192,192,101645,1,0,0:0:0:0:
320,192,101695,1,0,0:0:0:0:
448,192,101745,1,0,0:0:0:0:
64,192,101795,1,0,0:0:0:0:
192,192,101845,1,0,0:0:0:0:
320,192,101895,1,0,0:0:0:0:
448,192,101945,1,0,0:0:0:0:
64,192,101995,1,0,0:0:0:0:
320,192,101995,1,0,0:0:0:0:
448,192,101995,1,0,0:0:0:0:
64,192,102145,1,0,0:0:0:0:
192,192,102145,1,0,0:0:0:0:
320,192,102220,1,0,0:0:0:0:
64,192,102295,1,0,0:0:0:0:
448,192,102295,1,0,0:0:0:0:
192,192,102370,1,0,0:0:0:0:
320,192,102370,1,0,0:0:0:0:
64,192,102445,1,0,0:0:0:0:
448,192,102445,1,0,0:0:0:0:
192,192,102520,1,0,0:0:0:0:
320,192,102595,1,0,0:0:0:0:
448,192,102595,1,0,0:0:0:0:
64,192,102745,1,0,0:0:0:0:
320,192,102745,1,0,0:0:0:0:
64,192,102895,1,0,0:0:0:0:
192,192,102895,1,0,0:0:0:0:
192,192,103045,1,0,0:0:0:0:
448,192,103045,1,0,0:0:0:0:
64,192,103195,1,0,0:0:0:0:
320,192,103195,1,0,0:0:0:0:
448,192,103195,1,0,0:0:0:0:
64,192,103345,1,0,0:0:0:0:
320,192,103345,1,0,0:0:0:0:
192,192,103420,1,0,0:0:0:0:
320,192,103495,1,0,0:0:0:0:
448,192,103495,1,0,0:0:0:0:
64,192,103570,1,0,0:0:0:0:
192,192,103570,1,0,0:0:0:0:
320,192,103645,1,0,0:0:0:0:
448,192,103645,1,0,0:0:0:0:
64,192,103695,1,0,0:0:0:0:
192,192,103745,1,0,0:0:0:0:
320,192,103795,1,0,0:0:0:0:
448,192,103795,1,0,0:0:0:0:
192,192,103945,1,0,0:0:0:0:
448,192,103945,1,0,0:0:0:0:
64,192,104095,1,0,0:0:0:0:
320,192,104095,1,0,0:0:0:0:
320,192,104245,1,0,0:0:0:0:
448,192,104245,1,0,0:0:0:0:
64,192,104395,1,0,0:0:0:0:
320,192,104395,1,0,0:0:0:0:
448,192,104395,1,0,0:0:0:0:
192,192,104545,1,0,0:0:0:0:
448,192,104545,1,0,0:0:0:0:
64,192,104620,1,0,0:0:0:0:
320,192,104695,1,0,0:0:0:0:
448,192,104695,1,0,0:0:0:0:
64,192,104770,1,0,0:0:0:0:
192,192,104770,1,0,0:0:0:0:
320,192,104845,1,0,0:0:0:0:
448,192,104845,1,0,0:0:0:0:
64,192,104920,1,0,0:0:0:0:
192,192,104995,1,0,0:0:0:0:
448,192,104995,1,0,0:0:0:0:
64,192,105145,1,0,0:0:0:0:
320,192,105145,1,0,0:0:0:0:
192,192,105295,1,0,0:0:0:0:
448,192,105295,1,0,0:0:0:0:
320,192,105445,1,0,0:0:0:0:
448,192,105445,1,0,0:0:0:0:
64,192,105595,1,0,0:0:0:0:
320,192,105595,1,0,0:0:0:0:
448,192,105595,1,0,0:0:0:0:
320,192,105745,1,0,0:0:0:0:
448,192,105745,1,0,0:0:0:0:
64,192,105795,1,0,0:0:0:0:
320,192,105845,1,0,0:0:0:0:
192,192,105895,1,0,0:0:0:0:
448,192,105895,1,0,0:0:0:0:
192,192,106045,1,0,0:0:0:0:
320,192,106045,1,0,0:0:0:0:
64,192,106095,1,0,0:0:0:0:
448,192,106145,1,0,0:0:0:0:
64,192,106195,1,0,0:0:0:0:
320,192,106195,1,0,0:0:0:0:
192,192,106345,1,0,0:0:0:0:
448,192,106345,1,0,0:0:0:0:
64,192,106395,1,0,0:0:0:0:
320,192,106445,1,0,0:0:0:0:
64,0,106495,128,0,106645:1:0:0:0:
192,0,106495,128,0,106645:1:0:0:0:
64,192,106795,1,0,0:0:0:0:
320,192,106795,1,0,0:0:0:0:
448,192,106795,1,0,0:0:0:0:
64,192,106945,1,0,0:0:0:0:
192,192,106945,1,0,0:0:0:0:
320,192,107020,1,0,0:0:0:0:
64,192,107095,1,0,0:0:0:0:
448,192,107095,1,0,0:0:0:0:
192,192,107170,1,0,0:0:0:0:
320,192,107170,1,0,0:0:0:0:
64,192,107245,1,0,0:0:0:0:
448,192,107245,1,0,0:0:0:0:
192,192,107320,1,0,0:0:0:0:
320,192,107395,1,0,0:0:0:0:
448,192,107395,1,0,0:0:0:0:
64,192,107545,1,0,0:0:0:0:
320,192,107545,1,0,0:0:0:0:
64,192,107695,1,0,0:0:0:0:
192,192,107695,1,0,0:0:0:0:
192,192,107845,1,0,0:0:0:0:
448,192,107845,1,0,0:0:0:0:
64,192,107995,1,0,0:0:0:0:
320,192,107995,1,0,0:0:0:0:
448,192,107995,1,0,0:0:0:0:
64,192,108145,1,0,0:0:0:0:
320,192,108145,1,0,0:0:0:0:
192,192,108220,1,0,0:0:0:0:
320,192,108295,1,0,0:0:0:0:
448,192,108295,1,0,0:0:0:0:
64,192,108370,1,0,0:0:0:0:
192,192,108370,1,0,0:0:0:0:
320,192,108445,1,0,0:0:0:0:
448,192,108445,1,0,0:0:0:0:
64,192,108495,1,0,0:0:0:0:
192,192,108545,1,0,0:0:0:0:
320,192,108595,1,0,0:0:0:0:
448,192,108595,1,0,0:0:0:0:
192,192,108745,1,0,0:0:0:0:
448,192,108745,1,0,0:0:0:0:
64,192,108895,1,0,0:0:0:0:
320,192,108895,1,0,0:0:0:0:
320,192,109045,1,0,0:0:0:0:
448,192,109045,1,0,0:0:0:0:
64,192,109195,1,0,0:0:0:0:
320,192,109195,1,0,0:0:0:0:
448,192,109195,1,0,0:0:0:0:
192,192,109345,1,0,0:0:0:0:
448,192,109345,1,0,0:0:0:0:
64,192,109420,1,0,0:0:0:0:
320,192,109495,1,0,0:0:0:0:
448,192,109495,1,0,0:0:0:0:
64,192,109570,1,0,0:0:0:0:
192,192,109570,1,0,0:0:0:0:
320,192,109645,1,0,0:0:0:0:
448,192,109645,1,0,0:0:0:0:
64,192,109720,1,0,0:0:0:0:
192,192,109795,1,0,0:0:0:0:
448,192,109795,1,0,0:0:0:0:
64,192,109945,1,0,0:0:0:0:
320,192,109945,1,0,0:0:0:0:
192,192,110095,1,0,0:0:0:0:
448,192,110095,1,0,0:0:0:0:
320,192,110245,1,0,0:0:0:0:
448,192,110245,1,0,0:0:0:0:
320,192,110395,1,0,0:0:0:0:
448,192,110395,1,0,0:0:0:0:
64,192,110470,1,0,0:0:0:0:
192,192,110470,1,0,0:0:0:0:
320,192,110545,1,0,0:0:0:0:
448,192,110545,1,0,0:0:0:0:
192,192,110695,1,0,0:0:0:0:
320,192,110695,1,0,0:0:0:0:
64,192,110845,1,0,0:0:0:0:
192,192,110845,1,0,0:0:0:0:
320,192,110920,1,0,0:0:0:0:
448,192,110920,1,0,0:0:0:0:
192,192,111070,1,0,0:0:0:0:
320,192,111070,1,0,0:0:0:0:
192,192,111220,1,0,0:0:0:0:
320,192,111220,1,0,0:0:0:0:
64,192,111295,1,0,0:0:0:0:
448,192,111295,1,0,0:0:0:0:
192,192,111445,1,0,0:0:0:0:
320,192,111445,1,0,0:0:0:0:
64,192,111595,1,0,0:0:0:0:
320,192,111595,1,0,0:0:0:0:
448,192,111595,1,0,0:0:0:0:
192,192,111670,1,0,0:0:0:0:
64,192,111745,1,0,0:0:0:0:
448,192,111745,1,0,0:0:0:0:
192,192,111820,1,0,0:0:0:0:
320,192,111895,1,0,0:0:0:0:
448,192,111895,1,0,0:0:0:0:
64,192,111970,1,0,0:0:0:0:
192,192,111970,1,0,0:0:0:0:
320,192,112045,1,0,0:0:0:0:
448,192,112045,1,0,0:0:0:0:
64,192,112120,1,0,0:0:0:0:
192,192,112195,1,0,0:0:0:0:
320,192,112195,1,0,0:0:0:0:
448,192,112195,1,0,0:0:0:0:
64,192,112270,1,0,0:0:0:0:
192,192,112345,1,0,0:0:0:0:
448,192,112345,1,0,0:0:0:0:
320,192,112420,1,0,0:0:0:0:
64,192,112495,1,0,0:0:0:0:
192,192,112495,1,0,0:0:0:0:
448,192,112570,1,0,0:0:0:0:
64,192,112645,1,0,0:0:0:0:
192,192,112645,1,0,0:0:0:0:
320,192,112695,1,0,0:0:0:0:
448,192,112745,1,0,0:0:0:0:
64,192,112795,1,0,0:0:0:0:
192,192,112795,1,0,0:0:0:0:
320,192,112795,1,0,0:0:0:0:
448,192,112870,1,0,0:0:0:0:
64,192,112945,1,0,0:0:0:0:
192,192,112945,1,0,0:0:0:0:
448,192,113020,1,0,0:0:0:0:
64,192,113095,1,0,0:0:0:0:
192,192,113095,1,0,0:0:0:0:
320,192,113170,1,0,0:0:0:0:
448,192,113170,1,0,0:0:0:0:
64,192,113245,1,0,0:0:0:0:
192,192,113245,1,0,0:0:0:0:
448,192,113295,1,0,0:0:0:0:
320,192,113345,1,0,0:0:0:0:
64,192,113395,1,0,0:0:0:0:
192,192,113395,1,0,0:0:0:0:
448,192,113395,1,0,0:0:0:0:
320,192,113470,1,0,0:0:0:0:
64,192,113545,1,0,0:0:0:0:
192,192,113545,1,0,0:0:0:0:
448,192,113620,1,0,0:0:0:0:
64,192,113695,1,0,0:0:0:0:
320,192,113695,1,0,0:0:0:0:
192,192,113770,1,0,0:0:0:0:
64,192,113845,1,0,0:0:0:0:
448,192,113845,1,0,0:0:0:0:
192,192,113895,1,0,0:0:0:0:
320,192,113945,1,0,0:0:0:0:
64,192,113995,1,0,0:0:0:0:
192,192,113995,1,0,0:0:0:0:
448,192,113995,1,0,0:0:0:0:
320,192,114070,1,0,0:0:0:0:
64,192,114145,1,0,0:0:0:0:
448,192,114145,1,0,0:0:0:0:
320,192,114220,1,0,0:0:0:0:
192,192,114295,1,0,0:0:0:0:
448,192,114295,1,0,0:0:0:0:
64,192,114370,1,0,0:0:0:0:
320,192,114370,1,0,0:0:0:0:
192,192,114445,1,0,0:0:0:0:
448,192,114445,1,0,0:0:0:0:
64,192,114520,1,0,0:0:0:0:
192,192,114595,1,0,0:0:0:0:
320,192,114595,1,0,0:0:0:0:
448,192,114595,1,0,0:0:0:0:
64,192,114670,1,0,0:0:0:0:
192,192,114745,1,0,0:0:0:0:
320,192,114745,1,0,0:0:0:0:
448,192,114820,1,0,0:0:0:0:
64,192,114895,1,0,0:0:0:0:
320,192,114895,1,0,0:0:0:0:
192,192,114970,1,0,0:0:0:0:
64,192,115045,1,0,0:0:0:0:
448,192,115045,1,0,0:0:0:0:
320,192,115095,1,0,0:0:0:0:
192,192,115145,1,0,0:0:0:0:
64,192,115195,1,0,0:0:0:0:
448,192,115195,1,0,0:0:0:0:
192,192,115245,1,0,0:0:0:0:
448,192,115295,1,0,0:0:0:0:
64,192,115345,1,0,0:0:0:0:
320,192,115345,1,0,0:0:0:0:
192,192,115420,1,0,0:0:0:0:
64,192,115495,1,0,0:0:0:0:
448,192,115495,1,0,0:0:0:0:
192,192,115545,1,0,0:0:0:0:
448,192,115595,1,0,0:0:0:0:
64,192,115645,1,0,0:0:0:0:
192,192,115645,1,0,0:0:0:0:
320,192,115720,1,0,0:0:0:0:
64,192,115795,1,0,0:0:0:0:
448,192,115795,1,0,0:0:0:0:
320,192,115845,1,0,0:0:0:0:
448,192,115895,1,0,0:0:0:0:
64,192,115945,1,0,0:0:0:0:
192,192,115945,1,0,0:0:0:0:
448,192,116020,1,0,0:0:0:0:
192,192,116095,1,0,0:0:0:0:
320,192,116095,1,0,0:0:0:0:
448,192,116170,1,0,0:0:0:0:
64,192,116245,1,0,0:0:0:0:
320,192,116245,1,0,0:0:0:0:
192,192,116320,1,0,0:0:0:0:
64,192,116395,1,0,0:0:0:0:
320,192,116395,1,0,0:0:0:0:
448,192,116395,1,0,0:0:0:0:
192,192,116470,1,0,0:0:0:0:
64,192,116545,1,0,0:0:0:0:
448,192,116545,1,0,0:0:0:0:
192,192,116620,1,0,0:0:0:0:
320,192,116695,1,0,0:0:0:0:
448,192,116695,1,0,0:0:0:0:
64,192,116770,1,0,0:0:0:0:
192,192,116770,1,0,0:0:0:0:
320,192,116845,1,0,0:0:0:0:
448,192,116845,1,0,0:0:0:0:
64,192,116920,1,0,0:0:0:0:
192,192,116995,1,0,0:0:0:0:
320,192,116995,1,0,0:0:0:0:
448,192,116995,1,0,0:0:0:0:
64,192,117070,1,0,0:0:0:0:
192,192,117145,1,0,0:0:0:0:
448,192,117145,1,0,0:0:0:0:
320,192,117220,1,0,0:0:0:0:
64,192,117295,1,0,0:0:0:0:
192,192,117295,1,0,0:0:0:0:
448,192,117370,1,0,0:0:0:0:
64,192,117445,1,0,0:0:0:0:
192,192,117445,1,0,0:0:0:0:
320,192,117495,1,0,0:0:0:0:
448,192,117545,1,0,0:0:0:0:
64,192,117595,1,0,0:0:0:0:
192,192,117595,1,0,0:0:0:0:
320,192,117595,1,0,0:0:0:0:
448,192,117670,1,0,0:0:0:0:
64,192,117745,1,0,0:0:0:0:
192,192,117745,1,0,0:0:0:0:
448,192,117820,1,0,0:0:0:0:
64,192,117895,1,0,0:0:0:0:
192,192,117895,1,0,0:0:0:0:
320,192,117970,1,0,0:0:0:0:
448,192,117970,1,0,0:0:0:0:
64,192,118045,1,0,0:0:0:0:
192,192,118045,1,0,0:0:0:0:
448,192,118095,1,0,0:0:0:0:
320,192,118145,1,0,0:0:0:0:
64,192,118195,1,0,0:0:0:0:
192,192,118195,1,0,0:0:0:0:
448,192,118195,1,0,0:0:0:0:
320,192,118270,1,0,0:0:0:0:
64,192,118345,1,0,0:0:0:0:
192,192,118345,1,0,0:0:0:0:
448,192,118420,1,0,0:0:0:0:
64,192,118495,1,0,0:0:0:0:
320,192,118495,1,0,0:0:0:0:
192,192,118570,1,0,0:0:0:0:
64,192,118645,1,0,0:0:0:0:
448,192,118645,1,0,0:0:0:0:
192,192,118695,1,0,0:0:0:0:
320,192,118745,1,0,0:0:0:0:
64,192,118795,1,0,0:0:0:0:
192,192,118795,1,0,0:0:0:0:
448,192,118795,1,0,0:0:0:0:
320,192,118870,1,0,0:0:0:0:
64,192,118945,1,0,0:0:0:0:
448,192,118945,1,0,0:0:0:0:
320,192,119020,1,0,0:0:0:0:
192,192,119095,1,0,0:0:0:0:
448,192,119095,1,0,0:0:0:0:
64,192,119170,1,0,0:0:0:0:
320,192,119170,1,0,0:0:0:0:
192,192,119245,1,0,0:0:0:0:
448,192,119245,1,0,0:0:0:0:
64,192,119320,1,0,0:0:0:0:
192,192,119395,1,0,0:0:0:0:
320,192,119395,1,0,0:0:0:0:
448,192,119395,1,0,0:0:0:0:
64,192,119470,1,0,0:0:0:0:
192,192,119545,1,0,0:0:0:0:
320,192,119545,1,0,0:0:0:0:
448,192,119620,1,0,0:0:0:0:
64,192,119695,1,0,0:0:0:0:
320,192,119695,1,0,0:0:0:0:
192,192,119770,1,0,0:0:0:0:
64,192,119845,1,0,0:0:0:0:
448,192,119845,1,0,0:0:0:0:
320,192,119895,1,0,0:0:0:0:
192,192,119945,1,0,0:0:0:0:
320,192,119995,1,0,0:0:0:0:
448,192,119995,1,0,0:0:0:0:
64,192,120070,1,0,0:0:0:0:
192,192,120070,1,0,0:0:0:0:
320,192,120145,1,0,0:0:0:0:
448,192,120145,1,0,0:0:0:0:
192,192,120295,1,0,0:0:0:0:
320,192,120295,1,0,0:0:0:0:
64,192,120445,1,0,0:0:0:0:
192,192,120445,1,0,0:0:0:0:
320,192,120520,1,0,0:0:0:0:
448,192,120520,1,0,0:0:0:0:
192,192,120670,1,0,0:0:0:0:
320,192,120670,1,0,0:0:0:0:
192,192,120820,1,0,0:0:0:0:
320,192,120820,1,0,0:0:0:0:
64,192,120895,1,0,0:0:0:0:
448,192,120895,1,0,0:0:0:0:
192,192,121045,1,0,0:0:0:0:
320,192,121045,1,0,0:0:0:0:
64,192,121195,1,0,0:0:0:0:
448,192,121195,1,0,0:0:0:0:
192,192,121345,1,0,0:0:0:0:
320,192,121420,1,0,0:0:0:0:
64,192,121570,1,0,0:0:0:0:
448,192,121645,1,0,0:0:0:0:
320,192,121795,1,0,0:0:0:0:
192,192,121945,1,0,0:0:0:0:
64,192,122095,1,0,0:0:0:0:
320,192,122245,1,0,0:0:0:0:
64,192,122395,1,0,0:0:0:0:
192,192,122545,1,0,0:0:0:0:
320,192,122620,1,0,0:0:0:0:
64,192,122795,1,0,0:0:0:0:
448,192,122845,1,0,0:0:0:0:
192,192,122895,1,0,0:0:0:0:
64,192,122945,1,0,0:0:0:0:
320,192,122995,1,0,0:0:0:0:
192,192,123145,1,0,0:0:0:0:
64,192,123295,1,0,0:0:0:0:
320,192,123445,1,0,0:0:0:0:
64,192,123595,1,0,0:0:0:0:
192,192,123745,1,0,0:0:0:0:
320,192,123820,1,0,0:0:0:0:
64,192,123970,1,0,0:0:0:0:
448,192,124045,1,0,0:0:0:0:
320,192,124195,1,0,0:0:0:0:
64,192,124345,1,0,0:0:0:0:
192,192,124495,1,0,0:0:0:0:
448,192,124645,1,0,0:0:0:0:
320,192,124795,1,0,0:0:0:0:
448,192,124945,1,0,0:0:0:0:
192,192,125020,1,0,0:0:0:0:
320,192,125095,1,0,0:0:0:0:
192,192,125245,1,0,0:0:0:0:
448,192,125295,1,0,0:0:0:0:
320,192,125345,1,0,0:0:0:0:
64,192,125395,1,0,0:0:0:0:
320,192,125545,1,0,0:0:0:0:
192,192,125620,1,0,0:0:0:0:
448,192,125695,1,0,0:0:0:0:
192,192,125995,1,0,0:0:0:0:
320,192,125995,1,0,0:0:0:0:
64,0,125995,128,0,126013:1:0:0:0:
448,192,126445,1,0,0:0:0:0:
192,192,126595,1,0,0:0:0:0:
64,192,126745,1,0,0:0:0:0:
320,192,126895,1,0,0:0:0:0:
448,192,127045,1,0,0:0:0:0:
64,192,127195,1,0,0:0:0:0:
192,0,127195,128,0,127213:1:0:0:0:
64,192,127345,1,0,0:0:0:0:
320,192,127420,1,0,0:0:0:0:
64,192,127570,1,0,0:0:0:0:
448,192,127645,1,0,0:0:0:0:
320,192,127795,1,0,0:0:0:0:
192,192,127945,1,0,0:0:0:0:
64,192,128095,1,0,0:0:0:0:
320,192,128245,1,0,0:0:0:0:
192,192,128395,1,0,0:0:0:0:
448,0,128395,128,0,128413:1:0:0:0:
320,192,128470,1,0,0:0:0:0:
64,192,128545,1,0,0:0:0:0:
448,192,128620,1,0,0:0:0:0:
192,192,128695,1,0,0:0:0:0:
64,192,128770,1,0,0:0:0:0:
448,192,128845,1,0,0:0:0:0:
192,192,128920,1,0,0:0:0:0:
320,192,128995,1,0,0:0:0:0:
448,192,129070,1,0,0:0:0:0:
64,192,129145,1,0,0:0:0:0:
320,192,129220,1,0,0:0:0:0:
192,192,129295,1,0,0:0:0:0:
64,192,129370,1,0,0:0:0:0:
448,192,129445,1,0,0:0:0:0:
192,192,129520,1,0,0:0:0:0:
448,192,129595,1,0,0:0:0:0:
320,192,129645,1,0,0:0:0:0:
192,192,129695,1,0,0:0:0:0:
448,192,129745,1,0,0:0:0:0:
64,192,129820,1,0,0:0:0:0:
320,192,129895,1,0,0:0:0:0:
64,192,129970,1,0,0:0:0:0:
192,192,130045,1,0,0:0:0:0:
448,192,130095,1,0,0:0:0:0:
320,192,130145,1,0,0:0:0:0:
64,192,130195,1,0,0:0:0:0:
192,192,130245,1,0,0:0:0:0:
320,192,130295,1,0,0:0:0:0:
448,192,130345,1,0,0:0:0:0:
64,192,130395,1,0,0:0:0:0:
192,192,130445,1,0,0:0:0:0:
320,192,130495,1,0,0:0:0:0:
448,192,130545,1,0,0:0:0:0:
64,192,130595,1,0,0:0:0:0:
192,192,130645,1,0,0:0:0:0:
320,192,130695,1,0,0:0:0:0:
448,192,130745,1,0,0:0:0:0:
192,192,130795,1,0,0:0:0:0:
320,192,130795,1,0,0:0:0:0:
64,0,130795,128,0,134320:1:0:0:0:
