osu file format v14

[General]
AudioFilename: Bad Apple!!(2014 Refix).mp3
AudioLeadIn: 0
PreviewTime: 84233
Countdown: 1
SampleSet: None
StackLeniency: 0.7
Mode: 3
LetterboxInBreaks: 1
SpecialStyle: 0
WidescreenStoryboard: 0

[Editor]
DistanceSpacing: 1.5
BeatDivisor: 4
GridSize: 8
TimelineZoom: 1.7

[Metadata]
Title:dakemoto's Collection Pack Vol.2
TitleUnicode:dakemoto's Collection Pack Vol.2
Artist:Various Artist
ArtistUnicode:Various Artist
Creator:dakemoto
Version:Bad Apple!! (2014 Refix) (Challenge)
Source:stepmania
Tags:
BeatmapID:740757
BeatmapSetID:334680

[Difficulty]
HPDrainRate:7
CircleSize:4
OverallDifficulty:8
ApproachRate:5
SliderMultiplier:1.4
SliderTickRate:1

[Events]
//Background and Video events
0,0,"Bad Apple!!(2014 Refix) bg.jpg",0,0
//Break Periods
//Storyboard Layer 0 (Background)
//Storyboard Layer 1 (Fail)
//Storyboard Layer 2 (Pass)
//Storyboard Layer 3 (Foreground)
//Storyboard Sound Samples

[TimingPoints]
777,434.782608695652,4,3,0,5,1,0
14255,-133.333333333333,4,3,0,5,0,0
14690,-100,4,3,0,5,0,0
42516,-125,4,3,0,5,0,0
49472,-111.111111111111,4,3,0,5,0,0
55559,-100,4,3,0,5,0,0
112081,-111.111111111111,4,3,0,5,0,0
125595,-105.263157894737,4,3,0,5,0,0
139907,-100,4,3,0,5,0,0
167733,-111.111111111111,4,3,0,5,0,0
181646,-133.333333333333,4,3,0,5,0,0

[HitObjects]
64,192,777,5,0,0:0:0:0:
192,192,777,1,0,0:0:0:0:
448,192,777,1,0,0:0:0:0:
320,192,994,1,0,0:0:0:0:
64,192,1103,1,0,0:0:0:0:
192,192,1211,1,0,0:0:0:0:
448,192,1211,1,0,0:0:0:0:
192,192,1429,1,0,0:0:0:0:
448,192,1537,1,0,0:0:0:0:
64,192,1646,1,0,0:0:0:0:
320,192,1646,1,0,0:0:0:0:
320,192,1863,1,0,0:0:0:0:
192,192,1972,1,0,0:0:0:0:
448,192,2081,1,0,0:0:0:0:
448,192,2190,1,0,0:0:0:0:
448,192,2298,1,0,0:0:0:0:
448,192,2407,1,0,0:0:0:0:
64,192,2516,1,0,0:0:0:0:
320,192,2516,1,0,0:0:0:0:
320,192,2733,1,0,0:0:0:0:
64,192,2842,1,0,0:0:0:0:
192,192,2950,1,0,0:0:0:0:
448,192,2950,1,0,0:0:0:0:
192,192,3168,1,0,0:0:0:0:
448,192,3276,1,0,0:0:0:0:
64,192,3385,1,0,0:0:0:0:
320,192,3385,1,0,0:0:0:0:
320,192,3603,1,0,0:0:0:0:
64,192,3711,1,0,0:0:0:0:
192,192,3820,1,0,0:0:0:0:
448,192,3820,1,0,0:0:0:0:
64,192,4037,1,0,0:0:0:0:
320,192,4037,1,0,0:0:0:0:
192,192,4255,1,0,0:0:0:0:
448,192,4255,1,0,0:0:0:0:
320,192,4472,1,0,0:0:0:0:
64,192,4581,1,0,0:0:0:0:
192,192,4690,1,0,0:0:0:0:
448,192,4690,1,0,0:0:0:0:
192,192,4907,1,0,0:0:0:0:
448,192,5016,1,0,0:0:0:0:
64,192,5124,1,0,0:0:0:0:
320,192,5124,1,0,0:0:0:0:
320,192,5342,1,0,0:0:0:0:
192,192,5450,1,0,0:0:0:0:
448,192,5559,1,0,0:0:0:0:
448,192,5668,1,0,0:0:0:0:
448,192,5776,1,0,0:0:0:0:
448,192,5885,1,0,0:0:0:0:
64,192,5994,1,0,0:0:0:0:
320,192,5994,1,0,0:0:0:0:
320,192,6211,1,0,0:0:0:0:
64,192,6320,1,0,0:0:0:0:
192,192,6429,1,0,0:0:0:0:
448,192,6429,1,0,0:0:0:0:
192,192,6646,1,0,0:0:0:0:
448,192,6755,1,0,0:0:0:0:
64,192,6863,1,0,0:0:0:0:
320,192,6863,1,0,0:0:0:0:
320,192,7081,1,0,0:0:0:0:
64,192,7190,1,0,0:0:0:0:
192,192,7298,1,0,0:0:0:0:
448,192,7298,1,0,0:0:0:0:
192,192,7516,1,0,0:0:0:0:
320,192,7516,1,0,0:0:0:0:
64,192,7733,1,0,0:0:0:0:
320,192,7733,1,0,0:0:0:0:
192,192,7950,1,0,0:0:0:0:
448,192,8059,1,0,0:0:0:0:
64,192,8168,1,0,0:0:0:0:
320,192,8168,1,0,0:0:0:0:
320,192,8385,1,0,0:0:0:0:
64,192,8494,1,0,0:0:0:0:
192,192,8603,1,0,0:0:0:0:
448,192,8603,1,0,0:0:0:0:
192,192,8820,1,0,0:0:0:0:
320,192,8929,1,0,0:0:0:0:
64,192,9037,1,0,0:0:0:0:
64,192,9146,1,0,0:0:0:0:
64,192,9255,1,0,0:0:0:0:
64,192,9363,1,0,0:0:0:0:
192,192,9472,1,0,0:0:0:0:
448,192,9472,1,0,0:0:0:0:
192,192,9690,1,0,0:0:0:0:
448,192,9798,1,0,0:0:0:0:
64,192,9907,1,0,0:0:0:0:
320,192,9907,1,0,0:0:0:0:
320,192,10124,1,0,0:0:0:0:
64,192,10233,1,0,0:0:0:0:
192,192,10342,1,0,0:0:0:0:
448,192,10342,1,0,0:0:0:0:
192,192,10559,1,0,0:0:0:0:
448,192,10668,1,0,0:0:0:0:
64,192,10776,1,0,0:0:0:0:
320,192,10776,1,0,0:0:0:0:
192,192,10994,1,0,0:0:0:0:
448,192,10994,1,0,0:0:0:0:
64,192,11211,1,0,0:0:0:0:
320,192,11211,1,0,0:0:0:0:
192,192,11429,1,0,0:0:0:0:
448,192,11537,1,0,0:0:0:0:
64,192,11646,1,0,0:0:0:0:
320,192,11646,1,0,0:0:0:0:
320,192,11863,1,0,0:0:0:0:
64,192,11972,1,0,0:0:0:0:
192,192,12081,1,0,0:0:0:0:
448,192,12081,1,0,0:0:0:0:
192,192,12298,1,0,0:0:0:0:
320,192,12407,1,0,0:0:0:0:
64,192,12516,1,0,0:0:0:0:
64,192,12624,1,0,0:0:0:0:
64,192,12733,1,0,0:0:0:0:
64,192,12842,1,0,0:0:0:0:
192,192,12950,1,0,0:0:0:0:
448,192,12950,1,0,0:0:0:0:
192,192,13168,1,0,0:0:0:0:
448,192,13276,1,0,0:0:0:0:
64,192,13385,1,0,0:0:0:0:
320,192,13385,1,0,0:0:0:0:
320,192,13603,1,0,0:0:0:0:
64,192,13711,1,0,0:0:0:0:
192,192,13820,1,0,0:0:0:0:
448,192,13820,1,0,0:0:0:0:
192,192,14037,1,0,0:0:0:0:
448,192,14146,1,0,0:0:0:0:
64,192,14255,1,0,0:0:0:0:
192,192,14255,1,0,0:0:0:0:
320,192,14255,1,0,0:0:0:0:
64,192,14690,1,0,0:0:0:0:
192,192,14690,1,0,0:0:0:0:
448,192,14690,1,0,0:0:0:0:
320,192,14907,1,0,0:0:0:0:
448,192,15016,1,0,0:0:0:0:
64,192,15124,1,0,0:0:0:0:
320,192,15124,1,0,0:0:0:0:
448,192,15233,1,0,0:0:0:0:
192,192,15342,1,0,0:0:0:0:
448,192,15450,1,0,0:0:0:0:
64,192,15559,1,0,0:0:0:0:
192,192,15559,1,0,0:0:0:0:
320,192,15776,1,0,0:0:0:0:
448,192,15885,1,0,0:0:0:0:
64,192,15994,1,0,0:0:0:0:
320,192,15994,1,0,0:0:0:0:
448,192,16103,1,0,0:0:0:0:
192,192,16211,1,0,0:0:0:0:
448,192,16320,1,0,0:0:0:0:
64,192,16429,1,0,0:0:0:0:
192,192,16429,1,0,0:0:0:0:
320,192,16646,1,0,0:0:0:0:
448,192,16755,1,0,0:0:0:0:
64,192,16863,1,0,0:0:0:0:
320,192,16863,1,0,0:0:0:0:
448,192,16972,1,0,0:0:0:0:
192,192,17081,1,0,0:0:0:0:
448,192,17190,1,0,0:0:0:0:
64,192,17298,1,0,0:0:0:0:
192,192,17298,1,0,0:0:0:0:
320,192,17516,1,0,0:0:0:0:
448,192,17624,1,0,0:0:0:0:
64,192,17733,1,0,0:0:0:0:
192,192,17733,1,0,0:0:0:0:
64,192,17950,1,0,0:0:0:0:
448,192,17950,1,0,0:0:0:0:
320,192,18059,1,0,0:0:0:0:
64,192,18168,1,0,0:0:0:0:
192,192,18168,1,0,0:0:0:0:
320,192,18385,1,0,0:0:0:0:
448,192,18494,1,0,0:0:0:0:
64,192,18603,1,0,0:0:0:0:
320,192,18603,1,0,0:0:0:0:
448,192,18711,1,0,0:0:0:0:
192,192,18820,1,0,0:0:0:0:
448,192,18929,1,0,0:0:0:0:
64,192,19037,1,0,0:0:0:0:
192,192,19037,1,0,0:0:0:0:
320,192,19255,1,0,0:0:0:0:
448,192,19363,1,0,0:0:0:0:
64,192,19472,1,0,0:0:0:0:
320,192,19472,1,0,0:0:0:0:
448,192,19581,1,0,0:0:0:0:
192,192,19690,1,0,0:0:0:0:
448,192,19798,1,0,0:0:0:0:
64,192,19907,1,0,0:0:0:0:
192,192,19907,1,0,0:0:0:0:
320,192,20124,1,0,0:0:0:0:
448,192,20233,1,0,0:0:0:0:
64,192,20342,1,0,0:0:0:0:
320,192,20342,1,0,0:0:0:0:
448,192,20450,1,0,0:0:0:0:
192,192,20559,1,0,0:0:0:0:
448,192,20668,1,0,0:0:0:0:
64,192,20776,1,0,0:0:0:0:
320,192,20776,1,0,0:0:0:0:
192,192,20994,1,0,0:0:0:0:
64,192,21103,1,0,0:0:0:0:
320,192,21211,1,0,0:0:0:0:
448,192,21211,1,0,0:0:0:0:
64,192,21429,1,0,0:0:0:0:
448,192,21429,1,0,0:0:0:0:
192,192,21537,1,0,0:0:0:0:
320,192,21646,1,0,0:0:0:0:
448,192,21646,1,0,0:0:0:0:
192,192,21863,1,0,0:0:0:0:
64,192,21972,1,0,0:0:0:0:
192,192,22081,1,0,0:0:0:0:
448,192,22081,1,0,0:0:0:0:
64,192,22190,1,0,0:0:0:0:
320,192,22298,1,0,0:0:0:0:
64,192,22407,1,0,0:0:0:0:
320,192,22516,1,0,0:0:0:0:
448,192,22516,1,0,0:0:0:0:
192,192,22733,1,0,0:0:0:0:
64,192,22842,1,0,0:0:0:0:
192,192,22950,1,0,0:0:0:0:
448,192,22950,1,0,0:0:0:0:
64,192,23059,1,0,0:0:0:0:
320,192,23168,1,0,0:0:0:0:
64,192,23276,1,0,0:0:0:0:
320,192,23385,1,0,0:0:0:0:
448,192,23385,1,0,0:0:0:0:
192,192,23603,1,0,0:0:0:0:
64,192,23711,1,0,0:0:0:0:
192,192,23820,1,0,0:0:0:0:
448,192,23820,1,0,0:0:0:0:
64,192,23929,1,0,0:0:0:0:
320,192,24037,1,0,0:0:0:0:
64,192,24146,1,0,0:0:0:0:
320,192,24255,1,0,0:0:0:0:
448,192,24255,1,0,0:0:0:0:
192,192,24472,1,0,0:0:0:0:
64,192,24581,1,0,0:0:0:0:
320,192,24690,1,0,0:0:0:0:
448,192,24690,1,0,0:0:0:0:
64,192,24907,1,0,0:0:0:0:
448,192,24907,1,0,0:0:0:0:
192,192,25016,1,0,0:0:0:0:
320,192,25124,1,0,0:0:0:0:
448,192,25124,1,0,0:0:0:0:
192,192,25342,1,0,0:0:0:0:
64,192,25450,1,0,0:0:0:0:
192,192,25559,1,0,0:0:0:0:
448,192,25559,1,0,0:0:0:0:
64,192,25668,1,0,0:0:0:0:
320,192,25776,1,0,0:0:0:0:
64,192,25885,1,0,0:0:0:0:
320,192,25994,1,0,0:0:0:0:
448,192,25994,1,0,0:0:0:0:
192,192,26211,1,0,0:0:0:0:
64,192,26320,1,0,0:0:0:0:
192,192,26429,1,0,0:0:0:0:
448,192,26429,1,0,0:0:0:0:
64,192,26537,1,0,0:0:0:0:
320,192,26646,1,0,0:0:0:0:
64,192,26755,1,0,0:0:0:0:
320,192,26863,1,0,0:0:0:0:
448,192,26863,1,0,0:0:0:0:
192,192,27081,1,0,0:0:0:0:
64,192,27190,1,0,0:0:0:0:
192,192,27298,1,0,0:0:0:0:
448,192,27298,1,0,0:0:0:0:
64,192,27407,1,0,0:0:0:0:
320,192,27516,1,0,0:0:0:0:
64,192,27624,1,0,0:0:0:0:
320,192,27733,1,0,0:0:0:0:
448,192,27733,1,0,0:0:0:0:
64,192,27878,1,0,0:0:0:0:
192,192,27878,1,0,0:0:0:0:
192,192,28023,1,0,0:0:0:0:
448,192,28023,1,0,0:0:0:0:
64,192,28168,1,0,0:0:0:0:
320,192,28168,1,0,0:0:0:0:
320,192,28313,1,0,0:0:0:0:
448,192,28313,1,0,0:0:0:0:
64,192,28458,1,0,0:0:0:0:
192,192,28458,1,0,0:0:0:0:
64,192,28603,1,0,0:0:0:0:
192,192,28603,1,0,0:0:0:0:
448,192,28603,1,0,0:0:0:0:
64,192,28820,1,0,0:0:0:0:
320,192,28820,1,0,0:0:0:0:
448,192,28929,1,0,0:0:0:0:
64,192,29037,1,0,0:0:0:0:
192,192,29037,1,0,0:0:0:0:
320,192,29146,1,0,0:0:0:0:
448,192,29146,1,0,0:0:0:0:
64,192,29255,1,0,0:0:0:0:
320,192,29255,1,0,0:0:0:0:
192,192,29363,1,0,0:0:0:0:
448,192,29363,1,0,0:0:0:0:
64,192,29472,1,0,0:0:0:0:
192,192,29472,1,0,0:0:0:0:
64,192,29690,1,0,0:0:0:0:
320,192,29690,1,0,0:0:0:0:
448,192,29798,1,0,0:0:0:0:
64,192,29907,1,0,0:0:0:0:
192,192,29907,1,0,0:0:0:0:
320,192,30016,1,0,0:0:0:0:
448,192,30016,1,0,0:0:0:0:
64,192,30124,1,0,0:0:0:0:
320,192,30124,1,0,0:0:0:0:
192,192,30233,1,0,0:0:0:0:
448,192,30233,1,0,0:0:0:0:
64,192,30342,1,0,0:0:0:0:
192,192,30342,1,0,0:0:0:0:
64,192,30559,1,0,0:0:0:0:
320,192,30559,1,0,0:0:0:0:
448,192,30668,1,0,0:0:0:0:
64,192,30776,1,0,0:0:0:0:
192,192,30776,1,0,0:0:0:0:
320,192,30885,1,0,0:0:0:0:
448,192,30885,1,0,0:0:0:0:
64,192,30994,1,0,0:0:0:0:
320,192,30994,1,0,0:0:0:0:
192,192,31103,1,0,0:0:0:0:
448,192,31103,1,0,0:0:0:0:
64,192,31211,1,0,0:0:0:0:
192,192,31211,1,0,0:0:0:0:
64,192,31429,1,0,0:0:0:0:
320,192,31429,1,0,0:0:0:0:
448,192,31537,1,0,0:0:0:0:
64,192,31646,1,0,0:0:0:0:
192,192,31646,1,0,0:0:0:0:
64,192,31863,1,0,0:0:0:0:
448,192,31863,1,0,0:0:0:0:
192,192,31972,1,0,0:0:0:0:
320,192,31972,1,0,0:0:0:0:
64,192,32081,1,0,0:0:0:0:
192,192,32081,1,0,0:0:0:0:
64,192,32298,1,0,0:0:0:0:
320,192,32298,1,0,0:0:0:0:
448,192,32407,1,0,0:0:0:0:
64,192,32516,1,0,0:0:0:0:
192,192,32516,1,0,0:0:0:0:
320,192,32624,1,0,0:0:0:0:
448,192,32624,1,0,0:0:0:0:
64,192,32733,1,0,0:0:0:0:
320,192,32733,1,0,0:0:0:0:
192,192,32842,1,0,0:0:0:0:
448,192,32842,1,0,0:0:0:0:
64,192,32950,1,0,0:0:0:0:
192,192,32950,1,0,0:0:0:0:
64,192,33168,1,0,0:0:0:0:
320,192,33168,1,0,0:0:0:0:
448,192,33276,1,0,0:0:0:0:
64,192,33385,1,0,0:0:0:0:
192,192,33385,1,0,0:0:0:0:
320,192,33494,1,0,0:0:0:0:
448,192,33494,1,0,0:0:0:0:
64,192,33603,1,0,0:0:0:0:
320,192,33603,1,0,0:0:0:0:
192,192,33711,1,0,0:0:0:0:
448,192,33711,1,0,0:0:0:0:
64,192,33820,1,0,0:0:0:0:
192,192,33820,1,0,0:0:0:0:
64,192,34037,1,0,0:0:0:0:
320,192,34037,1,0,0:0:0:0:
448,192,34146,1,0,0:0:0:0:
64,192,34255,1,0,0:0:0:0:
192,192,34255,1,0,0:0:0:0:
320,192,34363,1,0,0:0:0:0:
448,192,34363,1,0,0:0:0:0:
64,192,34472,1,0,0:0:0:0:
320,192,34472,1,0,0:0:0:0:
192,192,34581,1,0,0:0:0:0:
448,192,34581,1,0,0:0:0:0:
320,192,34690,1,0,0:0:0:0:
448,192,34690,1,0,0:0:0:0:
192,192,34907,1,0,0:0:0:0:
448,192,34907,1,0,0:0:0:0:
64,192,35016,1,0,0:0:0:0:
320,192,35124,1,0,0:0:0:0:
448,192,35124,1,0,0:0:0:0:
64,192,35342,1,0,0:0:0:0:
448,192,35342,1,0,0:0:0:0:
192,192,35450,1,0,0:0:0:0:
320,192,35450,1,0,0:0:0:0:
320,192,35559,1,0,0:0:0:0:
448,192,35559,1,0,0:0:0:0:
192,192,35776,1,0,0:0:0:0:
448,192,35776,1,0,0:0:0:0:
64,192,35885,1,0,0:0:0:0:
320,192,35994,1,0,0:0:0:0:
448,192,35994,1,0,0:0:0:0:
64,192,36103,1,0,0:0:0:0:
192,192,36103,1,0,0:0:0:0:
192,192,36211,1,0,0:0:0:0:
448,192,36211,1,0,0:0:0:0:
64,192,36320,1,0,0:0:0:0:
320,192,36320,1,0,0:0:0:0:
320,192,36429,1,0,0:0:0:0:
448,192,36429,1,0,0:0:0:0:
192,192,36646,1,0,0:0:0:0:
448,192,36646,1,0,0:0:0:0:
64,192,36755,1,0,0:0:0:0:
320,192,36863,1,0,0:0:0:0:
448,192,36863,1,0,0:0:0:0:
64,192,36972,1,0,0:0:0:0:
192,192,36972,1,0,0:0:0:0:
192,192,37081,1,0,0:0:0:0:
448,192,37081,1,0,0:0:0:0:
64,192,37190,1,0,0:0:0:0:
320,192,37190,1,0,0:0:0:0:
320,192,37298,1,0,0:0:0:0:
448,192,37298,1,0,0:0:0:0:
192,192,37516,1,0,0:0:0:0:
448,192,37516,1,0,0:0:0:0:
64,192,37624,1,0,0:0:0:0:
320,192,37733,1,0,0:0:0:0:
448,192,37733,1,0,0:0:0:0:
64,192,37842,1,0,0:0:0:0:
192,192,37842,1,0,0:0:0:0:
192,192,37950,1,0,0:0:0:0:
448,192,37950,1,0,0:0:0:0:
64,192,38059,1,0,0:0:0:0:
320,192,38059,1,0,0:0:0:0:
320,192,38168,1,0,0:0:0:0:
448,192,38168,1,0,0:0:0:0:
192,192,38385,1,0,0:0:0:0:
448,192,38385,1,0,0:0:0:0:
64,192,38494,1,0,0:0:0:0:
320,192,38603,1,0,0:0:0:0:
448,192,38603,1,0,0:0:0:0:
64,192,38820,1,0,0:0:0:0:
448,192,38820,1,0,0:0:0:0:
192,192,38929,1,0,0:0:0:0:
320,192,38929,1,0,0:0:0:0:
320,192,39037,1,0,0:0:0:0:
448,192,39037,1,0,0:0:0:0:
192,192,39255,1,0,0:0:0:0:
448,192,39255,1,0,0:0:0:0:
64,192,39363,1,0,0:0:0:0:
320,192,39472,1,0,0:0:0:0:
448,192,39472,1,0,0:0:0:0:
64,192,39581,1,0,0:0:0:0:
192,192,39581,1,0,0:0:0:0:
192,192,39690,1,0,0:0:0:0:
448,192,39690,1,0,0:0:0:0:
64,192,39798,1,0,0:0:0:0:
320,192,39798,1,0,0:0:0:0:
320,192,39907,1,0,0:0:0:0:
448,192,39907,1,0,0:0:0:0:
192,192,40124,1,0,0:0:0:0:
448,192,40124,1,0,0:0:0:0:
64,192,40233,1,0,0:0:0:0:
320,192,40342,1,0,0:0:0:0:
448,192,40342,1,0,0:0:0:0:
64,192,40450,1,0,0:0:0:0:
192,192,40450,1,0,0:0:0:0:
192,192,40559,1,0,0:0:0:0:
448,192,40559,1,0,0:0:0:0:
64,192,40668,1,0,0:0:0:0:
320,192,40668,1,0,0:0:0:0:
320,192,40776,1,0,0:0:0:0:
448,192,40776,1,0,0:0:0:0:
192,192,40994,1,0,0:0:0:0:
448,192,40994,1,0,0:0:0:0:
64,192,41103,1,0,0:0:0:0:
320,192,41211,1,0,0:0:0:0:
448,192,41211,1,0,0:0:0:0:
64,192,41320,1,0,0:0:0:0:
192,192,41320,1,0,0:0:0:0:
192,192,41429,1,0,0:0:0:0:
448,192,41429,1,0,0:0:0:0:
64,192,41537,1,0,0:0:0:0:
320,192,41537,1,0,0:0:0:0:
320,192,41646,1,0,0:0:0:0:
448,192,41646,1,0,0:0:0:0:
64,192,41791,1,0,0:0:0:0:
192,192,41791,1,0,0:0:0:0:
192,192,41936,1,0,0:0:0:0:
448,192,41936,1,0,0:0:0:0:
64,192,42081,1,0,0:0:0:0:
320,192,42081,1,0,0:0:0:0:
320,192,42226,1,0,0:0:0:0:
448,192,42226,1,0,0:0:0:0:
64,192,42371,1,0,0:0:0:0:
192,192,42371,1,0,0:0:0:0:
320,192,42516,1,0,0:0:0:0:
448,192,42516,1,0,0:0:0:0:
192,0,43385,128,0,43820:1:0:0:0:
448,0,45124,128,0,45342:1:0:0:0:
192,0,46863,128,0,47298:1:0:0:0:
448,0,48603,128,0,48820:1:0:0:0:
64,192,49037,1,0,0:0:0:0:
192,192,49037,1,0,0:0:0:0:
448,192,49037,1,0,0:0:0:0:
64,192,49472,1,0,0:0:0:0:
192,192,49472,1,0,0:0:0:0:
448,192,49472,1,0,0:0:0:0:
320,0,49472,128,0,50776:1:0:0:0:
64,192,49907,1,0,0:0:0:0:
448,192,49907,1,0,0:0:0:0:
64,192,50342,1,0,0:0:0:0:
448,192,50342,1,0,0:0:0:0:
192,0,50342,128,0,50776:1:0:0:0:
64,192,50776,1,0,0:0:0:0:
448,192,50776,1,0,0:0:0:0:
64,192,51211,1,0,0:0:0:0:
448,192,51211,1,0,0:0:0:0:
192,0,51211,128,0,52516:1:0:0:0:
64,192,51646,1,0,0:0:0:0:
448,192,51646,1,0,0:0:0:0:
64,192,52081,1,0,0:0:0:0:
448,192,52081,1,0,0:0:0:0:
320,0,52081,128,0,52298:1:0:0:0:
64,192,52516,1,0,0:0:0:0:
448,192,52516,1,0,0:0:0:0:
64,192,52950,1,0,0:0:0:0:
448,192,52950,1,0,0:0:0:0:
320,0,52950,128,0,54255:1:0:0:0:
64,192,53385,1,0,0:0:0:0:
448,192,53385,1,0,0:0:0:0:
64,192,53820,1,0,0:0:0:0:
448,192,53820,1,0,0:0:0:0:
192,0,53820,128,0,54255:1:0:0:0:
64,192,54255,1,0,0:0:0:0:
448,192,54255,1,0,0:0:0:0:
64,192,54690,1,0,0:0:0:0:
448,192,54690,1,0,0:0:0:0:
192,0,54690,128,0,55559:1:0:0:0:
64,192,55124,1,0,0:0:0:0:
448,192,55124,1,0,0:0:0:0:
320,192,55559,1,0,0:0:0:0:
448,192,55559,1,0,0:0:0:0:
64,192,55704,1,0,0:0:0:0:
192,192,55704,1,0,0:0:0:0:
192,192,55849,1,0,0:0:0:0:
448,192,55849,1,0,0:0:0:0:
64,192,55994,1,0,0:0:0:0:
320,192,55994,1,0,0:0:0:0:
320,192,56139,1,0,0:0:0:0:
448,192,56139,1,0,0:0:0:0:
64,192,56284,1,0,0:0:0:0:
192,192,56284,1,0,0:0:0:0:
64,192,56429,1,0,0:0:0:0:
192,192,56429,1,0,0:0:0:0:
448,192,56429,1,0,0:0:0:0:
64,192,56646,1,0,0:0:0:0:
320,192,56646,1,0,0:0:0:0:
448,192,56755,1,0,0:0:0:0:
64,192,56863,1,0,0:0:0:0:
192,192,56863,1,0,0:0:0:0:
320,192,56972,1,0,0:0:0:0:
448,192,56972,1,0,0:0:0:0:
64,192,57081,1,0,0:0:0:0:
320,192,57081,1,0,0:0:0:0:
192,192,57190,1,0,0:0:0:0:
448,192,57190,1,0,0:0:0:0:
64,192,57298,1,0,0:0:0:0:
192,192,57298,1,0,0:0:0:0:
64,192,57516,1,0,0:0:0:0:
320,192,57516,1,0,0:0:0:0:
448,192,57624,1,0,0:0:0:0:
64,192,57733,1,0,0:0:0:0:
192,192,57733,1,0,0:0:0:0:
320,192,57842,1,0,0:0:0:0:
448,192,57842,1,0,0:0:0:0:
64,192,57950,1,0,0:0:0:0:
320,192,57950,1,0,0:0:0:0:
192,192,58059,1,0,0:0:0:0:
448,192,58059,1,0,0:0:0:0:
64,192,58168,1,0,0:0:0:0:
192,192,58168,1,0,0:0:0:0:
64,192,58385,1,0,0:0:0:0:
320,192,58385,1,0,0:0:0:0:
448,192,58494,1,0,0:0:0:0:
64,192,58603,1,0,0:0:0:0:
192,192,58603,1,0,0:0:0:0:
320,192,58711,1,0,0:0:0:0:
448,192,58711,1,0,0:0:0:0:
64,192,58820,1,0,0:0:0:0:
320,192,58820,1,0,0:0:0:0:
192,192,58929,1,0,0:0:0:0:
448,192,58929,1,0,0:0:0:0:
64,192,59037,1,0,0:0:0:0:
192,192,59037,1,0,0:0:0:0:
64,192,59255,1,0,0:0:0:0:
320,192,59255,1,0,0:0:0:0:
448,192,59363,1,0,0:0:0:0:
64,192,59472,1,0,0:0:0:0:
192,192,59472,1,0,0:0:0:0:
64,192,59690,1,0,0:0:0:0:
448,192,59690,1,0,0:0:0:0:
192,192,59798,1,0,0:0:0:0:
320,192,59798,1,0,0:0:0:0:
64,192,59907,1,0,0:0:0:0:
192,192,59907,1,0,0:0:0:0:
64,192,60124,1,0,0:0:0:0:
320,192,60124,1,0,0:0:0:0:
448,192,60233,1,0,0:0:0:0:
64,192,60342,1,0,0:0:0:0:
320,192,60342,1,0,0:0:0:0:
192,192,60450,1,0,0:0:0:0:
448,192,60450,1,0,0:0:0:0:
64,192,60559,1,0,0:0:0:0:
192,192,60559,1,0,0:0:0:0:
320,192,60668,1,0,0:0:0:0:
448,192,60668,1,0,0:0:0:0:
64,192,60776,1,0,0:0:0:0:
192,192,60776,1,0,0:0:0:0:
64,192,60994,1,0,0:0:0:0:
320,192,60994,1,0,0:0:0:0:
448,192,61103,1,0,0:0:0:0:
64,192,61211,1,0,0:0:0:0:
320,192,61211,1,0,0:0:0:0:
192,192,61320,1,0,0:0:0:0:
448,192,61320,1,0,0:0:0:0:
64,192,61429,1,0,0:0:0:0:
192,192,61429,1,0,0:0:0:0:
320,192,61537,1,0,0:0:0:0:
448,192,61537,1,0,0:0:0:0:
64,192,61646,1,0,0:0:0:0:
192,192,61646,1,0,0:0:0:0:
64,192,61863,1,0,0:0:0:0:
320,192,61863,1,0,0:0:0:0:
448,192,61972,1,0,0:0:0:0:
64,192,62081,1,0,0:0:0:0:
192,192,62081,1,0,0:0:0:0:
320,192,62190,1,0,0:0:0:0:
448,192,62190,1,0,0:0:0:0:
64,192,62298,1,0,0:0:0:0:
320,192,62298,1,0,0:0:0:0:
192,192,62407,1,0,0:0:0:0:
448,192,62407,1,0,0:0:0:0:
320,192,62516,1,0,0:0:0:0:
448,192,62516,1,0,0:0:0:0:
192,192,62733,1,0,0:0:0:0:
448,192,62733,1,0,0:0:0:0:
64,192,62842,1,0,0:0:0:0:
320,192,62950,1,0,0:0:0:0:
448,192,62950,1,0,0:0:0:0:
64,192,63168,1,0,0:0:0:0:
448,192,63168,1,0,0:0:0:0:
192,192,63276,1,0,0:0:0:0:
320,192,63276,1,0,0:0:0:0:
64,192,63385,1,0,0:0:0:0:
320,192,63385,1,0,0:0:0:0:
448,192,63385,1,0,0:0:0:0:
192,192,63603,1,0,0:0:0:0:
448,192,63603,1,0,0:0:0:0:
64,192,63711,1,0,0:0:0:0:
320,192,63820,1,0,0:0:0:0:
448,192,63820,1,0,0:0:0:0:
64,192,63929,1,0,0:0:0:0:
192,192,63929,1,0,0:0:0:0:
192,192,64037,1,0,0:0:0:0:
448,192,64037,1,0,0:0:0:0:
64,192,64146,1,0,0:0:0:0:
320,192,64146,1,0,0:0:0:0:
320,192,64255,1,0,0:0:0:0:
448,192,64255,1,0,0:0:0:0:
192,192,64472,1,0,0:0:0:0:
448,192,64472,1,0,0:0:0:0:
64,192,64581,1,0,0:0:0:0:
320,192,64690,1,0,0:0:0:0:
448,192,64690,1,0,0:0:0:0:
64,192,64798,1,0,0:0:0:0:
192,192,64798,1,0,0:0:0:0:
192,192,64907,1,0,0:0:0:0:
448,192,64907,1,0,0:0:0:0:
64,192,65016,1,0,0:0:0:0:
320,192,65016,1,0,0:0:0:0:
320,192,65124,1,0,0:0:0:0:
448,192,65124,1,0,0:0:0:0:
192,192,65342,1,0,0:0:0:0:
448,192,65342,1,0,0:0:0:0:
64,192,65450,1,0,0:0:0:0:
320,192,65559,1,0,0:0:0:0:
448,192,65559,1,0,0:0:0:0:
64,192,65668,1,0,0:0:0:0:
192,192,65668,1,0,0:0:0:0:
192,192,65776,1,0,0:0:0:0:
448,192,65776,1,0,0:0:0:0:
64,192,65885,1,0,0:0:0:0:
320,192,65885,1,0,0:0:0:0:
320,192,65994,1,0,0:0:0:0:
448,192,65994,1,0,0:0:0:0:
192,192,66211,1,0,0:0:0:0:
448,192,66211,1,0,0:0:0:0:
64,192,66320,1,0,0:0:0:0:
320,192,66429,1,0,0:0:0:0:
448,192,66429,1,0,0:0:0:0:
64,192,66646,1,0,0:0:0:0:
448,192,66646,1,0,0:0:0:0:
192,192,66755,1,0,0:0:0:0:
320,192,66755,1,0,0:0:0:0:
320,192,66863,1,0,0:0:0:0:
448,192,66863,1,0,0:0:0:0:
192,192,67081,1,0,0:0:0:0:
448,192,67081,1,0,0:0:0:0:
64,192,67190,1,0,0:0:0:0:
192,192,67298,1,0,0:0:0:0:
448,192,67298,1,0,0:0:0:0:
64,192,67407,1,0,0:0:0:0:
320,192,67407,1,0,0:0:0:0:
320,192,67516,1,0,0:0:0:0:
448,192,67516,1,0,0:0:0:0:
64,192,67624,1,0,0:0:0:0:
192,192,67624,1,0,0:0:0:0:
320,192,67733,1,0,0:0:0:0:
448,192,67733,1,0,0:0:0:0:
192,192,67950,1,0,0:0:0:0:
448,192,67950,1,0,0:0:0:0:
64,192,68059,1,0,0:0:0:0:
192,192,68168,1,0,0:0:0:0:
448,192,68168,1,0,0:0:0:0:
64,192,68276,1,0,0:0:0:0:
320,192,68276,1,0,0:0:0:0:
320,192,68385,1,0,0:0:0:0:
448,192,68385,1,0,0:0:0:0:
64,192,68494,1,0,0:0:0:0:
192,192,68494,1,0,0:0:0:0:
320,192,68603,1,0,0:0:0:0:
448,192,68603,1,0,0:0:0:0:
192,192,68820,1,0,0:0:0:0:
448,192,68820,1,0,0:0:0:0:
64,192,68929,1,0,0:0:0:0:
192,192,69037,1,0,0:0:0:0:
448,192,69037,1,0,0:0:0:0:
64,192,69146,1,0,0:0:0:0:
320,192,69146,1,0,0:0:0:0:
320,192,69255,1,0,0:0:0:0:
448,192,69255,1,0,0:0:0:0:
64,192,69363,1,0,0:0:0:0:
192,192,69363,1,0,0:0:0:0:
320,192,69472,1,0,0:0:0:0:
448,192,69472,1,0,0:0:0:0:
64,192,69617,1,0,0:0:0:0:
192,192,69617,1,0,0:0:0:0:
192,192,69762,1,0,0:0:0:0:
448,192,69762,1,0,0:0:0:0:
64,192,69907,1,0,0:0:0:0:
320,192,69907,1,0,0:0:0:0:
320,192,70052,1,0,0:0:0:0:
448,192,70052,1,0,0:0:0:0:
64,192,70197,1,0,0:0:0:0:
192,192,70197,1,0,0:0:0:0:
64,192,70342,1,0,0:0:0:0:
192,192,70342,1,0,0:0:0:0:
448,192,70342,1,0,0:0:0:0:
320,192,70450,1,0,0:0:0:0:
64,192,70559,1,0,0:0:0:0:
192,192,70559,1,0,0:0:0:0:
448,192,70668,1,0,0:0:0:0:
64,192,70776,1,0,0:0:0:0:
192,192,70776,1,0,0:0:0:0:
320,192,70885,1,0,0:0:0:0:
448,192,70885,1,0,0:0:0:0:
64,192,70994,1,0,0:0:0:0:
320,192,70994,1,0,0:0:0:0:
192,192,71103,1,0,0:0:0:0:
448,192,71103,1,0,0:0:0:0:
64,192,71211,1,0,0:0:0:0:
192,192,71211,1,0,0:0:0:0:
448,192,71320,1,0,0:0:0:0:
64,192,71429,1,0,0:0:0:0:
320,192,71429,1,0,0:0:0:0:
448,192,71537,1,0,0:0:0:0:
64,192,71646,1,0,0:0:0:0:
192,192,71646,1,0,0:0:0:0:
320,192,71755,1,0,0:0:0:0:
448,192,71755,1,0,0:0:0:0:
64,192,71863,1,0,0:0:0:0:
320,192,71863,1,0,0:0:0:0:
192,192,71972,1,0,0:0:0:0:
448,192,71972,1,0,0:0:0:0:
64,192,72081,1,0,0:0:0:0:
192,192,72081,1,0,0:0:0:0:
320,192,72190,1,0,0:0:0:0:
64,192,72298,1,0,0:0:0:0:
192,192,72298,1,0,0:0:0:0:
448,192,72407,1,0,0:0:0:0:
64,192,72516,1,0,0:0:0:0:
192,192,72516,1,0,0:0:0:0:
320,192,72624,1,0,0:0:0:0:
448,192,72624,1,0,0:0:0:0:
64,192,72733,1,0,0:0:0:0:
320,192,72733,1,0,0:0:0:0:
192,192,72842,1,0,0:0:0:0:
448,192,72842,1,0,0:0:0:0:
64,192,72950,1,0,0:0:0:0:
192,192,72950,1,0,0:0:0:0:
448,192,73059,1,0,0:0:0:0:
192,192,73168,1,0,0:0:0:0:
320,192,73168,1,0,0:0:0:0:
448,192,73276,1,0,0:0:0:0:
64,192,73385,1,0,0:0:0:0:
192,192,73385,1,0,0:0:0:0:
320,192,73494,1,0,0:0:0:0:
64,192,73603,1,0,0:0:0:0:
448,192,73603,1,0,0:0:0:0:
192,192,73711,1,0,0:0:0:0:
320,192,73711,1,0,0:0:0:0:
64,192,73820,1,0,0:0:0:0:
192,192,73820,1,0,0:0:0:0:
448,192,73929,1,0,0:0:0:0:
64,192,74037,1,0,0:0:0:0:
320,192,74037,1,0,0:0:0:0:
448,192,74146,1,0,0:0:0:0:
64,192,74255,1,0,0:0:0:0:
320,192,74255,1,0,0:0:0:0:
192,192,74363,1,0,0:0:0:0:
448,192,74363,1,0,0:0:0:0:
64,192,74472,1,0,0:0:0:0:
192,192,74472,1,0,0:0:0:0:
320,192,74581,1,0,0:0:0:0:
448,192,74581,1,0,0:0:0:0:
64,192,74690,1,0,0:0:0:0:
192,192,74690,1,0,0:0:0:0:
448,192,74798,1,0,0:0:0:0:
192,192,74907,1,0,0:0:0:0:
320,192,74907,1,0,0:0:0:0:
448,192,75016,1,0,0:0:0:0:
64,192,75124,1,0,0:0:0:0:
320,192,75124,1,0,0:0:0:0:
192,192,75233,1,0,0:0:0:0:
448,192,75233,1,0,0:0:0:0:
64,192,75342,1,0,0:0:0:0:
192,192,75342,1,0,0:0:0:0:
320,192,75450,1,0,0:0:0:0:
448,192,75450,1,0,0:0:0:0:
64,192,75559,1,0,0:0:0:0:
192,192,75559,1,0,0:0:0:0:
320,192,75668,1,0,0:0:0:0:
64,192,75776,1,0,0:0:0:0:
448,192,75776,1,0,0:0:0:0:
320,192,75885,1,0,0:0:0:0:
64,192,75994,1,0,0:0:0:0:
192,192,75994,1,0,0:0:0:0:
320,192,76103,1,0,0:0:0:0:
448,192,76103,1,0,0:0:0:0:
64,192,76211,1,0,0:0:0:0:
320,192,76211,1,0,0:0:0:0:
192,192,76320,1,0,0:0:0:0:
448,192,76320,1,0,0:0:0:0:
320,192,76429,1,0,0:0:0:0:
448,192,76429,1,0,0:0:0:0:
64,192,76537,1,0,0:0:0:0:
192,192,76646,1,0,0:0:0:0:
448,192,76646,1,0,0:0:0:0:
64,192,76755,1,0,0:0:0:0:
320,192,76863,1,0,0:0:0:0:
448,192,76863,1,0,0:0:0:0:
192,192,76972,1,0,0:0:0:0:
64,192,77081,1,0,0:0:0:0:
448,192,77081,1,0,0:0:0:0:
192,192,77190,1,0,0:0:0:0:
320,192,77190,1,0,0:0:0:0:
64,192,77298,1,0,0:0:0:0:
320,192,77298,1,0,0:0:0:0:
448,192,77298,1,0,0:0:0:0:
192,192,77407,1,0,0:0:0:0:
320,192,77516,1,0,0:0:0:0:
448,192,77516,1,0,0:0:0:0:
64,192,77624,1,0,0:0:0:0:
320,192,77733,1,0,0:0:0:0:
448,192,77733,1,0,0:0:0:0:
64,192,77842,1,0,0:0:0:0:
192,192,77842,1,0,0:0:0:0:
192,192,77950,1,0,0:0:0:0:
448,192,77950,1,0,0:0:0:0:
64,192,78059,1,0,0:0:0:0:
320,192,78059,1,0,0:0:0:0:
320,192,78168,1,0,0:0:0:0:
448,192,78168,1,0,0:0:0:0:
192,192,78276,1,0,0:0:0:0:
64,192,78385,1,0,0:0:0:0:
448,192,78385,1,0,0:0:0:0:
192,192,78494,1,0,0:0:0:0:
320,192,78603,1,0,0:0:0:0:
448,192,78603,1,0,0:0:0:0:
64,192,78711,1,0,0:0:0:0:
192,192,78711,1,0,0:0:0:0:
192,192,78820,1,0,0:0:0:0:
448,192,78820,1,0,0:0:0:0:
64,192,78929,1,0,0:0:0:0:
320,192,78929,1,0,0:0:0:0:
320,192,79037,1,0,0:0:0:0:
448,192,79037,1,0,0:0:0:0:
64,192,79146,1,0,0:0:0:0:
192,192,79255,1,0,0:0:0:0:
448,192,79255,1,0,0:0:0:0:
64,192,79363,1,0,0:0:0:0:
320,192,79472,1,0,0:0:0:0:
448,192,79472,1,0,0:0:0:0:
64,192,79581,1,0,0:0:0:0:
192,192,79581,1,0,0:0:0:0:
192,192,79690,1,0,0:0:0:0:
448,192,79690,1,0,0:0:0:0:
64,192,79798,1,0,0:0:0:0:
320,192,79798,1,0,0:0:0:0:
320,192,79907,1,0,0:0:0:0:
448,192,79907,1,0,0:0:0:0:
64,192,80016,1,0,0:0:0:0:
192,192,80124,1,0,0:0:0:0:
448,192,80124,1,0,0:0:0:0:
64,192,80233,1,0,0:0:0:0:
320,192,80342,1,0,0:0:0:0:
448,192,80342,1,0,0:0:0:0:
192,192,80450,1,0,0:0:0:0:
64,192,80559,1,0,0:0:0:0:
448,192,80559,1,0,0:0:0:0:
192,192,80668,1,0,0:0:0:0:
320,192,80668,1,0,0:0:0:0:
320,192,80776,1,0,0:0:0:0:
448,192,80776,1,0,0:0:0:0:
64,192,80885,1,0,0:0:0:0:
320,192,80994,1,0,0:0:0:0:
448,192,80994,1,0,0:0:0:0:
64,192,81103,1,0,0:0:0:0:
192,192,81211,1,0,0:0:0:0:
448,192,81211,1,0,0:0:0:0:
64,192,81320,1,0,0:0:0:0:
320,192,81320,1,0,0:0:0:0:
320,192,81429,1,0,0:0:0:0:
448,192,81429,1,0,0:0:0:0:
64,192,81537,1,0,0:0:0:0:
192,192,81537,1,0,0:0:0:0:
320,192,81646,1,0,0:0:0:0:
448,192,81646,1,0,0:0:0:0:
64,192,81755,1,0,0:0:0:0:
192,192,81863,1,0,0:0:0:0:
320,192,81863,1,0,0:0:0:0:
64,192,81972,1,0,0:0:0:0:
192,192,82081,1,0,0:0:0:0:
448,192,82081,1,0,0:0:0:0:
64,192,82190,1,0,0:0:0:0:
320,192,82190,1,0,0:0:0:0:
320,192,82298,1,0,0:0:0:0:
448,192,82298,1,0,0:0:0:0:
64,192,82407,1,0,0:0:0:0:
192,192,82407,1,0,0:0:0:0:
64,0,82516,128,0,82733:1:0:0:0:
320,0,82516,128,0,82733:1:0:0:0:
448,0,82516,128,0,82733:1:0:0:0:
64,0,82950,128,0,83168:1:0:0:0:
192,0,82950,128,0,83168:1:0:0:0:
448,0,82950,128,0,83168:1:0:0:0:
192,0,83385,128,0,83603:1:0:0:0:
320,0,83385,128,0,83603:1:0:0:0:
448,0,83385,128,0,83603:1:0:0:0:
64,0,83820,128,0,84037:1:0:0:0:
192,0,83820,128,0,84037:1:0:0:0:
448,0,83820,128,0,84037:1:0:0:0:
64,192,84255,1,0,0:0:0:0:
192,192,84255,1,0,0:0:0:0:
448,192,84255,1,0,0:0:0:0:
64,192,84363,1,0,0:0:0:0:
192,192,84363,1,0,0:0:0:0:
64,192,84472,1,0,0:0:0:0:
320,192,84472,1,0,0:0:0:0:
448,192,84472,1,0,0:0:0:0:
192,192,84581,1,0,0:0:0:0:
320,192,84581,1,0,0:0:0:0:
64,192,84690,1,0,0:0:0:0:
192,192,84690,1,0,0:0:0:0:
448,192,84690,1,0,0:0:0:0:
64,192,84798,1,0,0:0:0:0:
320,192,84798,1,0,0:0:0:0:
192,192,84907,1,0,0:0:0:0:
320,192,84907,1,0,0:0:0:0:
448,192,84907,1,0,0:0:0:0:
64,192,85016,1,0,0:0:0:0:
192,192,85016,1,0,0:0:0:0:
64,192,85124,1,0,0:0:0:0:
320,192,85124,1,0,0:0:0:0:
448,192,85124,1,0,0:0:0:0:
192,192,85233,1,0,0:0:0:0:
320,192,85233,1,0,0:0:0:0:
192,192,85342,1,0,0:0:0:0:
448,192,85342,1,0,0:0:0:0:
64,192,85450,1,0,0:0:0:0:
320,192,85450,1,0,0:0:0:0:
64,192,85559,1,0,0:0:0:0:
192,192,85559,1,0,0:0:0:0:
448,192,85559,1,0,0:0:0:0:
64,192,85668,1,0,0:0:0:0:
320,192,85668,1,0,0:0:0:0:
192,192,85776,1,0,0:0:0:0:
320,192,85776,1,0,0:0:0:0:
448,192,85776,1,0,0:0:0:0:
64,192,85885,1,0,0:0:0:0:
192,192,85885,1,0,0:0:0:0:
64,192,85994,1,0,0:0:0:0:
320,192,85994,1,0,0:0:0:0:
448,192,85994,1,0,0:0:0:0:
192,192,86103,1,0,0:0:0:0:
448,192,86103,1,0,0:0:0:0:
64,192,86211,1,0,0:0:0:0:
192,192,86211,1,0,0:0:0:0:
448,192,86211,1,0,0:0:0:0:
64,192,86320,1,0,0:0:0:0:
320,192,86320,1,0,0:0:0:0:
192,192,86429,1,0,0:0:0:0:
320,192,86429,1,0,0:0:0:0:
448,192,86429,1,0,0:0:0:0:
64,192,86537,1,0,0:0:0:0:
192,192,86537,1,0,0:0:0:0:
64,192,86646,1,0,0:0:0:0:
320,192,86646,1,0,0:0:0:0:
448,192,86646,1,0,0:0:0:0:
64,192,86755,1,0,0:0:0:0:
192,192,86755,1,0,0:0:0:0:
192,192,86863,1,0,0:0:0:0:
320,192,86863,1,0,0:0:0:0:
448,192,86863,1,0,0:0:0:0:
64,192,86972,1,0,0:0:0:0:
320,192,86972,1,0,0:0:0:0:
320,192,87081,1,0,0:0:0:0:
448,192,87081,1,0,0:0:0:0:
64,192,87190,1,0,0:0:0:0:
192,192,87190,1,0,0:0:0:0:
64,192,87298,1,0,0:0:0:0:
192,192,87298,1,0,0:0:0:0:
448,192,87298,1,0,0:0:0:0:
192,192,87407,1,0,0:0:0:0:
320,192,87407,1,0,0:0:0:0:
64,192,87516,1,0,0:0:0:0:
320,192,87516,1,0,0:0:0:0:
448,192,87516,1,0,0:0:0:0:
64,192,87624,1,0,0:0:0:0:
192,192,87624,1,0,0:0:0:0:
64,192,87733,1,0,0:0:0:0:
320,192,87733,1,0,0:0:0:0:
448,192,87733,1,0,0:0:0:0:
192,192,87842,1,0,0:0:0:0:
320,192,87842,1,0,0:0:0:0:
64,192,87950,1,0,0:0:0:0:
192,192,87950,1,0,0:0:0:0:
448,192,87950,1,0,0:0:0:0:
192,192,88059,1,0,0:0:0:0:
320,192,88059,1,0,0:0:0:0:
64,192,88168,1,0,0:0:0:0:
320,192,88168,1,0,0:0:0:0:
448,192,88168,1,0,0:0:0:0:
192,192,88276,1,0,0:0:0:0:
448,192,88276,1,0,0:0:0:0:
64,192,88385,1,0,0:0:0:0:
192,192,88385,1,0,0:0:0:0:
320,192,88385,1,0,0:0:0:0:
64,192,88494,1,0,0:0:0:0:
320,192,88494,1,0,0:0:0:0:
64,192,88603,1,0,0:0:0:0:
192,192,88603,1,0,0:0:0:0:
448,192,88603,1,0,0:0:0:0:
192,192,88711,1,0,0:0:0:0:
320,192,88711,1,0,0:0:0:0:
64,192,88820,1,0,0:0:0:0:
320,192,88820,1,0,0:0:0:0:
192,192,88929,1,0,0:0:0:0:
448,192,88929,1,0,0:0:0:0:
64,192,89037,1,0,0:0:0:0:
192,192,89037,1,0,0:0:0:0:
320,192,89037,1,0,0:0:0:0:
192,192,89146,1,0,0:0:0:0:
448,192,89146,1,0,0:0:0:0:
64,192,89255,1,0,0:0:0:0:
320,192,89255,1,0,0:0:0:0:
448,192,89255,1,0,0:0:0:0:
192,192,89363,1,0,0:0:0:0:
320,192,89363,1,0,0:0:0:0:
64,192,89472,1,0,0:0:0:0:
320,192,89472,1,0,0:0:0:0:
448,192,89472,1,0,0:0:0:0:
64,192,89581,1,0,0:0:0:0:
192,192,89581,1,0,0:0:0:0:
192,192,89690,1,0,0:0:0:0:
320,192,89690,1,0,0:0:0:0:
448,192,89690,1,0,0:0:0:0:
64,192,89798,1,0,0:0:0:0:
320,192,89798,1,0,0:0:0:0:
64,192,89907,1,0,0:0:0:0:
192,192,89907,1,0,0:0:0:0:
448,192,89907,1,0,0:0:0:0:
192,192,90016,1,0,0:0:0:0:
320,192,90016,1,0,0:0:0:0:
64,192,90124,1,0,0:0:0:0:
320,192,90124,1,0,0:0:0:0:
448,192,90124,1,0,0:0:0:0:
64,192,90233,1,0,0:0:0:0:
192,192,90233,1,0,0:0:0:0:
192,192,90342,1,0,0:0:0:0:
320,192,90342,1,0,0:0:0:0:
448,192,90342,1,0,0:0:0:0:
64,192,90450,1,0,0:0:0:0:
320,192,90450,1,0,0:0:0:0:
64,192,90559,1,0,0:0:0:0:
192,192,90559,1,0,0:0:0:0:
320,192,90668,1,0,0:0:0:0:
448,192,90668,1,0,0:0:0:0:
64,192,90776,1,0,0:0:0:0:
192,192,90776,1,0,0:0:0:0:
448,192,90776,1,0,0:0:0:0:
64,192,90885,1,0,0:0:0:0:
320,192,90885,1,0,0:0:0:0:
192,192,90994,1,0,0:0:0:0:
320,192,90994,1,0,0:0:0:0:
448,192,90994,1,0,0:0:0:0:
320,192,91103,1,0,0:0:0:0:
64,192,91211,1,0,0:0:0:0:
192,192,91211,1,0,0:0:0:0:
448,192,91211,1,0,0:0:0:0:
64,192,91320,1,0,0:0:0:0:
192,192,91320,1,0,0:0:0:0:
64,192,91429,1,0,0:0:0:0:
320,192,91429,1,0,0:0:0:0:
448,192,91429,1,0,0:0:0:0:
192,192,91537,1,0,0:0:0:0:
320,192,91537,1,0,0:0:0:0:
64,192,91646,1,0,0:0:0:0:
192,192,91646,1,0,0:0:0:0:
448,192,91646,1,0,0:0:0:0:
64,192,91755,1,0,0:0:0:0:
320,192,91755,1,0,0:0:0:0:
192,192,91863,1,0,0:0:0:0:
320,192,91863,1,0,0:0:0:0:
448,192,91863,1,0,0:0:0:0:
64,192,91972,1,0,0:0:0:0:
192,192,91972,1,0,0:0:0:0:
64,192,92081,1,0,0:0:0:0:
320,192,92081,1,0,0:0:0:0:
448,192,92081,1,0,0:0:0:0:
192,192,92190,1,0,0:0:0:0:
320,192,92190,1,0,0:0:0:0:
192,192,92298,1,0,0:0:0:0:
448,192,92298,1,0,0:0:0:0:
64,192,92407,1,0,0:0:0:0:
320,192,92407,1,0,0:0:0:0:
64,192,92516,1,0,0:0:0:0:
192,192,92516,1,0,0:0:0:0:
448,192,92516,1,0,0:0:0:0:
64,192,92624,1,0,0:0:0:0:
320,192,92624,1,0,0:0:0:0:
192,192,92733,1,0,0:0:0:0:
320,192,92733,1,0,0:0:0:0:
448,192,92733,1,0,0:0:0:0:
64,192,92842,1,0,0:0:0:0:
192,192,92842,1,0,0:0:0:0:
64,192,92950,1,0,0:0:0:0:
320,192,92950,1,0,0:0:0:0:
448,192,92950,1,0,0:0:0:0:
192,192,93059,1,0,0:0:0:0:
448,192,93059,1,0,0:0:0:0:
64,192,93168,1,0,0:0:0:0:
192,192,93168,1,0,0:0:0:0:
448,192,93168,1,0,0:0:0:0:
64,192,93276,1,0,0:0:0:0:
320,192,93276,1,0,0:0:0:0:
192,192,93385,1,0,0:0:0:0:
320,192,93385,1,0,0:0:0:0:
448,192,93385,1,0,0:0:0:0:
64,192,93494,1,0,0:0:0:0:
192,192,93494,1,0,0:0:0:0:
64,192,93603,1,0,0:0:0:0:
320,192,93603,1,0,0:0:0:0:
448,192,93603,1,0,0:0:0:0:
64,192,93711,1,0,0:0:0:0:
192,192,93711,1,0,0:0:0:0:
192,192,93820,1,0,0:0:0:0:
320,192,93820,1,0,0:0:0:0:
448,192,93820,1,0,0:0:0:0:
64,192,93929,1,0,0:0:0:0:
320,192,93929,1,0,0:0:0:0:
320,192,94037,1,0,0:0:0:0:
448,192,94037,1,0,0:0:0:0:
64,192,94146,1,0,0:0:0:0:
192,192,94146,1,0,0:0:0:0:
64,192,94255,1,0,0:0:0:0:
192,192,94255,1,0,0:0:0:0:
448,192,94255,1,0,0:0:0:0:
192,192,94363,1,0,0:0:0:0:
320,192,94363,1,0,0:0:0:0:
64,192,94472,1,0,0:0:0:0:
320,192,94472,1,0,0:0:0:0:
448,192,94472,1,0,0:0:0:0:
64,192,94581,1,0,0:0:0:0:
192,192,94581,1,0,0:0:0:0:
64,192,94690,1,0,0:0:0:0:
320,192,94690,1,0,0:0:0:0:
448,192,94690,1,0,0:0:0:0:
192,192,94798,1,0,0:0:0:0:
320,192,94798,1,0,0:0:0:0:
64,192,94907,1,0,0:0:0:0:
192,192,94907,1,0,0:0:0:0:
448,192,94907,1,0,0:0:0:0:
192,192,95016,1,0,0:0:0:0:
320,192,95016,1,0,0:0:0:0:
64,192,95124,1,0,0:0:0:0:
320,192,95124,1,0,0:0:0:0:
448,192,95124,1,0,0:0:0:0:
192,192,95233,1,0,0:0:0:0:
448,192,95233,1,0,0:0:0:0:
64,192,95342,1,0,0:0:0:0:
192,192,95342,1,0,0:0:0:0:
320,192,95342,1,0,0:0:0:0:
64,192,95450,1,0,0:0:0:0:
320,192,95450,1,0,0:0:0:0:
64,192,95559,1,0,0:0:0:0:
192,192,95559,1,0,0:0:0:0:
448,192,95559,1,0,0:0:0:0:
192,192,95668,1,0,0:0:0:0:
320,192,95668,1,0,0:0:0:0:
64,192,95776,1,0,0:0:0:0:
320,192,95776,1,0,0:0:0:0:
192,192,95885,1,0,0:0:0:0:
448,192,95885,1,0,0:0:0:0:
64,192,95994,1,0,0:0:0:0:
192,192,95994,1,0,0:0:0:0:
320,192,95994,1,0,0:0:0:0:
192,192,96103,1,0,0:0:0:0:
448,192,96103,1,0,0:0:0:0:
64,192,96211,1,0,0:0:0:0:
320,192,96211,1,0,0:0:0:0:
448,192,96211,1,0,0:0:0:0:
192,192,96320,1,0,0:0:0:0:
320,192,96320,1,0,0:0:0:0:
64,192,96429,1,0,0:0:0:0:
320,192,96429,1,0,0:0:0:0:
448,192,96429,1,0,0:0:0:0:
64,192,96537,1,0,0:0:0:0:
192,192,96537,1,0,0:0:0:0:
192,192,96646,1,0,0:0:0:0:
320,192,96646,1,0,0:0:0:0:
448,192,96646,1,0,0:0:0:0:
64,192,96755,1,0,0:0:0:0:
320,192,96755,1,0,0:0:0:0:
64,192,96863,1,0,0:0:0:0:
192,192,96863,1,0,0:0:0:0:
448,192,96863,1,0,0:0:0:0:
192,192,96972,1,0,0:0:0:0:
320,192,96972,1,0,0:0:0:0:
64,192,97081,1,0,0:0:0:0:
320,192,97081,1,0,0:0:0:0:
448,192,97081,1,0,0:0:0:0:
64,192,97190,1,0,0:0:0:0:
192,192,97190,1,0,0:0:0:0:
192,192,97298,1,0,0:0:0:0:
320,192,97298,1,0,0:0:0:0:
448,192,97298,1,0,0:0:0:0:
64,192,97443,1,0,0:0:0:0:
192,192,97443,1,0,0:0:0:0:
320,192,97443,1,0,0:0:0:0:
64,192,97588,1,0,0:0:0:0:
320,192,97588,1,0,0:0:0:0:
448,192,97588,1,0,0:0:0:0:
64,192,97733,1,0,0:0:0:0:
192,192,97733,1,0,0:0:0:0:
448,192,97733,1,0,0:0:0:0:
192,192,97878,1,0,0:0:0:0:
320,192,97878,1,0,0:0:0:0:
448,192,97878,1,0,0:0:0:0:
64,192,98023,1,0,0:0:0:0:
192,192,98023,1,0,0:0:0:0:
320,192,98023,1,0,0:0:0:0:
64,192,98168,1,0,0:0:0:0:
192,192,98168,1,0,0:0:0:0:
448,192,98168,1,0,0:0:0:0:
64,192,98276,1,0,0:0:0:0:
192,192,98276,1,0,0:0:0:0:
64,192,98385,1,0,0:0:0:0:
320,192,98385,1,0,0:0:0:0:
448,192,98385,1,0,0:0:0:0:
192,192,98494,1,0,0:0:0:0:
320,192,98494,1,0,0:0:0:0:
64,192,98603,1,0,0:0:0:0:
192,192,98603,1,0,0:0:0:0:
448,192,98603,1,0,0:0:0:0:
64,192,98711,1,0,0:0:0:0:
320,192,98711,1,0,0:0:0:0:
192,192,98820,1,0,0:0:0:0:
320,192,98820,1,0,0:0:0:0:
448,192,98820,1,0,0:0:0:0:
64,192,98929,1,0,0:0:0:0:
192,192,98929,1,0,0:0:0:0:
64,192,99037,1,0,0:0:0:0:
320,192,99037,1,0,0:0:0:0:
448,192,99037,1,0,0:0:0:0:
192,192,99146,1,0,0:0:0:0:
320,192,99146,1,0,0:0:0:0:
192,192,99255,1,0,0:0:0:0:
448,192,99255,1,0,0:0:0:0:
64,192,99363,1,0,0:0:0:0:
320,192,99363,1,0,0:0:0:0:
64,192,99472,1,0,0:0:0:0:
192,192,99472,1,0,0:0:0:0:
448,192,99472,1,0,0:0:0:0:
64,192,99581,1,0,0:0:0:0:
320,192,99581,1,0,0:0:0:0:
192,192,99690,1,0,0:0:0:0:
320,192,99690,1,0,0:0:0:0:
448,192,99690,1,0,0:0:0:0:
64,192,99798,1,0,0:0:0:0:
192,192,99798,1,0,0:0:0:0:
64,192,99907,1,0,0:0:0:0:
320,192,99907,1,0,0:0:0:0:
448,192,99907,1,0,0:0:0:0:
192,192,100016,1,0,0:0:0:0:
448,192,100016,1,0,0:0:0:0:
64,192,100124,1,0,0:0:0:0:
192,192,100124,1,0,0:0:0:0:
448,192,100124,1,0,0:0:0:0:
64,192,100233,1,0,0:0:0:0:
320,192,100233,1,0,0:0:0:0:
192,192,100342,1,0,0:0:0:0:
320,192,100342,1,0,0:0:0:0:
448,192,100342,1,0,0:0:0:0:
64,192,100450,1,0,0:0:0:0:
192,192,100450,1,0,0:0:0:0:
64,192,100559,1,0,0:0:0:0:
320,192,100559,1,0,0:0:0:0:
448,192,100559,1,0,0:0:0:0:
64,192,100668,1,0,0:0:0:0:
192,192,100668,1,0,0:0:0:0:
192,192,100776,1,0,0:0:0:0:
320,192,100776,1,0,0:0:0:0:
448,192,100776,1,0,0:0:0:0:
64,192,100885,1,0,0:0:0:0:
320,192,100885,1,0,0:0:0:0:
320,192,100994,1,0,0:0:0:0:
448,192,100994,1,0,0:0:0:0:
64,192,101103,1,0,0:0:0:0:
192,192,101103,1,0,0:0:0:0:
64,192,101211,1,0,0:0:0:0:
192,192,101211,1,0,0:0:0:0:
448,192,101211,1,0,0:0:0:0:
192,192,101320,1,0,0:0:0:0:
320,192,101320,1,0,0:0:0:0:
64,192,101429,1,0,0:0:0:0:
320,192,101429,1,0,0:0:0:0:
448,192,101429,1,0,0:0:0:0:
64,192,101537,1,0,0:0:0:0:
192,192,101537,1,0,0:0:0:0:
64,192,101646,1,0,0:0:0:0:
320,192,101646,1,0,0:0:0:0:
448,192,101646,1,0,0:0:0:0:
192,192,101755,1,0,0:0:0:0:
320,192,101755,1,0,0:0:0:0:
64,192,101863,1,0,0:0:0:0:
192,192,101863,1,0,0:0:0:0:
448,192,101863,1,0,0:0:0:0:
192,192,101972,1,0,0:0:0:0:
320,192,101972,1,0,0:0:0:0:
64,192,102081,1,0,0:0:0:0:
320,192,102081,1,0,0:0:0:0:
448,192,102081,1,0,0:0:0:0:
192,192,102190,1,0,0:0:0:0:
448,192,102190,1,0,0:0:0:0:
64,192,102298,1,0,0:0:0:0:
192,192,102298,1,0,0:0:0:0:
320,192,102298,1,0,0:0:0:0:
64,192,102407,1,0,0:0:0:0:
320,192,102407,1,0,0:0:0:0:
64,192,102516,1,0,0:0:0:0:
192,192,102516,1,0,0:0:0:0:
448,192,102516,1,0,0:0:0:0:
192,192,102624,1,0,0:0:0:0:
320,192,102624,1,0,0:0:0:0:
64,192,102733,1,0,0:0:0:0:
320,192,102733,1,0,0:0:0:0:
192,192,102842,1,0,0:0:0:0:
448,192,102842,1,0,0:0:0:0:
64,192,102950,1,0,0:0:0:0:
192,192,102950,1,0,0:0:0:0:
320,192,102950,1,0,0:0:0:0:
192,192,103059,1,0,0:0:0:0:
448,192,103059,1,0,0:0:0:0:
64,192,103168,1,0,0:0:0:0:
320,192,103168,1,0,0:0:0:0:
448,192,103168,1,0,0:0:0:0:
192,192,103276,1,0,0:0:0:0:
320,192,103276,1,0,0:0:0:0:
64,192,103385,1,0,0:0:0:0:
320,192,103385,1,0,0:0:0:0:
448,192,103385,1,0,0:0:0:0:
64,192,103494,1,0,0:0:0:0:
192,192,103494,1,0,0:0:0:0:
192,192,103603,1,0,0:0:0:0:
320,192,103603,1,0,0:0:0:0:
448,192,103603,1,0,0:0:0:0:
64,192,103711,1,0,0:0:0:0:
320,192,103711,1,0,0:0:0:0:
64,192,103820,1,0,0:0:0:0:
192,192,103820,1,0,0:0:0:0:
448,192,103820,1,0,0:0:0:0:
192,192,103929,1,0,0:0:0:0:
320,192,103929,1,0,0:0:0:0:
64,192,104037,1,0,0:0:0:0:
320,192,104037,1,0,0:0:0:0:
448,192,104037,1,0,0:0:0:0:
64,192,104146,1,0,0:0:0:0:
192,192,104146,1,0,0:0:0:0:
192,192,104255,1,0,0:0:0:0:
320,192,104255,1,0,0:0:0:0:
448,192,104255,1,0,0:0:0:0:
64,192,104363,1,0,0:0:0:0:
320,192,104363,1,0,0:0:0:0:
64,192,104472,1,0,0:0:0:0:
192,192,104472,1,0,0:0:0:0:
320,192,104581,1,0,0:0:0:0:
448,192,104581,1,0,0:0:0:0:
64,192,104690,1,0,0:0:0:0:
192,192,104690,1,0,0:0:0:0:
448,192,104690,1,0,0:0:0:0:
64,192,104798,1,0,0:0:0:0:
320,192,104798,1,0,0:0:0:0:
192,192,104907,1,0,0:0:0:0:
320,192,104907,1,0,0:0:0:0:
448,192,104907,1,0,0:0:0:0:
320,192,105016,1,0,0:0:0:0:
64,192,105124,1,0,0:0:0:0:
192,192,105124,1,0,0:0:0:0:
448,192,105124,1,0,0:0:0:0:
64,192,105233,1,0,0:0:0:0:
192,192,105233,1,0,0:0:0:0:
64,192,105342,1,0,0:0:0:0:
320,192,105342,1,0,0:0:0:0:
448,192,105342,1,0,0:0:0:0:
192,192,105450,1,0,0:0:0:0:
320,192,105450,1,0,0:0:0:0:
64,192,105559,1,0,0:0:0:0:
192,192,105559,1,0,0:0:0:0:
448,192,105559,1,0,0:0:0:0:
64,192,105668,1,0,0:0:0:0:
320,192,105668,1,0,0:0:0:0:
192,192,105776,1,0,0:0:0:0:
320,192,105776,1,0,0:0:0:0:
448,192,105776,1,0,0:0:0:0:
64,192,105885,1,0,0:0:0:0:
192,192,105885,1,0,0:0:0:0:
64,192,105994,1,0,0:0:0:0:
320,192,105994,1,0,0:0:0:0:
448,192,105994,1,0,0:0:0:0:
192,192,106103,1,0,0:0:0:0:
320,192,106103,1,0,0:0:0:0:
192,192,106211,1,0,0:0:0:0:
448,192,106211,1,0,0:0:0:0:
64,192,106320,1,0,0:0:0:0:
320,192,106320,1,0,0:0:0:0:
64,192,106429,1,0,0:0:0:0:
192,192,106429,1,0,0:0:0:0:
448,192,106429,1,0,0:0:0:0:
64,192,106537,1,0,0:0:0:0:
320,192,106537,1,0,0:0:0:0:
192,192,106646,1,0,0:0:0:0:
320,192,106646,1,0,0:0:0:0:
448,192,106646,1,0,0:0:0:0:
64,192,106755,1,0,0:0:0:0:
192,192,106755,1,0,0:0:0:0:
64,192,106863,1,0,0:0:0:0:
320,192,106863,1,0,0:0:0:0:
448,192,106863,1,0,0:0:0:0:
192,192,106972,1,0,0:0:0:0:
448,192,106972,1,0,0:0:0:0:
64,192,107081,1,0,0:0:0:0:
192,192,107081,1,0,0:0:0:0:
448,192,107081,1,0,0:0:0:0:
64,192,107190,1,0,0:0:0:0:
320,192,107190,1,0,0:0:0:0:
192,192,107298,1,0,0:0:0:0:
320,192,107298,1,0,0:0:0:0:
448,192,107298,1,0,0:0:0:0:
64,192,107407,1,0,0:0:0:0:
192,192,107407,1,0,0:0:0:0:
64,192,107516,1,0,0:0:0:0:
320,192,107516,1,0,0:0:0:0:
448,192,107516,1,0,0:0:0:0:
64,192,107624,1,0,0:0:0:0:
192,192,107624,1,0,0:0:0:0:
192,192,107733,1,0,0:0:0:0:
320,192,107733,1,0,0:0:0:0:
448,192,107733,1,0,0:0:0:0:
64,192,107842,1,0,0:0:0:0:
320,192,107842,1,0,0:0:0:0:
320,192,107950,1,0,0:0:0:0:
448,192,107950,1,0,0:0:0:0:
64,192,108059,1,0,0:0:0:0:
192,192,108059,1,0,0:0:0:0:
64,192,108168,1,0,0:0:0:0:
192,192,108168,1,0,0:0:0:0:
448,192,108168,1,0,0:0:0:0:
192,192,108276,1,0,0:0:0:0:
320,192,108276,1,0,0:0:0:0:
64,192,108385,1,0,0:0:0:0:
320,192,108385,1,0,0:0:0:0:
448,192,108385,1,0,0:0:0:0:
64,192,108494,1,0,0:0:0:0:
192,192,108494,1,0,0:0:0:0:
64,192,108603,1,0,0:0:0:0:
320,192,108603,1,0,0:0:0:0:
448,192,108603,1,0,0:0:0:0:
192,192,108711,1,0,0:0:0:0:
320,192,108711,1,0,0:0:0:0:
64,192,108820,1,0,0:0:0:0:
192,192,108820,1,0,0:0:0:0:
448,192,108820,1,0,0:0:0:0:
192,192,108929,1,0,0:0:0:0:
320,192,108929,1,0,0:0:0:0:
64,192,109037,1,0,0:0:0:0:
320,192,109037,1,0,0:0:0:0:
448,192,109037,1,0,0:0:0:0:
192,192,109146,1,0,0:0:0:0:
448,192,109146,1,0,0:0:0:0:
64,192,109255,1,0,0:0:0:0:
192,192,109255,1,0,0:0:0:0:
320,192,109255,1,0,0:0:0:0:
64,192,109363,1,0,0:0:0:0:
320,192,109363,1,0,0:0:0:0:
64,192,109472,1,0,0:0:0:0:
192,192,109472,1,0,0:0:0:0:
448,192,109472,1,0,0:0:0:0:
192,192,109581,1,0,0:0:0:0:
320,192,109581,1,0,0:0:0:0:
64,192,109690,1,0,0:0:0:0:
320,192,109690,1,0,0:0:0:0:
192,192,109798,1,0,0:0:0:0:
448,192,109798,1,0,0:0:0:0:
64,192,109907,1,0,0:0:0:0:
192,192,109907,1,0,0:0:0:0:
320,192,109907,1,0,0:0:0:0:
192,192,110016,1,0,0:0:0:0:
448,192,110016,1,0,0:0:0:0:
64,192,110124,1,0,0:0:0:0:
320,192,110124,1,0,0:0:0:0:
448,192,110124,1,0,0:0:0:0:
192,192,110233,1,0,0:0:0:0:
320,192,110233,1,0,0:0:0:0:
64,192,110342,1,0,0:0:0:0:
320,192,110342,1,0,0:0:0:0:
448,192,110342,1,0,0:0:0:0:
64,192,110450,1,0,0:0:0:0:
192,192,110450,1,0,0:0:0:0:
192,192,110559,1,0,0:0:0:0:
320,192,110559,1,0,0:0:0:0:
448,192,110559,1,0,0:0:0:0:
64,192,110668,1,0,0:0:0:0:
320,192,110668,1,0,0:0:0:0:
64,192,110776,1,0,0:0:0:0:
192,192,110776,1,0,0:0:0:0:
448,192,110776,1,0,0:0:0:0:
192,192,110885,1,0,0:0:0:0:
320,192,110885,1,0,0:0:0:0:
64,192,110994,1,0,0:0:0:0:
320,192,110994,1,0,0:0:0:0:
448,192,110994,1,0,0:0:0:0:
64,192,111103,1,0,0:0:0:0:
192,192,111103,1,0,0:0:0:0:
192,0,111211,128,0,111537:1:0:0:0:
320,0,111211,128,0,111537:1:0:0:0:
448,0,111211,128,0,111537:1:0:0:0:
64,0,111646,128,0,111972:1:0:0:0:
192,0,111646,128,0,111972:1:0:0:0:
448,0,111646,128,0,111972:1:0:0:0:
64,192,112081,1,0,0:0:0:0:
320,192,112081,1,0,0:0:0:0:
448,192,112081,1,0,0:0:0:0:
192,192,112298,1,0,0:0:0:0:
320,192,112516,1,0,0:0:0:0:
64,192,112733,1,0,0:0:0:0:
192,0,112950,128,0,113168:1:0:0:0:
448,0,112950,128,0,113385:1:0:0:0:
320,192,113385,1,0,0:0:0:0:
64,192,113603,1,0,0:0:0:0:
448,192,113820,1,0,0:0:0:0:
192,192,114037,1,0,0:0:0:0:
320,192,114255,1,0,0:0:0:0:
192,192,114472,1,0,0:0:0:0:
448,0,114690,128,0,114907:1:0:0:0:
64,0,114690,128,0,115124:1:0:0:0:
192,192,115124,1,0,0:0:0:0:
448,192,115342,1,0,0:0:0:0:
320,192,115559,1,0,0:0:0:0:
64,192,115776,1,0,0:0:0:0:
320,192,115994,1,0,0:0:0:0:
192,192,116211,1,0,0:0:0:0:
64,0,116429,128,0,116646:1:0:0:0:
448,0,116429,128,0,116863:1:0:0:0:
192,192,116863,1,0,0:0:0:0:
320,192,117081,1,0,0:0:0:0:
64,192,117298,1,0,0:0:0:0:
192,192,117516,1,0,0:0:0:0:
320,192,117733,1,0,0:0:0:0:
448,192,117950,1,0,0:0:0:0:
192,0,118168,128,0,118385:1:0:0:0:
64,0,118168,128,0,118603:1:0:0:0:
320,192,118603,1,0,0:0:0:0:
448,192,118820,1,0,0:0:0:0:
192,192,119037,1,0,0:0:0:0:
448,192,119255,1,0,0:0:0:0:
320,192,119472,1,0,0:0:0:0:
64,192,119690,1,0,0:0:0:0:
192,0,119907,128,0,120124:1:0:0:0:
448,0,119907,128,0,120342:1:0:0:0:
320,192,120342,1,0,0:0:0:0:
64,192,120559,1,0,0:0:0:0:
320,192,120776,1,0,0:0:0:0:
448,192,120994,1,0,0:0:0:0:
320,192,121211,1,0,0:0:0:0:
192,192,121429,1,0,0:0:0:0:
320,0,121646,128,0,121863:1:0:0:0:
64,0,121646,128,0,122081:1:0:0:0:
192,192,122081,1,0,0:0:0:0:
448,192,122298,1,0,0:0:0:0:
320,192,122516,1,0,0:0:0:0:
192,192,122733,1,0,0:0:0:0:
64,192,122950,1,0,0:0:0:0:
192,192,123168,1,0,0:0:0:0:
320,0,123385,128,0,123603:1:0:0:0:
448,0,123385,128,0,123820:1:0:0:0:
64,192,123820,1,0,0:0:0:0:
320,192,124037,1,0,0:0:0:0:
192,192,124282,1,0,0:0:0:0:
64,192,124508,1,0,0:0:0:0:
320,192,124726,1,0,0:0:0:0:
448,192,124943,1,0,0:0:0:0:
192,0,125197,128,0,125342:1:0:0:0:
448,192,125595,1,0,0:0:0:0:
64,192,125813,1,0,0:0:0:0:
64,192,125994,1,0,0:0:0:0:
192,192,125994,1,0,0:0:0:0:
448,192,125994,1,0,0:0:0:0:
320,192,126211,1,0,0:0:0:0:
192,192,126429,1,0,0:0:0:0:
64,0,126429,128,0,127516:1:0:0:0:
320,192,126646,1,0,0:0:0:0:
192,0,126863,128,0,127081:1:0:0:0:
448,0,126863,128,0,127298:1:0:0:0:
192,192,127298,1,0,0:0:0:0:
320,192,127516,1,0,0:0:0:0:
448,192,127516,1,0,0:0:0:0:
64,192,127733,1,0,0:0:0:0:
192,192,127733,1,0,0:0:0:0:
320,192,127733,1,0,0:0:0:0:
448,192,127950,1,0,0:0:0:0:
64,192,128168,1,0,0:0:0:0:
448,0,128168,128,0,129255:1:0:0:0:
192,192,128385,1,0,0:0:0:0:
320,0,128603,128,0,128820:1:0:0:0:
64,0,128603,128,0,129037:1:0:0:0:
192,192,129037,1,0,0:0:0:0:
320,192,129255,1,0,0:0:0:0:
64,192,129472,1,0,0:0:0:0:
192,192,129472,1,0,0:0:0:0:
448,192,129472,1,0,0:0:0:0:
320,192,129690,1,0,0:0:0:0:
192,192,129907,1,0,0:0:0:0:
64,0,129907,128,0,130994:1:0:0:0:
320,192,130124,1,0,0:0:0:0:
192,0,130342,128,0,130559:1:0:0:0:
448,0,130342,128,0,130776:1:0:0:0:
320,192,130776,1,0,0:0:0:0:
192,192,130994,1,0,0:0:0:0:
448,192,130994,1,0,0:0:0:0:
64,192,131211,1,0,0:0:0:0:
320,192,131211,1,0,0:0:0:0:
448,192,131211,1,0,0:0:0:0:
192,192,131429,1,0,0:0:0:0:
320,192,131646,1,0,0:0:0:0:
448,192,131863,1,0,0:0:0:0:
64,0,132081,128,0,132298:1:0:0:0:
320,192,132516,1,0,0:0:0:0:
192,192,132733,1,0,0:0:0:0:
64,192,132950,1,0,0:0:0:0:
320,192,132950,1,0,0:0:0:0:
448,192,132950,1,0,0:0:0:0:
192,192,133168,1,0,0:0:0:0:
448,192,133385,1,0,0:0:0:0:
64,0,133385,128,0,134472:1:0:0:0:
192,192,133603,1,0,0:0:0:0:
320,0,133820,128,0,134037:1:0:0:0:
448,0,133820,128,0,134255:1:0:0:0:
192,192,134255,1,0,0:0:0:0:
320,192,134472,1,0,0:0:0:0:
448,192,134472,1,0,0:0:0:0:
64,192,134690,1,0,0:0:0:0:
320,192,134690,1,0,0:0:0:0:
448,192,134690,1,0,0:0:0:0:
192,192,134907,1,0,0:0:0:0:
320,192,135124,1,0,0:0:0:0:
448,0,135124,128,0,136211:1:0:0:0:
64,192,135342,1,0,0:0:0:0:
192,0,135559,128,0,135776:1:0:0:0:
64,0,135559,128,0,135994:1:0:0:0:
320,192,135994,1,0,0:0:0:0:
64,192,136211,1,0,0:0:0:0:
192,192,136211,1,0,0:0:0:0:
64,192,136429,1,0,0:0:0:0:
320,192,136429,1,0,0:0:0:0:
448,192,136429,1,0,0:0:0:0:
320,192,136646,1,0,0:0:0:0:
192,192,136863,1,0,0:0:0:0:
64,0,136863,128,0,137950:1:0:0:0:
192,192,137081,1,0,0:0:0:0:
448,192,137081,1,0,0:0:0:0:
320,0,137298,128,0,137516:1:0:0:0:
448,0,137298,128,0,137733:1:0:0:0:
192,192,137733,1,0,0:0:0:0:
448,192,137950,1,0,0:0:0:0:
64,192,138168,1,0,0:0:0:0:
192,192,138168,1,0,0:0:0:0:
320,192,138168,1,0,0:0:0:0:
448,192,138385,1,0,0:0:0:0:
64,192,138603,1,0,0:0:0:0:
192,192,138603,1,0,0:0:0:0:
448,192,138603,1,0,0:0:0:0:
320,192,138820,1,0,0:0:0:0:
64,192,139037,1,0,0:0:0:0:
192,192,139037,1,0,0:0:0:0:
448,192,139037,1,0,0:0:0:0:
64,192,139472,1,0,0:0:0:0:
192,192,139472,1,0,0:0:0:0:
448,192,139472,1,0,0:0:0:0:
192,192,139690,1,0,0:0:0:0:
320,192,139690,1,0,0:0:0:0:
448,192,139690,1,0,0:0:0:0:
64,192,139907,1,0,0:0:0:0:
192,192,139907,1,0,0:0:0:0:
448,192,139907,1,0,0:0:0:0:
64,192,140016,1,0,0:0:0:0:
192,192,140016,1,0,0:0:0:0:
64,192,140124,1,0,0:0:0:0:
320,192,140124,1,0,0:0:0:0:
448,192,140124,1,0,0:0:0:0:
192,192,140233,1,0,0:0:0:0:
320,192,140233,1,0,0:0:0:0:
64,192,140342,1,0,0:0:0:0:
192,192,140342,1,0,0:0:0:0:
448,192,140342,1,0,0:0:0:0:
64,192,140450,1,0,0:0:0:0:
320,192,140450,1,0,0:0:0:0:
192,192,140559,1,0,0:0:0:0:
320,192,140559,1,0,0:0:0:0:
448,192,140559,1,0,0:0:0:0:
64,192,140668,1,0,0:0:0:0:
192,192,140668,1,0,0:0:0:0:
64,192,140776,1,0,0:0:0:0:
320,192,140776,1,0,0:0:0:0:
448,192,140776,1,0,0:0:0:0:
192,192,140885,1,0,0:0:0:0:
320,192,140885,1,0,0:0:0:0:
192,192,140994,1,0,0:0:0:0:
448,192,140994,1,0,0:0:0:0:
64,192,141103,1,0,0:0:0:0:
320,192,141103,1,0,0:0:0:0:
64,192,141211,1,0,0:0:0:0:
192,192,141211,1,0,0:0:0:0:
448,192,141211,1,0,0:0:0:0:
320,192,141320,1,0,0:0:0:0:
448,192,141320,1,0,0:0:0:0:
64,192,141429,1,0,0:0:0:0:
320,192,141429,1,0,0:0:0:0:
448,192,141429,1,0,0:0:0:0:
192,192,141537,1,0,0:0:0:0:
448,192,141537,1,0,0:0:0:0:
64,192,141646,1,0,0:0:0:0:
320,192,141646,1,0,0:0:0:0:
448,192,141646,1,0,0:0:0:0:
192,192,141755,1,0,0:0:0:0:
320,192,141755,1,0,0:0:0:0:
64,192,141863,1,0,0:0:0:0:
192,192,141863,1,0,0:0:0:0:
448,192,141863,1,0,0:0:0:0:
64,192,141972,1,0,0:0:0:0:
320,192,141972,1,0,0:0:0:0:
192,192,142081,1,0,0:0:0:0:
320,192,142081,1,0,0:0:0:0:
448,192,142081,1,0,0:0:0:0:
64,192,142190,1,0,0:0:0:0:
192,192,142190,1,0,0:0:0:0:
64,192,142298,1,0,0:0:0:0:
320,192,142298,1,0,0:0:0:0:
448,192,142298,1,0,0:0:0:0:
64,192,142407,1,0,0:0:0:0:
192,192,142407,1,0,0:0:0:0:
192,192,142516,1,0,0:0:0:0:
320,192,142516,1,0,0:0:0:0:
448,192,142516,1,0,0:0:0:0:
64,192,142624,1,0,0:0:0:0:
320,192,142624,1,0,0:0:0:0:
320,192,142733,1,0,0:0:0:0:
448,192,142733,1,0,0:0:0:0:
64,192,142842,1,0,0:0:0:0:
192,192,142842,1,0,0:0:0:0:
64,192,142950,1,0,0:0:0:0:
192,192,142950,1,0,0:0:0:0:
448,192,142950,1,0,0:0:0:0:
192,192,143059,1,0,0:0:0:0:
320,192,143059,1,0,0:0:0:0:
64,192,143168,1,0,0:0:0:0:
320,192,143168,1,0,0:0:0:0:
448,192,143168,1,0,0:0:0:0:
64,192,143276,1,0,0:0:0:0:
192,192,143276,1,0,0:0:0:0:
64,192,143385,1,0,0:0:0:0:
320,192,143385,1,0,0:0:0:0:
448,192,143385,1,0,0:0:0:0:
192,192,143494,1,0,0:0:0:0:
320,192,143494,1,0,0:0:0:0:
64,192,143603,1,0,0:0:0:0:
192,192,143603,1,0,0:0:0:0:
448,192,143603,1,0,0:0:0:0:
192,192,143711,1,0,0:0:0:0:
320,192,143711,1,0,0:0:0:0:
64,192,143820,1,0,0:0:0:0:
320,192,143820,1,0,0:0:0:0:
448,192,143820,1,0,0:0:0:0:
192,192,143929,1,0,0:0:0:0:
448,192,143929,1,0,0:0:0:0:
64,192,144037,1,0,0:0:0:0:
192,192,144037,1,0,0:0:0:0:
320,192,144037,1,0,0:0:0:0:
64,192,144146,1,0,0:0:0:0:
320,192,144146,1,0,0:0:0:0:
64,192,144255,1,0,0:0:0:0:
192,192,144255,1,0,0:0:0:0:
448,192,144255,1,0,0:0:0:0:
192,192,144363,1,0,0:0:0:0:
320,192,144363,1,0,0:0:0:0:
320,192,144472,1,0,0:0:0:0:
448,192,144472,1,0,0:0:0:0:
64,192,144581,1,0,0:0:0:0:
192,192,144581,1,0,0:0:0:0:
64,192,144690,1,0,0:0:0:0:
320,192,144690,1,0,0:0:0:0:
448,192,144690,1,0,0:0:0:0:
192,192,144798,1,0,0:0:0:0:
448,192,144798,1,0,0:0:0:0:
64,192,144907,1,0,0:0:0:0:
320,192,144907,1,0,0:0:0:0:
448,192,144907,1,0,0:0:0:0:
192,192,145016,1,0,0:0:0:0:
448,192,145016,1,0,0:0:0:0:
64,192,145124,1,0,0:0:0:0:
320,192,145124,1,0,0:0:0:0:
448,192,145124,1,0,0:0:0:0:
64,192,145233,1,0,0:0:0:0:
192,192,145233,1,0,0:0:0:0:
192,192,145342,1,0,0:0:0:0:
320,192,145342,1,0,0:0:0:0:
448,192,145342,1,0,0:0:0:0:
64,192,145450,1,0,0:0:0:0:
320,192,145450,1,0,0:0:0:0:
64,192,145559,1,0,0:0:0:0:
192,192,145559,1,0,0:0:0:0:
448,192,145559,1,0,0:0:0:0:
192,192,145668,1,0,0:0:0:0:
320,192,145668,1,0,0:0:0:0:
64,192,145776,1,0,0:0:0:0:
320,192,145776,1,0,0:0:0:0:
448,192,145776,1,0,0:0:0:0:
64,192,145885,1,0,0:0:0:0:
192,192,145885,1,0,0:0:0:0:
192,192,145994,1,0,0:0:0:0:
320,192,145994,1,0,0:0:0:0:
448,192,145994,1,0,0:0:0:0:
64,192,146103,1,0,0:0:0:0:
320,192,146103,1,0,0:0:0:0:
64,192,146211,1,0,0:0:0:0:
192,192,146211,1,0,0:0:0:0:
320,192,146320,1,0,0:0:0:0:
448,192,146320,1,0,0:0:0:0:
64,192,146429,1,0,0:0:0:0:
192,192,146429,1,0,0:0:0:0:
448,192,146429,1,0,0:0:0:0:
64,192,146537,1,0,0:0:0:0:
320,192,146537,1,0,0:0:0:0:
192,192,146646,1,0,0:0:0:0:
320,192,146646,1,0,0:0:0:0:
448,192,146646,1,0,0:0:0:0:
320,192,146755,1,0,0:0:0:0:
64,192,146863,1,0,0:0:0:0:
192,192,146863,1,0,0:0:0:0:
448,192,146863,1,0,0:0:0:0:
64,192,146972,1,0,0:0:0:0:
192,192,146972,1,0,0:0:0:0:
64,192,147081,1,0,0:0:0:0:
320,192,147081,1,0,0:0:0:0:
448,192,147081,1,0,0:0:0:0:
192,192,147190,1,0,0:0:0:0:
320,192,147190,1,0,0:0:0:0:
64,192,147298,1,0,0:0:0:0:
192,192,147298,1,0,0:0:0:0:
448,192,147298,1,0,0:0:0:0:
64,192,147407,1,0,0:0:0:0:
320,192,147407,1,0,0:0:0:0:
192,192,147516,1,0,0:0:0:0:
320,192,147516,1,0,0:0:0:0:
448,192,147516,1,0,0:0:0:0:
64,192,147624,1,0,0:0:0:0:
192,192,147624,1,0,0:0:0:0:
64,192,147733,1,0,0:0:0:0:
320,192,147733,1,0,0:0:0:0:
448,192,147733,1,0,0:0:0:0:
192,192,147842,1,0,0:0:0:0:
320,192,147842,1,0,0:0:0:0:
64,192,147950,1,0,0:0:0:0:
192,192,147950,1,0,0:0:0:0:
320,192,148059,1,0,0:0:0:0:
448,192,148059,1,0,0:0:0:0:
64,192,148168,1,0,0:0:0:0:
192,192,148168,1,0,0:0:0:0:
448,192,148168,1,0,0:0:0:0:
64,192,148276,1,0,0:0:0:0:
320,192,148276,1,0,0:0:0:0:
64,192,148385,1,0,0:0:0:0:
320,192,148385,1,0,0:0:0:0:
448,192,148385,1,0,0:0:0:0:
64,192,148494,1,0,0:0:0:0:
192,192,148494,1,0,0:0:0:0:
64,192,148603,1,0,0:0:0:0:
320,192,148603,1,0,0:0:0:0:
448,192,148603,1,0,0:0:0:0:
192,192,148711,1,0,0:0:0:0:
448,192,148711,1,0,0:0:0:0:
64,192,148820,1,0,0:0:0:0:
192,192,148820,1,0,0:0:0:0:
448,192,148820,1,0,0:0:0:0:
64,192,148929,1,0,0:0:0:0:
320,192,148929,1,0,0:0:0:0:
192,192,149037,1,0,0:0:0:0:
320,192,149037,1,0,0:0:0:0:
448,192,149037,1,0,0:0:0:0:
64,192,149146,1,0,0:0:0:0:
192,192,149146,1,0,0:0:0:0:
64,192,149255,1,0,0:0:0:0:
320,192,149255,1,0,0:0:0:0:
448,192,149255,1,0,0:0:0:0:
64,192,149363,1,0,0:0:0:0:
192,192,149363,1,0,0:0:0:0:
192,192,149472,1,0,0:0:0:0:
320,192,149472,1,0,0:0:0:0:
448,192,149472,1,0,0:0:0:0:
64,192,149581,1,0,0:0:0:0:
320,192,149581,1,0,0:0:0:0:
320,192,149690,1,0,0:0:0:0:
448,192,149690,1,0,0:0:0:0:
64,192,149798,1,0,0:0:0:0:
192,192,149798,1,0,0:0:0:0:
64,192,149907,1,0,0:0:0:0:
192,192,149907,1,0,0:0:0:0:
448,192,149907,1,0,0:0:0:0:
192,192,150016,1,0,0:0:0:0:
320,192,150016,1,0,0:0:0:0:
64,192,150124,1,0,0:0:0:0:
320,192,150124,1,0,0:0:0:0:
448,192,150124,1,0,0:0:0:0:
64,192,150233,1,0,0:0:0:0:
192,192,150233,1,0,0:0:0:0:
64,192,150342,1,0,0:0:0:0:
320,192,150342,1,0,0:0:0:0:
448,192,150342,1,0,0:0:0:0:
192,192,150450,1,0,0:0:0:0:
320,192,150450,1,0,0:0:0:0:
64,192,150559,1,0,0:0:0:0:
192,192,150559,1,0,0:0:0:0:
448,192,150559,1,0,0:0:0:0:
192,192,150668,1,0,0:0:0:0:
320,192,150668,1,0,0:0:0:0:
64,192,150776,1,0,0:0:0:0:
320,192,150776,1,0,0:0:0:0:
448,192,150776,1,0,0:0:0:0:
192,192,150885,1,0,0:0:0:0:
448,192,150885,1,0,0:0:0:0:
64,192,150994,1,0,0:0:0:0:
192,192,150994,1,0,0:0:0:0:
320,192,150994,1,0,0:0:0:0:
64,192,151103,1,0,0:0:0:0:
320,192,151103,1,0,0:0:0:0:
64,192,151211,1,0,0:0:0:0:
192,192,151211,1,0,0:0:0:0:
448,192,151211,1,0,0:0:0:0:
192,192,151320,1,0,0:0:0:0:
320,192,151320,1,0,0:0:0:0:
64,192,151429,1,0,0:0:0:0:
320,192,151429,1,0,0:0:0:0:
192,192,151537,1,0,0:0:0:0:
448,192,151537,1,0,0:0:0:0:
64,192,151646,1,0,0:0:0:0:
192,192,151646,1,0,0:0:0:0:
320,192,151646,1,0,0:0:0:0:
64,192,151755,1,0,0:0:0:0:
448,192,151755,1,0,0:0:0:0:
64,192,151863,1,0,0:0:0:0:
192,192,151863,1,0,0:0:0:0:
320,192,151863,1,0,0:0:0:0:
64,192,151972,1,0,0:0:0:0:
320,192,151972,1,0,0:0:0:0:
64,192,152081,1,0,0:0:0:0:
192,192,152081,1,0,0:0:0:0:
448,192,152081,1,0,0:0:0:0:
192,192,152190,1,0,0:0:0:0:
320,192,152190,1,0,0:0:0:0:
64,192,152298,1,0,0:0:0:0:
320,192,152298,1,0,0:0:0:0:
448,192,152298,1,0,0:0:0:0:
192,192,152407,1,0,0:0:0:0:
320,192,152407,1,0,0:0:0:0:
64,192,152516,1,0,0:0:0:0:
192,192,152516,1,0,0:0:0:0:
448,192,152516,1,0,0:0:0:0:
64,192,152624,1,0,0:0:0:0:
320,192,152624,1,0,0:0:0:0:
192,192,152733,1,0,0:0:0:0:
320,192,152733,1,0,0:0:0:0:
448,192,152733,1,0,0:0:0:0:
64,192,152842,1,0,0:0:0:0:
448,192,152842,1,0,0:0:0:0:
320,192,152950,1,0,0:0:0:0:
448,192,152950,1,0,0:0:0:0:
64,192,153095,1,0,0:0:0:0:
192,192,153095,1,0,0:0:0:0:
192,192,153240,1,0,0:0:0:0:
448,192,153240,1,0,0:0:0:0:
64,192,153385,1,0,0:0:0:0:
320,192,153385,1,0,0:0:0:0:
320,192,153530,1,0,0:0:0:0:
448,192,153530,1,0,0:0:0:0:
64,192,153675,1,0,0:0:0:0:
192,192,153675,1,0,0:0:0:0:
64,192,153820,1,0,0:0:0:0:
192,192,153820,1,0,0:0:0:0:
320,192,153820,1,0,0:0:0:0:
448,192,153820,1,0,0:0:0:0:
64,192,153929,1,0,0:0:0:0:
192,192,153929,1,0,0:0:0:0:
64,192,154037,1,0,0:0:0:0:
320,192,154037,1,0,0:0:0:0:
448,192,154037,1,0,0:0:0:0:
192,192,154146,1,0,0:0:0:0:
320,192,154146,1,0,0:0:0:0:
64,192,154255,1,0,0:0:0:0:
192,192,154255,1,0,0:0:0:0:
448,192,154255,1,0,0:0:0:0:
64,192,154363,1,0,0:0:0:0:
320,192,154363,1,0,0:0:0:0:
192,192,154472,1,0,0:0:0:0:
320,192,154472,1,0,0:0:0:0:
448,192,154472,1,0,0:0:0:0:
64,192,154581,1,0,0:0:0:0:
192,192,154581,1,0,0:0:0:0:
64,192,154690,1,0,0:0:0:0:
320,192,154690,1,0,0:0:0:0:
448,192,154690,1,0,0:0:0:0:
192,192,154798,1,0,0:0:0:0:
320,192,154798,1,0,0:0:0:0:
192,192,154907,1,0,0:0:0:0:
448,192,154907,1,0,0:0:0:0:
64,192,155016,1,0,0:0:0:0:
320,192,155016,1,0,0:0:0:0:
64,192,155124,1,0,0:0:0:0:
192,192,155124,1,0,0:0:0:0:
448,192,155124,1,0,0:0:0:0:
320,192,155233,1,0,0:0:0:0:
448,192,155233,1,0,0:0:0:0:
64,192,155342,1,0,0:0:0:0:
320,192,155342,1,0,0:0:0:0:
448,192,155342,1,0,0:0:0:0:
192,192,155450,1,0,0:0:0:0:
448,192,155450,1,0,0:0:0:0:
64,192,155559,1,0,0:0:0:0:
192,192,155559,1,0,0:0:0:0:
320,192,155559,1,0,0:0:0:0:
448,192,155559,1,0,0:0:0:0:
192,192,155668,1,0,0:0:0:0:
320,192,155668,1,0,0:0:0:0:
64,192,155776,1,0,0:0:0:0:
192,192,155776,1,0,0:0:0:0:
448,192,155776,1,0,0:0:0:0:
64,192,155885,1,0,0:0:0:0:
320,192,155885,1,0,0:0:0:0:
192,192,155994,1,0,0:0:0:0:
320,192,155994,1,0,0:0:0:0:
448,192,155994,1,0,0:0:0:0:
64,192,156103,1,0,0:0:0:0:
192,192,156103,1,0,0:0:0:0:
64,192,156211,1,0,0:0:0:0:
320,192,156211,1,0,0:0:0:0:
448,192,156211,1,0,0:0:0:0:
64,192,156320,1,0,0:0:0:0:
192,192,156320,1,0,0:0:0:0:
192,192,156429,1,0,0:0:0:0:
320,192,156429,1,0,0:0:0:0:
448,192,156429,1,0,0:0:0:0:
64,192,156537,1,0,0:0:0:0:
320,192,156537,1,0,0:0:0:0:
320,192,156646,1,0,0:0:0:0:
448,192,156646,1,0,0:0:0:0:
64,192,156755,1,0,0:0:0:0:
192,192,156755,1,0,0:0:0:0:
64,192,156863,1,0,0:0:0:0:
192,192,156863,1,0,0:0:0:0:
448,192,156863,1,0,0:0:0:0:
192,192,156972,1,0,0:0:0:0:
320,192,156972,1,0,0:0:0:0:
64,192,157081,1,0,0:0:0:0:
320,192,157081,1,0,0:0:0:0:
448,192,157081,1,0,0:0:0:0:
64,192,157190,1,0,0:0:0:0:
192,192,157190,1,0,0:0:0:0:
64,192,157298,1,0,0:0:0:0:
192,192,157298,1,0,0:0:0:0:
320,192,157298,1,0,0:0:0:0:
448,192,157298,1,0,0:0:0:0:
192,192,157407,1,0,0:0:0:0:
320,192,157407,1,0,0:0:0:0:
64,192,157516,1,0,0:0:0:0:
192,192,157516,1,0,0:0:0:0:
448,192,157516,1,0,0:0:0:0:
192,192,157624,1,0,0:0:0:0:
320,192,157624,1,0,0:0:0:0:
64,192,157733,1,0,0:0:0:0:
320,192,157733,1,0,0:0:0:0:
448,192,157733,1,0,0:0:0:0:
192,192,157842,1,0,0:0:0:0:
448,192,157842,1,0,0:0:0:0:
64,192,157950,1,0,0:0:0:0:
192,192,157950,1,0,0:0:0:0:
320,192,157950,1,0,0:0:0:0:
64,192,158059,1,0,0:0:0:0:
320,192,158059,1,0,0:0:0:0:
64,192,158168,1,0,0:0:0:0:
192,192,158168,1,0,0:0:0:0:
448,192,158168,1,0,0:0:0:0:
192,192,158276,1,0,0:0:0:0:
320,192,158276,1,0,0:0:0:0:
320,192,158385,1,0,0:0:0:0:
448,192,158385,1,0,0:0:0:0:
64,192,158494,1,0,0:0:0:0:
192,192,158494,1,0,0:0:0:0:
64,192,158603,1,0,0:0:0:0:
320,192,158603,1,0,0:0:0:0:
448,192,158603,1,0,0:0:0:0:
192,192,158711,1,0,0:0:0:0:
448,192,158711,1,0,0:0:0:0:
64,192,158820,1,0,0:0:0:0:
320,192,158820,1,0,0:0:0:0:
448,192,158820,1,0,0:0:0:0:
192,192,158929,1,0,0:0:0:0:
448,192,158929,1,0,0:0:0:0:
64,192,159037,1,0,0:0:0:0:
192,192,159037,1,0,0:0:0:0:
320,192,159037,1,0,0:0:0:0:
448,192,159037,1,0,0:0:0:0:
64,192,159146,1,0,0:0:0:0:
192,192,159146,1,0,0:0:0:0:
192,192,159255,1,0,0:0:0:0:
320,192,159255,1,0,0:0:0:0:
448,192,159255,1,0,0:0:0:0:
64,192,159363,1,0,0:0:0:0:
320,192,159363,1,0,0:0:0:0:
64,192,159472,1,0,0:0:0:0:
192,192,159472,1,0,0:0:0:0:
448,192,159472,1,0,0:0:0:0:
192,192,159581,1,0,0:0:0:0:
320,192,159581,1,0,0:0:0:0:
64,192,159690,1,0,0:0:0:0:
320,192,159690,1,0,0:0:0:0:
448,192,159690,1,0,0:0:0:0:
64,192,159798,1,0,0:0:0:0:
192,192,159798,1,0,0:0:0:0:
192,192,159907,1,0,0:0:0:0:
320,192,159907,1,0,0:0:0:0:
448,192,159907,1,0,0:0:0:0:
64,192,160016,1,0,0:0:0:0:
320,192,160016,1,0,0:0:0:0:
64,192,160124,1,0,0:0:0:0:
192,192,160124,1,0,0:0:0:0:
320,192,160233,1,0,0:0:0:0:
448,192,160233,1,0,0:0:0:0:
64,192,160342,1,0,0:0:0:0:
192,192,160342,1,0,0:0:0:0:
448,192,160342,1,0,0:0:0:0:
64,192,160450,1,0,0:0:0:0:
320,192,160450,1,0,0:0:0:0:
192,192,160559,1,0,0:0:0:0:
320,192,160559,1,0,0:0:0:0:
448,192,160559,1,0,0:0:0:0:
320,192,160668,1,0,0:0:0:0:
64,192,160776,1,0,0:0:0:0:
192,192,160776,1,0,0:0:0:0:
320,192,160776,1,0,0:0:0:0:
448,192,160776,1,0,0:0:0:0:
64,192,160885,1,0,0:0:0:0:
192,192,160885,1,0,0:0:0:0:
64,192,160994,1,0,0:0:0:0:
320,192,160994,1,0,0:0:0:0:
448,192,160994,1,0,0:0:0:0:
192,192,161103,1,0,0:0:0:0:
320,192,161103,1,0,0:0:0:0:
64,192,161211,1,0,0:0:0:0:
192,192,161211,1,0,0:0:0:0:
448,192,161211,1,0,0:0:0:0:
64,192,161320,1,0,0:0:0:0:
320,192,161320,1,0,0:0:0:0:
192,192,161429,1,0,0:0:0:0:
320,192,161429,1,0,0:0:0:0:
448,192,161429,1,0,0:0:0:0:
64,192,161537,1,0,0:0:0:0:
192,192,161537,1,0,0:0:0:0:
64,192,161646,1,0,0:0:0:0:
320,192,161646,1,0,0:0:0:0:
448,192,161646,1,0,0:0:0:0:
192,192,161755,1,0,0:0:0:0:
320,192,161755,1,0,0:0:0:0:
64,192,161863,1,0,0:0:0:0:
192,192,161863,1,0,0:0:0:0:
320,192,161972,1,0,0:0:0:0:
448,192,161972,1,0,0:0:0:0:
64,192,162081,1,0,0:0:0:0:
192,192,162081,1,0,0:0:0:0:
448,192,162081,1,0,0:0:0:0:
64,192,162190,1,0,0:0:0:0:
320,192,162190,1,0,0:0:0:0:
64,192,162298,1,0,0:0:0:0:
320,192,162298,1,0,0:0:0:0:
448,192,162298,1,0,0:0:0:0:
64,192,162407,1,0,0:0:0:0:
192,192,162407,1,0,0:0:0:0:
64,192,162516,1,0,0:0:0:0:
192,192,162516,1,0,0:0:0:0:
320,192,162516,1,0,0:0:0:0:
448,192,162516,1,0,0:0:0:0:
192,192,162624,1,0,0:0:0:0:
448,192,162624,1,0,0:0:0:0:
64,192,162733,1,0,0:0:0:0:
192,192,162733,1,0,0:0:0:0:
448,192,162733,1,0,0:0:0:0:
64,192,162842,1,0,0:0:0:0:
320,192,162842,1,0,0:0:0:0:
192,192,162950,1,0,0:0:0:0:
320,192,162950,1,0,0:0:0:0:
448,192,162950,1,0,0:0:0:0:
64,192,163059,1,0,0:0:0:0:
192,192,163059,1,0,0:0:0:0:
64,192,163168,1,0,0:0:0:0:
320,192,163168,1,0,0:0:0:0:
448,192,163168,1,0,0:0:0:0:
64,192,163276,1,0,0:0:0:0:
192,192,163276,1,0,0:0:0:0:
192,192,163385,1,0,0:0:0:0:
320,192,163385,1,0,0:0:0:0:
448,192,163385,1,0,0:0:0:0:
64,192,163494,1,0,0:0:0:0:
320,192,163494,1,0,0:0:0:0:
320,192,163603,1,0,0:0:0:0:
448,192,163603,1,0,0:0:0:0:
64,192,163711,1,0,0:0:0:0:
192,192,163711,1,0,0:0:0:0:
64,192,163820,1,0,0:0:0:0:
192,192,163820,1,0,0:0:0:0:
448,192,163820,1,0,0:0:0:0:
192,192,163929,1,0,0:0:0:0:
320,192,163929,1,0,0:0:0:0:
64,192,164037,1,0,0:0:0:0:
320,192,164037,1,0,0:0:0:0:
448,192,164037,1,0,0:0:0:0:
64,192,164146,1,0,0:0:0:0:
192,192,164146,1,0,0:0:0:0:
64,192,164255,1,0,0:0:0:0:
192,192,164255,1,0,0:0:0:0:
320,192,164255,1,0,0:0:0:0:
448,192,164255,1,0,0:0:0:0:
192,192,164363,1,0,0:0:0:0:
320,192,164363,1,0,0:0:0:0:
64,192,164472,1,0,0:0:0:0:
192,192,164472,1,0,0:0:0:0:
448,192,164472,1,0,0:0:0:0:
192,192,164581,1,0,0:0:0:0:
320,192,164581,1,0,0:0:0:0:
64,192,164690,1,0,0:0:0:0:
320,192,164690,1,0,0:0:0:0:
448,192,164690,1,0,0:0:0:0:
192,192,164798,1,0,0:0:0:0:
448,192,164798,1,0,0:0:0:0:
64,192,164907,1,0,0:0:0:0:
192,192,164907,1,0,0:0:0:0:
320,192,164907,1,0,0:0:0:0:
64,192,165016,1,0,0:0:0:0:
320,192,165016,1,0,0:0:0:0:
64,192,165124,1,0,0:0:0:0:
192,192,165124,1,0,0:0:0:0:
448,192,165124,1,0,0:0:0:0:
192,192,165233,1,0,0:0:0:0:
320,192,165233,1,0,0:0:0:0:
64,192,165342,1,0,0:0:0:0:
320,192,165342,1,0,0:0:0:0:
192,192,165450,1,0,0:0:0:0:
448,192,165450,1,0,0:0:0:0:
64,192,165559,1,0,0:0:0:0:
192,192,165559,1,0,0:0:0:0:
320,192,165559,1,0,0:0:0:0:
64,192,165668,1,0,0:0:0:0:
448,192,165668,1,0,0:0:0:0:
64,192,165776,1,0,0:0:0:0:
192,192,165776,1,0,0:0:0:0:
320,192,165776,1,0,0:0:0:0:
64,192,165885,1,0,0:0:0:0:
320,192,165885,1,0,0:0:0:0:
64,192,165994,1,0,0:0:0:0:
192,192,165994,1,0,0:0:0:0:
320,192,165994,1,0,0:0:0:0:
448,192,165994,1,0,0:0:0:0:
192,192,166103,1,0,0:0:0:0:
320,192,166103,1,0,0:0:0:0:
64,192,166211,1,0,0:0:0:0:
320,192,166211,1,0,0:0:0:0:
448,192,166211,1,0,0:0:0:0:
192,192,166320,1,0,0:0:0:0:
320,192,166320,1,0,0:0:0:0:
64,192,166429,1,0,0:0:0:0:
192,192,166429,1,0,0:0:0:0:
448,192,166429,1,0,0:0:0:0:
64,192,166537,1,0,0:0:0:0:
320,192,166537,1,0,0:0:0:0:
192,192,166646,1,0,0:0:0:0:
320,192,166646,1,0,0:0:0:0:
448,192,166646,1,0,0:0:0:0:
64,192,166755,1,0,0:0:0:0:
448,192,166755,1,0,0:0:0:0:
64,0,166863,128,0,167190:1:0:0:0:
192,0,166863,128,0,167190:1:0:0:0:
320,0,166863,128,0,167190:1:0:0:0:
448,0,166863,128,0,167190:1:0:0:0:
64,0,167298,128,0,167624:1:0:0:0:
192,0,167298,128,0,167624:1:0:0:0:
320,0,167298,128,0,167624:1:0:0:0:
448,0,167298,128,0,167624:1:0:0:0:
64,192,167733,1,0,0:0:0:0:
192,192,167733,1,0,0:0:0:0:
448,192,167733,1,0,0:0:0:0:
320,192,167950,1,0,0:0:0:0:
448,192,168168,1,0,0:0:0:0:
64,192,168385,1,0,0:0:0:0:
320,0,168603,128,0,168820:1:0:0:0:
192,192,169037,1,0,0:0:0:0:
448,192,169255,1,0,0:0:0:0:
64,192,169472,1,0,0:0:0:0:
320,192,169690,1,0,0:0:0:0:
448,192,169907,1,0,0:0:0:0:
64,192,170124,1,0,0:0:0:0:
320,0,170342,128,0,170559:1:0:0:0:
192,192,170776,1,0,0:0:0:0:
448,192,170994,1,0,0:0:0:0:
320,192,171211,1,0,0:0:0:0:
192,192,171429,1,0,0:0:0:0:
64,192,171646,1,0,0:0:0:0:
448,192,171863,1,0,0:0:0:0:
192,0,172081,128,0,172298:1:0:0:0:
192,192,172516,1,0,0:0:0:0:
448,192,172733,1,0,0:0:0:0:
320,192,172950,1,0,0:0:0:0:
192,192,173168,1,0,0:0:0:0:
64,192,173385,1,0,0:0:0:0:
448,192,173603,1,0,0:0:0:0:
192,0,173820,128,0,174037:1:0:0:0:
320,192,174255,1,0,0:0:0:0:
448,192,174472,1,0,0:0:0:0:
64,192,174690,1,0,0:0:0:0:
448,192,174907,1,0,0:0:0:0:
320,192,175124,1,0,0:0:0:0:
64,192,175342,1,0,0:0:0:0:
320,0,175559,128,0,175776:1:0:0:0:
320,192,175994,1,0,0:0:0:0:
448,192,176211,1,0,0:0:0:0:
64,192,176429,1,0,0:0:0:0:
448,192,176646,1,0,0:0:0:0:
320,192,176863,1,0,0:0:0:0:
64,192,177081,1,0,0:0:0:0:
320,0,177298,128,0,177516:1:0:0:0:
64,192,177733,1,0,0:0:0:0:
448,192,177950,1,0,0:0:0:0:
320,192,178168,1,0,0:0:0:0:
192,192,178385,1,0,0:0:0:0:
64,192,178603,1,0,0:0:0:0:
320,192,178820,1,0,0:0:0:0:
192,0,179037,128,0,179255:1:0:0:0:
320,192,179472,1,0,0:0:0:0:
192,192,179690,1,0,0:0:0:0:
64,192,179907,1,0,0:0:0:0:
192,192,180124,1,0,0:0:0:0:
320,192,180342,1,0,0:0:0:0:
448,192,180559,1,0,0:0:0:0:
192,0,180776,128,0,180994:1:0:0:0:
192,192,181211,1,0,0:0:0:0:
448,192,181429,1,0,0:0:0:0:
64,192,181646,1,0,0:0:0:0:
192,192,181646,1,0,0:0:0:0:
320,192,181646,1,0,0:0:0:0:
448,192,181863,1,0,0:0:0:0:
320,192,182081,1,0,0:0:0:0:
64,192,182298,1,0,0:0:0:0:
320,0,182516,128,0,182733:1:0:0:0:
192,192,182950,1,0,0:0:0:0:
320,192,183168,1,0,0:0:0:0:
64,192,183385,1,0,0:0:0:0:
448,192,183603,1,0,0:0:0:0:
320,192,183820,1,0,0:0:0:0:
192,192,184037,1,0,0:0:0:0:
320,0,184255,128,0,184472:1:0:0:0:
192,192,184690,1,0,0:0:0:0:
448,192,184907,1,0,0:0:0:0:
320,192,185124,1,0,0:0:0:0:
64,192,185342,1,0,0:0:0:0:
448,192,185559,1,0,0:0:0:0:
192,192,185776,1,0,0:0:0:0:
320,0,185994,128,0,186211:1:0:0:0:
64,192,186429,1,0,0:0:0:0:
320,192,186646,1,0,0:0:0:0:
64,192,186863,1,0,0:0:0:0:
192,192,187081,1,0,0:0:0:0:
320,192,187298,1,0,0:0:0:0:
448,192,187516,1,0,0:0:0:0:
320,0,187733,128,0,187950:1:0:0:0:
448,192,188168,1,0,0:0:0:0:
192,192,188385,1,0,0:0:0:0:
320,192,188603,1,0,0:0:0:0:
448,192,188820,1,0,0:0:0:0:
320,192,189037,1,0,0:0:0:0:
64,192,189255,1,0,0:0:0:0:
192,0,189472,128,0,189690:1:0:0:0:
320,192,189907,1,0,0:0:0:0:
192,192,190124,1,0,0:0:0:0:
320,192,190342,1,0,0:0:0:0:
448,192,190559,1,0,0:0:0:0:
320,192,190776,1,0,0:0:0:0:
64,192,190994,1,0,0:0:0:0:
192,0,191211,128,0,191429:1:0:0:0:
320,192,191646,1,0,0:0:0:0:
192,192,191863,1,0,0:0:0:0:
448,192,192081,1,0,0:0:0:0:
320,192,192298,1,0,0:0:0:0:
192,192,192516,1,0,0:0:0:0:
64,192,192733,1,0,0:0:0:0:
192,0,192950,128,0,193168:1:0:0:0:
64,192,193385,1,0,0:0:0:0:
192,192,193603,1,0,0:0:0:0:
448,192,193820,1,0,0:0:0:0:
320,192,194037,1,0,0:0:0:0:
192,192,194255,1,0,0:0:0:0:
64,192,194472,1,0,0:0:0:0:
192,0,194690,128,0,194907:1:0:0:0:
64,192,195559,1,0,0:0:0:0:
320,192,195559,1,0,0:0:0:0:
448,0,195559,128,0,195776:1:0:0:0:
192,0,195776,128,0,195885:1:0:0:0:
448,0,195885,128,0,196103:1:0:0:0:
192,0,196103,128,0,196211:1:0:0:0:
448,0,196211,128,0,196320:1:0:0:0:
448,0,196429,128,0,196646:1:0:0:0:
192,0,196646,128,0,196755:1:0:0:0:
448,0,196755,128,0,196972:1:0:0:0:
192,0,196972,128,0,197081:1:0:0:0:
448,0,197081,128,0,197190:1:0:0:0:
448,0,197298,128,0,197516:1:0:0:0:
192,0,197516,128,0,197624:1:0:0:0:
448,0,197624,128,0,197842:1:0:0:0:
192,0,197842,128,0,197950:1:0:0:0:
448,0,197950,128,0,198059:1:0:0:0:
448,0,198168,128,0,198385:1:0:0:0:
192,0,198385,128,0,198494:1:0:0:0:
448,0,198494,128,0,198711:1:0:0:0:
192,0,198711,128,0,198820:1:0:0:0:
448,0,198820,128,0,198929:1:0:0:0:
448,0,199037,128,0,199255:1:0:0:0:
192,0,199255,128,0,199363:1:0:0:0:
448,0,199363,128,0,199581:1:0:0:0:
192,0,199581,128,0,199690:1:0:0:0:
448,0,199690,128,0,199798:1:0:0:0:
448,0,199907,128,0,200124:1:0:0:0:
192,0,200124,128,0,200233:1:0:0:0:
448,0,200233,128,0,200450:1:0:0:0:
192,0,200450,128,0,200559:1:0:0:0:
448,0,200559,128,0,200668:1:0:0:0:
448,0,200776,128,0,200994:1:0:0:0:
192,0,200994,128,0,201103:1:0:0:0:
448,0,201103,128,0,201320:1:0:0:0:
192,0,201320,128,0,201429:1:0:0:0:
448,0,201429,128,0,201646:1:0:0:0:
192,0,201646,128,0,201755:1:0:0:0:
448,0,201755,128,0,201972:1:0:0:0:
192,0,201972,128,0,202081:1:0:0:0:
448,0,202081,128,0,202190:1:0:0:0:
