osu file format v14

[General]
AudioFilename: BLACK or WHITE.mp3
AudioLeadIn: 2
PreviewTime: 53260
Countdown: 0
SampleSet: None
StackLeniency: 0.7
Mode: 3
LetterboxInBreaks: 0
SpecialStyle: 0
WidescreenStoryboard: 0

[Editor]
DistanceSpacing: 0.8
BeatDivisor: 4
GridSize: 8
TimelineZoom: 1.8

[Metadata]
Title:dakemoto's Collection Pack Vol.2
TitleUnicode:dakemoto's Collection Pack Vol.2
Artist:Various Artist
ArtistUnicode:Various Artist
Creator:dakemoto
Version:BLACK or WHITE (Hard)
Source:stepmania
Tags:
BeatmapID:741023
BeatmapSetID:329410

[Difficulty]
HPDrainRate:7
CircleSize:4
OverallDifficulty:8
ApproachRate:10
SliderMultiplier:1.4
SliderTickRate:1

[Events]
//Background and Video events
0,0,"BLACK or WHITE bg.jpg",0,0
//Break Periods
//Storyboard Layer 0 (Background)
//Storyboard Layer 1 (Fail)
//Storyboard Layer 2 (Pass)
//Storyboard Layer 3 (Foreground)
//Storyboard Sound Samples

[TimingPoints]
1380,324.3243,4,1,0,15,1,0

[HitObjects]
64,192,1380,5,0,0:0:0:0:
192,192,1380,1,0,0:0:0:0:
448,192,1380,1,0,0:0:0:0:
320,192,1461,1,0,0:0:0:0:
192,192,1542,1,0,0:0:0:0:
448,192,1623,1,0,0:0:0:0:
64,192,1704,1,0,0:0:0:0:
192,192,1704,1,0,0:0:0:0:
448,192,1785,1,0,0:0:0:0:
192,192,1866,1,0,0:0:0:0:
320,192,1947,1,0,0:0:0:0:
64,192,2028,1,0,0:0:0:0:
448,192,2028,1,0,0:0:0:0:
320,192,2109,1,0,0:0:0:0:
192,192,2190,1,0,0:0:0:0:
448,192,2271,1,0,0:0:0:0:
64,192,2352,1,0,0:0:0:0:
192,192,2352,1,0,0:0:0:0:
448,192,2434,1,0,0:0:0:0:
192,192,2515,1,0,0:0:0:0:
320,192,2596,1,0,0:0:0:0:
192,192,2677,1,0,0:0:0:0:
448,192,2677,1,0,0:0:0:0:
320,192,2758,1,0,0:0:0:0:
64,192,2839,1,0,0:0:0:0:
192,192,2920,1,0,0:0:0:0:
320,192,3001,1,0,0:0:0:0:
448,192,3001,1,0,0:0:0:0:
64,192,3082,1,0,0:0:0:0:
320,192,3163,1,0,0:0:0:0:
192,192,3244,1,0,0:0:0:0:
64,192,3325,1,0,0:0:0:0:
448,192,3325,1,0,0:0:0:0:
320,192,3407,1,0,0:0:0:0:
192,192,3488,1,0,0:0:0:0:
448,192,3569,1,0,0:0:0:0:
64,192,3650,1,0,0:0:0:0:
192,192,3650,1,0,0:0:0:0:
448,192,3731,1,0,0:0:0:0:
192,192,3812,1,0,0:0:0:0:
320,192,3893,1,0,0:0:0:0:
64,192,3974,1,0,0:0:0:0:
448,192,3974,1,0,0:0:0:0:
192,192,4055,1,0,0:0:0:0:
320,192,4136,1,0,0:0:0:0:
64,192,4217,1,0,0:0:0:0:
192,192,4298,1,0,0:0:0:0:
448,192,4298,1,0,0:0:0:0:
64,192,4379,1,0,0:0:0:0:
320,192,4461,1,0,0:0:0:0:
192,192,4542,1,0,0:0:0:0:
64,192,4623,1,0,0:0:0:0:
448,192,4623,1,0,0:0:0:0:
320,192,4704,1,0,0:0:0:0:
192,192,4785,1,0,0:0:0:0:
448,192,4866,1,0,0:0:0:0:
64,192,4947,1,0,0:0:0:0:
192,192,4947,1,0,0:0:0:0:
448,192,5028,1,0,0:0:0:0:
192,192,5109,1,0,0:0:0:0:
320,192,5190,1,0,0:0:0:0:
64,192,5271,1,0,0:0:0:0:
448,192,5271,1,0,0:0:0:0:
192,192,5352,1,0,0:0:0:0:
320,192,5434,1,0,0:0:0:0:
64,192,5515,1,0,0:0:0:0:
320,192,5596,1,0,0:0:0:0:
448,192,5596,1,0,0:0:0:0:
192,192,5677,1,0,0:0:0:0:
448,192,5758,1,0,0:0:0:0:
320,192,5839,1,0,0:0:0:0:
64,192,5920,1,0,0:0:0:0:
192,192,5920,1,0,0:0:0:0:
448,192,6001,1,0,0:0:0:0:
192,192,6082,1,0,0:0:0:0:
320,192,6163,1,0,0:0:0:0:
64,192,6244,1,0,0:0:0:0:
448,192,6244,1,0,0:0:0:0:
320,192,6325,1,0,0:0:0:0:
192,192,6407,1,0,0:0:0:0:
448,192,6488,1,0,0:0:0:0:
64,192,6569,1,0,0:0:0:0:
320,192,6569,1,0,0:0:0:0:
448,192,6650,1,0,0:0:0:0:
192,192,6731,1,0,0:0:0:0:
320,192,6812,1,0,0:0:0:0:
64,192,6893,1,0,0:0:0:0:
448,192,6893,1,0,0:0:0:0:
320,192,6974,1,0,0:0:0:0:
64,192,7055,1,0,0:0:0:0:
192,192,7136,1,0,0:0:0:0:
320,192,7217,1,0,0:0:0:0:
448,192,7217,1,0,0:0:0:0:
64,192,7298,1,0,0:0:0:0:
448,192,7379,1,0,0:0:0:0:
320,192,7461,1,0,0:0:0:0:
64,192,7542,1,0,0:0:0:0:
192,192,7542,1,0,0:0:0:0:
448,192,7623,1,0,0:0:0:0:
64,192,7704,1,0,0:0:0:0:
320,192,7785,1,0,0:0:0:0:
64,192,7866,1,0,0:0:0:0:
448,192,7866,1,0,0:0:0:0:
192,192,7947,1,0,0:0:0:0:
448,192,8028,1,0,0:0:0:0:
64,192,8109,1,0,0:0:0:0:
192,192,8190,1,0,0:0:0:0:
320,192,8190,1,0,0:0:0:0:
64,192,8271,1,0,0:0:0:0:
448,192,8352,1,0,0:0:0:0:
320,192,8434,1,0,0:0:0:0:
64,192,8515,1,0,0:0:0:0:
448,192,8515,1,0,0:0:0:0:
192,192,8596,1,0,0:0:0:0:
448,192,8677,1,0,0:0:0:0:
64,192,8758,1,0,0:0:0:0:
192,192,8839,1,0,0:0:0:0:
448,192,8839,1,0,0:0:0:0:
320,192,8920,1,0,0:0:0:0:
64,192,9001,1,0,0:0:0:0:
320,192,9082,1,0,0:0:0:0:
192,192,9163,1,0,0:0:0:0:
448,192,9163,1,0,0:0:0:0:
64,192,9244,1,0,0:0:0:0:
192,192,9325,1,0,0:0:0:0:
448,192,9325,1,0,0:0:0:0:
64,192,9407,1,0,0:0:0:0:
192,192,9488,1,0,0:0:0:0:
448,192,9488,1,0,0:0:0:0:
64,192,9569,1,0,0:0:0:0:
192,192,9650,1,0,0:0:0:0:
448,192,9650,1,0,0:0:0:0:
64,192,9731,1,0,0:0:0:0:
192,192,9812,1,0,0:0:0:0:
448,192,9812,1,0,0:0:0:0:
64,192,9893,1,0,0:0:0:0:
192,192,9974,1,0,0:0:0:0:
448,192,9974,1,0,0:0:0:0:
64,192,10055,1,0,0:0:0:0:
192,192,10136,1,0,0:0:0:0:
448,192,10136,1,0,0:0:0:0:
64,192,10217,1,0,0:0:0:0:
192,192,10298,1,0,0:0:0:0:
448,192,10298,1,0,0:0:0:0:
64,192,10379,1,0,0:0:0:0:
320,192,10785,1,0,0:0:0:0:
448,192,10785,1,0,0:0:0:0:
64,192,10866,1,0,0:0:0:0:
192,192,10866,1,0,0:0:0:0:
320,192,10947,1,0,0:0:0:0:
448,192,10947,1,0,0:0:0:0:
64,192,11028,1,0,0:0:0:0:
192,192,11028,1,0,0:0:0:0:
320,192,11109,1,0,0:0:0:0:
448,192,11109,1,0,0:0:0:0:
64,192,11190,1,0,0:0:0:0:
192,192,11190,1,0,0:0:0:0:
320,192,11271,1,0,0:0:0:0:
448,192,11271,1,0,0:0:0:0:
64,192,11352,1,0,0:0:0:0:
192,192,11352,1,0,0:0:0:0:
448,192,11434,1,0,0:0:0:0:
320,192,11474,1,0,0:0:0:0:
192,192,11515,1,0,0:0:0:0:
64,192,11555,1,0,0:0:0:0:
448,192,11596,1,0,0:0:0:0:
320,192,11636,1,0,0:0:0:0:
192,192,11677,1,0,0:0:0:0:
64,192,11717,1,0,0:0:0:0:
192,192,11758,1,0,0:0:0:0:
320,192,11758,1,0,0:0:0:0:
448,192,11758,1,0,0:0:0:0:
64,192,11920,1,0,0:0:0:0:
448,192,11920,1,0,0:0:0:0:
192,192,12001,1,0,0:0:0:0:
64,192,12082,1,0,0:0:0:0:
320,192,12082,1,0,0:0:0:0:
448,192,12082,1,0,0:0:0:0:
192,192,12244,1,0,0:0:0:0:
448,192,12325,1,0,0:0:0:0:
64,192,12407,1,0,0:0:0:0:
192,192,12407,1,0,0:0:0:0:
320,192,12407,1,0,0:0:0:0:
64,192,12569,1,0,0:0:0:0:
448,192,12569,1,0,0:0:0:0:
192,192,12650,1,0,0:0:0:0:
64,192,12731,1,0,0:0:0:0:
320,192,12731,1,0,0:0:0:0:
448,192,12731,1,0,0:0:0:0:
192,192,12893,1,0,0:0:0:0:
448,192,12974,1,0,0:0:0:0:
64,192,13055,1,0,0:0:0:0:
192,192,13055,1,0,0:0:0:0:
320,192,13055,1,0,0:0:0:0:
64,192,13217,1,0,0:0:0:0:
448,192,13217,1,0,0:0:0:0:
192,192,13298,1,0,0:0:0:0:
64,192,13379,1,0,0:0:0:0:
320,192,13379,1,0,0:0:0:0:
448,192,13379,1,0,0:0:0:0:
192,192,13542,1,0,0:0:0:0:
448,192,13623,1,0,0:0:0:0:
64,192,13704,1,0,0:0:0:0:
192,192,13704,1,0,0:0:0:0:
320,192,13704,1,0,0:0:0:0:
64,192,13866,1,0,0:0:0:0:
448,192,13866,1,0,0:0:0:0:
192,192,13947,1,0,0:0:0:0:
320,192,14028,1,0,0:0:0:0:
448,192,14028,1,0,0:0:0:0:
64,192,14109,1,0,0:0:0:0:
192,192,14109,1,0,0:0:0:0:
320,192,14190,1,0,0:0:0:0:
448,192,14271,1,0,0:0:0:0:
64,192,14352,1,0,0:0:0:0:
192,192,14352,1,0,0:0:0:0:
320,192,14352,1,0,0:0:0:0:
64,192,14515,1,0,0:0:0:0:
448,192,14515,1,0,0:0:0:0:
192,192,14596,1,0,0:0:0:0:
64,192,14677,1,0,0:0:0:0:
320,192,14677,1,0,0:0:0:0:
448,192,14677,1,0,0:0:0:0:
192,192,14839,1,0,0:0:0:0:
448,192,14920,1,0,0:0:0:0:
64,192,15001,1,0,0:0:0:0:
192,192,15001,1,0,0:0:0:0:
320,192,15001,1,0,0:0:0:0:
64,192,15163,1,0,0:0:0:0:
448,192,15163,1,0,0:0:0:0:
192,192,15244,1,0,0:0:0:0:
64,192,15325,1,0,0:0:0:0:
320,192,15325,1,0,0:0:0:0:
448,192,15325,1,0,0:0:0:0:
192,192,15488,1,0,0:0:0:0:
448,192,15569,1,0,0:0:0:0:
64,192,15650,1,0,0:0:0:0:
192,192,15650,1,0,0:0:0:0:
320,192,15650,1,0,0:0:0:0:
64,192,15812,1,0,0:0:0:0:
448,192,15812,1,0,0:0:0:0:
192,192,15893,1,0,0:0:0:0:
64,192,15974,1,0,0:0:0:0:
320,192,15974,1,0,0:0:0:0:
448,192,15974,1,0,0:0:0:0:
192,192,16136,1,0,0:0:0:0:
448,192,16217,1,0,0:0:0:0:
64,192,16298,1,0,0:0:0:0:
320,192,16298,1,0,0:0:0:0:
192,192,16379,1,0,0:0:0:0:
64,192,16461,1,0,0:0:0:0:
448,192,16461,1,0,0:0:0:0:
192,192,16542,1,0,0:0:0:0:
64,192,16623,1,0,0:0:0:0:
320,192,16623,1,0,0:0:0:0:
192,192,16704,1,0,0:0:0:0:
448,192,16704,1,0,0:0:0:0:
320,0,16785,128,0,16866:1:0:0:0:
64,192,16947,1,0,0:0:0:0:
192,192,16988,1,0,0:0:0:0:
320,192,17028,1,0,0:0:0:0:
448,192,17069,1,0,0:0:0:0:
64,192,17109,1,0,0:0:0:0:
192,192,17150,1,0,0:0:0:0:
320,192,17190,1,0,0:0:0:0:
448,192,17231,1,0,0:0:0:0:
64,192,17271,1,0,0:0:0:0:
192,192,17271,1,0,0:0:0:0:
320,192,17271,1,0,0:0:0:0:
448,192,17434,1,0,0:0:0:0:
64,192,17515,1,0,0:0:0:0:
192,192,17596,1,0,0:0:0:0:
320,192,17596,1,0,0:0:0:0:
448,192,17596,1,0,0:0:0:0:
64,192,17758,1,0,0:0:0:0:
448,192,17758,1,0,0:0:0:0:
320,192,17839,1,0,0:0:0:0:
64,192,17920,1,0,0:0:0:0:
192,192,17920,1,0,0:0:0:0:
448,192,17920,1,0,0:0:0:0:
448,192,18082,1,0,0:0:0:0:
64,192,18163,1,0,0:0:0:0:
192,192,18244,1,0,0:0:0:0:
320,192,18244,1,0,0:0:0:0:
448,192,18244,1,0,0:0:0:0:
64,192,18407,1,0,0:0:0:0:
448,192,18407,1,0,0:0:0:0:
320,192,18488,1,0,0:0:0:0:
64,192,18569,1,0,0:0:0:0:
192,192,18569,1,0,0:0:0:0:
448,192,18569,1,0,0:0:0:0:
448,192,18731,1,0,0:0:0:0:
64,192,18812,1,0,0:0:0:0:
192,192,18893,1,0,0:0:0:0:
320,192,18893,1,0,0:0:0:0:
448,192,18893,1,0,0:0:0:0:
64,192,19055,1,0,0:0:0:0:
448,192,19055,1,0,0:0:0:0:
320,192,19136,1,0,0:0:0:0:
64,192,19217,1,0,0:0:0:0:
192,192,19217,1,0,0:0:0:0:
320,192,19298,1,0,0:0:0:0:
448,192,19298,1,0,0:0:0:0:
192,192,19379,1,0,0:0:0:0:
64,192,19461,1,0,0:0:0:0:
192,192,19542,1,0,0:0:0:0:
320,192,19542,1,0,0:0:0:0:
448,192,19542,1,0,0:0:0:0:
64,192,19704,1,0,0:0:0:0:
448,192,19704,1,0,0:0:0:0:
320,192,19785,1,0,0:0:0:0:
64,192,19866,1,0,0:0:0:0:
192,192,19866,1,0,0:0:0:0:
448,192,19866,1,0,0:0:0:0:
320,192,19947,1,0,0:0:0:0:
64,192,20028,1,0,0:0:0:0:
192,192,20109,1,0,0:0:0:0:
64,192,20190,1,0,0:0:0:0:
320,192,20190,1,0,0:0:0:0:
448,192,20190,1,0,0:0:0:0:
64,192,20352,1,0,0:0:0:0:
448,192,20352,1,0,0:0:0:0:
320,192,20434,1,0,0:0:0:0:
64,192,20515,1,0,0:0:0:0:
192,192,20515,1,0,0:0:0:0:
448,192,20515,1,0,0:0:0:0:
320,192,20596,1,0,0:0:0:0:
64,192,20677,1,0,0:0:0:0:
320,192,20758,1,0,0:0:0:0:
64,192,20839,1,0,0:0:0:0:
192,192,20839,1,0,0:0:0:0:
320,192,20920,1,0,0:0:0:0:
448,192,20920,1,0,0:0:0:0:
64,192,21001,1,0,0:0:0:0:
192,192,21001,1,0,0:0:0:0:
320,192,21082,1,0,0:0:0:0:
448,192,21082,1,0,0:0:0:0:
64,192,21163,1,0,0:0:0:0:
192,192,21163,1,0,0:0:0:0:
320,192,21244,1,0,0:0:0:0:
448,192,21244,1,0,0:0:0:0:
64,192,21325,1,0,0:0:0:0:
192,192,21325,1,0,0:0:0:0:
320,192,21407,1,0,0:0:0:0:
448,192,21407,1,0,0:0:0:0:
64,192,21488,1,0,0:0:0:0:
192,192,21488,1,0,0:0:0:0:
320,192,21569,1,0,0:0:0:0:
448,192,21569,1,0,0:0:0:0:
64,192,21650,1,0,0:0:0:0:
192,192,21650,1,0,0:0:0:0:
320,192,21731,1,0,0:0:0:0:
448,192,21731,1,0,0:0:0:0:
64,0,21812,128,0,22055:1:0:0:0:
192,0,21812,128,0,22055:1:0:0:0:
64,192,22136,1,0,0:0:0:0:
320,192,22136,1,0,0:0:0:0:
448,192,22136,1,0,0:0:0:0:
192,192,22217,1,0,0:0:0:0:
320,192,22298,1,0,0:0:0:0:
192,192,22379,1,0,0:0:0:0:
320,192,22461,1,0,0:0:0:0:
64,0,22461,128,0,22704:1:0:0:0:
448,0,22461,128,0,22704:1:0:0:0:
64,192,22785,1,0,0:0:0:0:
192,192,22785,1,0,0:0:0:0:
448,192,22785,1,0,0:0:0:0:
320,192,22866,1,0,0:0:0:0:
192,192,22947,1,0,0:0:0:0:
320,192,23028,1,0,0:0:0:0:
192,192,23109,1,0,0:0:0:0:
64,0,23109,128,0,23352:1:0:0:0:
448,0,23109,128,0,23352:1:0:0:0:
64,192,23434,1,0,0:0:0:0:
320,192,23434,1,0,0:0:0:0:
448,192,23434,1,0,0:0:0:0:
192,192,23515,1,0,0:0:0:0:
64,192,23596,1,0,0:0:0:0:
320,192,23677,1,0,0:0:0:0:
192,192,23758,1,0,0:0:0:0:
448,192,23758,1,0,0:0:0:0:
320,192,23839,1,0,0:0:0:0:
64,192,23920,1,0,0:0:0:0:
192,192,24001,1,0,0:0:0:0:
320,192,24082,1,0,0:0:0:0:
448,192,24082,1,0,0:0:0:0:
64,0,24407,128,0,24650:1:0:0:0:
448,0,24407,128,0,24650:1:0:0:0:
64,192,24731,1,0,0:0:0:0:
320,192,24731,1,0,0:0:0:0:
448,192,24731,1,0,0:0:0:0:
192,192,24812,1,0,0:0:0:0:
320,192,24893,1,0,0:0:0:0:
192,192,24974,1,0,0:0:0:0:
320,192,25055,1,0,0:0:0:0:
64,0,25055,128,0,25298:1:0:0:0:
448,0,25055,128,0,25298:1:0:0:0:
64,192,25379,1,0,0:0:0:0:
192,192,25379,1,0,0:0:0:0:
448,192,25379,1,0,0:0:0:0:
320,192,25461,1,0,0:0:0:0:
192,192,25542,1,0,0:0:0:0:
320,192,25623,1,0,0:0:0:0:
192,192,25704,1,0,0:0:0:0:
64,0,25704,128,0,25947:1:0:0:0:
448,0,25704,128,0,25947:1:0:0:0:
64,192,26028,1,0,0:0:0:0:
320,192,26028,1,0,0:0:0:0:
448,192,26028,1,0,0:0:0:0:
192,192,26109,1,0,0:0:0:0:
320,192,26190,1,0,0:0:0:0:
192,192,26271,1,0,0:0:0:0:
320,192,26352,1,0,0:0:0:0:
448,192,26352,1,0,0:0:0:0:
192,192,26434,1,0,0:0:0:0:
320,192,26515,1,0,0:0:0:0:
192,192,26596,1,0,0:0:0:0:
64,192,26677,1,0,0:0:0:0:
448,192,26677,1,0,0:0:0:0:
192,192,26785,1,0,0:0:0:0:
320,192,26785,1,0,0:0:0:0:
64,192,26893,1,0,0:0:0:0:
448,192,26893,1,0,0:0:0:0:
192,192,27001,1,0,0:0:0:0:
320,192,27001,1,0,0:0:0:0:
192,192,27109,1,0,0:0:0:0:
448,192,27109,1,0,0:0:0:0:
64,192,27217,1,0,0:0:0:0:
320,192,27217,1,0,0:0:0:0:
192,192,27325,1,0,0:0:0:0:
448,192,27325,1,0,0:0:0:0:
64,192,27407,1,0,0:0:0:0:
320,192,27488,1,0,0:0:0:0:
448,192,27488,1,0,0:0:0:0:
192,192,27650,1,0,0:0:0:0:
448,192,27650,1,0,0:0:0:0:
64,192,27731,1,0,0:0:0:0:
320,192,27812,1,0,0:0:0:0:
448,192,27812,1,0,0:0:0:0:
192,192,27974,1,0,0:0:0:0:
448,192,27974,1,0,0:0:0:0:
64,192,28055,1,0,0:0:0:0:
320,192,28136,1,0,0:0:0:0:
448,192,28136,1,0,0:0:0:0:
192,192,28298,1,0,0:0:0:0:
448,192,28298,1,0,0:0:0:0:
64,192,28379,1,0,0:0:0:0:
320,192,28461,1,0,0:0:0:0:
448,192,28461,1,0,0:0:0:0:
64,192,28623,1,0,0:0:0:0:
320,192,28623,1,0,0:0:0:0:
448,192,28704,1,0,0:0:0:0:
64,192,28785,1,0,0:0:0:0:
192,192,28785,1,0,0:0:0:0:
64,192,28947,1,0,0:0:0:0:
320,192,28947,1,0,0:0:0:0:
448,192,29028,1,0,0:0:0:0:
64,192,29109,1,0,0:0:0:0:
192,192,29109,1,0,0:0:0:0:
64,192,29271,1,0,0:0:0:0:
320,192,29271,1,0,0:0:0:0:
448,192,29352,1,0,0:0:0:0:
64,192,29434,1,0,0:0:0:0:
192,192,29434,1,0,0:0:0:0:
64,192,29596,1,0,0:0:0:0:
320,192,29596,1,0,0:0:0:0:
448,192,29677,1,0,0:0:0:0:
64,192,29758,1,0,0:0:0:0:
192,192,29758,1,0,0:0:0:0:
192,192,29920,1,0,0:0:0:0:
448,192,29920,1,0,0:0:0:0:
64,192,30001,1,0,0:0:0:0:
320,192,30082,1,0,0:0:0:0:
448,192,30082,1,0,0:0:0:0:
192,192,30244,1,0,0:0:0:0:
448,192,30244,1,0,0:0:0:0:
64,192,30325,1,0,0:0:0:0:
320,192,30407,1,0,0:0:0:0:
448,192,30407,1,0,0:0:0:0:
192,192,30569,1,0,0:0:0:0:
448,192,30569,1,0,0:0:0:0:
64,192,30650,1,0,0:0:0:0:
320,192,30731,1,0,0:0:0:0:
448,192,30731,1,0,0:0:0:0:
192,192,30893,1,0,0:0:0:0:
448,192,30893,1,0,0:0:0:0:
64,192,30974,1,0,0:0:0:0:
320,192,31055,1,0,0:0:0:0:
448,192,31055,1,0,0:0:0:0:
64,192,31217,1,0,0:0:0:0:
320,192,31217,1,0,0:0:0:0:
192,192,31298,1,0,0:0:0:0:
448,192,31379,1,0,0:0:0:0:
448,192,31461,1,0,0:0:0:0:
64,192,31542,1,0,0:0:0:0:
320,192,31542,1,0,0:0:0:0:
192,192,31623,1,0,0:0:0:0:
448,192,31704,1,0,0:0:0:0:
448,192,31785,1,0,0:0:0:0:
64,192,31866,1,0,0:0:0:0:
320,192,31866,1,0,0:0:0:0:
192,192,31947,1,0,0:0:0:0:
448,192,32028,1,0,0:0:0:0:
448,192,32109,1,0,0:0:0:0:
64,192,32190,1,0,0:0:0:0:
320,192,32190,1,0,0:0:0:0:
192,192,32271,1,0,0:0:0:0:
448,192,32352,1,0,0:0:0:0:
448,192,32434,1,0,0:0:0:0:
64,192,32515,1,0,0:0:0:0:
448,192,32515,1,0,0:0:0:0:
192,192,32535,1,0,0:0:0:0:
320,192,32555,1,0,0:0:0:0:
192,192,32677,1,0,0:0:0:0:
320,192,32839,1,0,0:0:0:0:
192,192,33001,1,0,0:0:0:0:
64,192,33163,1,0,0:0:0:0:
448,192,33184,1,0,0:0:0:0:
192,192,33325,1,0,0:0:0:0:
320,192,33488,1,0,0:0:0:0:
448,192,33508,1,0,0:0:0:0:
64,192,33650,1,0,0:0:0:0:
192,192,33812,1,0,0:0:0:0:
448,192,33812,1,0,0:0:0:0:
320,192,33974,1,0,0:0:0:0:
192,192,34136,1,0,0:0:0:0:
448,192,34298,1,0,0:0:0:0:
64,192,34461,1,0,0:0:0:0:
192,192,34481,1,0,0:0:0:0:
320,192,34623,1,0,0:0:0:0:
64,192,34785,1,0,0:0:0:0:
448,192,34805,1,0,0:0:0:0:
192,192,34947,1,0,0:0:0:0:
64,192,35109,1,0,0:0:0:0:
320,192,35129,1,0,0:0:0:0:
448,192,35150,1,0,0:0:0:0:
192,192,35271,1,0,0:0:0:0:
64,192,35434,1,0,0:0:0:0:
448,192,35596,1,0,0:0:0:0:
192,192,35758,1,0,0:0:0:0:
320,192,35778,1,0,0:0:0:0:
448,192,35920,1,0,0:0:0:0:
64,192,36082,1,0,0:0:0:0:
320,192,36102,1,0,0:0:0:0:
192,192,36244,1,0,0:0:0:0:
64,192,36407,1,0,0:0:0:0:
448,192,36427,1,0,0:0:0:0:
320,192,36569,1,0,0:0:0:0:
192,192,36731,1,0,0:0:0:0:
448,192,36893,1,0,0:0:0:0:
64,192,37055,1,0,0:0:0:0:
192,192,37075,1,0,0:0:0:0:
448,192,37217,1,0,0:0:0:0:
192,192,37379,1,0,0:0:0:0:
320,192,37400,1,0,0:0:0:0:
64,192,37542,1,0,0:0:0:0:
192,192,37704,1,0,0:0:0:0:
320,192,37724,1,0,0:0:0:0:
448,192,37744,1,0,0:0:0:0:
64,192,37866,1,0,0:0:0:0:
320,192,38028,1,0,0:0:0:0:
448,192,38190,1,0,0:0:0:0:
64,192,38352,1,0,0:0:0:0:
192,192,38352,1,0,0:0:0:0:
192,192,38515,1,0,0:0:0:0:
320,192,38515,1,0,0:0:0:0:
320,192,38677,1,0,0:0:0:0:
448,192,38677,1,0,0:0:0:0:
192,192,38839,1,0,0:0:0:0:
320,192,38839,1,0,0:0:0:0:
64,192,39001,1,0,0:0:0:0:
448,192,39021,1,0,0:0:0:0:
320,192,39163,1,0,0:0:0:0:
64,192,39325,1,0,0:0:0:0:
192,192,39488,1,0,0:0:0:0:
64,192,39650,1,0,0:0:0:0:
448,192,39670,1,0,0:0:0:0:
320,192,39812,1,0,0:0:0:0:
64,192,39974,1,0,0:0:0:0:
192,192,39994,1,0,0:0:0:0:
448,192,40028,1,0,0:0:0:0:
320,192,40136,1,0,0:0:0:0:
64,192,40298,1,0,0:0:0:0:
192,192,40319,1,0,0:0:0:0:
448,192,40339,1,0,0:0:0:0:
320,192,40461,1,0,0:0:0:0:
64,192,40623,1,0,0:0:0:0:
192,192,40785,1,0,0:0:0:0:
320,192,40947,1,0,0:0:0:0:
448,192,40947,1,0,0:0:0:0:
64,192,41109,1,0,0:0:0:0:
192,192,41109,1,0,0:0:0:0:
192,192,41271,1,0,0:0:0:0:
320,192,41271,1,0,0:0:0:0:
320,192,41434,1,0,0:0:0:0:
448,192,41434,1,0,0:0:0:0:
64,192,41596,1,0,0:0:0:0:
448,192,41616,1,0,0:0:0:0:
320,192,41758,1,0,0:0:0:0:
64,192,41920,1,0,0:0:0:0:
448,192,42082,1,0,0:0:0:0:
64,192,42244,1,0,0:0:0:0:
192,192,42265,1,0,0:0:0:0:
320,192,42407,1,0,0:0:0:0:
64,192,42569,1,0,0:0:0:0:
448,192,42589,1,0,0:0:0:0:
192,192,42731,1,0,0:0:0:0:
64,192,42893,1,0,0:0:0:0:
320,192,42893,1,0,0:0:0:0:
448,192,42893,1,0,0:0:0:0:
192,192,42974,1,0,0:0:0:0:
64,192,43055,1,0,0:0:0:0:
320,192,43136,1,0,0:0:0:0:
64,192,43217,1,0,0:0:0:0:
192,192,43217,1,0,0:0:0:0:
448,192,43217,1,0,0:0:0:0:
320,192,43298,1,0,0:0:0:0:
192,192,43379,1,0,0:0:0:0:
448,192,43461,1,0,0:0:0:0:
64,192,43542,1,0,0:0:0:0:
192,192,43542,1,0,0:0:0:0:
320,192,43542,1,0,0:0:0:0:
448,192,43623,1,0,0:0:0:0:
192,192,43704,1,0,0:0:0:0:
320,192,43785,1,0,0:0:0:0:
64,192,43866,1,0,0:0:0:0:
192,192,43866,1,0,0:0:0:0:
448,192,43866,1,0,0:0:0:0:
320,192,43947,1,0,0:0:0:0:
192,192,44028,1,0,0:0:0:0:
64,192,44109,1,0,0:0:0:0:
192,192,44190,1,0,0:0:0:0:
320,192,44190,1,0,0:0:0:0:
448,192,44190,1,0,0:0:0:0:
64,192,44271,1,0,0:0:0:0:
320,192,44352,1,0,0:0:0:0:
192,192,44434,1,0,0:0:0:0:
64,192,44515,1,0,0:0:0:0:
320,192,44515,1,0,0:0:0:0:
448,192,44515,1,0,0:0:0:0:
192,192,44596,1,0,0:0:0:0:
320,192,44677,1,0,0:0:0:0:
64,192,44758,1,0,0:0:0:0:
192,192,44839,1,0,0:0:0:0:
320,192,44839,1,0,0:0:0:0:
448,192,44839,1,0,0:0:0:0:
64,192,44920,1,0,0:0:0:0:
448,192,45001,1,0,0:0:0:0:
320,192,45082,1,0,0:0:0:0:
64,192,45163,1,0,0:0:0:0:
192,192,45163,1,0,0:0:0:0:
448,192,45163,1,0,0:0:0:0:
320,192,45244,1,0,0:0:0:0:
64,192,45325,1,0,0:0:0:0:
192,192,45407,1,0,0:0:0:0:
64,192,45488,1,0,0:0:0:0:
320,192,45488,1,0,0:0:0:0:
448,192,45488,1,0,0:0:0:0:
192,192,45569,1,0,0:0:0:0:
64,192,45650,1,0,0:0:0:0:
320,192,45731,1,0,0:0:0:0:
64,192,45812,1,0,0:0:0:0:
192,192,45812,1,0,0:0:0:0:
448,192,45812,1,0,0:0:0:0:
320,192,45893,1,0,0:0:0:0:
192,192,45974,1,0,0:0:0:0:
448,192,46055,1,0,0:0:0:0:
64,192,46136,1,0,0:0:0:0:
192,192,46136,1,0,0:0:0:0:
320,192,46136,1,0,0:0:0:0:
448,192,46217,1,0,0:0:0:0:
192,192,46298,1,0,0:0:0:0:
320,192,46379,1,0,0:0:0:0:
64,192,46461,1,0,0:0:0:0:
192,192,46461,1,0,0:0:0:0:
448,192,46461,1,0,0:0:0:0:
320,192,46542,1,0,0:0:0:0:
192,192,46623,1,0,0:0:0:0:
64,192,46704,1,0,0:0:0:0:
192,192,46785,1,0,0:0:0:0:
320,192,46785,1,0,0:0:0:0:
448,192,46785,1,0,0:0:0:0:
64,192,46866,1,0,0:0:0:0:
448,192,46947,1,0,0:0:0:0:
320,192,47028,1,0,0:0:0:0:
64,192,47109,1,0,0:0:0:0:
192,192,47109,1,0,0:0:0:0:
448,192,47109,1,0,0:0:0:0:
320,192,47190,1,0,0:0:0:0:
448,192,47271,1,0,0:0:0:0:
64,192,47352,1,0,0:0:0:0:
192,192,47434,1,0,0:0:0:0:
320,192,47434,1,0,0:0:0:0:
448,192,47434,1,0,0:0:0:0:
64,192,47515,1,0,0:0:0:0:
448,192,47596,1,0,0:0:0:0:
320,192,47677,1,0,0:0:0:0:
64,192,47758,1,0,0:0:0:0:
192,192,47758,1,0,0:0:0:0:
448,192,47758,1,0,0:0:0:0:
320,192,47839,1,0,0:0:0:0:
64,192,47920,1,0,0:0:0:0:
192,192,48001,1,0,0:0:0:0:
64,192,48082,1,0,0:0:0:0:
320,192,48082,1,0,0:0:0:0:
448,192,48082,1,0,0:0:0:0:
192,192,48163,1,0,0:0:0:0:
64,192,48244,1,0,0:0:0:0:
320,192,48325,1,0,0:0:0:0:
64,192,48407,1,0,0:0:0:0:
192,192,48407,1,0,0:0:0:0:
448,192,48407,1,0,0:0:0:0:
320,192,48488,1,0,0:0:0:0:
192,192,48569,1,0,0:0:0:0:
448,192,48650,1,0,0:0:0:0:
64,192,48731,1,0,0:0:0:0:
192,192,48731,1,0,0:0:0:0:
320,192,48731,1,0,0:0:0:0:
448,192,48812,1,0,0:0:0:0:
192,192,48893,1,0,0:0:0:0:
320,192,48974,1,0,0:0:0:0:
64,192,49055,1,0,0:0:0:0:
192,192,49055,1,0,0:0:0:0:
448,192,49055,1,0,0:0:0:0:
320,192,49136,1,0,0:0:0:0:
192,192,49217,1,0,0:0:0:0:
64,192,49298,1,0,0:0:0:0:
192,192,49379,1,0,0:0:0:0:
320,192,49379,1,0,0:0:0:0:
448,192,49379,1,0,0:0:0:0:
64,192,49461,1,0,0:0:0:0:
320,192,49542,1,0,0:0:0:0:
192,192,49623,1,0,0:0:0:0:
64,192,49704,1,0,0:0:0:0:
320,192,49704,1,0,0:0:0:0:
448,192,49704,1,0,0:0:0:0:
192,192,49785,1,0,0:0:0:0:
320,192,49866,1,0,0:0:0:0:
64,192,49947,1,0,0:0:0:0:
192,192,50028,1,0,0:0:0:0:
320,192,50028,1,0,0:0:0:0:
448,192,50028,1,0,0:0:0:0:
64,192,50109,1,0,0:0:0:0:
448,192,50190,1,0,0:0:0:0:
320,192,50271,1,0,0:0:0:0:
64,192,50352,1,0,0:0:0:0:
192,192,50352,1,0,0:0:0:0:
448,192,50352,1,0,0:0:0:0:
320,192,50434,1,0,0:0:0:0:
64,192,50515,1,0,0:0:0:0:
192,192,50596,1,0,0:0:0:0:
64,192,50677,1,0,0:0:0:0:
320,192,50677,1,0,0:0:0:0:
448,192,50677,1,0,0:0:0:0:
192,192,50758,1,0,0:0:0:0:
64,192,50839,1,0,0:0:0:0:
320,192,50920,1,0,0:0:0:0:
64,192,51001,1,0,0:0:0:0:
192,192,51001,1,0,0:0:0:0:
448,192,51001,1,0,0:0:0:0:
320,192,51082,1,0,0:0:0:0:
192,192,51163,1,0,0:0:0:0:
448,192,51244,1,0,0:0:0:0:
64,192,51325,1,0,0:0:0:0:
192,192,51325,1,0,0:0:0:0:
320,192,51325,1,0,0:0:0:0:
448,192,51407,1,0,0:0:0:0:
192,192,51488,1,0,0:0:0:0:
320,192,51569,1,0,0:0:0:0:
64,192,51650,1,0,0:0:0:0:
192,192,51650,1,0,0:0:0:0:
448,192,51650,1,0,0:0:0:0:
320,192,51731,1,0,0:0:0:0:
192,192,51812,1,0,0:0:0:0:
64,192,51893,1,0,0:0:0:0:
320,192,51974,1,0,0:0:0:0:
448,192,51974,1,0,0:0:0:0:
320,192,52136,1,0,0:0:0:0:
448,192,52136,1,0,0:0:0:0:
64,192,52298,1,0,0:0:0:0:
192,192,52298,1,0,0:0:0:0:
448,192,52461,1,0,0:0:0:0:
64,192,52542,1,0,0:0:0:0:
192,192,52623,1,0,0:0:0:0:
320,192,52623,1,0,0:0:0:0:
192,192,52785,1,0,0:0:0:0:
320,192,52785,1,0,0:0:0:0:
64,192,52947,1,0,0:0:0:0:
192,192,52947,1,0,0:0:0:0:
448,192,52947,1,0,0:0:0:0:
320,192,52988,1,0,0:0:0:0:
192,192,53028,1,0,0:0:0:0:
64,192,53069,1,0,0:0:0:0:
448,192,53109,1,0,0:0:0:0:
320,192,53150,1,0,0:0:0:0:
192,192,53190,1,0,0:0:0:0:
64,192,53231,1,0,0:0:0:0:
192,192,53271,1,0,0:0:0:0:
320,192,53271,1,0,0:0:0:0:
448,192,53271,1,0,0:0:0:0:
320,192,53434,1,0,0:0:0:0:
448,192,53434,1,0,0:0:0:0:
64,192,53515,1,0,0:0:0:0:
192,192,53596,1,0,0:0:0:0:
320,192,53596,1,0,0:0:0:0:
448,192,53596,1,0,0:0:0:0:
64,192,53677,1,0,0:0:0:0:
192,192,53758,1,0,0:0:0:0:
320,192,53839,1,0,0:0:0:0:
64,192,53920,1,0,0:0:0:0:
192,192,53920,1,0,0:0:0:0:
448,192,53920,1,0,0:0:0:0:
64,192,54082,1,0,0:0:0:0:
192,192,54082,1,0,0:0:0:0:
320,192,54082,1,0,0:0:0:0:
64,192,54244,1,0,0:0:0:0:
192,192,54244,1,0,0:0:0:0:
448,192,54244,1,0,0:0:0:0:
64,192,54407,1,0,0:0:0:0:
320,192,54407,1,0,0:0:0:0:
448,192,54407,1,0,0:0:0:0:
64,192,54569,1,0,0:0:0:0:
320,192,54569,1,0,0:0:0:0:
448,192,54569,1,0,0:0:0:0:
320,192,54731,1,0,0:0:0:0:
448,192,54731,1,0,0:0:0:0:
64,192,54812,1,0,0:0:0:0:
192,192,54893,1,0,0:0:0:0:
320,192,54893,1,0,0:0:0:0:
448,192,54893,1,0,0:0:0:0:
64,192,55055,1,0,0:0:0:0:
192,192,55055,1,0,0:0:0:0:
448,192,55136,1,0,0:0:0:0:
64,192,55217,1,0,0:0:0:0:
192,192,55217,1,0,0:0:0:0:
320,192,55217,1,0,0:0:0:0:
64,192,55379,1,0,0:0:0:0:
448,192,55379,1,0,0:0:0:0:
192,192,55461,1,0,0:0:0:0:
64,192,55542,1,0,0:0:0:0:
320,192,55542,1,0,0:0:0:0:
448,192,55542,1,0,0:0:0:0:
192,192,55704,1,0,0:0:0:0:
448,192,55704,1,0,0:0:0:0:
64,192,55785,1,0,0:0:0:0:
192,192,55866,1,0,0:0:0:0:
320,192,55866,1,0,0:0:0:0:
448,192,55866,1,0,0:0:0:0:
320,192,56028,1,0,0:0:0:0:
448,192,56028,1,0,0:0:0:0:
64,192,56109,1,0,0:0:0:0:
192,192,56190,1,0,0:0:0:0:
320,192,56190,1,0,0:0:0:0:
448,192,56190,1,0,0:0:0:0:
64,192,56271,1,0,0:0:0:0:
192,192,56352,1,0,0:0:0:0:
320,192,56434,1,0,0:0:0:0:
64,192,56515,1,0,0:0:0:0:
192,192,56515,1,0,0:0:0:0:
448,192,56515,1,0,0:0:0:0:
64,192,56677,1,0,0:0:0:0:
192,192,56677,1,0,0:0:0:0:
320,192,56677,1,0,0:0:0:0:
64,192,56839,1,0,0:0:0:0:
192,192,56839,1,0,0:0:0:0:
448,192,56839,1,0,0:0:0:0:
64,192,57001,1,0,0:0:0:0:
320,192,57001,1,0,0:0:0:0:
448,192,57001,1,0,0:0:0:0:
64,192,57163,1,0,0:0:0:0:
192,192,57163,1,0,0:0:0:0:
448,192,57163,1,0,0:0:0:0:
320,192,57325,1,0,0:0:0:0:
320,192,57407,1,0,0:0:0:0:
64,192,57488,1,0,0:0:0:0:
192,192,57488,1,0,0:0:0:0:
448,192,57488,1,0,0:0:0:0:
192,192,57650,1,0,0:0:0:0:
192,192,57731,1,0,0:0:0:0:
64,192,57812,1,0,0:0:0:0:
320,192,57812,1,0,0:0:0:0:
448,192,57812,1,0,0:0:0:0:
320,192,57974,1,0,0:0:0:0:
320,192,58055,1,0,0:0:0:0:
64,192,58136,1,0,0:0:0:0:
192,192,58136,1,0,0:0:0:0:
448,192,58136,1,0,0:0:0:0:
192,192,58298,1,0,0:0:0:0:
192,192,58379,1,0,0:0:0:0:
64,192,58461,1,0,0:0:0:0:
320,192,58461,1,0,0:0:0:0:
448,192,58461,1,0,0:0:0:0:
192,192,58623,1,0,0:0:0:0:
448,192,58623,1,0,0:0:0:0:
320,192,58704,1,0,0:0:0:0:
64,192,58785,1,0,0:0:0:0:
192,192,58785,1,0,0:0:0:0:
448,192,58785,1,0,0:0:0:0:
320,192,58866,1,0,0:0:0:0:
192,192,58947,1,0,0:0:0:0:
448,192,59028,1,0,0:0:0:0:
64,192,59109,1,0,0:0:0:0:
192,192,59109,1,0,0:0:0:0:
320,192,59109,1,0,0:0:0:0:
64,192,59271,1,0,0:0:0:0:
320,192,59271,1,0,0:0:0:0:
448,192,59271,1,0,0:0:0:0:
64,192,59434,1,0,0:0:0:0:
192,192,59434,1,0,0:0:0:0:
320,192,59434,1,0,0:0:0:0:
192,192,59596,1,0,0:0:0:0:
320,192,59596,1,0,0:0:0:0:
448,192,59596,1,0,0:0:0:0:
64,192,59758,1,0,0:0:0:0:
192,192,59758,1,0,0:0:0:0:
448,192,59758,1,0,0:0:0:0:
192,192,59920,1,0,0:0:0:0:
320,192,59920,1,0,0:0:0:0:
64,192,60001,1,0,0:0:0:0:
192,192,60082,1,0,0:0:0:0:
320,192,60082,1,0,0:0:0:0:
448,192,60082,1,0,0:0:0:0:
64,192,60244,1,0,0:0:0:0:
320,192,60244,1,0,0:0:0:0:
448,192,60325,1,0,0:0:0:0:
64,192,60407,1,0,0:0:0:0:
192,192,60407,1,0,0:0:0:0:
320,192,60407,1,0,0:0:0:0:
64,192,60569,1,0,0:0:0:0:
448,192,60569,1,0,0:0:0:0:
192,192,60650,1,0,0:0:0:0:
64,192,60731,1,0,0:0:0:0:
320,192,60731,1,0,0:0:0:0:
448,192,60731,1,0,0:0:0:0:
320,192,60893,1,0,0:0:0:0:
448,192,60893,1,0,0:0:0:0:
64,192,60974,1,0,0:0:0:0:
192,192,61055,1,0,0:0:0:0:
320,192,61055,1,0,0:0:0:0:
448,192,61055,1,0,0:0:0:0:
192,192,61217,1,0,0:0:0:0:
448,192,61217,1,0,0:0:0:0:
320,192,61298,1,0,0:0:0:0:
64,192,61379,1,0,0:0:0:0:
192,192,61379,1,0,0:0:0:0:
448,192,61379,1,0,0:0:0:0:
320,192,61461,1,0,0:0:0:0:
192,192,61542,1,0,0:0:0:0:
448,192,61623,1,0,0:0:0:0:
64,192,61704,1,0,0:0:0:0:
192,192,61704,1,0,0:0:0:0:
320,192,61704,1,0,0:0:0:0:
64,192,61866,1,0,0:0:0:0:
320,192,61866,1,0,0:0:0:0:
448,192,61866,1,0,0:0:0:0:
64,192,62028,1,0,0:0:0:0:
192,192,62028,1,0,0:0:0:0:
320,192,62028,1,0,0:0:0:0:
192,192,62190,1,0,0:0:0:0:
320,192,62190,1,0,0:0:0:0:
448,192,62190,1,0,0:0:0:0:
64,192,62352,1,0,0:0:0:0:
192,192,62352,1,0,0:0:0:0:
448,192,62352,1,0,0:0:0:0:
192,192,62515,1,0,0:0:0:0:
192,192,62596,1,0,0:0:0:0:
64,192,62677,1,0,0:0:0:0:
320,192,62677,1,0,0:0:0:0:
448,192,62677,1,0,0:0:0:0:
64,192,62839,1,0,0:0:0:0:
64,192,62920,1,0,0:0:0:0:
192,192,63001,1,0,0:0:0:0:
320,192,63001,1,0,0:0:0:0:
448,192,63001,1,0,0:0:0:0:
64,192,63055,1,0,0:0:0:0:
320,192,63109,1,0,0:0:0:0:
192,192,63163,1,0,0:0:0:0:
448,192,63217,1,0,0:0:0:0:
320,192,63271,1,0,0:0:0:0:
64,192,63325,1,0,0:0:0:0:
192,192,63325,1,0,0:0:0:0:
448,192,63325,1,0,0:0:0:0:
320,192,63379,1,0,0:0:0:0:
448,192,63434,1,0,0:0:0:0:
192,192,63488,1,0,0:0:0:0:
320,192,63542,1,0,0:0:0:0:
64,192,63596,1,0,0:0:0:0:
192,192,63650,1,0,0:0:0:0:
320,192,63650,1,0,0:0:0:0:
448,192,63650,1,0,0:0:0:0:
320,192,63812,1,0,0:0:0:0:
448,192,63812,1,0,0:0:0:0:
64,192,63893,1,0,0:0:0:0:
192,192,63974,1,0,0:0:0:0:
320,192,63974,1,0,0:0:0:0:
448,192,63974,1,0,0:0:0:0:
64,192,64055,1,0,0:0:0:0:
192,192,64136,1,0,0:0:0:0:
320,192,64217,1,0,0:0:0:0:
64,192,64298,1,0,0:0:0:0:
192,192,64298,1,0,0:0:0:0:
448,192,64298,1,0,0:0:0:0:
64,192,64461,1,0,0:0:0:0:
192,192,64461,1,0,0:0:0:0:
320,192,64461,1,0,0:0:0:0:
64,192,64623,1,0,0:0:0:0:
192,192,64623,1,0,0:0:0:0:
448,192,64623,1,0,0:0:0:0:
64,192,64785,1,0,0:0:0:0:
320,192,64785,1,0,0:0:0:0:
448,192,64785,1,0,0:0:0:0:
64,192,64947,1,0,0:0:0:0:
320,192,64947,1,0,0:0:0:0:
448,192,64947,1,0,0:0:0:0:
320,192,65109,1,0,0:0:0:0:
448,192,65109,1,0,0:0:0:0:
64,192,65190,1,0,0:0:0:0:
192,192,65271,1,0,0:0:0:0:
320,192,65271,1,0,0:0:0:0:
448,192,65271,1,0,0:0:0:0:
64,192,65434,1,0,0:0:0:0:
192,192,65434,1,0,0:0:0:0:
448,192,65515,1,0,0:0:0:0:
64,192,65596,1,0,0:0:0:0:
192,192,65596,1,0,0:0:0:0:
320,192,65596,1,0,0:0:0:0:
64,192,65758,1,0,0:0:0:0:
448,192,65758,1,0,0:0:0:0:
192,192,65839,1,0,0:0:0:0:
64,192,65920,1,0,0:0:0:0:
320,192,65920,1,0,0:0:0:0:
448,192,65920,1,0,0:0:0:0:
192,192,66082,1,0,0:0:0:0:
448,192,66082,1,0,0:0:0:0:
320,192,66163,1,0,0:0:0:0:
64,192,66244,1,0,0:0:0:0:
192,192,66298,1,0,0:0:0:0:
320,192,66352,1,0,0:0:0:0:
448,192,66407,1,0,0:0:0:0:
64,192,66461,1,0,0:0:0:0:
192,192,66515,1,0,0:0:0:0:
64,192,66569,1,0,0:0:0:0:
320,192,66569,1,0,0:0:0:0:
448,192,66569,1,0,0:0:0:0:
64,192,66731,1,0,0:0:0:0:
320,192,66731,1,0,0:0:0:0:
448,192,66731,1,0,0:0:0:0:
64,192,66893,1,0,0:0:0:0:
320,192,66893,1,0,0:0:0:0:
448,192,66893,1,0,0:0:0:0:
64,192,67055,1,0,0:0:0:0:
320,192,67055,1,0,0:0:0:0:
448,192,67055,1,0,0:0:0:0:
320,192,67217,1,0,0:0:0:0:
192,0,67217,128,0,67379:1:0:0:0:
448,0,67217,128,0,67379:1:0:0:0:
64,192,67542,1,0,0:0:0:0:
192,192,67542,1,0,0:0:0:0:
448,192,67542,1,0,0:0:0:0:
64,192,67704,1,0,0:0:0:0:
320,192,67704,1,0,0:0:0:0:
64,192,67785,1,0,0:0:0:0:
320,192,67785,1,0,0:0:0:0:
192,192,67947,1,0,0:0:0:0:
448,192,67947,1,0,0:0:0:0:
192,192,68028,1,0,0:0:0:0:
448,192,68028,1,0,0:0:0:0:
320,192,68190,1,0,0:0:0:0:
448,192,68190,1,0,0:0:0:0:
320,192,68271,1,0,0:0:0:0:
448,192,68271,1,0,0:0:0:0:
64,192,68434,1,0,0:0:0:0:
192,192,68434,1,0,0:0:0:0:
64,192,68515,1,0,0:0:0:0:
192,192,68515,1,0,0:0:0:0:
448,192,68515,1,0,0:0:0:0:
448,192,68596,1,0,0:0:0:0:
448,192,68677,1,0,0:0:0:0:
448,192,68758,1,0,0:0:0:0:
64,192,68839,1,0,0:0:0:0:
192,192,68839,1,0,0:0:0:0:
320,192,68839,1,0,0:0:0:0:
320,192,69001,1,0,0:0:0:0:
448,192,69001,1,0,0:0:0:0:
192,192,69082,1,0,0:0:0:0:
64,192,69163,1,0,0:0:0:0:
320,192,69163,1,0,0:0:0:0:
448,192,69163,1,0,0:0:0:0:
192,192,69244,1,0,0:0:0:0:
64,192,69325,1,0,0:0:0:0:
320,192,69325,1,0,0:0:0:0:
448,192,69407,1,0,0:0:0:0:
64,192,69488,1,0,0:0:0:0:
192,192,69488,1,0,0:0:0:0:
320,192,69488,1,0,0:0:0:0:
320,192,69650,1,0,0:0:0:0:
64,192,69731,1,0,0:0:0:0:
192,192,69812,1,0,0:0:0:0:
320,192,69812,1,0,0:0:0:0:
448,192,69812,1,0,0:0:0:0:
64,192,69893,1,0,0:0:0:0:
192,192,69974,1,0,0:0:0:0:
448,192,69974,1,0,0:0:0:0:
320,192,70055,1,0,0:0:0:0:
64,192,70136,1,0,0:0:0:0:
192,192,70136,1,0,0:0:0:0:
448,192,70136,1,0,0:0:0:0:
320,192,70298,1,0,0:0:0:0:
448,192,70298,1,0,0:0:0:0:
64,192,70379,1,0,0:0:0:0:
192,192,70461,1,0,0:0:0:0:
320,192,70461,1,0,0:0:0:0:
448,192,70461,1,0,0:0:0:0:
64,192,70542,1,0,0:0:0:0:
192,192,70623,1,0,0:0:0:0:
448,192,70623,1,0,0:0:0:0:
320,192,70704,1,0,0:0:0:0:
64,192,70785,1,0,0:0:0:0:
192,192,70785,1,0,0:0:0:0:
448,192,70785,1,0,0:0:0:0:
64,192,70947,1,0,0:0:0:0:
448,192,70947,1,0,0:0:0:0:
192,192,71028,1,0,0:0:0:0:
64,192,71109,1,0,0:0:0:0:
320,192,71109,1,0,0:0:0:0:
448,192,71109,1,0,0:0:0:0:
192,192,71190,1,0,0:0:0:0:
320,192,71271,1,0,0:0:0:0:
448,192,71271,1,0,0:0:0:0:
192,192,71352,1,0,0:0:0:0:
64,192,71434,1,0,0:0:0:0:
192,192,71488,1,0,0:0:0:0:
320,192,71542,1,0,0:0:0:0:
448,192,71596,1,0,0:0:0:0:
64,192,71650,1,0,0:0:0:0:
192,192,71704,1,0,0:0:0:0:
320,192,71758,1,0,0:0:0:0:
448,192,71812,1,0,0:0:0:0:
64,192,71866,1,0,0:0:0:0:
192,192,71920,1,0,0:0:0:0:
320,192,71974,1,0,0:0:0:0:
448,192,72028,1,0,0:0:0:0:
64,192,72082,1,0,0:0:0:0:
192,192,72082,1,0,0:0:0:0:
320,192,72082,1,0,0:0:0:0:
64,192,72244,1,0,0:0:0:0:
192,192,72244,1,0,0:0:0:0:
320,192,72244,1,0,0:0:0:0:
320,192,72407,1,0,0:0:0:0:
448,192,72407,1,0,0:0:0:0:
64,192,72488,1,0,0:0:0:0:
192,192,72488,1,0,0:0:0:0:
192,192,72569,1,0,0:0:0:0:
320,192,72569,1,0,0:0:0:0:
320,192,72650,1,0,0:0:0:0:
448,192,72650,1,0,0:0:0:0:
64,192,72731,1,0,0:0:0:0:
192,192,72731,1,0,0:0:0:0:
448,192,72731,1,0,0:0:0:0:
320,192,72812,1,0,0:0:0:0:
64,192,72893,1,0,0:0:0:0:
192,192,72974,1,0,0:0:0:0:
64,192,73055,1,0,0:0:0:0:
320,192,73055,1,0,0:0:0:0:
448,192,73055,1,0,0:0:0:0:
192,192,73136,1,0,0:0:0:0:
320,192,73217,1,0,0:0:0:0:
64,192,73298,1,0,0:0:0:0:
320,192,73379,1,0,0:0:0:0:
448,192,73379,1,0,0:0:0:0:
320,192,73461,1,0,0:0:0:0:
448,192,73461,1,0,0:0:0:0:
64,192,73542,1,0,0:0:0:0:
192,192,73542,1,0,0:0:0:0:
64,192,73623,1,0,0:0:0:0:
192,192,73623,1,0,0:0:0:0:
320,192,73704,1,0,0:0:0:0:
448,192,73704,1,0,0:0:0:0:
320,192,73785,1,0,0:0:0:0:
448,192,73785,1,0,0:0:0:0:
64,192,73866,1,0,0:0:0:0:
192,192,73866,1,0,0:0:0:0:
64,192,73947,1,0,0:0:0:0:
192,192,73947,1,0,0:0:0:0:
64,192,74028,1,0,0:0:0:0:
320,192,74028,1,0,0:0:0:0:
448,0,74028,128,0,79217:1:0:0:0:
64,192,74190,1,0,0:0:0:0:
320,192,74352,1,0,0:0:0:0:
192,192,74515,1,0,0:0:0:0:
64,192,74677,1,0,0:0:0:0:
320,192,74677,1,0,0:0:0:0:
192,192,74839,1,0,0:0:0:0:
320,192,75001,1,0,0:0:0:0:
64,192,75163,1,0,0:0:0:0:
192,192,75325,1,0,0:0:0:0:
320,192,75325,1,0,0:0:0:0:
64,192,75488,1,0,0:0:0:0:
320,192,75650,1,0,0:0:0:0:
192,192,75812,1,0,0:0:0:0:
64,192,75974,1,0,0:0:0:0:
320,192,75974,1,0,0:0:0:0:
192,192,76136,1,0,0:0:0:0:
320,192,76298,1,0,0:0:0:0:
64,192,76461,1,0,0:0:0:0:
192,192,76623,1,0,0:0:0:0:
320,192,76623,1,0,0:0:0:0:
64,192,76785,1,0,0:0:0:0:
320,192,76947,1,0,0:0:0:0:
192,192,77109,1,0,0:0:0:0:
64,192,77271,1,0,0:0:0:0:
320,192,77271,1,0,0:0:0:0:
192,192,77434,1,0,0:0:0:0:
320,192,77596,1,0,0:0:0:0:
64,192,77758,1,0,0:0:0:0:
192,192,77920,1,0,0:0:0:0:
320,192,77920,1,0,0:0:0:0:
64,192,78082,1,0,0:0:0:0:
320,192,78244,1,0,0:0:0:0:
192,192,78407,1,0,0:0:0:0:
64,192,78569,1,0,0:0:0:0:
320,192,78569,1,0,0:0:0:0:
192,192,78731,1,0,0:0:0:0:
320,192,78893,1,0,0:0:0:0:
64,192,79055,1,0,0:0:0:0:
192,192,79217,1,0,0:0:0:0:
320,192,79217,1,0,0:0:0:0:
64,192,79379,1,0,0:0:0:0:
448,192,79542,1,0,0:0:0:0:
192,192,79704,1,0,0:0:0:0:
64,192,79866,1,0,0:0:0:0:
448,192,79866,1,0,0:0:0:0:
192,192,80028,1,0,0:0:0:0:
320,192,80190,1,0,0:0:0:0:
64,192,80352,1,0,0:0:0:0:
192,192,80515,1,0,0:0:0:0:
320,192,80515,1,0,0:0:0:0:
64,192,80677,1,0,0:0:0:0:
448,192,80839,1,0,0:0:0:0:
192,192,81001,1,0,0:0:0:0:
64,192,81163,1,0,0:0:0:0:
448,192,81163,1,0,0:0:0:0:
192,192,81325,1,0,0:0:0:0:
320,192,81488,1,0,0:0:0:0:
64,192,81650,1,0,0:0:0:0:
192,192,81812,1,0,0:0:0:0:
320,192,81812,1,0,0:0:0:0:
64,192,81974,1,0,0:0:0:0:
448,192,82136,1,0,0:0:0:0:
192,192,82298,1,0,0:0:0:0:
64,192,82461,1,0,0:0:0:0:
448,192,82461,1,0,0:0:0:0:
192,192,82623,1,0,0:0:0:0:
320,192,82785,1,0,0:0:0:0:
64,192,82947,1,0,0:0:0:0:
64,192,83109,1,0,0:0:0:0:
320,192,83109,1,0,0:0:0:0:
192,192,83190,1,0,0:0:0:0:
64,192,83271,1,0,0:0:0:0:
448,192,83271,1,0,0:0:0:0:
448,192,83352,1,0,0:0:0:0:
64,192,83434,1,0,0:0:0:0:
320,192,83434,1,0,0:0:0:0:
192,192,83515,1,0,0:0:0:0:
64,192,83596,1,0,0:0:0:0:
448,192,83596,1,0,0:0:0:0:
448,192,83677,1,0,0:0:0:0:
64,192,83758,1,0,0:0:0:0:
320,192,83758,1,0,0:0:0:0:
192,192,83839,1,0,0:0:0:0:
64,192,83920,1,0,0:0:0:0:
448,192,83920,1,0,0:0:0:0:
448,192,84001,1,0,0:0:0:0:
64,192,84082,1,0,0:0:0:0:
320,192,84082,1,0,0:0:0:0:
192,192,84163,1,0,0:0:0:0:
64,192,84244,1,0,0:0:0:0:
448,192,84244,1,0,0:0:0:0:
448,192,84325,1,0,0:0:0:0:
64,192,84407,1,0,0:0:0:0:
320,192,84407,1,0,0:0:0:0:
448,192,84407,1,0,0:0:0:0:
192,192,84488,1,0,0:0:0:0:
320,192,84569,1,0,0:0:0:0:
192,192,84650,1,0,0:0:0:0:
320,192,84731,1,0,0:0:0:0:
64,0,84731,128,0,84974:1:0:0:0:
448,0,84731,128,0,84974:1:0:0:0:
64,192,85055,1,0,0:0:0:0:
192,192,85055,1,0,0:0:0:0:
448,192,85055,1,0,0:0:0:0:
320,192,85136,1,0,0:0:0:0:
192,192,85217,1,0,0:0:0:0:
320,192,85298,1,0,0:0:0:0:
192,192,85379,1,0,0:0:0:0:
64,0,85379,128,0,85623:1:0:0:0:
448,0,85379,128,0,85623:1:0:0:0:
64,192,85704,1,0,0:0:0:0:
192,192,85704,1,0,0:0:0:0:
320,192,85704,1,0,0:0:0:0:
448,192,85704,1,0,0:0:0:0:
64,192,86028,1,0,0:0:0:0:
192,192,86028,1,0,0:0:0:0:
320,192,86028,1,0,0:0:0:0:
448,192,86028,1,0,0:0:0:0:
64,192,86352,1,0,0:0:0:0:
320,192,86352,1,0,0:0:0:0:
448,192,86352,1,0,0:0:0:0:
192,192,86434,1,0,0:0:0:0:
320,192,86515,1,0,0:0:0:0:
192,192,86596,1,0,0:0:0:0:
64,192,86677,1,0,0:0:0:0:
320,192,86677,1,0,0:0:0:0:
448,192,86677,1,0,0:0:0:0:
192,192,86758,1,0,0:0:0:0:
320,192,86839,1,0,0:0:0:0:
64,192,86920,1,0,0:0:0:0:
192,192,87001,1,0,0:0:0:0:
320,192,87001,1,0,0:0:0:0:
448,192,87001,1,0,0:0:0:0:
64,192,87082,1,0,0:0:0:0:
320,192,87163,1,0,0:0:0:0:
448,192,87163,1,0,0:0:0:0:
192,192,87244,1,0,0:0:0:0:
64,192,87325,1,0,0:0:0:0:
320,192,87325,1,0,0:0:0:0:
448,192,87325,1,0,0:0:0:0:
192,192,87407,1,0,0:0:0:0:
448,192,87488,1,0,0:0:0:0:
64,192,87569,1,0,0:0:0:0:
192,192,87650,1,0,0:0:0:0:
320,192,87650,1,0,0:0:0:0:
448,192,87650,1,0,0:0:0:0:
64,192,87731,1,0,0:0:0:0:
192,192,87812,1,0,0:0:0:0:
448,192,87812,1,0,0:0:0:0:
64,192,87893,1,0,0:0:0:0:
192,192,87974,1,0,0:0:0:0:
320,192,87974,1,0,0:0:0:0:
448,192,87974,1,0,0:0:0:0:
64,192,88055,1,0,0:0:0:0:
320,192,88136,1,0,0:0:0:0:
192,192,88217,1,0,0:0:0:0:
64,192,88298,1,0,0:0:0:0:
320,192,88298,1,0,0:0:0:0:
448,192,88298,1,0,0:0:0:0:
192,192,88379,1,0,0:0:0:0:
64,192,88461,1,0,0:0:0:0:
320,192,88461,1,0,0:0:0:0:
192,192,88542,1,0,0:0:0:0:
448,192,88542,1,0,0:0:0:0:
64,192,88623,1,0,0:0:0:0:
320,192,88623,1,0,0:0:0:0:
192,192,88704,1,0,0:0:0:0:
320,192,88785,1,0,0:0:0:0:
448,192,88785,1,0,0:0:0:0:
64,192,88866,1,0,0:0:0:0:
192,192,88866,1,0,0:0:0:0:
320,192,88947,1,0,0:0:0:0:
448,192,88947,1,0,0:0:0:0:
64,192,89055,1,0,0:0:0:0:
192,192,89055,1,0,0:0:0:0:
320,192,89163,1,0,0:0:0:0:
448,192,89163,1,0,0:0:0:0:
64,192,89271,1,0,0:0:0:0:
320,192,89271,1,0,0:0:0:0:
192,192,89379,1,0,0:0:0:0:
448,192,89379,1,0,0:0:0:0:
64,192,89488,1,0,0:0:0:0:
320,192,89488,1,0,0:0:0:0:
192,192,89596,1,0,0:0:0:0:
320,192,89596,1,0,0:0:0:0:
448,192,89596,1,0,0:0:0:0:
64,192,89677,1,0,0:0:0:0:
320,192,89758,1,0,0:0:0:0:
448,192,89758,1,0,0:0:0:0:
192,192,89839,1,0,0:0:0:0:
64,192,89920,1,0,0:0:0:0:
320,192,89920,1,0,0:0:0:0:
448,192,89920,1,0,0:0:0:0:
192,192,90001,1,0,0:0:0:0:
320,192,90082,1,0,0:0:0:0:
448,192,90082,1,0,0:0:0:0:
64,192,90163,1,0,0:0:0:0:
192,192,90244,1,0,0:0:0:0:
320,192,90244,1,0,0:0:0:0:
448,192,90244,1,0,0:0:0:0:
64,192,90325,1,0,0:0:0:0:
192,192,90407,1,0,0:0:0:0:
448,192,90407,1,0,0:0:0:0:
320,192,90488,1,0,0:0:0:0:
64,192,90569,1,0,0:0:0:0:
192,192,90569,1,0,0:0:0:0:
448,192,90569,1,0,0:0:0:0:
320,192,90650,1,0,0:0:0:0:
64,192,90731,1,0,0:0:0:0:
192,192,90731,1,0,0:0:0:0:
448,192,90812,1,0,0:0:0:0:
64,192,90893,1,0,0:0:0:0:
192,192,90893,1,0,0:0:0:0:
320,192,90893,1,0,0:0:0:0:
448,192,90974,1,0,0:0:0:0:
64,192,91055,1,0,0:0:0:0:
192,192,91055,1,0,0:0:0:0:
320,192,91136,1,0,0:0:0:0:
64,192,91217,1,0,0:0:0:0:
192,192,91217,1,0,0:0:0:0:
448,192,91217,1,0,0:0:0:0:
320,192,91298,1,0,0:0:0:0:
64,192,91379,1,0,0:0:0:0:
192,192,91379,1,0,0:0:0:0:
448,192,91461,1,0,0:0:0:0:
64,192,91542,1,0,0:0:0:0:
192,192,91542,1,0,0:0:0:0:
320,192,91542,1,0,0:0:0:0:
448,192,91623,1,0,0:0:0:0:
64,192,91704,1,0,0:0:0:0:
192,192,91704,1,0,0:0:0:0:
320,192,91785,1,0,0:0:0:0:
64,192,91866,1,0,0:0:0:0:
192,192,91866,1,0,0:0:0:0:
448,192,91866,1,0,0:0:0:0:
320,192,91947,1,0,0:0:0:0:
64,192,92028,1,0,0:0:0:0:
448,192,92028,1,0,0:0:0:0:
192,192,92109,1,0,0:0:0:0:
64,192,92190,1,0,0:0:0:0:
320,192,92190,1,0,0:0:0:0:
448,192,92190,1,0,0:0:0:0:
192,192,92271,1,0,0:0:0:0:
320,192,92352,1,0,0:0:0:0:
448,192,92352,1,0,0:0:0:0:
64,192,92434,1,0,0:0:0:0:
192,192,92515,1,0,0:0:0:0:
320,192,92515,1,0,0:0:0:0:
448,192,92515,1,0,0:0:0:0:
64,192,92596,1,0,0:0:0:0:
320,192,92677,1,0,0:0:0:0:
448,192,92677,1,0,0:0:0:0:
192,192,92758,1,0,0:0:0:0:
64,192,92839,1,0,0:0:0:0:
320,192,92839,1,0,0:0:0:0:
448,192,92839,1,0,0:0:0:0:
192,192,92920,1,0,0:0:0:0:
320,192,93001,1,0,0:0:0:0:
448,192,93001,1,0,0:0:0:0:
64,192,93082,1,0,0:0:0:0:
192,192,93163,1,0,0:0:0:0:
320,192,93163,1,0,0:0:0:0:
448,192,93163,1,0,0:0:0:0:
64,192,93244,1,0,0:0:0:0:
192,192,93325,1,0,0:0:0:0:
448,192,93325,1,0,0:0:0:0:
320,192,93407,1,0,0:0:0:0:
64,192,93488,1,0,0:0:0:0:
192,192,93488,1,0,0:0:0:0:
448,0,93488,128,0,94136:1:0:0:0:
64,192,93650,1,0,0:0:0:0:
192,192,93650,1,0,0:0:0:0:
64,192,93812,1,0,0:0:0:0:
192,192,93812,1,0,0:0:0:0:
64,192,93974,1,0,0:0:0:0:
192,192,93974,1,0,0:0:0:0:
64,192,94136,1,0,0:0:0:0:
192,192,94136,1,0,0:0:0:0:
320,192,94217,1,0,0:0:0:0:
448,192,94217,1,0,0:0:0:0:
64,192,94298,1,0,0:0:0:0:
192,192,94298,1,0,0:0:0:0:
320,192,94379,1,0,0:0:0:0:
448,192,94379,1,0,0:0:0:0:
64,192,94461,1,0,0:0:0:0:
192,192,94461,1,0,0:0:0:0:
320,192,94542,1,0,0:0:0:0:
448,192,94542,1,0,0:0:0:0:
64,192,94623,1,0,0:0:0:0:
320,192,94623,1,0,0:0:0:0:
192,192,94704,1,0,0:0:0:0:
448,192,94704,1,0,0:0:0:0:
320,0,94785,128,0,95109:1:0:0:0:
448,0,94785,128,0,95109:1:0:0:0:
64,192,95109,1,0,0:0:0:0:
192,192,95109,1,0,0:0:0:0:
320,192,95190,1,0,0:0:0:0:
448,192,95190,1,0,0:0:0:0:
64,192,95271,1,0,0:0:0:0:
192,192,95352,1,0,0:0:0:0:
448,192,95352,1,0,0:0:0:0:
64,0,95434,128,0,95515:1:0:0:0:
320,0,95434,128,0,95515:1:0:0:0:
320,192,95596,1,0,0:0:0:0:
448,192,95596,1,0,0:0:0:0:
64,192,95677,1,0,0:0:0:0:
192,192,95677,1,0,0:0:0:0:
192,192,95839,1,0,0:0:0:0:
448,192,95839,1,0,0:0:0:0:
64,192,95920,1,0,0:0:0:0:
320,192,95920,1,0,0:0:0:0:
64,192,96082,1,0,0:0:0:0:
192,192,96082,1,0,0:0:0:0:
448,192,96082,1,0,0:0:0:0:
64,192,96244,1,0,0:0:0:0:
320,192,96244,1,0,0:0:0:0:
448,192,96325,1,0,0:0:0:0:
64,192,96407,1,0,0:0:0:0:
192,192,96407,1,0,0:0:0:0:
320,0,96488,128,0,96569:1:0:0:0:
448,0,96488,128,0,96569:1:0:0:0:
64,192,96650,1,0,0:0:0:0:
320,192,96650,1,0,0:0:0:0:
192,192,96731,1,0,0:0:0:0:
448,192,96731,1,0,0:0:0:0:
64,192,96893,1,0,0:0:0:0:
192,192,96893,1,0,0:0:0:0:
320,192,96974,1,0,0:0:0:0:
448,192,96974,1,0,0:0:0:0:
192,192,97136,1,0,0:0:0:0:
320,192,97136,1,0,0:0:0:0:
64,192,97217,1,0,0:0:0:0:
448,192,97217,1,0,0:0:0:0:
192,192,97379,1,0,0:0:0:0:
320,192,97379,1,0,0:0:0:0:
448,192,97379,1,0,0:0:0:0:
64,192,97461,1,0,0:0:0:0:
320,192,97542,1,0,0:0:0:0:
448,192,97542,1,0,0:0:0:0:
192,192,97623,1,0,0:0:0:0:
64,192,97704,1,0,0:0:0:0:
320,192,97704,1,0,0:0:0:0:
448,192,97704,1,0,0:0:0:0:
192,192,97785,1,0,0:0:0:0:
64,192,97866,1,0,0:0:0:0:
448,192,97866,1,0,0:0:0:0:
320,192,97947,1,0,0:0:0:0:
64,192,98028,1,0,0:0:0:0:
192,192,98028,1,0,0:0:0:0:
448,192,98028,1,0,0:0:0:0:
320,192,98109,1,0,0:0:0:0:
64,192,98190,1,0,0:0:0:0:
192,192,98190,1,0,0:0:0:0:
448,192,98271,1,0,0:0:0:0:
64,192,98352,1,0,0:0:0:0:
192,192,98352,1,0,0:0:0:0:
320,192,98352,1,0,0:0:0:0:
448,192,98434,1,0,0:0:0:0:
64,192,98515,1,0,0:0:0:0:
192,192,98515,1,0,0:0:0:0:
320,192,98596,1,0,0:0:0:0:
64,192,98677,1,0,0:0:0:0:
192,192,98677,1,0,0:0:0:0:
448,192,98677,1,0,0:0:0:0:
64,192,98785,1,0,0:0:0:0:
192,192,98785,1,0,0:0:0:0:
320,192,98785,1,0,0:0:0:0:
64,192,98893,1,0,0:0:0:0:
192,192,98893,1,0,0:0:0:0:
448,192,98893,1,0,0:0:0:0:
192,192,99001,1,0,0:0:0:0:
320,192,99001,1,0,0:0:0:0:
448,192,99001,1,0,0:0:0:0:
64,192,99109,1,0,0:0:0:0:
192,192,99109,1,0,0:0:0:0:
448,192,99109,1,0,0:0:0:0:
192,192,99217,1,0,0:0:0:0:
320,192,99217,1,0,0:0:0:0:
448,192,99217,1,0,0:0:0:0:
64,192,99325,1,0,0:0:0:0:
320,192,99325,1,0,0:0:0:0:
448,192,99325,1,0,0:0:0:0:
64,192,99434,1,0,0:0:0:0:
192,192,99434,1,0,0:0:0:0:
320,192,99434,1,0,0:0:0:0:
64,192,99542,1,0,0:0:0:0:
320,192,99542,1,0,0:0:0:0:
448,192,99542,1,0,0:0:0:0:
64,192,99650,1,0,0:0:0:0:
192,192,99650,1,0,0:0:0:0:
320,192,99650,1,0,0:0:0:0:
192,192,99758,1,0,0:0:0:0:
320,192,99758,1,0,0:0:0:0:
448,192,99758,1,0,0:0:0:0:
64,192,99866,1,0,0:0:0:0:
192,192,99866,1,0,0:0:0:0:
320,192,99866,1,0,0:0:0:0:
320,192,99974,1,0,0:0:0:0:
64,0,99974,128,0,100136:1:0:0:0:
448,0,99974,128,0,100136:1:0:0:0:
320,192,100298,1,0,0:0:0:0:
448,192,100298,1,0,0:0:0:0:
64,192,100379,1,0,0:0:0:0:
192,192,100379,1,0,0:0:0:0:
448,192,100461,1,0,0:0:0:0:
64,192,100542,1,0,0:0:0:0:
320,192,100542,1,0,0:0:0:0:
192,0,100623,128,0,100704:1:0:0:0:
448,0,100623,128,0,100704:1:0:0:0:
64,192,100785,1,0,0:0:0:0:
320,192,100785,1,0,0:0:0:0:
192,192,100866,1,0,0:0:0:0:
320,192,100947,1,0,0:0:0:0:
448,192,100947,1,0,0:0:0:0:
64,192,101028,1,0,0:0:0:0:
192,192,101028,1,0,0:0:0:0:
320,192,101109,1,0,0:0:0:0:
448,192,101109,1,0,0:0:0:0:
64,192,101190,1,0,0:0:0:0:
192,192,101271,1,0,0:0:0:0:
448,192,101271,1,0,0:0:0:0:
64,192,101352,1,0,0:0:0:0:
320,192,101352,1,0,0:0:0:0:
192,192,101434,1,0,0:0:0:0:
320,192,101515,1,0,0:0:0:0:
448,192,101515,1,0,0:0:0:0:
64,192,101596,1,0,0:0:0:0:
192,192,101596,1,0,0:0:0:0:
320,192,101677,1,0,0:0:0:0:
64,192,101758,1,0,0:0:0:0:
448,192,101758,1,0,0:0:0:0:
192,192,101839,1,0,0:0:0:0:
320,192,101839,1,0,0:0:0:0:
64,192,101920,1,0,0:0:0:0:
448,192,101920,1,0,0:0:0:0:
320,192,102001,1,0,0:0:0:0:
64,192,102082,1,0,0:0:0:0:
192,192,102082,1,0,0:0:0:0:
448,192,102163,1,0,0:0:0:0:
64,192,102244,1,0,0:0:0:0:
320,192,102244,1,0,0:0:0:0:
448,192,102325,1,0,0:0:0:0:
64,192,102407,1,0,0:0:0:0:
192,192,102407,1,0,0:0:0:0:
320,192,102488,1,0,0:0:0:0:
192,192,102569,1,0,0:0:0:0:
64,0,102569,128,0,102650:1:0:0:0:
448,0,102569,128,0,102650:1:0:0:0:
448,192,102731,1,0,0:0:0:0:
64,192,102812,1,0,0:0:0:0:
192,192,102812,1,0,0:0:0:0:
320,192,102893,1,0,0:0:0:0:
448,192,102893,1,0,0:0:0:0:
64,192,102974,1,0,0:0:0:0:
192,192,102974,1,0,0:0:0:0:
320,192,103055,1,0,0:0:0:0:
448,192,103055,1,0,0:0:0:0:
64,192,103136,1,0,0:0:0:0:
192,192,103217,1,0,0:0:0:0:
448,192,103217,1,0,0:0:0:0:
64,192,103298,1,0,0:0:0:0:
320,192,103379,1,0,0:0:0:0:
192,192,103461,1,0,0:0:0:0:
64,192,103542,1,0,0:0:0:0:
448,192,103542,1,0,0:0:0:0:
192,192,103623,1,0,0:0:0:0:
320,192,103623,1,0,0:0:0:0:
64,192,103704,1,0,0:0:0:0:
448,192,103704,1,0,0:0:0:0:
192,192,103785,1,0,0:0:0:0:
320,192,103785,1,0,0:0:0:0:
64,192,103866,1,0,0:0:0:0:
448,192,103866,1,0,0:0:0:0:
192,192,103947,1,0,0:0:0:0:
320,192,103947,1,0,0:0:0:0:
64,192,104028,1,0,0:0:0:0:
448,192,104028,1,0,0:0:0:0:
192,192,104109,1,0,0:0:0:0:
320,192,104190,1,0,0:0:0:0:
448,192,104190,1,0,0:0:0:0:
64,192,104271,1,0,0:0:0:0:
192,192,104271,1,0,0:0:0:0:
448,192,104352,1,0,0:0:0:0:
64,192,104434,1,0,0:0:0:0:
192,192,104434,1,0,0:0:0:0:
320,0,104515,128,0,104677:1:0:0:0:
448,0,104515,128,0,104677:1:0:0:0:
192,192,104758,1,0,0:0:0:0:
320,192,104758,1,0,0:0:0:0:
64,192,104839,1,0,0:0:0:0:
448,192,104839,1,0,0:0:0:0:
192,192,104920,1,0,0:0:0:0:
320,192,105001,1,0,0:0:0:0:
448,192,105001,1,0,0:0:0:0:
64,192,105082,1,0,0:0:0:0:
192,192,105082,1,0,0:0:0:0:
64,192,105163,1,0,0:0:0:0:
320,0,105163,128,0,105244:1:0:0:0:
448,0,105163,128,0,105244:1:0:0:0:
192,192,105325,1,0,0:0:0:0:
448,192,105325,1,0,0:0:0:0:
64,192,105407,1,0,0:0:0:0:
192,192,105488,1,0,0:0:0:0:
320,192,105488,1,0,0:0:0:0:
448,192,105488,1,0,0:0:0:0:
64,192,105569,1,0,0:0:0:0:
192,192,105650,1,0,0:0:0:0:
448,192,105650,1,0,0:0:0:0:
320,192,105731,1,0,0:0:0:0:
64,192,105812,1,0,0:0:0:0:
192,192,105812,1,0,0:0:0:0:
448,192,105812,1,0,0:0:0:0:
320,192,105893,1,0,0:0:0:0:
64,192,105974,1,0,0:0:0:0:
192,192,105974,1,0,0:0:0:0:
448,192,105974,1,0,0:0:0:0:
320,192,106055,1,0,0:0:0:0:
64,192,106136,1,0,0:0:0:0:
192,192,106136,1,0,0:0:0:0:
448,192,106136,1,0,0:0:0:0:
320,192,106217,1,0,0:0:0:0:
64,192,106298,1,0,0:0:0:0:
192,192,106298,1,0,0:0:0:0:
320,192,106379,1,0,0:0:0:0:
448,192,106461,1,0,0:0:0:0:
64,0,106461,128,0,106542:1:0:0:0:
192,0,106461,128,0,106542:1:0:0:0:
320,192,106623,1,0,0:0:0:0:
448,192,106623,1,0,0:0:0:0:
64,192,106704,1,0,0:0:0:0:
192,192,106785,1,0,0:0:0:0:
320,192,106785,1,0,0:0:0:0:
448,192,106785,1,0,0:0:0:0:
64,192,106866,1,0,0:0:0:0:
192,192,106947,1,0,0:0:0:0:
320,192,106947,1,0,0:0:0:0:
448,192,107028,1,0,0:0:0:0:
64,192,107109,1,0,0:0:0:0:
192,192,107109,1,0,0:0:0:0:
320,192,107109,1,0,0:0:0:0:
448,192,107190,1,0,0:0:0:0:
64,192,107271,1,0,0:0:0:0:
192,192,107271,1,0,0:0:0:0:
320,192,107271,1,0,0:0:0:0:
448,192,107352,1,0,0:0:0:0:
64,192,107434,1,0,0:0:0:0:
192,192,107434,1,0,0:0:0:0:
320,192,107434,1,0,0:0:0:0:
448,192,107515,1,0,0:0:0:0:
64,192,107596,1,0,0:0:0:0:
320,192,107596,1,0,0:0:0:0:
192,192,107677,1,0,0:0:0:0:
64,192,107758,1,0,0:0:0:0:
320,192,107758,1,0,0:0:0:0:
448,192,107758,1,0,0:0:0:0:
192,192,107839,1,0,0:0:0:0:
320,192,107920,1,0,0:0:0:0:
448,192,107920,1,0,0:0:0:0:
64,192,108001,1,0,0:0:0:0:
192,192,108082,1,0,0:0:0:0:
320,192,108082,1,0,0:0:0:0:
448,192,108082,1,0,0:0:0:0:
64,192,108163,1,0,0:0:0:0:
320,192,108244,1,0,0:0:0:0:
448,192,108244,1,0,0:0:0:0:
192,192,108325,1,0,0:0:0:0:
64,192,108407,1,0,0:0:0:0:
320,192,108407,1,0,0:0:0:0:
448,192,108407,1,0,0:0:0:0:
192,192,108461,1,0,0:0:0:0:
320,192,108515,1,0,0:0:0:0:
448,192,108569,1,0,0:0:0:0:
64,192,108623,1,0,0:0:0:0:
192,192,108677,1,0,0:0:0:0:
320,192,108731,1,0,0:0:0:0:
448,192,108785,1,0,0:0:0:0:
64,192,108839,1,0,0:0:0:0:
192,192,108893,1,0,0:0:0:0:
320,192,108947,1,0,0:0:0:0:
448,192,109001,1,0,0:0:0:0:
64,192,109055,1,0,0:0:0:0:
192,192,109055,1,0,0:0:0:0:
320,192,109055,1,0,0:0:0:0:
64,192,109217,1,0,0:0:0:0:
192,192,109217,1,0,0:0:0:0:
448,192,109217,1,0,0:0:0:0:
320,192,109298,1,0,0:0:0:0:
64,192,109379,1,0,0:0:0:0:
192,192,109379,1,0,0:0:0:0:
448,192,109379,1,0,0:0:0:0:
64,192,109542,1,0,0:0:0:0:
192,192,109542,1,0,0:0:0:0:
320,192,109542,1,0,0:0:0:0:
448,192,109623,1,0,0:0:0:0:
64,192,109704,1,0,0:0:0:0:
192,192,109704,1,0,0:0:0:0:
320,192,109866,1,0,0:0:0:0:
448,192,109866,1,0,0:0:0:0:
64,192,109947,1,0,0:0:0:0:
192,192,109947,1,0,0:0:0:0:
320,192,110028,1,0,0:0:0:0:
448,192,110028,1,0,0:0:0:0:
64,192,110190,1,0,0:0:0:0:
192,192,110190,1,0,0:0:0:0:
320,192,110271,1,0,0:0:0:0:
64,192,110352,1,0,0:0:0:0:
192,192,110352,1,0,0:0:0:0:
448,192,110352,1,0,0:0:0:0:
320,192,110434,1,0,0:0:0:0:
64,192,110515,1,0,0:0:0:0:
192,192,110515,1,0,0:0:0:0:
448,192,110515,1,0,0:0:0:0:
320,192,110596,1,0,0:0:0:0:
64,192,110677,1,0,0:0:0:0:
192,192,110677,1,0,0:0:0:0:
448,192,110677,1,0,0:0:0:0:
320,192,110758,1,0,0:0:0:0:
64,192,110839,1,0,0:0:0:0:
448,192,110839,1,0,0:0:0:0:
192,192,110920,1,0,0:0:0:0:
64,192,111001,1,0,0:0:0:0:
320,192,111001,1,0,0:0:0:0:
448,192,111001,1,0,0:0:0:0:
192,192,111082,1,0,0:0:0:0:
64,192,111163,1,0,0:0:0:0:
320,192,111163,1,0,0:0:0:0:
448,0,111163,128,0,111244:1:0:0:0:
192,192,111244,1,0,0:0:0:0:
64,192,111325,1,0,0:0:0:0:
320,192,111325,1,0,0:0:0:0:
448,192,111407,1,0,0:0:0:0:
192,192,111488,1,0,0:0:0:0:
320,192,111488,1,0,0:0:0:0:
64,0,111488,128,0,111569:1:0:0:0:
448,192,111569,1,0,0:0:0:0:
64,192,111650,1,0,0:0:0:0:
192,192,111650,1,0,0:0:0:0:
320,192,111650,1,0,0:0:0:0:
448,192,111731,1,0,0:0:0:0:
64,192,111812,1,0,0:0:0:0:
192,192,111812,1,0,0:0:0:0:
320,192,111812,1,0,0:0:0:0:
448,192,111893,1,0,0:0:0:0:
64,192,111974,1,0,0:0:0:0:
192,192,111974,1,0,0:0:0:0:
320,192,111974,1,0,0:0:0:0:
448,192,112055,1,0,0:0:0:0:
192,192,112136,1,0,0:0:0:0:
320,192,112136,1,0,0:0:0:0:
64,192,112217,1,0,0:0:0:0:
192,192,112298,1,0,0:0:0:0:
320,192,112298,1,0,0:0:0:0:
448,192,112298,1,0,0:0:0:0:
64,192,112379,1,0,0:0:0:0:
192,192,112461,1,0,0:0:0:0:
320,192,112461,1,0,0:0:0:0:
448,0,112461,128,0,112542:1:0:0:0:
64,192,112542,1,0,0:0:0:0:
192,192,112623,1,0,0:0:0:0:
320,192,112623,1,0,0:0:0:0:
448,192,112623,1,0,0:0:0:0:
64,192,112704,1,0,0:0:0:0:
320,192,112785,1,0,0:0:0:0:
448,192,112785,1,0,0:0:0:0:
192,0,112785,128,0,112866:1:0:0:0:
64,192,112866,1,0,0:0:0:0:
192,192,112947,1,0,0:0:0:0:
320,192,112947,1,0,0:0:0:0:
448,192,112947,1,0,0:0:0:0:
64,192,113028,1,0,0:0:0:0:
320,192,113109,1,0,0:0:0:0:
448,192,113109,1,0,0:0:0:0:
192,192,113190,1,0,0:0:0:0:
64,192,113271,1,0,0:0:0:0:
320,192,113271,1,0,0:0:0:0:
448,192,113271,1,0,0:0:0:0:
192,192,113352,1,0,0:0:0:0:
448,192,113434,1,0,0:0:0:0:
64,0,113434,128,0,113515:1:0:0:0:
320,192,113515,1,0,0:0:0:0:
64,192,113596,1,0,0:0:0:0:
192,192,113596,1,0,0:0:0:0:
448,192,113596,1,0,0:0:0:0:
320,192,113677,1,0,0:0:0:0:
64,192,113758,1,0,0:0:0:0:
448,192,113758,1,0,0:0:0:0:
192,192,113839,1,0,0:0:0:0:
64,192,113920,1,0,0:0:0:0:
320,192,113920,1,0,0:0:0:0:
448,192,113920,1,0,0:0:0:0:
192,192,114001,1,0,0:0:0:0:
320,192,114082,1,0,0:0:0:0:
448,0,114082,128,0,114163:1:0:0:0:
64,192,114163,1,0,0:0:0:0:
192,192,114244,1,0,0:0:0:0:
320,192,114244,1,0,0:0:0:0:
448,192,114244,1,0,0:0:0:0:
64,192,114325,1,0,0:0:0:0:
192,192,114407,1,0,0:0:0:0:
320,192,114407,1,0,0:0:0:0:
448,192,114407,1,0,0:0:0:0:
64,192,114488,1,0,0:0:0:0:
192,192,114569,1,0,0:0:0:0:
320,192,114569,1,0,0:0:0:0:
448,192,114569,1,0,0:0:0:0:
64,192,114650,1,0,0:0:0:0:
192,192,114731,1,0,0:0:0:0:
320,192,114731,1,0,0:0:0:0:
448,192,114731,1,0,0:0:0:0:
64,192,114812,1,0,0:0:0:0:
192,192,114893,1,0,0:0:0:0:
320,192,114893,1,0,0:0:0:0:
192,192,115001,1,0,0:0:0:0:
320,192,115001,1,0,0:0:0:0:
192,192,115109,1,0,0:0:0:0:
320,192,115109,1,0,0:0:0:0:
64,192,115217,1,0,0:0:0:0:
448,192,115217,1,0,0:0:0:0:
64,192,115325,1,0,0:0:0:0:
448,192,115325,1,0,0:0:0:0:
64,192,115434,1,0,0:0:0:0:
448,192,115434,1,0,0:0:0:0:
64,0,115866,128,0,120731:1:0:0:0:
192,0,115866,128,0,120731:1:0:0:0:
448,0,115866,128,0,120731:1:0:0:0:
