osu file format v14

[General]
AudioFilename: Tactical railroad.mp3
AudioLeadIn: 2
PreviewTime: 69287
Countdown: 0
SampleSet: Soft
StackLeniency: 0.7
Mode: 3
LetterboxInBreaks: 0
SpecialStyle: 0
WidescreenStoryboard: 0

[Editor]
DistanceSpacing: 0.8
BeatDivisor: 4
GridSize: 8
TimelineZoom: 2.999999

[Metadata]
Title:dakemoto's Collection Pack Vol.1
TitleUnicode:dakemoto's Collection Pack Vol.1
Artist:Various Artist
ArtistUnicode:Various Artist
Creator:dakemoto
Version:Tactical railroad (Challenge)
Source:Stepmania
Tags:
BeatmapID:741053
BeatmapSetID:329410

[Difficulty]
HPDrainRate:7
CircleSize:4
OverallDifficulty:8
ApproachRate:10
SliderMultiplier:1.4
SliderTickRate:1

[Events]
//Background and Video events
0,0,"Tactical railroad bg.jpg",0,0
//Break Periods
//Storyboard Layer 0 (Background)
//Storyboard Layer 1 (Fail)
//Storyboard Layer 2 (Pass)
//Storyboard Layer 3 (Foreground)
//Storyboard Sound Samples

[TimingPoints]
124,293.3985,4,2,0,15,1,0

[HitObjects]
64,192,124,5,0,0:0:0:0:
320,192,124,1,0,0:0:0:0:
448,192,124,1,0,0:0:0:0:
192,192,197,1,0,0:0:0:0:
320,192,270,1,0,0:0:0:0:
64,192,344,1,0,0:0:0:0:
192,192,417,1,0,0:0:0:0:
320,192,417,1,0,0:0:0:0:
448,192,417,1,0,0:0:0:0:
64,192,490,1,0,0:0:0:0:
320,192,564,1,0,0:0:0:0:
192,192,637,1,0,0:0:0:0:
64,192,710,1,0,0:0:0:0:
448,192,710,1,0,0:0:0:0:
192,192,784,1,0,0:0:0:0:
448,192,857,1,0,0:0:0:0:
320,192,930,1,0,0:0:0:0:
64,192,1004,1,0,0:0:0:0:
192,192,1004,1,0,0:0:0:0:
448,192,1004,1,0,0:0:0:0:
320,192,1077,1,0,0:0:0:0:
448,192,1150,1,0,0:0:0:0:
192,192,1224,1,0,0:0:0:0:
64,192,1297,1,0,0:0:0:0:
320,192,1297,1,0,0:0:0:0:
192,192,1370,1,0,0:0:0:0:
448,192,1444,1,0,0:0:0:0:
64,192,1517,1,0,0:0:0:0:
192,192,1590,1,0,0:0:0:0:
320,192,1590,1,0,0:0:0:0:
448,192,1590,1,0,0:0:0:0:
64,192,1664,1,0,0:0:0:0:
320,192,1737,1,0,0:0:0:0:
192,192,1811,1,0,0:0:0:0:
64,192,1884,1,0,0:0:0:0:
448,192,1884,1,0,0:0:0:0:
192,192,1957,1,0,0:0:0:0:
448,192,2031,1,0,0:0:0:0:
320,192,2104,1,0,0:0:0:0:
64,192,2177,1,0,0:0:0:0:
192,192,2177,1,0,0:0:0:0:
448,192,2177,1,0,0:0:0:0:
320,192,2251,1,0,0:0:0:0:
64,192,2324,1,0,0:0:0:0:
192,192,2397,1,0,0:0:0:0:
320,192,2471,1,0,0:0:0:0:
448,192,2471,1,0,0:0:0:0:
64,192,2544,1,0,0:0:0:0:
320,192,2617,1,0,0:0:0:0:
192,192,2691,1,0,0:0:0:0:
64,192,2764,1,0,0:0:0:0:
320,192,2764,1,0,0:0:0:0:
448,192,2764,1,0,0:0:0:0:
192,192,2837,1,0,0:0:0:0:
448,192,2911,1,0,0:0:0:0:
64,192,2984,1,0,0:0:0:0:
192,192,3057,1,0,0:0:0:0:
448,192,3057,1,0,0:0:0:0:
64,192,3131,1,0,0:0:0:0:
320,192,3204,1,0,0:0:0:0:
192,192,3278,1,0,0:0:0:0:
64,192,3351,1,0,0:0:0:0:
320,192,3351,1,0,0:0:0:0:
448,192,3351,1,0,0:0:0:0:
192,192,3424,1,0,0:0:0:0:
320,192,3498,1,0,0:0:0:0:
64,192,3571,1,0,0:0:0:0:
192,192,3644,1,0,0:0:0:0:
448,192,3644,1,0,0:0:0:0:
64,192,3718,1,0,0:0:0:0:
320,192,3791,1,0,0:0:0:0:
192,192,3864,1,0,0:0:0:0:
64,192,3938,1,0,0:0:0:0:
320,192,3938,1,0,0:0:0:0:
448,192,3938,1,0,0:0:0:0:
192,192,4011,1,0,0:0:0:0:
448,192,4084,1,0,0:0:0:0:
320,192,4158,1,0,0:0:0:0:
64,192,4231,1,0,0:0:0:0:
192,192,4231,1,0,0:0:0:0:
448,192,4304,1,0,0:0:0:0:
192,192,4378,1,0,0:0:0:0:
320,192,4451,1,0,0:0:0:0:
64,192,4524,1,0,0:0:0:0:
192,192,4524,1,0,0:0:0:0:
448,192,4524,1,0,0:0:0:0:
320,192,4598,1,0,0:0:0:0:
64,192,4671,1,0,0:0:0:0:
448,192,4671,1,0,0:0:0:0:
192,192,4745,1,0,0:0:0:0:
320,192,4818,1,0,0:0:0:0:
448,192,4818,1,0,0:0:0:0:
64,192,4891,1,0,0:0:0:0:
320,192,4965,1,0,0:0:0:0:
192,192,5038,1,0,0:0:0:0:
64,192,5111,1,0,0:0:0:0:
320,192,5111,1,0,0:0:0:0:
448,192,5111,1,0,0:0:0:0:
192,192,5185,1,0,0:0:0:0:
448,192,5258,1,0,0:0:0:0:
320,192,5331,1,0,0:0:0:0:
64,192,5405,1,0,0:0:0:0:
192,192,5405,1,0,0:0:0:0:
320,192,5478,1,0,0:0:0:0:
448,192,5551,1,0,0:0:0:0:
192,192,5625,1,0,0:0:0:0:
64,192,5698,1,0,0:0:0:0:
320,192,5698,1,0,0:0:0:0:
448,192,5698,1,0,0:0:0:0:
192,192,5771,1,0,0:0:0:0:
64,192,5845,1,0,0:0:0:0:
320,192,5918,1,0,0:0:0:0:
192,192,5991,1,0,0:0:0:0:
448,192,5991,1,0,0:0:0:0:
64,192,6065,1,0,0:0:0:0:
320,192,6138,1,0,0:0:0:0:
192,192,6212,1,0,0:0:0:0:
64,192,6285,1,0,0:0:0:0:
320,192,6285,1,0,0:0:0:0:
448,192,6285,1,0,0:0:0:0:
192,192,6358,1,0,0:0:0:0:
448,192,6432,1,0,0:0:0:0:
320,192,6505,1,0,0:0:0:0:
64,192,6578,1,0,0:0:0:0:
192,192,6578,1,0,0:0:0:0:
320,192,6652,1,0,0:0:0:0:
448,192,6725,1,0,0:0:0:0:
192,192,6798,1,0,0:0:0:0:
64,192,6872,1,0,0:0:0:0:
320,192,6872,1,0,0:0:0:0:
448,192,6872,1,0,0:0:0:0:
192,192,6945,1,0,0:0:0:0:
448,192,7018,1,0,0:0:0:0:
320,192,7092,1,0,0:0:0:0:
64,192,7165,1,0,0:0:0:0:
448,192,7165,1,0,0:0:0:0:
192,192,7238,1,0,0:0:0:0:
320,192,7312,1,0,0:0:0:0:
64,192,7385,1,0,0:0:0:0:
192,192,7458,1,0,0:0:0:0:
320,192,7458,1,0,0:0:0:0:
448,192,7458,1,0,0:0:0:0:
64,192,7532,1,0,0:0:0:0:
448,192,7605,1,0,0:0:0:0:
320,192,7679,1,0,0:0:0:0:
192,192,7752,1,0,0:0:0:0:
448,192,7752,1,0,0:0:0:0:
64,192,7825,1,0,0:0:0:0:
320,192,7899,1,0,0:0:0:0:
192,192,7972,1,0,0:0:0:0:
64,192,8045,1,0,0:0:0:0:
320,192,8045,1,0,0:0:0:0:
448,192,8045,1,0,0:0:0:0:
192,192,8119,1,0,0:0:0:0:
320,192,8192,1,0,0:0:0:0:
64,192,8265,1,0,0:0:0:0:
192,192,8339,1,0,0:0:0:0:
448,192,8339,1,0,0:0:0:0:
64,192,8412,1,0,0:0:0:0:
448,192,8485,1,0,0:0:0:0:
320,192,8559,1,0,0:0:0:0:
64,192,8632,1,0,0:0:0:0:
192,192,8632,1,0,0:0:0:0:
448,192,8632,1,0,0:0:0:0:
320,192,8705,1,0,0:0:0:0:
192,192,8779,1,0,0:0:0:0:
448,192,8852,1,0,0:0:0:0:
64,192,8925,1,0,0:0:0:0:
192,192,8925,1,0,0:0:0:0:
320,192,8999,1,0,0:0:0:0:
448,192,9072,1,0,0:0:0:0:
320,192,9121,1,0,0:0:0:0:
192,192,9170,1,0,0:0:0:0:
64,192,9219,1,0,0:0:0:0:
320,192,9219,1,0,0:0:0:0:
448,192,9219,1,0,0:0:0:0:
192,192,9292,1,0,0:0:0:0:
448,192,9366,1,0,0:0:0:0:
320,192,9414,1,0,0:0:0:0:
192,192,9463,1,0,0:0:0:0:
64,192,9512,1,0,0:0:0:0:
320,192,9512,1,0,0:0:0:0:
448,192,9512,1,0,0:0:0:0:
192,192,9586,1,0,0:0:0:0:
64,192,9659,1,0,0:0:0:0:
448,192,9659,1,0,0:0:0:0:
320,192,9732,1,0,0:0:0:0:
64,192,9806,1,0,0:0:0:0:
192,192,9806,1,0,0:0:0:0:
448,192,9806,1,0,0:0:0:0:
320,192,9879,1,0,0:0:0:0:
64,192,9952,1,0,0:0:0:0:
448,192,9952,1,0,0:0:0:0:
192,192,10026,1,0,0:0:0:0:
320,192,10099,1,0,0:0:0:0:
448,192,10099,1,0,0:0:0:0:
64,192,10172,1,0,0:0:0:0:
192,192,10246,1,0,0:0:0:0:
320,192,10246,1,0,0:0:0:0:
448,192,10319,1,0,0:0:0:0:
64,192,10392,1,0,0:0:0:0:
192,192,10392,1,0,0:0:0:0:
320,192,10392,1,0,0:0:0:0:
448,192,10466,1,0,0:0:0:0:
64,192,10539,1,0,0:0:0:0:
192,192,10539,1,0,0:0:0:0:
320,192,10612,1,0,0:0:0:0:
192,192,10686,1,0,0:0:0:0:
448,192,10686,1,0,0:0:0:0:
320,192,10759,1,0,0:0:0:0:
64,192,10833,1,0,0:0:0:0:
192,192,10833,1,0,0:0:0:0:
448,192,10906,1,0,0:0:0:0:
64,192,10979,1,0,0:0:0:0:
192,192,10979,1,0,0:0:0:0:
320,192,10979,1,0,0:0:0:0:
448,192,11053,1,0,0:0:0:0:
192,192,11126,1,0,0:0:0:0:
320,192,11126,1,0,0:0:0:0:
64,192,11199,1,0,0:0:0:0:
320,192,11273,1,0,0:0:0:0:
448,192,11273,1,0,0:0:0:0:
192,192,11346,1,0,0:0:0:0:
64,192,11419,1,0,0:0:0:0:
320,192,11419,1,0,0:0:0:0:
192,192,11493,1,0,0:0:0:0:
64,192,11566,1,0,0:0:0:0:
320,192,11566,1,0,0:0:0:0:
448,192,11566,1,0,0:0:0:0:
192,192,11639,1,0,0:0:0:0:
64,192,11713,1,0,0:0:0:0:
448,192,11713,1,0,0:0:0:0:
320,192,11786,1,0,0:0:0:0:
64,192,11859,1,0,0:0:0:0:
192,192,11859,1,0,0:0:0:0:
320,192,11933,1,0,0:0:0:0:
192,192,12006,1,0,0:0:0:0:
448,192,12006,1,0,0:0:0:0:
320,192,12079,1,0,0:0:0:0:
64,192,12153,1,0,0:0:0:0:
192,192,12153,1,0,0:0:0:0:
448,192,12153,1,0,0:0:0:0:
320,192,12226,1,0,0:0:0:0:
64,192,12300,1,0,0:0:0:0:
448,192,12300,1,0,0:0:0:0:
192,192,12373,1,0,0:0:0:0:
320,192,12446,1,0,0:0:0:0:
448,192,12446,1,0,0:0:0:0:
64,192,12520,1,0,0:0:0:0:
192,192,12593,1,0,0:0:0:0:
448,192,12593,1,0,0:0:0:0:
320,192,12666,1,0,0:0:0:0:
64,192,12740,1,0,0:0:0:0:
192,192,12740,1,0,0:0:0:0:
448,192,12740,1,0,0:0:0:0:
320,192,12813,1,0,0:0:0:0:
64,192,12886,1,0,0:0:0:0:
192,192,12886,1,0,0:0:0:0:
448,192,12960,1,0,0:0:0:0:
64,192,13033,1,0,0:0:0:0:
320,192,13033,1,0,0:0:0:0:
192,192,13106,1,0,0:0:0:0:
64,192,13180,1,0,0:0:0:0:
448,192,13180,1,0,0:0:0:0:
320,192,13253,1,0,0:0:0:0:
64,192,13326,1,0,0:0:0:0:
192,192,13326,1,0,0:0:0:0:
448,192,13326,1,0,0:0:0:0:
320,192,13400,1,0,0:0:0:0:
64,192,13473,1,0,0:0:0:0:
448,192,13473,1,0,0:0:0:0:
192,192,13546,1,0,0:0:0:0:
320,192,13620,1,0,0:0:0:0:
448,192,13620,1,0,0:0:0:0:
192,192,13693,1,0,0:0:0:0:
64,192,13767,1,0,0:0:0:0:
320,192,13767,1,0,0:0:0:0:
448,192,13840,1,0,0:0:0:0:
64,192,13913,1,0,0:0:0:0:
192,192,13913,1,0,0:0:0:0:
320,192,13913,1,0,0:0:0:0:
448,192,13987,1,0,0:0:0:0:
64,192,14060,1,0,0:0:0:0:
192,192,14060,1,0,0:0:0:0:
320,192,14060,1,0,0:0:0:0:
448,192,14133,1,0,0:0:0:0:
64,192,14207,1,0,0:0:0:0:
320,192,14207,1,0,0:0:0:0:
192,192,14280,1,0,0:0:0:0:
320,192,14353,1,0,0:0:0:0:
448,192,14353,1,0,0:0:0:0:
64,192,14427,1,0,0:0:0:0:
192,192,14500,1,0,0:0:0:0:
320,192,14500,1,0,0:0:0:0:
448,192,14500,1,0,0:0:0:0:
64,192,14573,1,0,0:0:0:0:
320,192,14647,1,0,0:0:0:0:
448,192,14647,1,0,0:0:0:0:
192,192,14720,1,0,0:0:0:0:
64,192,14793,1,0,0:0:0:0:
448,192,14793,1,0,0:0:0:0:
320,192,14867,1,0,0:0:0:0:
64,192,14940,1,0,0:0:0:0:
192,192,14940,1,0,0:0:0:0:
448,192,15013,1,0,0:0:0:0:
64,192,15087,1,0,0:0:0:0:
192,192,15087,1,0,0:0:0:0:
320,192,15087,1,0,0:0:0:0:
448,192,15160,1,0,0:0:0:0:
192,192,15234,1,0,0:0:0:0:
320,192,15234,1,0,0:0:0:0:
64,192,15307,1,0,0:0:0:0:
320,192,15380,1,0,0:0:0:0:
448,192,15380,1,0,0:0:0:0:
192,192,15454,1,0,0:0:0:0:
64,192,15527,1,0,0:0:0:0:
448,192,15527,1,0,0:0:0:0:
320,192,15600,1,0,0:0:0:0:
64,192,15674,1,0,0:0:0:0:
192,192,15674,1,0,0:0:0:0:
448,192,15674,1,0,0:0:0:0:
320,192,15747,1,0,0:0:0:0:
64,192,15820,1,0,0:0:0:0:
448,192,15820,1,0,0:0:0:0:
192,192,15894,1,0,0:0:0:0:
320,192,15967,1,0,0:0:0:0:
448,192,15967,1,0,0:0:0:0:
64,192,16040,1,0,0:0:0:0:
192,192,16114,1,0,0:0:0:0:
448,192,16114,1,0,0:0:0:0:
320,192,16187,1,0,0:0:0:0:
64,192,16260,1,0,0:0:0:0:
192,192,16260,1,0,0:0:0:0:
448,192,16260,1,0,0:0:0:0:
320,192,16334,1,0,0:0:0:0:
64,192,16407,1,0,0:0:0:0:
192,192,16407,1,0,0:0:0:0:
448,192,16480,1,0,0:0:0:0:
64,192,16554,1,0,0:0:0:0:
320,192,16554,1,0,0:0:0:0:
192,192,16627,1,0,0:0:0:0:
320,192,16701,1,0,0:0:0:0:
448,192,16701,1,0,0:0:0:0:
192,192,16774,1,0,0:0:0:0:
64,192,16847,1,0,0:0:0:0:
320,192,16847,1,0,0:0:0:0:
448,192,16847,1,0,0:0:0:0:
192,192,16921,1,0,0:0:0:0:
320,192,16994,1,0,0:0:0:0:
448,192,16994,1,0,0:0:0:0:
192,192,17067,1,0,0:0:0:0:
64,192,17141,1,0,0:0:0:0:
448,192,17141,1,0,0:0:0:0:
320,192,17214,1,0,0:0:0:0:
64,192,17287,1,0,0:0:0:0:
192,192,17287,1,0,0:0:0:0:
320,192,17361,1,0,0:0:0:0:
64,192,17434,1,0,0:0:0:0:
192,192,17434,1,0,0:0:0:0:
448,192,17434,1,0,0:0:0:0:
320,192,17507,1,0,0:0:0:0:
64,192,17581,1,0,0:0:0:0:
448,192,17581,1,0,0:0:0:0:
192,192,17654,1,0,0:0:0:0:
64,192,17727,1,0,0:0:0:0:
320,192,17727,1,0,0:0:0:0:
448,192,17727,1,0,0:0:0:0:
192,192,17801,1,0,0:0:0:0:
64,192,17874,1,0,0:0:0:0:
320,192,17874,1,0,0:0:0:0:
448,192,17874,1,0,0:0:0:0:
192,192,17947,1,0,0:0:0:0:
64,192,18021,1,0,0:0:0:0:
320,192,18021,1,0,0:0:0:0:
448,192,18021,1,0,0:0:0:0:
192,192,18094,1,0,0:0:0:0:
64,192,18168,1,0,0:0:0:0:
448,192,18168,1,0,0:0:0:0:
320,192,18241,1,0,0:0:0:0:
64,192,18314,1,0,0:0:0:0:
192,192,18314,1,0,0:0:0:0:
448,192,18314,1,0,0:0:0:0:
320,192,18388,1,0,0:0:0:0:
64,192,18461,1,0,0:0:0:0:
192,192,18461,1,0,0:0:0:0:
448,192,18461,1,0,0:0:0:0:
320,192,18510,1,0,0:0:0:0:
192,192,18559,1,0,0:0:0:0:
64,192,18608,1,0,0:0:0:0:
448,192,18608,1,0,0:0:0:0:
320,192,18657,1,0,0:0:0:0:
192,192,18705,1,0,0:0:0:0:
64,192,18754,1,0,0:0:0:0:
448,192,18754,1,0,0:0:0:0:
320,192,18803,1,0,0:0:0:0:
192,192,18852,1,0,0:0:0:0:
64,192,18901,1,0,0:0:0:0:
320,192,18901,1,0,0:0:0:0:
448,192,18901,1,0,0:0:0:0:
192,192,18974,1,0,0:0:0:0:
320,192,19048,1,0,0:0:0:0:
448,192,19048,1,0,0:0:0:0:
64,192,19121,1,0,0:0:0:0:
192,192,19194,1,0,0:0:0:0:
320,192,19194,1,0,0:0:0:0:
448,192,19194,1,0,0:0:0:0:
64,192,19268,1,0,0:0:0:0:
192,192,19341,1,0,0:0:0:0:
320,192,19341,1,0,0:0:0:0:
448,192,19414,1,0,0:0:0:0:
64,192,19488,1,0,0:0:0:0:
320,192,19488,1,0,0:0:0:0:
192,192,19561,1,0,0:0:0:0:
64,192,19635,1,0,0:0:0:0:
448,192,19635,1,0,0:0:0:0:
320,192,19708,1,0,0:0:0:0:
64,192,19781,1,0,0:0:0:0:
192,192,19781,1,0,0:0:0:0:
448,192,19781,1,0,0:0:0:0:
320,192,19855,1,0,0:0:0:0:
64,192,19928,1,0,0:0:0:0:
192,192,19928,1,0,0:0:0:0:
448,192,20001,1,0,0:0:0:0:
64,192,20075,1,0,0:0:0:0:
320,192,20075,1,0,0:0:0:0:
192,192,20148,1,0,0:0:0:0:
320,192,20221,1,0,0:0:0:0:
448,192,20221,1,0,0:0:0:0:
192,192,20295,1,0,0:0:0:0:
64,192,20368,1,0,0:0:0:0:
320,192,20368,1,0,0:0:0:0:
448,192,20368,1,0,0:0:0:0:
192,192,20441,1,0,0:0:0:0:
64,192,20515,1,0,0:0:0:0:
320,192,20515,1,0,0:0:0:0:
192,192,20588,1,0,0:0:0:0:
320,192,20661,1,0,0:0:0:0:
448,192,20661,1,0,0:0:0:0:
64,192,20735,1,0,0:0:0:0:
192,192,20808,1,0,0:0:0:0:
320,192,20808,1,0,0:0:0:0:
64,192,20881,1,0,0:0:0:0:
192,192,20955,1,0,0:0:0:0:
320,192,20955,1,0,0:0:0:0:
448,192,20955,1,0,0:0:0:0:
64,192,21028,1,0,0:0:0:0:
192,192,21101,1,0,0:0:0:0:
448,192,21101,1,0,0:0:0:0:
320,192,21175,1,0,0:0:0:0:
64,192,21248,1,0,0:0:0:0:
448,192,21248,1,0,0:0:0:0:
320,192,21322,1,0,0:0:0:0:
64,192,21395,1,0,0:0:0:0:
192,192,21395,1,0,0:0:0:0:
448,192,21468,1,0,0:0:0:0:
64,192,21542,1,0,0:0:0:0:
192,192,21542,1,0,0:0:0:0:
320,192,21542,1,0,0:0:0:0:
448,192,21615,1,0,0:0:0:0:
192,192,21688,1,0,0:0:0:0:
320,192,21688,1,0,0:0:0:0:
64,192,21762,1,0,0:0:0:0:
192,192,21835,1,0,0:0:0:0:
448,192,21835,1,0,0:0:0:0:
320,192,21908,1,0,0:0:0:0:
64,192,21982,1,0,0:0:0:0:
448,192,21982,1,0,0:0:0:0:
192,192,22055,1,0,0:0:0:0:
64,192,22128,1,0,0:0:0:0:
320,192,22128,1,0,0:0:0:0:
448,192,22128,1,0,0:0:0:0:
192,192,22202,1,0,0:0:0:0:
320,192,22275,1,0,0:0:0:0:
448,192,22275,1,0,0:0:0:0:
64,192,22348,1,0,0:0:0:0:
192,192,22422,1,0,0:0:0:0:
448,192,22422,1,0,0:0:0:0:
320,192,22495,1,0,0:0:0:0:
64,192,22568,1,0,0:0:0:0:
192,192,22568,1,0,0:0:0:0:
448,192,22642,1,0,0:0:0:0:
64,192,22715,1,0,0:0:0:0:
192,192,22715,1,0,0:0:0:0:
320,192,22715,1,0,0:0:0:0:
448,192,22789,1,0,0:0:0:0:
192,192,22862,1,0,0:0:0:0:
320,192,22862,1,0,0:0:0:0:
64,192,22935,1,0,0:0:0:0:
192,192,23009,1,0,0:0:0:0:
448,192,23009,1,0,0:0:0:0:
320,192,23082,1,0,0:0:0:0:
64,192,23155,1,0,0:0:0:0:
448,192,23155,1,0,0:0:0:0:
192,192,23229,1,0,0:0:0:0:
64,192,23302,1,0,0:0:0:0:
320,192,23302,1,0,0:0:0:0:
448,192,23302,1,0,0:0:0:0:
192,192,23375,1,0,0:0:0:0:
64,192,23449,1,0,0:0:0:0:
320,192,23449,1,0,0:0:0:0:
448,192,23449,1,0,0:0:0:0:
192,192,23522,1,0,0:0:0:0:
64,192,23595,1,0,0:0:0:0:
448,192,23595,1,0,0:0:0:0:
320,192,23669,1,0,0:0:0:0:
64,192,23742,1,0,0:0:0:0:
192,192,23742,1,0,0:0:0:0:
448,192,23815,1,0,0:0:0:0:
64,192,23889,1,0,0:0:0:0:
192,192,23889,1,0,0:0:0:0:
320,192,23889,1,0,0:0:0:0:
448,192,23962,1,0,0:0:0:0:
64,192,24035,1,0,0:0:0:0:
192,192,24035,1,0,0:0:0:0:
320,192,24109,1,0,0:0:0:0:
64,192,24182,1,0,0:0:0:0:
448,192,24182,1,0,0:0:0:0:
320,192,24256,1,0,0:0:0:0:
192,192,24329,1,0,0:0:0:0:
448,192,24329,1,0,0:0:0:0:
64,192,24402,1,0,0:0:0:0:
192,192,24476,1,0,0:0:0:0:
320,192,24476,1,0,0:0:0:0:
448,192,24476,1,0,0:0:0:0:
64,192,24549,1,0,0:0:0:0:
192,192,24622,1,0,0:0:0:0:
320,192,24622,1,0,0:0:0:0:
448,192,24696,1,0,0:0:0:0:
64,192,24769,1,0,0:0:0:0:
192,192,24769,1,0,0:0:0:0:
320,192,24842,1,0,0:0:0:0:
192,192,24916,1,0,0:0:0:0:
448,192,24916,1,0,0:0:0:0:
64,192,24989,1,0,0:0:0:0:
192,192,25062,1,0,0:0:0:0:
320,192,25062,1,0,0:0:0:0:
448,192,25062,1,0,0:0:0:0:
64,192,25136,1,0,0:0:0:0:
192,192,25209,1,0,0:0:0:0:
320,192,25209,1,0,0:0:0:0:
64,192,25282,1,0,0:0:0:0:
320,192,25356,1,0,0:0:0:0:
448,192,25356,1,0,0:0:0:0:
192,192,25429,1,0,0:0:0:0:
64,192,25502,1,0,0:0:0:0:
448,192,25502,1,0,0:0:0:0:
320,192,25576,1,0,0:0:0:0:
64,192,25649,1,0,0:0:0:0:
192,192,25649,1,0,0:0:0:0:
448,192,25649,1,0,0:0:0:0:
320,192,25723,1,0,0:0:0:0:
64,192,25796,1,0,0:0:0:0:
448,192,25796,1,0,0:0:0:0:
192,192,25869,1,0,0:0:0:0:
320,192,25943,1,0,0:0:0:0:
448,192,25943,1,0,0:0:0:0:
64,192,26016,1,0,0:0:0:0:
192,192,26016,1,0,0:0:0:0:
320,192,26089,1,0,0:0:0:0:
448,192,26089,1,0,0:0:0:0:
64,192,26163,1,0,0:0:0:0:
192,192,26163,1,0,0:0:0:0:
320,192,26236,1,0,0:0:0:0:
448,192,26236,1,0,0:0:0:0:
64,192,26309,1,0,0:0:0:0:
192,192,26309,1,0,0:0:0:0:
320,192,26383,1,0,0:0:0:0:
448,192,26383,1,0,0:0:0:0:
64,192,26456,1,0,0:0:0:0:
192,192,26456,1,0,0:0:0:0:
320,192,26529,1,0,0:0:0:0:
448,192,26529,1,0,0:0:0:0:
64,192,26603,1,0,0:0:0:0:
192,192,26603,1,0,0:0:0:0:
320,192,26676,1,0,0:0:0:0:
448,192,26676,1,0,0:0:0:0:
64,192,26749,1,0,0:0:0:0:
192,192,26749,1,0,0:0:0:0:
320,192,26823,1,0,0:0:0:0:
448,192,26823,1,0,0:0:0:0:
64,192,26896,1,0,0:0:0:0:
192,192,26896,1,0,0:0:0:0:
320,192,26969,1,0,0:0:0:0:
448,192,26969,1,0,0:0:0:0:
64,192,27043,1,0,0:0:0:0:
192,192,27043,1,0,0:0:0:0:
448,192,27116,1,0,0:0:0:0:
320,192,27165,1,0,0:0:0:0:
192,192,27214,1,0,0:0:0:0:
64,192,27263,1,0,0:0:0:0:
448,192,27312,1,0,0:0:0:0:
320,192,27361,1,0,0:0:0:0:
192,192,27410,1,0,0:0:0:0:
64,192,27458,1,0,0:0:0:0:
448,192,27507,1,0,0:0:0:0:
320,192,27556,1,0,0:0:0:0:
192,192,27605,1,0,0:0:0:0:
64,192,27654,1,0,0:0:0:0:
448,0,27703,128,0,27850:1:0:0:0:
320,0,27740,128,0,27886:1:0:0:0:
192,0,27776,128,0,27923:1:0:0:0:
64,0,27813,128,0,27960:1:0:0:0:
448,0,27923,128,0,28070:1:0:0:0:
320,0,27960,128,0,28106:1:0:0:0:
192,0,27996,128,0,28143:1:0:0:0:
64,0,28033,128,0,28180:1:0:0:0:
448,192,28143,1,0,0:0:0:0:
320,192,28180,1,0,0:0:0:0:
192,192,28216,1,0,0:0:0:0:
64,192,28253,1,0,0:0:0:0:
320,192,28290,1,0,0:0:0:0:
448,192,28290,1,0,0:0:0:0:
64,192,28363,1,0,0:0:0:0:
320,192,28436,1,0,0:0:0:0:
192,192,28510,1,0,0:0:0:0:
64,192,28583,1,0,0:0:0:0:
448,192,28583,1,0,0:0:0:0:
192,192,28657,1,0,0:0:0:0:
448,192,28730,1,0,0:0:0:0:
320,192,28803,1,0,0:0:0:0:
64,192,28877,1,0,0:0:0:0:
192,192,28950,1,0,0:0:0:0:
448,192,29023,1,0,0:0:0:0:
64,192,29097,1,0,0:0:0:0:
192,192,29170,1,0,0:0:0:0:
320,192,29170,1,0,0:0:0:0:
448,192,29243,1,0,0:0:0:0:
64,192,29317,1,0,0:0:0:0:
320,192,29390,1,0,0:0:0:0:
192,192,29463,1,0,0:0:0:0:
64,192,29537,1,0,0:0:0:0:
448,192,29610,1,0,0:0:0:0:
320,192,29683,1,0,0:0:0:0:
64,192,29757,1,0,0:0:0:0:
192,192,29757,1,0,0:0:0:0:
320,192,29830,1,0,0:0:0:0:
448,192,29903,1,0,0:0:0:0:
192,192,29977,1,0,0:0:0:0:
320,192,30050,1,0,0:0:0:0:
64,192,30123,1,0,0:0:0:0:
320,192,30197,1,0,0:0:0:0:
192,192,30270,1,0,0:0:0:0:
64,192,30344,1,0,0:0:0:0:
448,192,30344,1,0,0:0:0:0:
320,192,30417,1,0,0:0:0:0:
192,192,30490,1,0,0:0:0:0:
448,192,30564,1,0,0:0:0:0:
192,192,30637,1,0,0:0:0:0:
320,192,30710,1,0,0:0:0:0:
448,192,30784,1,0,0:0:0:0:
64,192,30857,1,0,0:0:0:0:
192,192,30930,1,0,0:0:0:0:
448,192,30930,1,0,0:0:0:0:
64,192,31004,1,0,0:0:0:0:
320,192,31077,1,0,0:0:0:0:
192,192,31150,1,0,0:0:0:0:
448,192,31224,1,0,0:0:0:0:
64,192,31297,1,0,0:0:0:0:
320,192,31370,1,0,0:0:0:0:
192,192,31444,1,0,0:0:0:0:
64,192,31517,1,0,0:0:0:0:
448,192,31517,1,0,0:0:0:0:
320,192,31590,1,0,0:0:0:0:
448,192,31664,1,0,0:0:0:0:
64,192,31737,1,0,0:0:0:0:
192,192,31811,1,0,0:0:0:0:
320,192,31884,1,0,0:0:0:0:
448,192,31957,1,0,0:0:0:0:
64,192,32031,1,0,0:0:0:0:
192,192,32104,1,0,0:0:0:0:
320,192,32104,1,0,0:0:0:0:
64,192,32177,1,0,0:0:0:0:
448,192,32251,1,0,0:0:0:0:
192,192,32324,1,0,0:0:0:0:
320,192,32397,1,0,0:0:0:0:
448,192,32471,1,0,0:0:0:0:
64,192,32544,1,0,0:0:0:0:
192,192,32617,1,0,0:0:0:0:
320,192,32691,1,0,0:0:0:0:
448,192,32691,1,0,0:0:0:0:
192,192,32764,1,0,0:0:0:0:
64,192,32837,1,0,0:0:0:0:
448,192,32911,1,0,0:0:0:0:
192,192,32984,1,0,0:0:0:0:
320,192,33057,1,0,0:0:0:0:
448,192,33131,1,0,0:0:0:0:
192,192,33204,1,0,0:0:0:0:
64,192,33278,1,0,0:0:0:0:
448,192,33278,1,0,0:0:0:0:
320,192,33351,1,0,0:0:0:0:
192,192,33424,1,0,0:0:0:0:
448,192,33498,1,0,0:0:0:0:
64,192,33571,1,0,0:0:0:0:
448,192,33644,1,0,0:0:0:0:
64,192,33718,1,0,0:0:0:0:
192,192,33791,1,0,0:0:0:0:
320,192,33864,1,0,0:0:0:0:
448,192,33864,1,0,0:0:0:0:
64,192,33938,1,0,0:0:0:0:
320,192,34011,1,0,0:0:0:0:
192,192,34084,1,0,0:0:0:0:
64,192,34158,1,0,0:0:0:0:
320,192,34231,1,0,0:0:0:0:
192,192,34304,1,0,0:0:0:0:
448,192,34378,1,0,0:0:0:0:
192,192,34451,1,0,0:0:0:0:
320,192,34451,1,0,0:0:0:0:
64,192,34524,1,0,0:0:0:0:
320,192,34598,1,0,0:0:0:0:
192,192,34671,1,0,0:0:0:0:
448,192,34745,1,0,0:0:0:0:
64,192,34818,1,0,0:0:0:0:
192,192,34891,1,0,0:0:0:0:
448,192,34965,1,0,0:0:0:0:
64,192,35038,1,0,0:0:0:0:
320,192,35038,1,0,0:0:0:0:
192,192,35111,1,0,0:0:0:0:
448,192,35185,1,0,0:0:0:0:
320,192,35258,1,0,0:0:0:0:
64,192,35331,1,0,0:0:0:0:
448,192,35405,1,0,0:0:0:0:
192,192,35478,1,0,0:0:0:0:
320,192,35551,1,0,0:0:0:0:
192,192,35625,1,0,0:0:0:0:
448,192,35625,1,0,0:0:0:0:
320,192,35698,1,0,0:0:0:0:
64,192,35771,1,0,0:0:0:0:
192,192,35845,1,0,0:0:0:0:
64,192,35918,1,0,0:0:0:0:
448,192,35991,1,0,0:0:0:0:
192,192,36065,1,0,0:0:0:0:
320,192,36138,1,0,0:0:0:0:
64,192,36212,1,0,0:0:0:0:
192,192,36212,1,0,0:0:0:0:
448,192,36285,1,0,0:0:0:0:
320,192,36358,1,0,0:0:0:0:
64,192,36432,1,0,0:0:0:0:
320,192,36505,1,0,0:0:0:0:
192,192,36578,1,0,0:0:0:0:
448,192,36652,1,0,0:0:0:0:
64,192,36725,1,0,0:0:0:0:
320,192,36798,1,0,0:0:0:0:
448,192,36798,1,0,0:0:0:0:
192,192,36872,1,0,0:0:0:0:
64,192,36945,1,0,0:0:0:0:
192,192,37018,1,0,0:0:0:0:
448,192,37092,1,0,0:0:0:0:
320,192,37165,1,0,0:0:0:0:
64,192,37238,1,0,0:0:0:0:
448,192,37312,1,0,0:0:0:0:
192,192,37385,1,0,0:0:0:0:
320,192,37385,1,0,0:0:0:0:
64,192,37458,1,0,0:0:0:0:
320,192,37532,1,0,0:0:0:0:
192,192,37605,1,0,0:0:0:0:
64,192,37679,1,0,0:0:0:0:
320,192,37679,1,0,0:0:0:0:
448,192,37679,1,0,0:0:0:0:
192,192,37752,1,0,0:0:0:0:
320,192,37825,1,0,0:0:0:0:
64,192,37899,1,0,0:0:0:0:
192,192,37972,1,0,0:0:0:0:
320,192,37972,1,0,0:0:0:0:
448,192,37972,1,0,0:0:0:0:
64,192,38045,1,0,0:0:0:0:
448,192,38119,1,0,0:0:0:0:
320,192,38192,1,0,0:0:0:0:
64,192,38265,1,0,0:0:0:0:
448,192,38265,1,0,0:0:0:0:
192,192,38339,1,0,0:0:0:0:
320,192,38412,1,0,0:0:0:0:
64,192,38485,1,0,0:0:0:0:
192,192,38559,1,0,0:0:0:0:
320,192,38559,1,0,0:0:0:0:
448,192,38559,1,0,0:0:0:0:
64,192,38632,1,0,0:0:0:0:
320,192,38705,1,0,0:0:0:0:
192,192,38779,1,0,0:0:0:0:
64,192,38852,1,0,0:0:0:0:
448,192,38852,1,0,0:0:0:0:
192,192,38925,1,0,0:0:0:0:
320,192,38999,1,0,0:0:0:0:
448,192,39072,1,0,0:0:0:0:
64,192,39146,1,0,0:0:0:0:
192,192,39146,1,0,0:0:0:0:
320,192,39146,1,0,0:0:0:0:
448,192,39219,1,0,0:0:0:0:
320,192,39292,1,0,0:0:0:0:
64,192,39366,1,0,0:0:0:0:
192,192,39439,1,0,0:0:0:0:
320,192,39439,1,0,0:0:0:0:
448,192,39512,1,0,0:0:0:0:
192,192,39586,1,0,0:0:0:0:
320,192,39659,1,0,0:0:0:0:
64,192,39732,1,0,0:0:0:0:
192,192,39732,1,0,0:0:0:0:
448,192,39732,1,0,0:0:0:0:
320,192,39806,1,0,0:0:0:0:
64,192,39879,1,0,0:0:0:0:
448,192,39952,1,0,0:0:0:0:
192,192,40026,1,0,0:0:0:0:
320,192,40026,1,0,0:0:0:0:
448,192,40099,1,0,0:0:0:0:
64,192,40172,1,0,0:0:0:0:
192,192,40246,1,0,0:0:0:0:
64,192,40319,1,0,0:0:0:0:
320,192,40319,1,0,0:0:0:0:
448,192,40319,1,0,0:0:0:0:
192,192,40392,1,0,0:0:0:0:
320,192,40466,1,0,0:0:0:0:
64,192,40539,1,0,0:0:0:0:
320,192,40612,1,0,0:0:0:0:
448,192,40612,1,0,0:0:0:0:
64,192,40686,1,0,0:0:0:0:
192,192,40759,1,0,0:0:0:0:
448,192,40833,1,0,0:0:0:0:
64,192,40906,1,0,0:0:0:0:
192,192,40906,1,0,0:0:0:0:
320,192,40906,1,0,0:0:0:0:
448,192,40979,1,0,0:0:0:0:
64,192,41053,1,0,0:0:0:0:
320,192,41126,1,0,0:0:0:0:
64,192,41199,1,0,0:0:0:0:
448,192,41199,1,0,0:0:0:0:
320,192,41273,1,0,0:0:0:0:
192,192,41346,1,0,0:0:0:0:
64,192,41419,1,0,0:0:0:0:
192,192,41493,1,0,0:0:0:0:
320,192,41493,1,0,0:0:0:0:
448,192,41493,1,0,0:0:0:0:
64,192,41566,1,0,0:0:0:0:
320,192,41639,1,0,0:0:0:0:
448,192,41713,1,0,0:0:0:0:
192,192,41786,1,0,0:0:0:0:
320,192,41786,1,0,0:0:0:0:
64,192,41859,1,0,0:0:0:0:
448,192,41933,1,0,0:0:0:0:
192,192,42006,1,0,0:0:0:0:
64,192,42079,1,0,0:0:0:0:
320,192,42079,1,0,0:0:0:0:
448,192,42079,1,0,0:0:0:0:
192,192,42153,1,0,0:0:0:0:
320,192,42226,1,0,0:0:0:0:
448,192,42226,1,0,0:0:0:0:
64,192,42300,1,0,0:0:0:0:
192,192,42373,1,0,0:0:0:0:
320,192,42373,1,0,0:0:0:0:
64,192,42446,1,0,0:0:0:0:
448,192,42520,1,0,0:0:0:0:
320,192,42593,1,0,0:0:0:0:
64,192,42666,1,0,0:0:0:0:
192,192,42666,1,0,0:0:0:0:
448,192,42666,1,0,0:0:0:0:
320,192,42740,1,0,0:0:0:0:
64,192,42813,1,0,0:0:0:0:
192,192,42886,1,0,0:0:0:0:
320,192,42960,1,0,0:0:0:0:
448,192,42960,1,0,0:0:0:0:
64,192,43033,1,0,0:0:0:0:
320,192,43106,1,0,0:0:0:0:
192,192,43180,1,0,0:0:0:0:
64,192,43253,1,0,0:0:0:0:
320,192,43253,1,0,0:0:0:0:
448,192,43253,1,0,0:0:0:0:
192,192,43326,1,0,0:0:0:0:
448,192,43400,1,0,0:0:0:0:
320,192,43473,1,0,0:0:0:0:
64,192,43546,1,0,0:0:0:0:
192,192,43546,1,0,0:0:0:0:
448,192,43620,1,0,0:0:0:0:
192,192,43693,1,0,0:0:0:0:
320,192,43767,1,0,0:0:0:0:
64,192,43840,1,0,0:0:0:0:
192,192,43840,1,0,0:0:0:0:
448,192,43840,1,0,0:0:0:0:
320,192,43913,1,0,0:0:0:0:
448,192,43987,1,0,0:0:0:0:
192,192,44060,1,0,0:0:0:0:
320,192,44133,1,0,0:0:0:0:
448,192,44133,1,0,0:0:0:0:
64,192,44207,1,0,0:0:0:0:
320,192,44280,1,0,0:0:0:0:
192,192,44353,1,0,0:0:0:0:
64,192,44427,1,0,0:0:0:0:
320,192,44427,1,0,0:0:0:0:
448,192,44427,1,0,0:0:0:0:
192,192,44500,1,0,0:0:0:0:
320,192,44573,1,0,0:0:0:0:
192,192,44647,1,0,0:0:0:0:
64,192,44720,1,0,0:0:0:0:
448,192,44720,1,0,0:0:0:0:
320,192,44793,1,0,0:0:0:0:
192,192,44867,1,0,0:0:0:0:
448,192,44940,1,0,0:0:0:0:
64,192,45013,1,0,0:0:0:0:
192,192,45013,1,0,0:0:0:0:
320,192,45013,1,0,0:0:0:0:
448,192,45087,1,0,0:0:0:0:
64,192,45160,1,0,0:0:0:0:
320,192,45234,1,0,0:0:0:0:
192,192,45307,1,0,0:0:0:0:
448,192,45307,1,0,0:0:0:0:
320,192,45380,1,0,0:0:0:0:
448,192,45454,1,0,0:0:0:0:
192,192,45527,1,0,0:0:0:0:
64,192,45600,1,0,0:0:0:0:
320,192,45600,1,0,0:0:0:0:
448,192,45600,1,0,0:0:0:0:
192,192,45674,1,0,0:0:0:0:
320,192,45747,1,0,0:0:0:0:
64,192,45820,1,0,0:0:0:0:
192,192,45894,1,0,0:0:0:0:
448,192,45894,1,0,0:0:0:0:
320,192,45967,1,0,0:0:0:0:
64,192,46040,1,0,0:0:0:0:
192,192,46114,1,0,0:0:0:0:
64,192,46187,1,0,0:0:0:0:
320,192,46187,1,0,0:0:0:0:
448,192,46187,1,0,0:0:0:0:
192,192,46260,1,0,0:0:0:0:
448,192,46334,1,0,0:0:0:0:
320,192,46407,1,0,0:0:0:0:
64,192,46480,1,0,0:0:0:0:
192,192,46480,1,0,0:0:0:0:
448,192,46554,1,0,0:0:0:0:
192,192,46627,1,0,0:0:0:0:
320,192,46701,1,0,0:0:0:0:
64,192,46774,1,0,0:0:0:0:
192,192,46774,1,0,0:0:0:0:
448,192,46774,1,0,0:0:0:0:
320,192,46847,1,0,0:0:0:0:
192,192,46921,1,0,0:0:0:0:
448,192,46921,1,0,0:0:0:0:
64,192,46994,1,0,0:0:0:0:
192,192,47067,1,0,0:0:0:0:
320,192,47067,1,0,0:0:0:0:
448,192,47067,1,0,0:0:0:0:
64,192,47141,1,0,0:0:0:0:
192,192,47214,1,0,0:0:0:0:
320,192,47214,1,0,0:0:0:0:
448,192,47214,1,0,0:0:0:0:
64,192,47287,1,0,0:0:0:0:
320,192,47361,1,0,0:0:0:0:
448,192,47361,1,0,0:0:0:0:
192,192,47434,1,0,0:0:0:0:
64,192,47507,1,0,0:0:0:0:
320,192,47507,1,0,0:0:0:0:
448,192,47507,1,0,0:0:0:0:
192,192,47581,1,0,0:0:0:0:
64,192,47654,1,0,0:0:0:0:
320,192,47654,1,0,0:0:0:0:
448,192,47654,1,0,0:0:0:0:
192,192,47727,1,0,0:0:0:0:
320,192,47801,1,0,0:0:0:0:
64,192,47874,1,0,0:0:0:0:
192,192,47947,1,0,0:0:0:0:
320,192,47947,1,0,0:0:0:0:
448,192,47947,1,0,0:0:0:0:
64,192,48021,1,0,0:0:0:0:
192,192,48094,1,0,0:0:0:0:
320,192,48094,1,0,0:0:0:0:
448,192,48094,1,0,0:0:0:0:
64,192,48168,1,0,0:0:0:0:
192,192,48241,1,0,0:0:0:0:
448,192,48241,1,0,0:0:0:0:
320,192,48314,1,0,0:0:0:0:
64,192,48388,1,0,0:0:0:0:
192,192,48388,1,0,0:0:0:0:
448,192,48388,1,0,0:0:0:0:
320,192,48461,1,0,0:0:0:0:
64,192,48534,1,0,0:0:0:0:
192,192,48534,1,0,0:0:0:0:
448,192,48534,1,0,0:0:0:0:
320,192,48608,1,0,0:0:0:0:
192,192,48681,1,0,0:0:0:0:
64,192,48754,1,0,0:0:0:0:
192,192,48828,1,0,0:0:0:0:
320,192,48828,1,0,0:0:0:0:
448,192,48828,1,0,0:0:0:0:
64,192,48901,1,0,0:0:0:0:
320,192,48974,1,0,0:0:0:0:
192,192,49048,1,0,0:0:0:0:
64,192,49121,1,0,0:0:0:0:
320,192,49121,1,0,0:0:0:0:
448,192,49121,1,0,0:0:0:0:
192,192,49194,1,0,0:0:0:0:
448,192,49268,1,0,0:0:0:0:
320,192,49341,1,0,0:0:0:0:
64,192,49414,1,0,0:0:0:0:
192,192,49414,1,0,0:0:0:0:
448,192,49414,1,0,0:0:0:0:
320,192,49488,1,0,0:0:0:0:
64,192,49561,1,0,0:0:0:0:
192,192,49561,1,0,0:0:0:0:
448,192,49561,1,0,0:0:0:0:
320,192,49634,1,0,0:0:0:0:
64,192,49708,1,0,0:0:0:0:
192,192,49708,1,0,0:0:0:0:
448,192,49781,1,0,0:0:0:0:
64,192,49855,1,0,0:0:0:0:
192,192,49855,1,0,0:0:0:0:
320,192,49855,1,0,0:0:0:0:
448,192,49928,1,0,0:0:0:0:
64,192,50001,1,0,0:0:0:0:
192,192,50001,1,0,0:0:0:0:
320,192,50001,1,0,0:0:0:0:
448,192,50075,1,0,0:0:0:0:
192,192,50148,1,0,0:0:0:0:
320,192,50221,1,0,0:0:0:0:
64,192,50295,1,0,0:0:0:0:
192,192,50295,1,0,0:0:0:0:
448,192,50295,1,0,0:0:0:0:
320,192,50368,1,0,0:0:0:0:
64,192,50441,1,0,0:0:0:0:
192,192,50441,1,0,0:0:0:0:
448,192,50441,1,0,0:0:0:0:
320,192,50515,1,0,0:0:0:0:
64,192,50588,1,0,0:0:0:0:
192,192,50588,1,0,0:0:0:0:
448,192,50661,1,0,0:0:0:0:
64,192,50735,1,0,0:0:0:0:
192,192,50735,1,0,0:0:0:0:
320,192,50735,1,0,0:0:0:0:
448,192,50808,1,0,0:0:0:0:
64,192,50881,1,0,0:0:0:0:
192,192,50881,1,0,0:0:0:0:
320,192,50881,1,0,0:0:0:0:
448,192,50955,1,0,0:0:0:0:
64,192,51028,1,0,0:0:0:0:
192,192,51028,1,0,0:0:0:0:
320,192,51101,1,0,0:0:0:0:
64,192,51175,1,0,0:0:0:0:
192,192,51175,1,0,0:0:0:0:
448,192,51175,1,0,0:0:0:0:
320,192,51248,1,0,0:0:0:0:
64,192,51322,1,0,0:0:0:0:
192,192,51395,1,0,0:0:0:0:
64,192,51468,1,0,0:0:0:0:
320,192,51468,1,0,0:0:0:0:
448,192,51468,1,0,0:0:0:0:
192,192,51542,1,0,0:0:0:0:
320,192,51615,1,0,0:0:0:0:
64,192,51688,1,0,0:0:0:0:
192,192,51762,1,0,0:0:0:0:
320,192,51762,1,0,0:0:0:0:
448,192,51762,1,0,0:0:0:0:
64,192,51835,1,0,0:0:0:0:
192,192,51908,1,0,0:0:0:0:
320,192,51908,1,0,0:0:0:0:
448,192,51908,1,0,0:0:0:0:
64,192,51982,1,0,0:0:0:0:
192,192,52055,1,0,0:0:0:0:
320,192,52055,1,0,0:0:0:0:
448,192,52128,1,0,0:0:0:0:
64,192,52202,1,0,0:0:0:0:
192,192,52202,1,0,0:0:0:0:
320,192,52202,1,0,0:0:0:0:
448,192,52275,1,0,0:0:0:0:
64,192,52348,1,0,0:0:0:0:
192,192,52348,1,0,0:0:0:0:
320,192,52348,1,0,0:0:0:0:
448,192,52422,1,0,0:0:0:0:
192,192,52495,1,0,0:0:0:0:
64,192,52568,1,0,0:0:0:0:
192,192,52642,1,0,0:0:0:0:
320,192,52642,1,0,0:0:0:0:
448,192,52642,1,0,0:0:0:0:
64,192,52715,1,0,0:0:0:0:
192,192,52789,1,0,0:0:0:0:
320,192,52789,1,0,0:0:0:0:
448,192,52789,1,0,0:0:0:0:
64,192,52862,1,0,0:0:0:0:
192,192,52935,1,0,0:0:0:0:
320,192,52935,1,0,0:0:0:0:
448,192,53009,1,0,0:0:0:0:
64,192,53082,1,0,0:0:0:0:
192,192,53082,1,0,0:0:0:0:
320,192,53082,1,0,0:0:0:0:
448,192,53155,1,0,0:0:0:0:
64,192,53229,1,0,0:0:0:0:
192,192,53229,1,0,0:0:0:0:
320,192,53229,1,0,0:0:0:0:
448,192,53302,1,0,0:0:0:0:
320,192,53375,1,0,0:0:0:0:
64,192,53449,1,0,0:0:0:0:
192,192,53522,1,0,0:0:0:0:
320,192,53522,1,0,0:0:0:0:
448,192,53522,1,0,0:0:0:0:
64,192,53595,1,0,0:0:0:0:
320,192,53669,1,0,0:0:0:0:
192,192,53742,1,0,0:0:0:0:
64,192,53815,1,0,0:0:0:0:
320,192,53815,1,0,0:0:0:0:
448,192,53815,1,0,0:0:0:0:
192,192,53889,1,0,0:0:0:0:
320,192,53962,1,0,0:0:0:0:
64,192,54035,1,0,0:0:0:0:
320,192,54109,1,0,0:0:0:0:
448,192,54109,1,0,0:0:0:0:
64,192,54182,1,0,0:0:0:0:
192,192,54182,1,0,0:0:0:0:
320,192,54256,1,0,0:0:0:0:
448,192,54256,1,0,0:0:0:0:
64,192,54329,1,0,0:0:0:0:
192,192,54329,1,0,0:0:0:0:
320,192,54402,1,0,0:0:0:0:
448,192,54402,1,0,0:0:0:0:
64,192,54476,1,0,0:0:0:0:
192,192,54476,1,0,0:0:0:0:
320,192,54549,1,0,0:0:0:0:
448,192,54549,1,0,0:0:0:0:
64,192,54622,1,0,0:0:0:0:
192,192,54622,1,0,0:0:0:0:
320,192,54696,1,0,0:0:0:0:
448,192,54696,1,0,0:0:0:0:
64,192,54769,1,0,0:0:0:0:
192,192,54769,1,0,0:0:0:0:
320,192,54842,1,0,0:0:0:0:
448,192,54842,1,0,0:0:0:0:
64,192,54916,1,0,0:0:0:0:
192,192,54916,1,0,0:0:0:0:
320,192,54989,1,0,0:0:0:0:
448,192,54989,1,0,0:0:0:0:
64,192,55062,1,0,0:0:0:0:
192,192,55062,1,0,0:0:0:0:
320,192,55136,1,0,0:0:0:0:
448,192,55136,1,0,0:0:0:0:
64,192,55209,1,0,0:0:0:0:
192,192,55209,1,0,0:0:0:0:
320,192,55282,1,0,0:0:0:0:
448,192,55282,1,0,0:0:0:0:
64,192,55356,1,0,0:0:0:0:
192,192,55356,1,0,0:0:0:0:
320,192,55429,1,0,0:0:0:0:
448,192,55429,1,0,0:0:0:0:
64,192,55502,1,0,0:0:0:0:
192,192,55502,1,0,0:0:0:0:
320,192,55576,1,0,0:0:0:0:
448,192,55576,1,0,0:0:0:0:
64,192,55649,1,0,0:0:0:0:
192,192,55649,1,0,0:0:0:0:
320,192,55723,1,0,0:0:0:0:
448,192,55723,1,0,0:0:0:0:
64,192,55796,1,0,0:0:0:0:
192,192,55796,1,0,0:0:0:0:
320,192,55869,1,0,0:0:0:0:
448,192,55869,1,0,0:0:0:0:
64,192,55943,1,0,0:0:0:0:
192,192,55943,1,0,0:0:0:0:
448,192,56016,1,0,0:0:0:0:
320,192,56065,1,0,0:0:0:0:
192,192,56114,1,0,0:0:0:0:
64,192,56163,1,0,0:0:0:0:
448,192,56163,1,0,0:0:0:0:
192,192,56236,1,0,0:0:0:0:
448,192,56309,1,0,0:0:0:0:
320,192,56358,1,0,0:0:0:0:
192,192,56407,1,0,0:0:0:0:
64,192,56456,1,0,0:0:0:0:
320,192,56456,1,0,0:0:0:0:
448,192,56456,1,0,0:0:0:0:
192,192,56529,1,0,0:0:0:0:
320,192,56603,1,0,0:0:0:0:
64,192,56676,1,0,0:0:0:0:
192,192,56749,1,0,0:0:0:0:
448,192,56749,1,0,0:0:0:0:
64,192,56823,1,0,0:0:0:0:
320,192,56896,1,0,0:0:0:0:
192,192,56969,1,0,0:0:0:0:
448,192,57043,1,0,0:0:0:0:
320,192,57116,1,0,0:0:0:0:
64,192,57190,1,0,0:0:0:0:
192,192,57263,1,0,0:0:0:0:
320,192,57336,1,0,0:0:0:0:
448,192,57336,1,0,0:0:0:0:
64,192,57410,1,0,0:0:0:0:
320,192,57483,1,0,0:0:0:0:
192,192,57556,1,0,0:0:0:0:
64,192,57630,1,0,0:0:0:0:
448,192,57703,1,0,0:0:0:0:
320,192,57776,1,0,0:0:0:0:
64,192,57850,1,0,0:0:0:0:
192,192,57923,1,0,0:0:0:0:
448,192,57923,1,0,0:0:0:0:
320,192,57996,1,0,0:0:0:0:
448,192,58070,1,0,0:0:0:0:
64,192,58143,1,0,0:0:0:0:
192,192,58216,1,0,0:0:0:0:
448,192,58290,1,0,0:0:0:0:
64,192,58363,1,0,0:0:0:0:
192,192,58436,1,0,0:0:0:0:
320,192,58510,1,0,0:0:0:0:
448,192,58510,1,0,0:0:0:0:
64,192,58583,1,0,0:0:0:0:
320,192,58657,1,0,0:0:0:0:
192,192,58730,1,0,0:0:0:0:
64,192,58803,1,0,0:0:0:0:
320,192,58803,1,0,0:0:0:0:
448,192,58803,1,0,0:0:0:0:
192,192,58877,1,0,0:0:0:0:
320,192,58950,1,0,0:0:0:0:
448,192,58950,1,0,0:0:0:0:
64,192,59023,1,0,0:0:0:0:
192,192,59097,1,0,0:0:0:0:
320,192,59097,1,0,0:0:0:0:
448,192,59097,1,0,0:0:0:0:
64,192,59170,1,0,0:0:0:0:
192,192,59243,1,0,0:0:0:0:
448,192,59243,1,0,0:0:0:0:
320,192,59317,1,0,0:0:0:0:
64,192,59390,1,0,0:0:0:0:
192,192,59390,1,0,0:0:0:0:
448,192,59390,1,0,0:0:0:0:
320,192,59463,1,0,0:0:0:0:
64,192,59537,1,0,0:0:0:0:
192,192,59537,1,0,0:0:0:0:
320,192,59610,1,0,0:0:0:0:
64,192,59683,1,0,0:0:0:0:
192,192,59683,1,0,0:0:0:0:
448,192,59683,1,0,0:0:0:0:
320,192,59757,1,0,0:0:0:0:
64,192,59830,1,0,0:0:0:0:
448,192,59830,1,0,0:0:0:0:
192,192,59903,1,0,0:0:0:0:
64,192,59977,1,0,0:0:0:0:
320,192,59977,1,0,0:0:0:0:
448,192,59977,1,0,0:0:0:0:
192,192,60050,1,0,0:0:0:0:
320,192,60123,1,0,0:0:0:0:
448,192,60123,1,0,0:0:0:0:
64,192,60197,1,0,0:0:0:0:
192,192,60270,1,0,0:0:0:0:
320,192,60270,1,0,0:0:0:0:
448,192,60270,1,0,0:0:0:0:
64,192,60344,1,0,0:0:0:0:
192,192,60417,1,0,0:0:0:0:
320,192,60417,1,0,0:0:0:0:
448,192,60490,1,0,0:0:0:0:
64,192,60564,1,0,0:0:0:0:
192,192,60564,1,0,0:0:0:0:
320,192,60564,1,0,0:0:0:0:
448,192,60637,1,0,0:0:0:0:
64,192,60710,1,0,0:0:0:0:
320,192,60710,1,0,0:0:0:0:
192,192,60784,1,0,0:0:0:0:
64,192,60857,1,0,0:0:0:0:
320,192,60857,1,0,0:0:0:0:
448,192,60857,1,0,0:0:0:0:
192,192,60930,1,0,0:0:0:0:
320,192,61004,1,0,0:0:0:0:
448,192,61004,1,0,0:0:0:0:
64,192,61077,1,0,0:0:0:0:
192,192,61150,1,0,0:0:0:0:
320,192,61150,1,0,0:0:0:0:
448,192,61150,1,0,0:0:0:0:
64,192,61224,1,0,0:0:0:0:
192,192,61297,1,0,0:0:0:0:
448,192,61297,1,0,0:0:0:0:
320,192,61370,1,0,0:0:0:0:
64,192,61444,1,0,0:0:0:0:
192,192,61444,1,0,0:0:0:0:
448,192,61444,1,0,0:0:0:0:
320,192,61517,1,0,0:0:0:0:
64,192,61590,1,0,0:0:0:0:
192,192,61590,1,0,0:0:0:0:
448,192,61664,1,0,0:0:0:0:
64,192,61737,1,0,0:0:0:0:
192,192,61737,1,0,0:0:0:0:
320,192,61737,1,0,0:0:0:0:
448,192,61811,1,0,0:0:0:0:
192,192,61884,1,0,0:0:0:0:
320,192,61884,1,0,0:0:0:0:
64,192,61957,1,0,0:0:0:0:
192,192,62031,1,0,0:0:0:0:
320,192,62031,1,0,0:0:0:0:
448,192,62031,1,0,0:0:0:0:
64,192,62104,1,0,0:0:0:0:
192,192,62177,1,0,0:0:0:0:
448,192,62177,1,0,0:0:0:0:
320,192,62251,1,0,0:0:0:0:
64,192,62324,1,0,0:0:0:0:
192,192,62324,1,0,0:0:0:0:
448,192,62324,1,0,0:0:0:0:
320,192,62397,1,0,0:0:0:0:
64,192,62471,1,0,0:0:0:0:
448,192,62471,1,0,0:0:0:0:
192,192,62544,1,0,0:0:0:0:
64,192,62617,1,0,0:0:0:0:
320,192,62617,1,0,0:0:0:0:
448,192,62617,1,0,0:0:0:0:
192,192,62691,1,0,0:0:0:0:
320,192,62764,1,0,0:0:0:0:
448,192,62764,1,0,0:0:0:0:
64,192,62837,1,0,0:0:0:0:
192,192,62911,1,0,0:0:0:0:
320,192,62911,1,0,0:0:0:0:
448,192,62911,1,0,0:0:0:0:
64,192,62984,1,0,0:0:0:0:
192,192,63057,1,0,0:0:0:0:
320,192,63057,1,0,0:0:0:0:
448,192,63131,1,0,0:0:0:0:
64,192,63204,1,0,0:0:0:0:
192,192,63204,1,0,0:0:0:0:
320,192,63204,1,0,0:0:0:0:
448,192,63278,1,0,0:0:0:0:
64,192,63351,1,0,0:0:0:0:
192,192,63351,1,0,0:0:0:0:
320,192,63424,1,0,0:0:0:0:
64,192,63498,1,0,0:0:0:0:
192,192,63498,1,0,0:0:0:0:
448,192,63498,1,0,0:0:0:0:
320,192,63571,1,0,0:0:0:0:
192,192,63644,1,0,0:0:0:0:
448,192,63644,1,0,0:0:0:0:
64,192,63718,1,0,0:0:0:0:
192,192,63791,1,0,0:0:0:0:
320,192,63791,1,0,0:0:0:0:
448,192,63791,1,0,0:0:0:0:
64,192,63864,1,0,0:0:0:0:
192,192,63938,1,0,0:0:0:0:
448,192,63938,1,0,0:0:0:0:
320,192,64011,1,0,0:0:0:0:
64,192,64084,1,0,0:0:0:0:
192,192,64084,1,0,0:0:0:0:
448,192,64084,1,0,0:0:0:0:
320,192,64158,1,0,0:0:0:0:
64,192,64231,1,0,0:0:0:0:
192,192,64231,1,0,0:0:0:0:
320,192,64304,1,0,0:0:0:0:
64,192,64378,1,0,0:0:0:0:
192,192,64378,1,0,0:0:0:0:
448,192,64378,1,0,0:0:0:0:
320,192,64451,1,0,0:0:0:0:
64,192,64524,1,0,0:0:0:0:
448,192,64524,1,0,0:0:0:0:
192,192,64598,1,0,0:0:0:0:
64,192,64671,1,0,0:0:0:0:
320,192,64671,1,0,0:0:0:0:
448,192,64671,1,0,0:0:0:0:
192,192,64745,1,0,0:0:0:0:
64,192,64818,1,0,0:0:0:0:
320,192,64818,1,0,0:0:0:0:
448,192,64891,1,0,0:0:0:0:
64,192,64965,1,0,0:0:0:0:
192,192,64965,1,0,0:0:0:0:
320,192,64965,1,0,0:0:0:0:
448,192,65038,1,0,0:0:0:0:
192,192,65111,1,0,0:0:0:0:
320,192,65111,1,0,0:0:0:0:
64,192,65185,1,0,0:0:0:0:
192,192,65258,1,0,0:0:0:0:
320,192,65258,1,0,0:0:0:0:
448,192,65258,1,0,0:0:0:0:
64,192,65331,1,0,0:0:0:0:
192,192,65405,1,0,0:0:0:0:
448,192,65405,1,0,0:0:0:0:
320,192,65478,1,0,0:0:0:0:
64,192,65551,1,0,0:0:0:0:
192,192,65551,1,0,0:0:0:0:
448,192,65551,1,0,0:0:0:0:
320,192,65625,1,0,0:0:0:0:
64,192,65698,1,0,0:0:0:0:
192,192,65698,1,0,0:0:0:0:
448,192,65771,1,0,0:0:0:0:
64,192,65845,1,0,0:0:0:0:
192,192,65845,1,0,0:0:0:0:
320,192,65845,1,0,0:0:0:0:
448,192,65918,1,0,0:0:0:0:
64,192,65991,1,0,0:0:0:0:
192,192,65991,1,0,0:0:0:0:
320,192,66065,1,0,0:0:0:0:
64,192,66138,1,0,0:0:0:0:
192,192,66138,1,0,0:0:0:0:
448,192,66138,1,0,0:0:0:0:
320,192,66212,1,0,0:0:0:0:
64,192,66285,1,0,0:0:0:0:
192,192,66285,1,0,0:0:0:0:
448,192,66358,1,0,0:0:0:0:
64,192,66432,1,0,0:0:0:0:
192,192,66432,1,0,0:0:0:0:
320,192,66432,1,0,0:0:0:0:
448,192,66505,1,0,0:0:0:0:
64,192,66578,1,0,0:0:0:0:
320,192,66578,1,0,0:0:0:0:
192,192,66652,1,0,0:0:0:0:
64,192,66725,1,0,0:0:0:0:
320,192,66725,1,0,0:0:0:0:
448,192,66725,1,0,0:0:0:0:
192,192,66798,1,0,0:0:0:0:
320,192,66872,1,0,0:0:0:0:
448,192,66872,1,0,0:0:0:0:
64,192,66945,1,0,0:0:0:0:
192,192,67018,1,0,0:0:0:0:
320,192,67018,1,0,0:0:0:0:
448,192,67018,1,0,0:0:0:0:
64,192,67092,1,0,0:0:0:0:
192,192,67165,1,0,0:0:0:0:
448,192,67165,1,0,0:0:0:0:
320,192,67238,1,0,0:0:0:0:
64,192,67312,1,0,0:0:0:0:
192,192,67312,1,0,0:0:0:0:
448,192,67312,1,0,0:0:0:0:
320,192,67385,1,0,0:0:0:0:
64,192,67458,1,0,0:0:0:0:
192,192,67458,1,0,0:0:0:0:
448,192,67532,1,0,0:0:0:0:
64,192,67605,1,0,0:0:0:0:
192,192,67605,1,0,0:0:0:0:
320,192,67605,1,0,0:0:0:0:
448,192,67679,1,0,0:0:0:0:
64,192,67752,1,0,0:0:0:0:
192,192,67752,1,0,0:0:0:0:
320,192,67825,1,0,0:0:0:0:
64,192,67899,1,0,0:0:0:0:
192,192,67899,1,0,0:0:0:0:
448,192,67899,1,0,0:0:0:0:
320,192,67972,1,0,0:0:0:0:
64,192,68045,1,0,0:0:0:0:
448,192,68045,1,0,0:0:0:0:
192,192,68119,1,0,0:0:0:0:
64,192,68192,1,0,0:0:0:0:
320,192,68192,1,0,0:0:0:0:
448,192,68192,1,0,0:0:0:0:
192,192,68265,1,0,0:0:0:0:
320,192,68339,1,0,0:0:0:0:
448,192,68339,1,0,0:0:0:0:
64,192,68412,1,0,0:0:0:0:
192,192,68485,1,0,0:0:0:0:
320,192,68485,1,0,0:0:0:0:
448,192,68485,1,0,0:0:0:0:
64,192,68559,1,0,0:0:0:0:
320,192,68632,1,0,0:0:0:0:
448,192,68632,1,0,0:0:0:0:
192,192,68705,1,0,0:0:0:0:
64,192,68779,1,0,0:0:0:0:
320,192,68779,1,0,0:0:0:0:
448,192,68779,1,0,0:0:0:0:
192,192,68852,1,0,0:0:0:0:
64,192,68925,1,0,0:0:0:0:
320,192,68925,1,0,0:0:0:0:
448,192,68999,1,0,0:0:0:0:
64,192,69072,1,0,0:0:0:0:
192,192,69072,1,0,0:0:0:0:
320,192,69072,1,0,0:0:0:0:
448,192,69145,1,0,0:0:0:0:
64,192,69219,1,0,0:0:0:0:
192,192,69219,1,0,0:0:0:0:
320,192,69292,1,0,0:0:0:0:
192,192,69366,1,0,0:0:0:0:
448,192,69366,1,0,0:0:0:0:
64,0,69366,128,0,69512:1:0:0:0:
448,0,69512,128,0,69659:1:0:0:0:
192,0,69659,128,0,69806:1:0:0:0:
320,0,69806,128,0,70099:1:0:0:0:
64,192,70099,1,0,0:0:0:0:
448,192,70099,1,0,0:0:0:0:
192,0,70099,128,0,70246:1:0:0:0:
64,192,70246,1,0,0:0:0:0:
448,192,70246,1,0,0:0:0:0:
320,0,70246,128,0,70392:1:0:0:0:
64,192,70392,1,0,0:0:0:0:
448,192,70392,1,0,0:0:0:0:
192,0,70392,128,0,70539:1:0:0:0:
64,192,70539,1,0,0:0:0:0:
320,192,70539,1,0,0:0:0:0:
448,192,70539,1,0,0:0:0:0:
192,192,70612,1,0,0:0:0:0:
320,192,70686,1,0,0:0:0:0:
64,192,70759,1,0,0:0:0:0:
192,192,70833,1,0,0:0:0:0:
320,192,70833,1,0,0:0:0:0:
448,192,70833,1,0,0:0:0:0:
64,192,70906,1,0,0:0:0:0:
320,192,70979,1,0,0:0:0:0:
448,192,70979,1,0,0:0:0:0:
192,192,71053,1,0,0:0:0:0:
64,192,71126,1,0,0:0:0:0:
320,192,71126,1,0,0:0:0:0:
448,192,71126,1,0,0:0:0:0:
192,192,71199,1,0,0:0:0:0:
320,192,71273,1,0,0:0:0:0:
64,192,71346,1,0,0:0:0:0:
192,192,71419,1,0,0:0:0:0:
320,192,71419,1,0,0:0:0:0:
448,192,71419,1,0,0:0:0:0:
64,192,71493,1,0,0:0:0:0:
192,192,71566,1,0,0:0:0:0:
320,192,71566,1,0,0:0:0:0:
448,192,71639,1,0,0:0:0:0:
64,192,71713,1,0,0:0:0:0:
192,192,71713,1,0,0:0:0:0:
320,192,71786,1,0,0:0:0:0:
192,192,71859,1,0,0:0:0:0:
448,192,71859,1,0,0:0:0:0:
320,192,71933,1,0,0:0:0:0:
64,192,72006,1,0,0:0:0:0:
448,192,72006,1,0,0:0:0:0:
192,192,72079,1,0,0:0:0:0:
64,192,72153,1,0,0:0:0:0:
320,192,72153,1,0,0:0:0:0:
448,192,72226,1,0,0:0:0:0:
192,192,72300,1,0,0:0:0:0:
320,192,72300,1,0,0:0:0:0:
64,192,72373,1,0,0:0:0:0:
192,192,72446,1,0,0:0:0:0:
320,192,72446,1,0,0:0:0:0:
448,192,72520,1,0,0:0:0:0:
64,192,72593,1,0,0:0:0:0:
192,192,72593,1,0,0:0:0:0:
320,192,72593,1,0,0:0:0:0:
448,192,72666,1,0,0:0:0:0:
64,192,72740,1,0,0:0:0:0:
192,192,72740,1,0,0:0:0:0:
320,192,72813,1,0,0:0:0:0:
64,192,72886,1,0,0:0:0:0:
192,192,72886,1,0,0:0:0:0:
448,192,72886,1,0,0:0:0:0:
320,192,72960,1,0,0:0:0:0:
192,192,73033,1,0,0:0:0:0:
448,192,73106,1,0,0:0:0:0:
64,192,73180,1,0,0:0:0:0:
192,192,73180,1,0,0:0:0:0:
320,192,73180,1,0,0:0:0:0:
448,192,73253,1,0,0:0:0:0:
64,192,73326,1,0,0:0:0:0:
192,192,73326,1,0,0:0:0:0:
320,192,73400,1,0,0:0:0:0:
64,192,73473,1,0,0:0:0:0:
192,192,73473,1,0,0:0:0:0:
448,192,73473,1,0,0:0:0:0:
320,192,73546,1,0,0:0:0:0:
64,192,73620,1,0,0:0:0:0:
192,192,73693,1,0,0:0:0:0:
320,192,73767,1,0,0:0:0:0:
448,192,73767,1,0,0:0:0:0:
64,192,73840,1,0,0:0:0:0:
192,192,73913,1,0,0:0:0:0:
320,192,73913,1,0,0:0:0:0:
64,192,73987,1,0,0:0:0:0:
320,192,74060,1,0,0:0:0:0:
448,192,74060,1,0,0:0:0:0:
192,192,74133,1,0,0:0:0:0:
64,192,74207,1,0,0:0:0:0:
320,192,74207,1,0,0:0:0:0:
192,192,74280,1,0,0:0:0:0:
64,192,74353,1,0,0:0:0:0:
320,192,74353,1,0,0:0:0:0:
448,192,74353,1,0,0:0:0:0:
192,192,74427,1,0,0:0:0:0:
320,192,74500,1,0,0:0:0:0:
448,192,74500,1,0,0:0:0:0:
64,192,74573,1,0,0:0:0:0:
192,192,74647,1,0,0:0:0:0:
320,192,74647,1,0,0:0:0:0:
448,192,74720,1,0,0:0:0:0:
64,192,74793,1,0,0:0:0:0:
320,192,74867,1,0,0:0:0:0:
192,192,74940,1,0,0:0:0:0:
448,192,74940,1,0,0:0:0:0:
64,192,75013,1,0,0:0:0:0:
320,192,75087,1,0,0:0:0:0:
448,192,75087,1,0,0:0:0:0:
192,192,75160,1,0,0:0:0:0:
64,192,75234,1,0,0:0:0:0:
320,192,75234,1,0,0:0:0:0:
448,192,75234,1,0,0:0:0:0:
192,192,75307,1,0,0:0:0:0:
320,192,75380,1,0,0:0:0:0:
64,192,75454,1,0,0:0:0:0:
320,192,75527,1,0,0:0:0:0:
448,192,75527,1,0,0:0:0:0:
192,192,75600,1,0,0:0:0:0:
448,192,75674,1,0,0:0:0:0:
320,192,75747,1,0,0:0:0:0:
64,192,75820,1,0,0:0:0:0:
192,192,75820,1,0,0:0:0:0:
448,192,75820,1,0,0:0:0:0:
320,192,75894,1,0,0:0:0:0:
448,192,75967,1,0,0:0:0:0:
64,192,76040,1,0,0:0:0:0:
192,192,76114,1,0,0:0:0:0:
320,192,76114,1,0,0:0:0:0:
448,192,76187,1,0,0:0:0:0:
64,192,76260,1,0,0:0:0:0:
192,192,76334,1,0,0:0:0:0:
64,192,76407,1,0,0:0:0:0:
320,192,76407,1,0,0:0:0:0:
448,192,76407,1,0,0:0:0:0:
192,192,76480,1,0,0:0:0:0:
448,192,76554,1,0,0:0:0:0:
320,192,76627,1,0,0:0:0:0:
64,192,76701,1,0,0:0:0:0:
192,192,76701,1,0,0:0:0:0:
448,192,76774,1,0,0:0:0:0:
320,192,76847,1,0,0:0:0:0:
64,192,76921,1,0,0:0:0:0:
192,192,76994,1,0,0:0:0:0:
320,192,76994,1,0,0:0:0:0:
448,192,76994,1,0,0:0:0:0:
64,192,77067,1,0,0:0:0:0:
320,192,77141,1,0,0:0:0:0:
192,192,77214,1,0,0:0:0:0:
64,192,77287,1,0,0:0:0:0:
320,192,77287,1,0,0:0:0:0:
448,192,77287,1,0,0:0:0:0:
192,192,77361,1,0,0:0:0:0:
320,192,77434,1,0,0:0:0:0:
64,192,77507,1,0,0:0:0:0:
192,192,77581,1,0,0:0:0:0:
320,192,77581,1,0,0:0:0:0:
448,192,77581,1,0,0:0:0:0:
64,192,77654,1,0,0:0:0:0:
320,192,77727,1,0,0:0:0:0:
448,192,77727,1,0,0:0:0:0:
64,192,77801,1,0,0:0:0:0:
192,192,77801,1,0,0:0:0:0:
320,192,77874,1,0,0:0:0:0:
448,192,77874,1,0,0:0:0:0:
64,192,77947,1,0,0:0:0:0:
192,192,78021,1,0,0:0:0:0:
320,192,78021,1,0,0:0:0:0:
448,192,78094,1,0,0:0:0:0:
64,192,78168,1,0,0:0:0:0:
192,192,78168,1,0,0:0:0:0:
320,192,78168,1,0,0:0:0:0:
448,192,78241,1,0,0:0:0:0:
64,192,78314,1,0,0:0:0:0:
320,192,78314,1,0,0:0:0:0:
192,192,78388,1,0,0:0:0:0:
448,192,78388,1,0,0:0:0:0:
64,192,78461,1,0,0:0:0:0:
320,192,78461,1,0,0:0:0:0:
192,192,78534,1,0,0:0:0:0:
320,192,78608,1,0,0:0:0:0:
448,192,78608,1,0,0:0:0:0:
64,192,78681,1,0,0:0:0:0:
192,192,78754,1,0,0:0:0:0:
320,192,78754,1,0,0:0:0:0:
448,192,78754,1,0,0:0:0:0:
64,192,78828,1,0,0:0:0:0:
320,192,78901,1,0,0:0:0:0:
192,192,78974,1,0,0:0:0:0:
64,192,79048,1,0,0:0:0:0:
448,192,79048,1,0,0:0:0:0:
320,192,79121,1,0,0:0:0:0:
192,192,79194,1,0,0:0:0:0:
448,192,79268,1,0,0:0:0:0:
64,192,79341,1,0,0:0:0:0:
192,192,79341,1,0,0:0:0:0:
320,192,79414,1,0,0:0:0:0:
64,192,79488,1,0,0:0:0:0:
448,192,79488,1,0,0:0:0:0:
320,192,79537,1,0,0:0:0:0:
192,192,79586,1,0,0:0:0:0:
64,192,79634,1,0,0:0:0:0:
320,192,79634,1,0,0:0:0:0:
448,192,79634,1,0,0:0:0:0:
192,192,79708,1,0,0:0:0:0:
64,192,79781,1,0,0:0:0:0:
448,192,79781,1,0,0:0:0:0:
320,192,79830,1,0,0:0:0:0:
192,192,79879,1,0,0:0:0:0:
64,192,79928,1,0,0:0:0:0:
320,192,79928,1,0,0:0:0:0:
448,192,79928,1,0,0:0:0:0:
192,192,80001,1,0,0:0:0:0:
448,192,80075,1,0,0:0:0:0:
320,192,80148,1,0,0:0:0:0:
64,192,80221,1,0,0:0:0:0:
192,192,80221,1,0,0:0:0:0:
448,192,80221,1,0,0:0:0:0:
320,192,80295,1,0,0:0:0:0:
64,192,80368,1,0,0:0:0:0:
192,192,80368,1,0,0:0:0:0:
448,192,80441,1,0,0:0:0:0:
64,192,80515,1,0,0:0:0:0:
192,192,80515,1,0,0:0:0:0:
320,192,80515,1,0,0:0:0:0:
448,192,80588,1,0,0:0:0:0:
192,192,80661,1,0,0:0:0:0:
320,192,80735,1,0,0:0:0:0:
64,192,80808,1,0,0:0:0:0:
192,192,80808,1,0,0:0:0:0:
448,192,80808,1,0,0:0:0:0:
320,192,80881,1,0,0:0:0:0:
64,192,80955,1,0,0:0:0:0:
448,192,80955,1,0,0:0:0:0:
192,192,81028,1,0,0:0:0:0:
320,192,81101,1,0,0:0:0:0:
448,192,81101,1,0,0:0:0:0:
64,192,81175,1,0,0:0:0:0:
192,192,81248,1,0,0:0:0:0:
448,192,81248,1,0,0:0:0:0:
320,192,81322,1,0,0:0:0:0:
64,192,81395,1,0,0:0:0:0:
192,192,81395,1,0,0:0:0:0:
448,192,81468,1,0,0:0:0:0:
64,192,81542,1,0,0:0:0:0:
192,192,81542,1,0,0:0:0:0:
320,192,81615,1,0,0:0:0:0:
64,192,81688,1,0,0:0:0:0:
448,192,81688,1,0,0:0:0:0:
192,192,81762,1,0,0:0:0:0:
320,192,81835,1,0,0:0:0:0:
448,192,81835,1,0,0:0:0:0:
64,192,81908,1,0,0:0:0:0:
192,192,81982,1,0,0:0:0:0:
320,192,81982,1,0,0:0:0:0:
448,192,81982,1,0,0:0:0:0:
64,192,82055,1,0,0:0:0:0:
320,192,82128,1,0,0:0:0:0:
448,192,82128,1,0,0:0:0:0:
192,192,82202,1,0,0:0:0:0:
64,192,82275,1,0,0:0:0:0:
320,192,82275,1,0,0:0:0:0:
448,192,82275,1,0,0:0:0:0:
192,192,82348,1,0,0:0:0:0:
320,192,82422,1,0,0:0:0:0:
64,192,82495,1,0,0:0:0:0:
192,192,82568,1,0,0:0:0:0:
320,192,82568,1,0,0:0:0:0:
448,192,82568,1,0,0:0:0:0:
64,192,82642,1,0,0:0:0:0:
192,192,82715,1,0,0:0:0:0:
448,192,82715,1,0,0:0:0:0:
320,192,82789,1,0,0:0:0:0:
64,192,82862,1,0,0:0:0:0:
192,192,82862,1,0,0:0:0:0:
448,192,82862,1,0,0:0:0:0:
320,192,82935,1,0,0:0:0:0:
448,192,83009,1,0,0:0:0:0:
64,192,83082,1,0,0:0:0:0:
192,192,83155,1,0,0:0:0:0:
320,192,83155,1,0,0:0:0:0:
448,192,83229,1,0,0:0:0:0:
64,192,83302,1,0,0:0:0:0:
192,192,83302,1,0,0:0:0:0:
320,192,83375,1,0,0:0:0:0:
64,192,83449,1,0,0:0:0:0:
448,192,83449,1,0,0:0:0:0:
192,192,83522,1,0,0:0:0:0:
64,192,83595,1,0,0:0:0:0:
320,192,83595,1,0,0:0:0:0:
192,192,83669,1,0,0:0:0:0:
64,192,83742,1,0,0:0:0:0:
320,192,83742,1,0,0:0:0:0:
448,192,83742,1,0,0:0:0:0:
192,192,83815,1,0,0:0:0:0:
320,192,83889,1,0,0:0:0:0:
448,192,83889,1,0,0:0:0:0:
64,192,83962,1,0,0:0:0:0:
320,192,84035,1,0,0:0:0:0:
448,192,84035,1,0,0:0:0:0:
192,192,84109,1,0,0:0:0:0:
64,192,84182,1,0,0:0:0:0:
320,192,84256,1,0,0:0:0:0:
192,192,84329,1,0,0:0:0:0:
448,192,84329,1,0,0:0:0:0:
64,192,84402,1,0,0:0:0:0:
320,192,84476,1,0,0:0:0:0:
192,192,84549,1,0,0:0:0:0:
320,192,84622,1,0,0:0:0:0:
448,192,84622,1,0,0:0:0:0:
64,192,84696,1,0,0:0:0:0:
320,192,84769,1,0,0:0:0:0:
192,192,84842,1,0,0:0:0:0:
64,192,84916,1,0,0:0:0:0:
320,192,84916,1,0,0:0:0:0:
448,192,84916,1,0,0:0:0:0:
192,192,84989,1,0,0:0:0:0:
320,192,85062,1,0,0:0:0:0:
64,192,85136,1,0,0:0:0:0:
192,192,85209,1,0,0:0:0:0:
320,192,85209,1,0,0:0:0:0:
448,192,85209,1,0,0:0:0:0:
64,192,85282,1,0,0:0:0:0:
320,192,85356,1,0,0:0:0:0:
448,192,85356,1,0,0:0:0:0:
192,192,85429,1,0,0:0:0:0:
64,192,85502,1,0,0:0:0:0:
320,192,85502,1,0,0:0:0:0:
448,192,85502,1,0,0:0:0:0:
192,192,85576,1,0,0:0:0:0:
64,192,85649,1,0,0:0:0:0:
320,192,85649,1,0,0:0:0:0:
448,192,85723,1,0,0:0:0:0:
64,192,85796,1,0,0:0:0:0:
192,192,85796,1,0,0:0:0:0:
320,192,85869,1,0,0:0:0:0:
192,192,85943,1,0,0:0:0:0:
448,192,85943,1,0,0:0:0:0:
320,192,86016,1,0,0:0:0:0:
64,192,86089,1,0,0:0:0:0:
192,192,86089,1,0,0:0:0:0:
448,192,86089,1,0,0:0:0:0:
320,192,86163,1,0,0:0:0:0:
64,192,86236,1,0,0:0:0:0:
192,192,86236,1,0,0:0:0:0:
448,192,86309,1,0,0:0:0:0:
64,192,86383,1,0,0:0:0:0:
320,192,86383,1,0,0:0:0:0:
192,192,86456,1,0,0:0:0:0:
320,192,86529,1,0,0:0:0:0:
448,192,86529,1,0,0:0:0:0:
64,192,86603,1,0,0:0:0:0:
192,192,86676,1,0,0:0:0:0:
320,192,86676,1,0,0:0:0:0:
448,192,86676,1,0,0:0:0:0:
64,192,86749,1,0,0:0:0:0:
320,192,86823,1,0,0:0:0:0:
192,192,86896,1,0,0:0:0:0:
64,192,86969,1,0,0:0:0:0:
320,192,86969,1,0,0:0:0:0:
448,192,86969,1,0,0:0:0:0:
192,192,87043,1,0,0:0:0:0:
320,192,87116,1,0,0:0:0:0:
64,192,87190,1,0,0:0:0:0:
192,192,87263,1,0,0:0:0:0:
448,192,87263,1,0,0:0:0:0:
64,192,87336,1,0,0:0:0:0:
320,192,87410,1,0,0:0:0:0:
448,192,87410,1,0,0:0:0:0:
192,192,87483,1,0,0:0:0:0:
64,192,87556,1,0,0:0:0:0:
448,192,87556,1,0,0:0:0:0:
320,192,87630,1,0,0:0:0:0:
64,192,87703,1,0,0:0:0:0:
192,192,87703,1,0,0:0:0:0:
448,192,87776,1,0,0:0:0:0:
64,192,87850,1,0,0:0:0:0:
192,192,87850,1,0,0:0:0:0:
320,192,87923,1,0,0:0:0:0:
64,192,87996,1,0,0:0:0:0:
448,192,87996,1,0,0:0:0:0:
192,192,88070,1,0,0:0:0:0:
320,192,88143,1,0,0:0:0:0:
448,192,88143,1,0,0:0:0:0:
192,192,88216,1,0,0:0:0:0:
64,192,88290,1,0,0:0:0:0:
448,192,88290,1,0,0:0:0:0:
192,192,88363,1,0,0:0:0:0:
320,192,88363,1,0,0:0:0:0:
64,192,88436,1,0,0:0:0:0:
448,192,88436,1,0,0:0:0:0:
320,192,88510,1,0,0:0:0:0:
64,192,88583,1,0,0:0:0:0:
192,192,88583,1,0,0:0:0:0:
320,192,88656,1,0,0:0:0:0:
64,192,88730,1,0,0:0:0:0:
192,192,88730,1,0,0:0:0:0:
448,192,88730,1,0,0:0:0:0:
320,192,88803,1,0,0:0:0:0:
192,192,88877,1,0,0:0:0:0:
448,192,88950,1,0,0:0:0:0:
64,192,89023,1,0,0:0:0:0:
192,192,89023,1,0,0:0:0:0:
320,192,89023,1,0,0:0:0:0:
448,192,89097,1,0,0:0:0:0:
64,192,89170,1,0,0:0:0:0:
192,192,89170,1,0,0:0:0:0:
320,192,89243,1,0,0:0:0:0:
448,192,89243,1,0,0:0:0:0:
64,192,89317,1,0,0:0:0:0:
192,192,89317,1,0,0:0:0:0:
448,192,89317,1,0,0:0:0:0:
320,192,89390,1,0,0:0:0:0:
192,192,89463,1,0,0:0:0:0:
64,192,89537,1,0,0:0:0:0:
192,192,89610,1,0,0:0:0:0:
320,192,89610,1,0,0:0:0:0:
448,192,89610,1,0,0:0:0:0:
64,192,89683,1,0,0:0:0:0:
320,192,89757,1,0,0:0:0:0:
448,192,89757,1,0,0:0:0:0:
192,192,89830,1,0,0:0:0:0:
64,192,89903,1,0,0:0:0:0:
320,192,89903,1,0,0:0:0:0:
448,192,89903,1,0,0:0:0:0:
192,192,89977,1,0,0:0:0:0:
320,192,90050,1,0,0:0:0:0:
448,192,90050,1,0,0:0:0:0:
64,192,90123,1,0,0:0:0:0:
192,192,90197,1,0,0:0:0:0:
320,192,90197,1,0,0:0:0:0:
448,192,90197,1,0,0:0:0:0:
64,192,90270,1,0,0:0:0:0:
192,192,90344,1,0,0:0:0:0:
320,192,90344,1,0,0:0:0:0:
448,192,90417,1,0,0:0:0:0:
64,192,90490,1,0,0:0:0:0:
192,192,90490,1,0,0:0:0:0:
320,192,90564,1,0,0:0:0:0:
192,192,90637,1,0,0:0:0:0:
448,192,90637,1,0,0:0:0:0:
320,192,90710,1,0,0:0:0:0:
64,192,90784,1,0,0:0:0:0:
192,192,90784,1,0,0:0:0:0:
448,192,90784,1,0,0:0:0:0:
320,192,90857,1,0,0:0:0:0:
64,192,90930,1,0,0:0:0:0:
192,192,90930,1,0,0:0:0:0:
448,192,91004,1,0,0:0:0:0:
64,192,91077,1,0,0:0:0:0:
192,192,91077,1,0,0:0:0:0:
320,192,91077,1,0,0:0:0:0:
448,192,91150,1,0,0:0:0:0:
192,192,91224,1,0,0:0:0:0:
320,192,91224,1,0,0:0:0:0:
64,192,91297,1,0,0:0:0:0:
192,192,91370,1,0,0:0:0:0:
320,192,91370,1,0,0:0:0:0:
448,192,91370,1,0,0:0:0:0:
64,192,91444,1,0,0:0:0:0:
192,192,91517,1,0,0:0:0:0:
448,192,91517,1,0,0:0:0:0:
320,192,91590,1,0,0:0:0:0:
64,192,91664,1,0,0:0:0:0:
192,192,91664,1,0,0:0:0:0:
448,192,91664,1,0,0:0:0:0:
320,192,91737,1,0,0:0:0:0:
192,192,91811,1,0,0:0:0:0:
448,192,91884,1,0,0:0:0:0:
64,192,91957,1,0,0:0:0:0:
192,192,91957,1,0,0:0:0:0:
320,192,91957,1,0,0:0:0:0:
448,192,92031,1,0,0:0:0:0:
64,192,92104,1,0,0:0:0:0:
192,192,92104,1,0,0:0:0:0:
320,192,92177,1,0,0:0:0:0:
64,192,92251,1,0,0:0:0:0:
192,192,92251,1,0,0:0:0:0:
448,192,92251,1,0,0:0:0:0:
320,192,92324,1,0,0:0:0:0:
64,192,92397,1,0,0:0:0:0:
448,192,92397,1,0,0:0:0:0:
192,192,92471,1,0,0:0:0:0:
320,192,92544,1,0,0:0:0:0:
448,192,92544,1,0,0:0:0:0:
64,192,92617,1,0,0:0:0:0:
192,192,92691,1,0,0:0:0:0:
320,192,92691,1,0,0:0:0:0:
64,192,92764,1,0,0:0:0:0:
320,192,92837,1,0,0:0:0:0:
448,192,92837,1,0,0:0:0:0:
192,192,92911,1,0,0:0:0:0:
64,192,92984,1,0,0:0:0:0:
320,192,92984,1,0,0:0:0:0:
192,192,93057,1,0,0:0:0:0:
64,192,93131,1,0,0:0:0:0:
320,192,93131,1,0,0:0:0:0:
448,192,93131,1,0,0:0:0:0:
192,192,93204,1,0,0:0:0:0:
320,192,93278,1,0,0:0:0:0:
448,192,93278,1,0,0:0:0:0:
64,192,93351,1,0,0:0:0:0:
192,192,93424,1,0,0:0:0:0:
320,192,93424,1,0,0:0:0:0:
448,192,93424,1,0,0:0:0:0:
64,192,93498,1,0,0:0:0:0:
320,192,93571,1,0,0:0:0:0:
192,192,93644,1,0,0:0:0:0:
64,192,93718,1,0,0:0:0:0:
320,192,93718,1,0,0:0:0:0:
448,192,93718,1,0,0:0:0:0:
192,192,93791,1,0,0:0:0:0:
320,192,93864,1,0,0:0:0:0:
448,192,93864,1,0,0:0:0:0:
64,192,93938,1,0,0:0:0:0:
192,192,94011,1,0,0:0:0:0:
320,192,94011,1,0,0:0:0:0:
448,192,94011,1,0,0:0:0:0:
64,192,94084,1,0,0:0:0:0:
320,192,94158,1,0,0:0:0:0:
192,192,94231,1,0,0:0:0:0:
64,192,94304,1,0,0:0:0:0:
320,192,94304,1,0,0:0:0:0:
448,192,94304,1,0,0:0:0:0:
192,192,94378,1,0,0:0:0:0:
448,192,94451,1,0,0:0:0:0:
320,192,94524,1,0,0:0:0:0:
64,192,94598,1,0,0:0:0:0:
192,192,94598,1,0,0:0:0:0:
448,192,94598,1,0,0:0:0:0:
320,192,94671,1,0,0:0:0:0:
192,192,94745,1,0,0:0:0:0:
448,192,94745,1,0,0:0:0:0:
64,192,94818,1,0,0:0:0:0:
192,192,94891,1,0,0:0:0:0:
320,192,94891,1,0,0:0:0:0:
448,192,94965,1,0,0:0:0:0:
64,192,95038,1,0,0:0:0:0:
320,192,95038,1,0,0:0:0:0:
192,192,95111,1,0,0:0:0:0:
64,192,95185,1,0,0:0:0:0:
320,192,95185,1,0,0:0:0:0:
448,192,95185,1,0,0:0:0:0:
192,192,95258,1,0,0:0:0:0:
64,192,95331,1,0,0:0:0:0:
448,192,95331,1,0,0:0:0:0:
320,192,95405,1,0,0:0:0:0:
64,192,95478,1,0,0:0:0:0:
192,192,95478,1,0,0:0:0:0:
448,192,95478,1,0,0:0:0:0:
320,192,95551,1,0,0:0:0:0:
192,192,95625,1,0,0:0:0:0:
64,192,95698,1,0,0:0:0:0:
192,192,95771,1,0,0:0:0:0:
320,192,95771,1,0,0:0:0:0:
448,192,95771,1,0,0:0:0:0:
64,192,95845,1,0,0:0:0:0:
320,192,95918,1,0,0:0:0:0:
192,192,95991,1,0,0:0:0:0:
64,192,96065,1,0,0:0:0:0:
320,192,96065,1,0,0:0:0:0:
448,192,96065,1,0,0:0:0:0:
192,192,96138,1,0,0:0:0:0:
320,192,96212,1,0,0:0:0:0:
64,192,96285,1,0,0:0:0:0:
192,192,96358,1,0,0:0:0:0:
320,192,96358,1,0,0:0:0:0:
448,192,96358,1,0,0:0:0:0:
64,192,96432,1,0,0:0:0:0:
320,192,96505,1,0,0:0:0:0:
448,192,96505,1,0,0:0:0:0:
64,192,96578,1,0,0:0:0:0:
192,192,96578,1,0,0:0:0:0:
320,192,96652,1,0,0:0:0:0:
448,192,96652,1,0,0:0:0:0:
64,192,96725,1,0,0:0:0:0:
192,192,96798,1,0,0:0:0:0:
320,192,96798,1,0,0:0:0:0:
448,192,96872,1,0,0:0:0:0:
64,192,96945,1,0,0:0:0:0:
192,192,96945,1,0,0:0:0:0:
320,192,96945,1,0,0:0:0:0:
448,192,97018,1,0,0:0:0:0:
64,192,97092,1,0,0:0:0:0:
320,192,97092,1,0,0:0:0:0:
192,192,97165,1,0,0:0:0:0:
448,192,97165,1,0,0:0:0:0:
64,192,97238,1,0,0:0:0:0:
320,192,97238,1,0,0:0:0:0:
192,192,97312,1,0,0:0:0:0:
320,192,97385,1,0,0:0:0:0:
448,192,97385,1,0,0:0:0:0:
64,192,97458,1,0,0:0:0:0:
192,192,97532,1,0,0:0:0:0:
320,192,97532,1,0,0:0:0:0:
448,192,97532,1,0,0:0:0:0:
64,192,97605,1,0,0:0:0:0:
320,192,97679,1,0,0:0:0:0:
448,192,97679,1,0,0:0:0:0:
192,192,97752,1,0,0:0:0:0:
64,192,97825,1,0,0:0:0:0:
320,192,97825,1,0,0:0:0:0:
448,192,97825,1,0,0:0:0:0:
192,192,97899,1,0,0:0:0:0:
448,192,97972,1,0,0:0:0:0:
320,192,98045,1,0,0:0:0:0:
64,192,98119,1,0,0:0:0:0:
192,192,98119,1,0,0:0:0:0:
448,192,98119,1,0,0:0:0:0:
320,192,98192,1,0,0:0:0:0:
64,192,98265,1,0,0:0:0:0:
448,192,98265,1,0,0:0:0:0:
320,192,98314,1,0,0:0:0:0:
192,192,98363,1,0,0:0:0:0:
64,192,98412,1,0,0:0:0:0:
320,192,98412,1,0,0:0:0:0:
448,192,98412,1,0,0:0:0:0:
192,192,98485,1,0,0:0:0:0:
64,192,98559,1,0,0:0:0:0:
448,192,98559,1,0,0:0:0:0:
320,192,98608,1,0,0:0:0:0:
192,192,98656,1,0,0:0:0:0:
64,192,98705,1,0,0:0:0:0:
320,192,98705,1,0,0:0:0:0:
448,192,98705,1,0,0:0:0:0:
192,192,98779,1,0,0:0:0:0:
448,192,98852,1,0,0:0:0:0:
320,192,98925,1,0,0:0:0:0:
64,192,98999,1,0,0:0:0:0:
192,192,98999,1,0,0:0:0:0:
448,192,98999,1,0,0:0:0:0:
320,192,99072,1,0,0:0:0:0:
64,192,99145,1,0,0:0:0:0:
192,192,99145,1,0,0:0:0:0:
448,192,99219,1,0,0:0:0:0:
64,192,99292,1,0,0:0:0:0:
192,192,99292,1,0,0:0:0:0:
320,192,99292,1,0,0:0:0:0:
448,192,99366,1,0,0:0:0:0:
192,192,99439,1,0,0:0:0:0:
320,192,99512,1,0,0:0:0:0:
64,192,99586,1,0,0:0:0:0:
192,192,99586,1,0,0:0:0:0:
448,192,99586,1,0,0:0:0:0:
320,192,99659,1,0,0:0:0:0:
64,192,99732,1,0,0:0:0:0:
448,192,99732,1,0,0:0:0:0:
192,192,99806,1,0,0:0:0:0:
320,192,99879,1,0,0:0:0:0:
448,192,99879,1,0,0:0:0:0:
64,192,99952,1,0,0:0:0:0:
192,192,100026,1,0,0:0:0:0:
448,192,100026,1,0,0:0:0:0:
320,192,100099,1,0,0:0:0:0:
64,192,100172,1,0,0:0:0:0:
192,192,100172,1,0,0:0:0:0:
448,192,100172,1,0,0:0:0:0:
320,192,100246,1,0,0:0:0:0:
64,192,100319,1,0,0:0:0:0:
192,192,100319,1,0,0:0:0:0:
320,192,100392,1,0,0:0:0:0:
64,192,100466,1,0,0:0:0:0:
192,192,100466,1,0,0:0:0:0:
448,192,100466,1,0,0:0:0:0:
320,192,100539,1,0,0:0:0:0:
192,192,100612,1,0,0:0:0:0:
448,192,100612,1,0,0:0:0:0:
64,192,100686,1,0,0:0:0:0:
192,192,100759,1,0,0:0:0:0:
320,192,100759,1,0,0:0:0:0:
448,192,100759,1,0,0:0:0:0:
64,192,100833,1,0,0:0:0:0:
320,192,100906,1,0,0:0:0:0:
448,192,100906,1,0,0:0:0:0:
192,192,100979,1,0,0:0:0:0:
64,192,101053,1,0,0:0:0:0:
320,192,101053,1,0,0:0:0:0:
448,192,101053,1,0,0:0:0:0:
192,192,101126,1,0,0:0:0:0:
320,192,101199,1,0,0:0:0:0:
64,192,101273,1,0,0:0:0:0:
192,192,101346,1,0,0:0:0:0:
320,192,101346,1,0,0:0:0:0:
448,192,101346,1,0,0:0:0:0:
64,192,101419,1,0,0:0:0:0:
192,192,101493,1,0,0:0:0:0:
448,192,101493,1,0,0:0:0:0:
320,192,101566,1,0,0:0:0:0:
64,192,101639,1,0,0:0:0:0:
192,192,101639,1,0,0:0:0:0:
448,192,101639,1,0,0:0:0:0:
320,192,101713,1,0,0:0:0:0:
192,192,101786,1,0,0:0:0:0:
448,192,101786,1,0,0:0:0:0:
64,192,101859,1,0,0:0:0:0:
192,192,101933,1,0,0:0:0:0:
320,192,101933,1,0,0:0:0:0:
448,192,102006,1,0,0:0:0:0:
64,192,102079,1,0,0:0:0:0:
192,192,102079,1,0,0:0:0:0:
320,192,102153,1,0,0:0:0:0:
64,192,102226,1,0,0:0:0:0:
448,192,102226,1,0,0:0:0:0:
192,192,102300,1,0,0:0:0:0:
64,192,102373,1,0,0:0:0:0:
320,192,102373,1,0,0:0:0:0:
192,192,102446,1,0,0:0:0:0:
64,192,102520,1,0,0:0:0:0:
320,192,102520,1,0,0:0:0:0:
448,192,102520,1,0,0:0:0:0:
192,192,102593,1,0,0:0:0:0:
320,192,102666,1,0,0:0:0:0:
448,192,102666,1,0,0:0:0:0:
64,192,102740,1,0,0:0:0:0:
192,192,102813,1,0,0:0:0:0:
320,192,102813,1,0,0:0:0:0:
448,192,102813,1,0,0:0:0:0:
64,192,102886,1,0,0:0:0:0:
320,192,102960,1,0,0:0:0:0:
192,192,103033,1,0,0:0:0:0:
64,192,103106,1,0,0:0:0:0:
320,192,103106,1,0,0:0:0:0:
448,192,103106,1,0,0:0:0:0:
192,192,103180,1,0,0:0:0:0:
320,192,103253,1,0,0:0:0:0:
64,192,103326,1,0,0:0:0:0:
192,192,103400,1,0,0:0:0:0:
320,192,103400,1,0,0:0:0:0:
448,192,103400,1,0,0:0:0:0:
64,192,103473,1,0,0:0:0:0:
320,192,103546,1,0,0:0:0:0:
192,192,103620,1,0,0:0:0:0:
64,192,103693,1,0,0:0:0:0:
320,192,103693,1,0,0:0:0:0:
448,192,103693,1,0,0:0:0:0:
192,192,103767,1,0,0:0:0:0:
448,192,103840,1,0,0:0:0:0:
320,192,103913,1,0,0:0:0:0:
64,192,103987,1,0,0:0:0:0:
192,192,103987,1,0,0:0:0:0:
448,192,103987,1,0,0:0:0:0:
320,192,104060,1,0,0:0:0:0:
64,192,104133,1,0,0:0:0:0:
448,192,104133,1,0,0:0:0:0:
192,192,104207,1,0,0:0:0:0:
64,192,104280,1,0,0:0:0:0:
320,192,104280,1,0,0:0:0:0:
448,192,104280,1,0,0:0:0:0:
192,192,104353,1,0,0:0:0:0:
64,192,104427,1,0,0:0:0:0:
320,192,104427,1,0,0:0:0:0:
448,192,104500,1,0,0:0:0:0:
64,192,104573,1,0,0:0:0:0:
192,192,104573,1,0,0:0:0:0:
320,192,104647,1,0,0:0:0:0:
192,192,104720,1,0,0:0:0:0:
448,192,104720,1,0,0:0:0:0:
320,192,104793,1,0,0:0:0:0:
64,192,104867,1,0,0:0:0:0:
192,192,104867,1,0,0:0:0:0:
448,192,104867,1,0,0:0:0:0:
320,192,104940,1,0,0:0:0:0:
64,192,105013,1,0,0:0:0:0:
192,192,105013,1,0,0:0:0:0:
320,192,105087,1,0,0:0:0:0:
64,192,105160,1,0,0:0:0:0:
192,192,105160,1,0,0:0:0:0:
448,192,105160,1,0,0:0:0:0:
320,192,105234,1,0,0:0:0:0:
192,192,105307,1,0,0:0:0:0:
448,192,105307,1,0,0:0:0:0:
64,192,105380,1,0,0:0:0:0:
192,192,105454,1,0,0:0:0:0:
320,192,105454,1,0,0:0:0:0:
448,192,105454,1,0,0:0:0:0:
64,192,105527,1,0,0:0:0:0:
320,192,105600,1,0,0:0:0:0:
192,192,105674,1,0,0:0:0:0:
64,192,105747,1,0,0:0:0:0:
320,192,105747,1,0,0:0:0:0:
448,192,105747,1,0,0:0:0:0:
192,192,105820,1,0,0:0:0:0:
320,192,105894,1,0,0:0:0:0:
64,192,105967,1,0,0:0:0:0:
192,192,106040,1,0,0:0:0:0:
448,192,106040,1,0,0:0:0:0:
64,192,106114,1,0,0:0:0:0:
320,192,106187,1,0,0:0:0:0:
192,192,106260,1,0,0:0:0:0:
64,192,106334,1,0,0:0:0:0:
448,192,106334,1,0,0:0:0:0:
320,192,106407,1,0,0:0:0:0:
64,192,106480,1,0,0:0:0:0:
192,192,106480,1,0,0:0:0:0:
448,192,106554,1,0,0:0:0:0:
64,192,106627,1,0,0:0:0:0:
192,192,106627,1,0,0:0:0:0:
320,192,106701,1,0,0:0:0:0:
64,192,106774,1,0,0:0:0:0:
448,192,106774,1,0,0:0:0:0:
192,192,106847,1,0,0:0:0:0:
320,192,106921,1,0,0:0:0:0:
448,192,106921,1,0,0:0:0:0:
192,192,106994,1,0,0:0:0:0:
64,192,107067,1,0,0:0:0:0:
448,192,107067,1,0,0:0:0:0:
320,192,107141,1,0,0:0:0:0:
64,192,107214,1,0,0:0:0:0:
192,192,107214,1,0,0:0:0:0:
448,192,107287,1,0,0:0:0:0:
320,192,107361,1,0,0:0:0:0:
64,192,107434,1,0,0:0:0:0:
192,192,107507,1,0,0:0:0:0:
448,192,107507,1,0,0:0:0:0:
320,192,107581,1,0,0:0:0:0:
64,192,107654,1,0,0:0:0:0:
192,192,107703,1,0,0:0:0:0:
320,192,107752,1,0,0:0:0:0:
64,192,107801,1,0,0:0:0:0:
448,192,107801,1,0,0:0:0:0:
320,192,107874,1,0,0:0:0:0:
64,192,107947,1,0,0:0:0:0:
192,192,107996,1,0,0:0:0:0:
320,192,108045,1,0,0:0:0:0:
64,192,108094,1,0,0:0:0:0:
192,192,108094,1,0,0:0:0:0:
448,192,108094,1,0,0:0:0:0:
320,192,108167,1,0,0:0:0:0:
448,192,108241,1,0,0:0:0:0:
192,192,108314,1,0,0:0:0:0:
64,192,108388,1,0,0:0:0:0:
320,192,108388,1,0,0:0:0:0:
448,192,108388,1,0,0:0:0:0:
192,192,108461,1,0,0:0:0:0:
320,192,108534,1,0,0:0:0:0:
64,192,108608,1,0,0:0:0:0:
192,192,108681,1,0,0:0:0:0:
320,192,108681,1,0,0:0:0:0:
448,192,108681,1,0,0:0:0:0:
64,192,108754,1,0,0:0:0:0:
320,192,108828,1,0,0:0:0:0:
448,192,108828,1,0,0:0:0:0:
192,192,108901,1,0,0:0:0:0:
64,192,108974,1,0,0:0:0:0:
448,192,108974,1,0,0:0:0:0:
320,192,109048,1,0,0:0:0:0:
192,192,109121,1,0,0:0:0:0:
448,192,109121,1,0,0:0:0:0:
64,192,109194,1,0,0:0:0:0:
192,192,109268,1,0,0:0:0:0:
320,192,109268,1,0,0:0:0:0:
448,192,109341,1,0,0:0:0:0:
64,192,109414,1,0,0:0:0:0:
192,192,109414,1,0,0:0:0:0:
320,192,109488,1,0,0:0:0:0:
64,192,109561,1,0,0:0:0:0:
192,192,109561,1,0,0:0:0:0:
448,192,109561,1,0,0:0:0:0:
320,192,109634,1,0,0:0:0:0:
448,192,109708,1,0,0:0:0:0:
192,192,109781,1,0,0:0:0:0:
64,192,109855,1,0,0:0:0:0:
320,192,109855,1,0,0:0:0:0:
448,192,109855,1,0,0:0:0:0:
192,192,109928,1,0,0:0:0:0:
320,192,110001,1,0,0:0:0:0:
448,192,110001,1,0,0:0:0:0:
64,192,110075,1,0,0:0:0:0:
192,192,110148,1,0,0:0:0:0:
320,192,110148,1,0,0:0:0:0:
448,192,110148,1,0,0:0:0:0:
64,192,110221,1,0,0:0:0:0:
192,192,110295,1,0,0:0:0:0:
448,192,110295,1,0,0:0:0:0:
320,192,110368,1,0,0:0:0:0:
64,192,110441,1,0,0:0:0:0:
192,192,110441,1,0,0:0:0:0:
448,192,110441,1,0,0:0:0:0:
320,192,110515,1,0,0:0:0:0:
192,192,110588,1,0,0:0:0:0:
64,192,110661,1,0,0:0:0:0:
192,192,110735,1,0,0:0:0:0:
320,192,110735,1,0,0:0:0:0:
448,192,110735,1,0,0:0:0:0:
64,192,110808,1,0,0:0:0:0:
320,192,110881,1,0,0:0:0:0:
192,192,110955,1,0,0:0:0:0:
64,192,111028,1,0,0:0:0:0:
320,192,111028,1,0,0:0:0:0:
448,192,111028,1,0,0:0:0:0:
192,192,111101,1,0,0:0:0:0:
64,192,111175,1,0,0:0:0:0:
320,192,111175,1,0,0:0:0:0:
448,192,111248,1,0,0:0:0:0:
64,192,111322,1,0,0:0:0:0:
192,192,111322,1,0,0:0:0:0:
320,192,111395,1,0,0:0:0:0:
64,192,111468,1,0,0:0:0:0:
448,192,111468,1,0,0:0:0:0:
192,192,111542,1,0,0:0:0:0:
320,192,111615,1,0,0:0:0:0:
448,192,111615,1,0,0:0:0:0:
64,192,111688,1,0,0:0:0:0:
192,192,111762,1,0,0:0:0:0:
448,192,111762,1,0,0:0:0:0:
64,192,111835,1,0,0:0:0:0:
192,192,111908,1,0,0:0:0:0:
320,192,111908,1,0,0:0:0:0:
448,192,111908,1,0,0:0:0:0:
64,192,111982,1,0,0:0:0:0:
320,192,112055,1,0,0:0:0:0:
192,192,112128,1,0,0:0:0:0:
64,192,112202,1,0,0:0:0:0:
320,192,112202,1,0,0:0:0:0:
448,192,112202,1,0,0:0:0:0:
192,192,112275,1,0,0:0:0:0:
448,192,112348,1,0,0:0:0:0:
320,192,112422,1,0,0:0:0:0:
64,192,112495,1,0,0:0:0:0:
192,192,112495,1,0,0:0:0:0:
448,192,112495,1,0,0:0:0:0:
320,192,112568,1,0,0:0:0:0:
192,192,112642,1,0,0:0:0:0:
64,192,112715,1,0,0:0:0:0:
192,192,112789,1,0,0:0:0:0:
320,192,112789,1,0,0:0:0:0:
448,192,112789,1,0,0:0:0:0:
64,192,112862,1,0,0:0:0:0:
320,192,112935,1,0,0:0:0:0:
192,192,113009,1,0,0:0:0:0:
64,192,113082,1,0,0:0:0:0:
448,192,113082,1,0,0:0:0:0:
192,192,113155,1,0,0:0:0:0:
448,192,113229,1,0,0:0:0:0:
320,192,113302,1,0,0:0:0:0:
64,192,113375,1,0,0:0:0:0:
448,192,113375,1,0,0:0:0:0:
192,192,113449,1,0,0:0:0:0:
320,192,113522,1,0,0:0:0:0:
64,192,113595,1,0,0:0:0:0:
192,192,113669,1,0,0:0:0:0:
448,192,113669,1,0,0:0:0:0:
320,192,113742,1,0,0:0:0:0:
64,192,113815,1,0,0:0:0:0:
192,192,113815,1,0,0:0:0:0:
448,192,113889,1,0,0:0:0:0:
192,192,113962,1,0,0:0:0:0:
320,192,113962,1,0,0:0:0:0:
64,192,114035,1,0,0:0:0:0:
320,192,114109,1,0,0:0:0:0:
448,192,114109,1,0,0:0:0:0:
192,192,114182,1,0,0:0:0:0:
64,192,114256,1,0,0:0:0:0:
448,192,114256,1,0,0:0:0:0:
192,192,114329,1,0,0:0:0:0:
320,192,114402,1,0,0:0:0:0:
64,192,114476,1,0,0:0:0:0:
192,192,114549,1,0,0:0:0:0:
320,192,114549,1,0,0:0:0:0:
448,192,114622,1,0,0:0:0:0:
64,192,114696,1,0,0:0:0:0:
320,192,114769,1,0,0:0:0:0:
192,192,114842,1,0,0:0:0:0:
448,192,114842,1,0,0:0:0:0:
64,192,114916,1,0,0:0:0:0:
320,192,114989,1,0,0:0:0:0:
448,192,114989,1,0,0:0:0:0:
192,192,115062,1,0,0:0:0:0:
64,192,115136,1,0,0:0:0:0:
448,192,115136,1,0,0:0:0:0:
320,192,115209,1,0,0:0:0:0:
192,192,115282,1,0,0:0:0:0:
64,192,115356,1,0,0:0:0:0:
192,192,115429,1,0,0:0:0:0:
320,192,115429,1,0,0:0:0:0:
448,192,115502,1,0,0:0:0:0:
192,192,115576,1,0,0:0:0:0:
320,192,115649,1,0,0:0:0:0:
64,192,115723,1,0,0:0:0:0:
448,192,115723,1,0,0:0:0:0:
192,192,115796,1,0,0:0:0:0:
448,192,115869,1,0,0:0:0:0:
320,192,115943,1,0,0:0:0:0:
64,192,116016,1,0,0:0:0:0:
192,192,116016,1,0,0:0:0:0:
320,192,116089,1,0,0:0:0:0:
64,192,116163,1,0,0:0:0:0:
448,192,116163,1,0,0:0:0:0:
192,192,116236,1,0,0:0:0:0:
320,192,116309,1,0,0:0:0:0:
64,192,116383,1,0,0:0:0:0:
320,192,116456,1,0,0:0:0:0:
448,192,116456,1,0,0:0:0:0:
192,192,116529,1,0,0:0:0:0:
64,192,116603,1,0,0:0:0:0:
320,192,116603,1,0,0:0:0:0:
448,192,116676,1,0,0:0:0:0:
64,192,116749,1,0,0:0:0:0:
192,192,116823,1,0,0:0:0:0:
320,192,116896,1,0,0:0:0:0:
448,192,116896,1,0,0:0:0:0:
64,192,116969,1,0,0:0:0:0:
320,192,117043,1,0,0:0:0:0:
192,192,117116,1,0,0:0:0:0:
64,192,117190,1,0,0:0:0:0:
448,192,117190,1,0,0:0:0:0:
320,192,117263,1,0,0:0:0:0:
64,192,117336,1,0,0:0:0:0:
192,192,117410,1,0,0:0:0:0:
64,192,117483,1,0,0:0:0:0:
320,192,117483,1,0,0:0:0:0:
448,192,117483,1,0,0:0:0:0:
192,192,117556,1,0,0:0:0:0:
448,192,117630,1,0,0:0:0:0:
320,192,117703,1,0,0:0:0:0:
64,192,117776,1,0,0:0:0:0:
192,192,117776,1,0,0:0:0:0:
448,192,117776,1,0,0:0:0:0:
320,192,117850,1,0,0:0:0:0:
192,192,117923,1,0,0:0:0:0:
64,192,117996,1,0,0:0:0:0:
192,192,118070,1,0,0:0:0:0:
320,192,118070,1,0,0:0:0:0:
448,192,118070,1,0,0:0:0:0:
64,192,118143,1,0,0:0:0:0:
192,192,118216,1,0,0:0:0:0:
448,192,118216,1,0,0:0:0:0:
320,192,118290,1,0,0:0:0:0:
64,192,118363,1,0,0:0:0:0:
192,192,118363,1,0,0:0:0:0:
320,192,118436,1,0,0:0:0:0:
64,192,118510,1,0,0:0:0:0:
448,192,118510,1,0,0:0:0:0:
192,192,118583,1,0,0:0:0:0:
320,192,118656,1,0,0:0:0:0:
448,192,118656,1,0,0:0:0:0:
64,192,118730,1,0,0:0:0:0:
192,192,118803,1,0,0:0:0:0:
448,192,118803,1,0,0:0:0:0:
320,192,118877,1,0,0:0:0:0:
64,192,118950,1,0,0:0:0:0:
192,192,118950,1,0,0:0:0:0:
448,192,118950,1,0,0:0:0:0:
320,192,119023,1,0,0:0:0:0:
64,192,119097,1,0,0:0:0:0:
192,192,119170,1,0,0:0:0:0:
64,192,119243,1,0,0:0:0:0:
320,192,119243,1,0,0:0:0:0:
448,192,119243,1,0,0:0:0:0:
192,192,119317,1,0,0:0:0:0:
320,192,119390,1,0,0:0:0:0:
448,192,119390,1,0,0:0:0:0:
64,192,119463,1,0,0:0:0:0:
192,192,119537,1,0,0:0:0:0:
320,192,119537,1,0,0:0:0:0:
448,192,119537,1,0,0:0:0:0:
64,192,119610,1,0,0:0:0:0:
192,192,119683,1,0,0:0:0:0:
448,192,119683,1,0,0:0:0:0:
320,192,119757,1,0,0:0:0:0:
64,192,119830,1,0,0:0:0:0:
192,192,119830,1,0,0:0:0:0:
448,192,119830,1,0,0:0:0:0:
320,192,119903,1,0,0:0:0:0:
64,192,119977,1,0,0:0:0:0:
192,192,119977,1,0,0:0:0:0:
320,192,120050,1,0,0:0:0:0:
64,192,120123,1,0,0:0:0:0:
192,192,120123,1,0,0:0:0:0:
448,192,120123,1,0,0:0:0:0:
320,192,120197,1,0,0:0:0:0:
448,192,120270,1,0,0:0:0:0:
64,192,120344,1,0,0:0:0:0:
192,192,120417,1,0,0:0:0:0:
320,192,120417,1,0,0:0:0:0:
448,192,120490,1,0,0:0:0:0:
64,192,120564,1,0,0:0:0:0:
320,192,120637,1,0,0:0:0:0:
64,192,120710,1,0,0:0:0:0:
192,192,120710,1,0,0:0:0:0:
448,192,120710,1,0,0:0:0:0:
320,192,120784,1,0,0:0:0:0:
192,192,120857,1,0,0:0:0:0:
448,192,120930,1,0,0:0:0:0:
64,192,121004,1,0,0:0:0:0:
192,192,121004,1,0,0:0:0:0:
320,192,121077,1,0,0:0:0:0:
448,192,121150,1,0,0:0:0:0:
64,192,121224,1,0,0:0:0:0:
192,192,121297,1,0,0:0:0:0:
320,192,121297,1,0,0:0:0:0:
448,192,121297,1,0,0:0:0:0:
64,192,121370,1,0,0:0:0:0:
448,192,121444,1,0,0:0:0:0:
320,192,121517,1,0,0:0:0:0:
64,192,121590,1,0,0:0:0:0:
192,192,121590,1,0,0:0:0:0:
448,192,121664,1,0,0:0:0:0:
192,192,121737,1,0,0:0:0:0:
320,192,121811,1,0,0:0:0:0:
64,192,121884,1,0,0:0:0:0:
192,192,121884,1,0,0:0:0:0:
448,192,121884,1,0,0:0:0:0:
320,192,121957,1,0,0:0:0:0:
192,192,122031,1,0,0:0:0:0:
64,192,122104,1,0,0:0:0:0:
320,192,122177,1,0,0:0:0:0:
448,192,122177,1,0,0:0:0:0:
192,192,122251,1,0,0:0:0:0:
320,192,122324,1,0,0:0:0:0:
64,192,122397,1,0,0:0:0:0:
192,192,122471,1,0,0:0:0:0:
320,192,122471,1,0,0:0:0:0:
448,192,122471,1,0,0:0:0:0:
64,192,122544,1,0,0:0:0:0:
320,192,122617,1,0,0:0:0:0:
448,192,122691,1,0,0:0:0:0:
64,192,122764,1,0,0:0:0:0:
192,192,122764,1,0,0:0:0:0:
320,192,122837,1,0,0:0:0:0:
448,192,122911,1,0,0:0:0:0:
192,192,122984,1,0,0:0:0:0:
64,192,123057,1,0,0:0:0:0:
320,192,123057,1,0,0:0:0:0:
448,192,123057,1,0,0:0:0:0:
192,192,123131,1,0,0:0:0:0:
320,192,123204,1,0,0:0:0:0:
64,192,123278,1,0,0:0:0:0:
192,192,123351,1,0,0:0:0:0:
448,192,123351,1,0,0:0:0:0:
320,192,123424,1,0,0:0:0:0:
448,192,123498,1,0,0:0:0:0:
192,192,123571,1,0,0:0:0:0:
64,192,123644,1,0,0:0:0:0:
320,192,123644,1,0,0:0:0:0:
448,192,123644,1,0,0:0:0:0:
192,192,123718,1,0,0:0:0:0:
320,192,123791,1,0,0:0:0:0:
64,192,123864,1,0,0:0:0:0:
192,192,123938,1,0,0:0:0:0:
320,192,123938,1,0,0:0:0:0:
448,192,124011,1,0,0:0:0:0:
192,192,124084,1,0,0:0:0:0:
64,192,124158,1,0,0:0:0:0:
192,192,124231,1,0,0:0:0:0:
320,192,124231,1,0,0:0:0:0:
448,192,124231,1,0,0:0:0:0:
64,192,124304,1,0,0:0:0:0:
448,192,124378,1,0,0:0:0:0:
320,192,124451,1,0,0:0:0:0:
64,192,124524,1,0,0:0:0:0:
192,192,124524,1,0,0:0:0:0:
448,192,124598,1,0,0:0:0:0:
192,192,124671,1,0,0:0:0:0:
320,192,124745,1,0,0:0:0:0:
64,192,124818,1,0,0:0:0:0:
192,192,124818,1,0,0:0:0:0:
448,192,124818,1,0,0:0:0:0:
320,192,124891,1,0,0:0:0:0:
448,192,124965,1,0,0:0:0:0:
192,192,125038,1,0,0:0:0:0:
64,192,125111,1,0,0:0:0:0:
320,192,125111,1,0,0:0:0:0:
448,192,125185,1,0,0:0:0:0:
192,192,125258,1,0,0:0:0:0:
320,192,125331,1,0,0:0:0:0:
64,192,125405,1,0,0:0:0:0:
192,192,125405,1,0,0:0:0:0:
448,192,125405,1,0,0:0:0:0:
320,192,125478,1,0,0:0:0:0:
192,192,125551,1,0,0:0:0:0:
64,192,125625,1,0,0:0:0:0:
320,192,125698,1,0,0:0:0:0:
448,192,125698,1,0,0:0:0:0:
192,192,125771,1,0,0:0:0:0:
320,192,125845,1,0,0:0:0:0:
64,192,125918,1,0,0:0:0:0:
192,192,125991,1,0,0:0:0:0:
320,192,125991,1,0,0:0:0:0:
448,192,125991,1,0,0:0:0:0:
64,192,126065,1,0,0:0:0:0:
192,192,126138,1,0,0:0:0:0:
448,192,126212,1,0,0:0:0:0:
64,192,126285,1,0,0:0:0:0:
320,192,126285,1,0,0:0:0:0:
192,192,126358,1,0,0:0:0:0:
320,192,126432,1,0,0:0:0:0:
64,192,126505,1,0,0:0:0:0:
192,192,126578,1,0,0:0:0:0:
320,192,126578,1,0,0:0:0:0:
448,192,126578,1,0,0:0:0:0:
64,192,126652,1,0,0:0:0:0:
320,192,126725,1,0,0:0:0:0:
448,192,126725,1,0,0:0:0:0:
64,192,126798,1,0,0:0:0:0:
192,192,126798,1,0,0:0:0:0:
320,192,126872,1,0,0:0:0:0:
448,192,126872,1,0,0:0:0:0:
64,192,126945,1,0,0:0:0:0:
320,192,127018,1,0,0:0:0:0:
448,192,127018,1,0,0:0:0:0:
64,192,127092,1,0,0:0:0:0:
192,192,127092,1,0,0:0:0:0:
320,192,127165,1,0,0:0:0:0:
448,192,127165,1,0,0:0:0:0:
64,192,127238,1,0,0:0:0:0:
320,192,127312,1,0,0:0:0:0:
448,192,127312,1,0,0:0:0:0:
64,192,127385,1,0,0:0:0:0:
192,192,127385,1,0,0:0:0:0:
320,192,127458,1,0,0:0:0:0:
448,192,127458,1,0,0:0:0:0:
64,192,127532,1,0,0:0:0:0:
192,192,127532,1,0,0:0:0:0:
320,192,127605,1,0,0:0:0:0:
448,192,127605,1,0,0:0:0:0:
64,192,127678,1,0,0:0:0:0:
192,192,127678,1,0,0:0:0:0:
320,192,127752,1,0,0:0:0:0:
448,192,127752,1,0,0:0:0:0:
64,192,127825,1,0,0:0:0:0:
192,192,127825,1,0,0:0:0:0:
448,192,127899,1,0,0:0:0:0:
320,192,127935,1,0,0:0:0:0:
192,192,127972,1,0,0:0:0:0:
64,192,128009,1,0,0:0:0:0:
320,192,128045,1,0,0:0:0:0:
448,192,128045,1,0,0:0:0:0:
64,192,128119,1,0,0:0:0:0:
320,192,128192,1,0,0:0:0:0:
448,192,128192,1,0,0:0:0:0:
64,192,128265,1,0,0:0:0:0:
192,192,128265,1,0,0:0:0:0:
320,192,128339,1,0,0:0:0:0:
448,192,128339,1,0,0:0:0:0:
64,192,128412,1,0,0:0:0:0:
320,192,128485,1,0,0:0:0:0:
192,192,128559,1,0,0:0:0:0:
64,192,128632,1,0,0:0:0:0:
448,192,128632,1,0,0:0:0:0:
192,192,128705,1,0,0:0:0:0:
320,192,128779,1,0,0:0:0:0:
64,192,128852,1,0,0:0:0:0:
192,192,128925,1,0,0:0:0:0:
320,192,128925,1,0,0:0:0:0:
448,192,128925,1,0,0:0:0:0:
64,192,128999,1,0,0:0:0:0:
448,192,129072,1,0,0:0:0:0:
320,192,129145,1,0,0:0:0:0:
64,192,129219,1,0,0:0:0:0:
192,192,129219,1,0,0:0:0:0:
448,192,129219,1,0,0:0:0:0:
320,192,129292,1,0,0:0:0:0:
448,192,129366,1,0,0:0:0:0:
192,192,129439,1,0,0:0:0:0:
64,192,129512,1,0,0:0:0:0:
320,192,129512,1,0,0:0:0:0:
448,192,129512,1,0,0:0:0:0:
192,192,129586,1,0,0:0:0:0:
448,192,129659,1,0,0:0:0:0:
64,192,129732,1,0,0:0:0:0:
192,192,129806,1,0,0:0:0:0:
320,192,129806,1,0,0:0:0:0:
448,192,129879,1,0,0:0:0:0:
64,192,129952,1,0,0:0:0:0:
320,192,130026,1,0,0:0:0:0:
64,192,130099,1,0,0:0:0:0:
192,192,130099,1,0,0:0:0:0:
448,192,130099,1,0,0:0:0:0:
320,192,130172,1,0,0:0:0:0:
192,192,130246,1,0,0:0:0:0:
448,192,130319,1,0,0:0:0:0:
64,192,130392,1,0,0:0:0:0:
192,192,130392,1,0,0:0:0:0:
320,192,130466,1,0,0:0:0:0:
448,192,130539,1,0,0:0:0:0:
64,192,130612,1,0,0:0:0:0:
192,192,130686,1,0,0:0:0:0:
320,192,130686,1,0,0:0:0:0:
448,192,130686,1,0,0:0:0:0:
64,192,130759,1,0,0:0:0:0:
448,192,130833,1,0,0:0:0:0:
320,192,130906,1,0,0:0:0:0:
64,192,130979,1,0,0:0:0:0:
192,192,130979,1,0,0:0:0:0:
448,192,131053,1,0,0:0:0:0:
192,192,131126,1,0,0:0:0:0:
320,192,131199,1,0,0:0:0:0:
64,192,131273,1,0,0:0:0:0:
192,192,131273,1,0,0:0:0:0:
448,192,131273,1,0,0:0:0:0:
320,192,131346,1,0,0:0:0:0:
192,192,131419,1,0,0:0:0:0:
64,192,131493,1,0,0:0:0:0:
320,192,131566,1,0,0:0:0:0:
448,192,131566,1,0,0:0:0:0:
192,192,131639,1,0,0:0:0:0:
320,192,131713,1,0,0:0:0:0:
64,192,131786,1,0,0:0:0:0:
192,192,131859,1,0,0:0:0:0:
320,192,131859,1,0,0:0:0:0:
448,192,131859,1,0,0:0:0:0:
64,192,131933,1,0,0:0:0:0:
320,192,132006,1,0,0:0:0:0:
448,192,132079,1,0,0:0:0:0:
64,192,132153,1,0,0:0:0:0:
192,192,132153,1,0,0:0:0:0:
320,192,132226,1,0,0:0:0:0:
448,192,132300,1,0,0:0:0:0:
192,192,132373,1,0,0:0:0:0:
64,192,132446,1,0,0:0:0:0:
320,192,132446,1,0,0:0:0:0:
448,192,132446,1,0,0:0:0:0:
192,192,132520,1,0,0:0:0:0:
320,192,132593,1,0,0:0:0:0:
64,192,132666,1,0,0:0:0:0:
192,192,132740,1,0,0:0:0:0:
448,192,132740,1,0,0:0:0:0:
320,192,132813,1,0,0:0:0:0:
448,192,132886,1,0,0:0:0:0:
192,192,132960,1,0,0:0:0:0:
64,192,133033,1,0,0:0:0:0:
320,192,133033,1,0,0:0:0:0:
448,192,133033,1,0,0:0:0:0:
192,192,133106,1,0,0:0:0:0:
320,192,133180,1,0,0:0:0:0:
64,192,133253,1,0,0:0:0:0:
192,192,133326,1,0,0:0:0:0:
320,192,133326,1,0,0:0:0:0:
448,192,133400,1,0,0:0:0:0:
192,192,133473,1,0,0:0:0:0:
64,192,133546,1,0,0:0:0:0:
192,192,133620,1,0,0:0:0:0:
320,192,133620,1,0,0:0:0:0:
448,192,133620,1,0,0:0:0:0:
64,192,133693,1,0,0:0:0:0:
448,192,133767,1,0,0:0:0:0:
320,192,133840,1,0,0:0:0:0:
64,192,133913,1,0,0:0:0:0:
192,192,133913,1,0,0:0:0:0:
448,192,133987,1,0,0:0:0:0:
192,192,134060,1,0,0:0:0:0:
320,192,134133,1,0,0:0:0:0:
64,192,134207,1,0,0:0:0:0:
192,192,134207,1,0,0:0:0:0:
448,192,134207,1,0,0:0:0:0:
320,192,134280,1,0,0:0:0:0:
448,192,134353,1,0,0:0:0:0:
192,192,134427,1,0,0:0:0:0:
64,192,134500,1,0,0:0:0:0:
320,192,134500,1,0,0:0:0:0:
448,192,134573,1,0,0:0:0:0:
192,192,134647,1,0,0:0:0:0:
320,192,134720,1,0,0:0:0:0:
64,192,134793,1,0,0:0:0:0:
192,192,134793,1,0,0:0:0:0:
448,192,134793,1,0,0:0:0:0:
320,192,134867,1,0,0:0:0:0:
192,192,134940,1,0,0:0:0:0:
64,192,135013,1,0,0:0:0:0:
320,192,135087,1,0,0:0:0:0:
448,192,135087,1,0,0:0:0:0:
192,192,135160,1,0,0:0:0:0:
320,192,135234,1,0,0:0:0:0:
64,192,135307,1,0,0:0:0:0:
192,192,135380,1,0,0:0:0:0:
320,192,135380,1,0,0:0:0:0:
448,192,135380,1,0,0:0:0:0:
64,192,135454,1,0,0:0:0:0:
192,192,135527,1,0,0:0:0:0:
448,192,135600,1,0,0:0:0:0:
64,192,135674,1,0,0:0:0:0:
320,192,135674,1,0,0:0:0:0:
192,192,135747,1,0,0:0:0:0:
320,192,135820,1,0,0:0:0:0:
64,192,135894,1,0,0:0:0:0:
192,192,135967,1,0,0:0:0:0:
320,192,135967,1,0,0:0:0:0:
448,192,135967,1,0,0:0:0:0:
64,192,136040,1,0,0:0:0:0:
320,192,136114,1,0,0:0:0:0:
192,192,136187,1,0,0:0:0:0:
64,192,136260,1,0,0:0:0:0:
448,192,136260,1,0,0:0:0:0:
192,192,136334,1,0,0:0:0:0:
320,192,136407,1,0,0:0:0:0:
64,192,136480,1,0,0:0:0:0:
192,192,136554,1,0,0:0:0:0:
320,192,136554,1,0,0:0:0:0:
448,192,136554,1,0,0:0:0:0:
64,192,136627,1,0,0:0:0:0:
320,192,136701,1,0,0:0:0:0:
192,192,136774,1,0,0:0:0:0:
320,192,136847,1,0,0:0:0:0:
448,192,136847,1,0,0:0:0:0:
64,192,136921,1,0,0:0:0:0:
192,192,136921,1,0,0:0:0:0:
320,192,136994,1,0,0:0:0:0:
448,192,136994,1,0,0:0:0:0:
64,192,137067,1,0,0:0:0:0:
192,192,137067,1,0,0:0:0:0:
320,192,137141,1,0,0:0:0:0:
448,192,137141,1,0,0:0:0:0:
64,192,137214,1,0,0:0:0:0:
192,192,137214,1,0,0:0:0:0:
320,192,137287,1,0,0:0:0:0:
448,192,137287,1,0,0:0:0:0:
64,192,137361,1,0,0:0:0:0:
192,192,137361,1,0,0:0:0:0:
320,192,137434,1,0,0:0:0:0:
448,192,137434,1,0,0:0:0:0:
64,192,137507,1,0,0:0:0:0:
192,192,137507,1,0,0:0:0:0:
320,192,137581,1,0,0:0:0:0:
448,192,137581,1,0,0:0:0:0:
64,192,137654,1,0,0:0:0:0:
192,192,137654,1,0,0:0:0:0:
320,192,137727,1,0,0:0:0:0:
448,192,137727,1,0,0:0:0:0:
64,192,137801,1,0,0:0:0:0:
192,192,137801,1,0,0:0:0:0:
320,192,137874,1,0,0:0:0:0:
448,192,137874,1,0,0:0:0:0:
64,192,137947,1,0,0:0:0:0:
192,192,137947,1,0,0:0:0:0:
320,192,138021,1,0,0:0:0:0:
448,192,138021,1,0,0:0:0:0:
64,192,138094,1,0,0:0:0:0:
192,192,138094,1,0,0:0:0:0:
320,192,138167,1,0,0:0:0:0:
448,192,138167,1,0,0:0:0:0:
64,192,138241,1,0,0:0:0:0:
192,192,138241,1,0,0:0:0:0:
320,192,138314,1,0,0:0:0:0:
448,192,138314,1,0,0:0:0:0:
64,192,138388,1,0,0:0:0:0:
192,192,138388,1,0,0:0:0:0:
320,192,138461,1,0,0:0:0:0:
448,192,138461,1,0,0:0:0:0:
64,192,138534,1,0,0:0:0:0:
192,192,138534,1,0,0:0:0:0:
320,192,138608,1,0,0:0:0:0:
448,192,138608,1,0,0:0:0:0:
64,0,138608,128,0,140955:1:0:0:0:
192,192,138901,1,0,0:0:0:0:
448,192,139194,1,0,0:0:0:0:
320,192,139341,1,0,0:0:0:0:
448,192,139634,1,0,0:0:0:0:
448,192,139928,1,0,0:0:0:0:
192,192,140075,1,0,0:0:0:0:
320,192,140368,1,0,0:0:0:0:
192,192,140661,1,0,0:0:0:0:
320,192,140955,1,0,0:0:0:0:
448,0,140955,128,0,143302:1:0:0:0:
64,192,141248,1,0,0:0:0:0:
320,192,141542,1,0,0:0:0:0:
192,192,141688,1,0,0:0:0:0:
320,192,141982,1,0,0:0:0:0:
320,192,142275,1,0,0:0:0:0:
192,192,142422,1,0,0:0:0:0:
64,192,142715,1,0,0:0:0:0:
320,192,143009,1,0,0:0:0:0:
64,192,143302,1,0,0:0:0:0:
192,0,143302,128,0,145649:1:0:0:0:
448,192,143595,1,0,0:0:0:0:
64,192,143889,1,0,0:0:0:0:
320,192,144035,1,0,0:0:0:0:
64,192,144329,1,0,0:0:0:0:
64,192,144622,1,0,0:0:0:0:
448,192,144769,1,0,0:0:0:0:
64,192,145062,1,0,0:0:0:0:
320,192,145356,1,0,0:0:0:0:
64,192,145649,1,0,0:0:0:0:
448,0,145649,128,0,146823:1:0:0:0:
320,192,145943,1,0,0:0:0:0:
64,192,146236,1,0,0:0:0:0:
192,192,146383,1,0,0:0:0:0:
64,192,146676,1,0,0:0:0:0:
320,0,146823,128,0,147996:1:0:0:0:
64,192,146969,1,0,0:0:0:0:
448,192,147116,1,0,0:0:0:0:
192,192,147410,1,0,0:0:0:0:
448,192,147703,1,0,0:0:0:0:
448,192,147996,1,0,0:0:0:0:
64,0,147996,128,0,150344:1:0:0:0:
192,192,148290,1,0,0:0:0:0:
448,192,148583,1,0,0:0:0:0:
320,192,148730,1,0,0:0:0:0:
448,192,149023,1,0,0:0:0:0:
448,192,149317,1,0,0:0:0:0:
320,192,149463,1,0,0:0:0:0:
448,192,149757,1,0,0:0:0:0:
192,192,150050,1,0,0:0:0:0:
320,192,150344,1,0,0:0:0:0:
448,0,150344,128,0,152691:1:0:0:0:
64,192,150637,1,0,0:0:0:0:
320,192,150930,1,0,0:0:0:0:
192,192,151077,1,0,0:0:0:0:
320,192,151370,1,0,0:0:0:0:
320,192,151664,1,0,0:0:0:0:
64,192,151811,1,0,0:0:0:0:
320,192,152104,1,0,0:0:0:0:
64,192,152397,1,0,0:0:0:0:
320,192,152691,1,0,0:0:0:0:
64,0,152691,128,0,153864:1:0:0:0:
192,192,152984,1,0,0:0:0:0:
448,192,153278,1,0,0:0:0:0:
192,192,153424,1,0,0:0:0:0:
320,192,153571,1,0,0:0:0:0:
448,192,153718,1,0,0:0:0:0:
192,0,153864,128,0,155038:1:0:0:0:
448,192,154011,1,0,0:0:0:0:
320,192,154158,1,0,0:0:0:0:
448,192,154451,1,0,0:0:0:0:
64,192,154745,1,0,0:0:0:0:
320,192,155038,1,0,0:0:0:0:
448,0,155038,128,0,157312:1:0:0:0:
192,192,155111,1,0,0:0:0:0:
320,192,155185,1,0,0:0:0:0:
192,192,155258,1,0,0:0:0:0:
320,192,155331,1,0,0:0:0:0:
192,192,155405,1,0,0:0:0:0:
320,192,155478,1,0,0:0:0:0:
192,192,155551,1,0,0:0:0:0:
320,192,155625,1,0,0:0:0:0:
192,192,155698,1,0,0:0:0:0:
320,192,155771,1,0,0:0:0:0:
192,192,155845,1,0,0:0:0:0:
320,192,155918,1,0,0:0:0:0:
192,192,155991,1,0,0:0:0:0:
320,192,156065,1,0,0:0:0:0:
192,192,156138,1,0,0:0:0:0:
320,192,156212,1,0,0:0:0:0:
192,192,156285,1,0,0:0:0:0:
320,192,156358,1,0,0:0:0:0:
192,192,156432,1,0,0:0:0:0:
320,192,156505,1,0,0:0:0:0:
192,192,156578,1,0,0:0:0:0:
320,192,156652,1,0,0:0:0:0:
192,192,156725,1,0,0:0:0:0:
320,192,156798,1,0,0:0:0:0:
192,192,156872,1,0,0:0:0:0:
64,192,156945,1,0,0:0:0:0:
320,192,156945,1,0,0:0:0:0:
192,192,157018,1,0,0:0:0:0:
64,192,157092,1,0,0:0:0:0:
320,192,157092,1,0,0:0:0:0:
192,192,157165,1,0,0:0:0:0:
64,192,157238,1,0,0:0:0:0:
320,192,157238,1,0,0:0:0:0:
192,192,157312,1,0,0:0:0:0:
64,0,157385,128,0,157458:1:0:0:0:
320,0,157385,128,0,157458:1:0:0:0:
448,0,157385,128,0,157458:1:0:0:0:
64,192,157678,1,0,0:0:0:0:
320,192,157678,1,0,0:0:0:0:
448,192,157678,1,0,0:0:0:0:
64,192,157825,1,0,0:0:0:0:
192,192,157825,1,0,0:0:0:0:
320,192,157825,1,0,0:0:0:0:
64,0,157972,128,0,158045:1:0:0:0:
320,0,157972,128,0,158045:1:0:0:0:
448,0,157972,128,0,158045:1:0:0:0:
64,192,158265,1,0,0:0:0:0:
320,192,158265,1,0,0:0:0:0:
448,192,158265,1,0,0:0:0:0:
192,0,158412,128,0,158632:1:0:0:0:
320,0,158412,128,0,158632:1:0:0:0:
448,0,158412,128,0,158632:1:0:0:0:
64,0,158705,128,0,158925:1:0:0:0:
192,0,158705,128,0,158925:1:0:0:0:
448,0,158705,128,0,158925:1:0:0:0:
64,0,158999,128,0,159145:1:0:0:0:
192,0,158999,128,0,159145:1:0:0:0:
320,0,158999,128,0,159145:1:0:0:0:
64,192,159292,1,0,0:0:0:0:
192,192,159292,1,0,0:0:0:0:
320,192,159292,1,0,0:0:0:0:
64,192,159439,1,0,0:0:0:0:
192,192,159439,1,0,0:0:0:0:
448,192,159439,1,0,0:0:0:0:
192,192,159586,1,0,0:0:0:0:
320,192,159586,1,0,0:0:0:0:
448,192,159586,1,0,0:0:0:0:
64,0,159732,128,0,159806:1:0:0:0:
320,0,159732,128,0,159806:1:0:0:0:
448,0,159732,128,0,159806:1:0:0:0:
64,192,160026,1,0,0:0:0:0:
320,192,160026,1,0,0:0:0:0:
448,192,160026,1,0,0:0:0:0:
64,192,160172,1,0,0:0:0:0:
320,192,160172,1,0,0:0:0:0:
448,192,160172,1,0,0:0:0:0:
64,0,160319,128,0,160612:1:0:0:0:
320,0,160319,128,0,160612:1:0:0:0:
448,0,160319,128,0,160612:1:0:0:0:
64,0,160759,128,0,160833:1:0:0:0:
320,0,160759,128,0,160833:1:0:0:0:
448,0,160759,128,0,160833:1:0:0:0:
64,192,161053,1,0,0:0:0:0:
320,192,161053,1,0,0:0:0:0:
448,192,161053,1,0,0:0:0:0:
192,192,161199,1,0,0:0:0:0:
320,192,161199,1,0,0:0:0:0:
448,192,161199,1,0,0:0:0:0:
64,0,161346,128,0,161639:1:0:0:0:
192,0,161346,128,0,161639:1:0:0:0:
448,0,161346,128,0,161639:1:0:0:0:
64,0,162079,128,0,162520:1:0:0:0:
192,0,162079,128,0,162520:1:0:0:0:
320,0,162079,128,0,162520:1:0:0:0:
64,0,162666,128,0,163106:1:0:0:0:
192,0,162666,128,0,163106:1:0:0:0:
448,0,162666,128,0,163106:1:0:0:0:
192,0,163253,128,0,163693:1:0:0:0:
320,0,163253,128,0,163693:1:0:0:0:
448,0,163253,128,0,163693:1:0:0:0:
192,0,163840,128,0,164060:1:0:0:0:
320,0,163840,128,0,164060:1:0:0:0:
448,0,163840,128,0,164060:1:0:0:0:
64,0,164133,128,0,164280:1:0:0:0:
320,0,164133,128,0,164280:1:0:0:0:
448,0,164133,128,0,164280:1:0:0:0:
64,0,164427,128,0,164573:1:0:0:0:
320,0,164427,128,0,164573:1:0:0:0:
448,0,164427,128,0,164573:1:0:0:0:
192,0,164647,128,0,164793:1:0:0:0:
320,0,164647,128,0,164793:1:0:0:0:
448,0,164647,128,0,164793:1:0:0:0:
64,192,164867,1,0,0:0:0:0:
192,192,164867,1,0,0:0:0:0:
448,192,164867,1,0,0:0:0:0:
64,0,165013,128,0,165160:1:0:0:0:
192,0,165013,128,0,165160:1:0:0:0:
320,0,165013,128,0,165160:1:0:0:0:
64,0,165234,128,0,165380:1:0:0:0:
192,0,165234,128,0,165380:1:0:0:0:
448,0,165234,128,0,165380:1:0:0:0:
192,192,165454,1,0,0:0:0:0:
320,192,165454,1,0,0:0:0:0:
448,192,165454,1,0,0:0:0:0:
64,0,165600,128,0,166040:1:0:0:0:
192,0,165600,128,0,166040:1:0:0:0:
448,0,165600,128,0,166040:1:0:0:0:
64,192,166334,1,0,0:0:0:0:
192,192,166334,1,0,0:0:0:0:
320,192,166334,1,0,0:0:0:0:
192,192,166480,1,0,0:0:0:0:
320,192,166480,1,0,0:0:0:0:
448,192,166480,1,0,0:0:0:0:
64,192,166627,1,0,0:0:0:0:
192,192,166627,1,0,0:0:0:0:
320,192,166627,1,0,0:0:0:0:
64,0,166774,128,0,166847:1:0:0:0:
320,0,166774,128,0,166847:1:0:0:0:
448,0,166774,128,0,166847:1:0:0:0:
64,192,167067,1,0,0:0:0:0:
320,192,167067,1,0,0:0:0:0:
448,192,167067,1,0,0:0:0:0:
64,192,167214,1,0,0:0:0:0:
192,192,167214,1,0,0:0:0:0:
320,192,167214,1,0,0:0:0:0:
64,0,167361,128,0,167434:1:0:0:0:
320,0,167361,128,0,167434:1:0:0:0:
448,0,167361,128,0,167434:1:0:0:0:
64,192,167654,1,0,0:0:0:0:
320,192,167654,1,0,0:0:0:0:
448,192,167654,1,0,0:0:0:0:
192,0,167801,128,0,168021:1:0:0:0:
320,0,167801,128,0,168021:1:0:0:0:
448,0,167801,128,0,168021:1:0:0:0:
64,0,168094,128,0,168314:1:0:0:0:
192,0,168094,128,0,168314:1:0:0:0:
448,0,168094,128,0,168314:1:0:0:0:
64,0,168388,128,0,168534:1:0:0:0:
192,0,168388,128,0,168534:1:0:0:0:
320,0,168388,128,0,168534:1:0:0:0:
64,192,168681,1,0,0:0:0:0:
192,192,168681,1,0,0:0:0:0:
320,192,168681,1,0,0:0:0:0:
64,192,168828,1,0,0:0:0:0:
192,192,168828,1,0,0:0:0:0:
448,192,168828,1,0,0:0:0:0:
192,192,168974,1,0,0:0:0:0:
320,192,168974,1,0,0:0:0:0:
448,192,168974,1,0,0:0:0:0:
64,0,169121,128,0,169194:1:0:0:0:
320,0,169121,128,0,169194:1:0:0:0:
448,0,169121,128,0,169194:1:0:0:0:
64,192,169414,1,0,0:0:0:0:
320,192,169414,1,0,0:0:0:0:
448,192,169414,1,0,0:0:0:0:
64,192,169561,1,0,0:0:0:0:
320,192,169561,1,0,0:0:0:0:
448,192,169561,1,0,0:0:0:0:
64,0,169708,128,0,170001:1:0:0:0:
320,0,169708,128,0,170001:1:0:0:0:
448,0,169708,128,0,170001:1:0:0:0:
64,0,170148,128,0,170221:1:0:0:0:
320,0,170148,128,0,170221:1:0:0:0:
448,0,170148,128,0,170221:1:0:0:0:
64,192,170441,1,0,0:0:0:0:
320,192,170441,1,0,0:0:0:0:
448,192,170441,1,0,0:0:0:0:
192,192,170588,1,0,0:0:0:0:
320,192,170588,1,0,0:0:0:0:
448,192,170588,1,0,0:0:0:0:
64,0,170735,128,0,171468:1:0:0:0:
192,0,170735,128,0,171468:1:0:0:0:
448,0,170735,128,0,171468:1:0:0:0:
192,0,171762,128,0,171835:1:0:0:0:
320,0,171762,128,0,171835:1:0:0:0:
448,0,171762,128,0,171835:1:0:0:0:
192,192,172055,1,0,0:0:0:0:
320,192,172055,1,0,0:0:0:0:
448,192,172055,1,0,0:0:0:0:
64,192,172202,1,0,0:0:0:0:
192,192,172202,1,0,0:0:0:0:
448,192,172202,1,0,0:0:0:0:
64,192,172348,1,0,0:0:0:0:
192,192,172348,1,0,0:0:0:0:
448,192,172348,1,0,0:0:0:0:
64,0,172495,128,0,172642:1:0:0:0:
320,0,172495,128,0,172642:1:0:0:0:
448,0,172495,128,0,172642:1:0:0:0:
64,192,172789,1,0,0:0:0:0:
320,192,172789,1,0,0:0:0:0:
448,192,172789,1,0,0:0:0:0:
64,192,172935,1,0,0:0:0:0:
192,192,172935,1,0,0:0:0:0:
448,192,172935,1,0,0:0:0:0:
192,0,173082,128,0,173229:1:0:0:0:
320,0,173082,128,0,173229:1:0:0:0:
448,0,173082,128,0,173229:1:0:0:0:
64,192,173375,1,0,0:0:0:0:
320,192,173375,1,0,0:0:0:0:
448,192,173375,1,0,0:0:0:0:
192,192,173522,1,0,0:0:0:0:
320,192,173522,1,0,0:0:0:0:
448,192,173522,1,0,0:0:0:0:
64,192,173669,1,0,0:0:0:0:
192,192,173669,1,0,0:0:0:0:
320,192,173669,1,0,0:0:0:0:
448,192,173815,1,0,0:0:0:0:
64,0,173815,128,0,176016:1:0:0:0:
320,0,173815,128,0,176016:1:0:0:0:
192,192,174109,1,0,0:0:0:0:
448,192,174402,1,0,0:0:0:0:
192,192,174549,1,0,0:0:0:0:
448,192,174696,1,0,0:0:0:0:
192,192,174842,1,0,0:0:0:0:
192,192,175136,1,0,0:0:0:0:
448,192,175282,1,0,0:0:0:0:
192,192,175576,1,0,0:0:0:0:
448,192,175869,1,0,0:0:0:0:
192,192,176163,1,0,0:0:0:0:
448,192,176163,1,0,0:0:0:0:
64,0,176163,128,0,176309:1:0:0:0:
448,0,176309,128,0,176456:1:0:0:0:
192,0,176456,128,0,176603:1:0:0:0:
320,0,176603,128,0,176896:1:0:0:0:
64,192,176896,1,0,0:0:0:0:
448,192,176896,1,0,0:0:0:0:
192,0,176896,128,0,177043:1:0:0:0:
64,192,177043,1,0,0:0:0:0:
448,192,177043,1,0,0:0:0:0:
320,0,177043,128,0,177189:1:0:0:0:
64,192,177189,1,0,0:0:0:0:
448,192,177189,1,0,0:0:0:0:
192,0,177189,128,0,177336:1:0:0:0:
64,192,177336,1,0,0:0:0:0:
320,192,177336,1,0,0:0:0:0:
448,192,177336,1,0,0:0:0:0:
192,192,177410,1,0,0:0:0:0:
320,192,177483,1,0,0:0:0:0:
64,192,177556,1,0,0:0:0:0:
192,192,177630,1,0,0:0:0:0:
320,192,177630,1,0,0:0:0:0:
448,192,177630,1,0,0:0:0:0:
64,192,177703,1,0,0:0:0:0:
320,192,177776,1,0,0:0:0:0:
448,192,177776,1,0,0:0:0:0:
192,192,177850,1,0,0:0:0:0:
64,192,177923,1,0,0:0:0:0:
320,192,177923,1,0,0:0:0:0:
448,192,177923,1,0,0:0:0:0:
192,192,177996,1,0,0:0:0:0:
320,192,178070,1,0,0:0:0:0:
448,192,178070,1,0,0:0:0:0:
64,192,178143,1,0,0:0:0:0:
192,192,178216,1,0,0:0:0:0:
320,192,178216,1,0,0:0:0:0:
448,192,178216,1,0,0:0:0:0:
64,192,178290,1,0,0:0:0:0:
192,192,178363,1,0,0:0:0:0:
320,192,178363,1,0,0:0:0:0:
448,192,178436,1,0,0:0:0:0:
64,192,178510,1,0,0:0:0:0:
192,192,178510,1,0,0:0:0:0:
320,192,178583,1,0,0:0:0:0:
192,192,178656,1,0,0:0:0:0:
448,192,178656,1,0,0:0:0:0:
320,192,178730,1,0,0:0:0:0:
64,192,178803,1,0,0:0:0:0:
192,192,178803,1,0,0:0:0:0:
448,192,178803,1,0,0:0:0:0:
320,192,178877,1,0,0:0:0:0:
64,192,178950,1,0,0:0:0:0:
448,192,178950,1,0,0:0:0:0:
192,192,179023,1,0,0:0:0:0:
64,192,179097,1,0,0:0:0:0:
320,192,179097,1,0,0:0:0:0:
448,192,179097,1,0,0:0:0:0:
192,192,179170,1,0,0:0:0:0:
64,192,179243,1,0,0:0:0:0:
320,192,179243,1,0,0:0:0:0:
448,192,179317,1,0,0:0:0:0:
64,192,179390,1,0,0:0:0:0:
192,192,179390,1,0,0:0:0:0:
320,192,179390,1,0,0:0:0:0:
448,192,179463,1,0,0:0:0:0:
64,192,179537,1,0,0:0:0:0:
192,192,179537,1,0,0:0:0:0:
320,192,179610,1,0,0:0:0:0:
64,192,179683,1,0,0:0:0:0:
192,192,179683,1,0,0:0:0:0:
448,192,179683,1,0,0:0:0:0:
320,192,179757,1,0,0:0:0:0:
192,192,179830,1,0,0:0:0:0:
448,192,179903,1,0,0:0:0:0:
64,192,179977,1,0,0:0:0:0:
192,192,179977,1,0,0:0:0:0:
320,192,179977,1,0,0:0:0:0:
448,192,180050,1,0,0:0:0:0:
64,192,180123,1,0,0:0:0:0:
192,192,180123,1,0,0:0:0:0:
320,192,180197,1,0,0:0:0:0:
64,192,180270,1,0,0:0:0:0:
192,192,180270,1,0,0:0:0:0:
448,192,180270,1,0,0:0:0:0:
320,192,180344,1,0,0:0:0:0:
64,192,180417,1,0,0:0:0:0:
448,192,180417,1,0,0:0:0:0:
192,192,180490,1,0,0:0:0:0:
320,192,180564,1,0,0:0:0:0:
448,192,180564,1,0,0:0:0:0:
64,192,180637,1,0,0:0:0:0:
192,192,180710,1,0,0:0:0:0:
320,192,180710,1,0,0:0:0:0:
64,192,180784,1,0,0:0:0:0:
320,192,180857,1,0,0:0:0:0:
448,192,180857,1,0,0:0:0:0:
192,192,180930,1,0,0:0:0:0:
64,192,181004,1,0,0:0:0:0:
320,192,181004,1,0,0:0:0:0:
192,192,181077,1,0,0:0:0:0:
64,192,181150,1,0,0:0:0:0:
320,192,181150,1,0,0:0:0:0:
448,192,181150,1,0,0:0:0:0:
192,192,181224,1,0,0:0:0:0:
320,192,181297,1,0,0:0:0:0:
448,192,181297,1,0,0:0:0:0:
64,192,181370,1,0,0:0:0:0:
192,192,181444,1,0,0:0:0:0:
320,192,181444,1,0,0:0:0:0:
448,192,181444,1,0,0:0:0:0:
64,192,181517,1,0,0:0:0:0:
320,192,181590,1,0,0:0:0:0:
192,192,181664,1,0,0:0:0:0:
64,192,181737,1,0,0:0:0:0:
320,192,181737,1,0,0:0:0:0:
448,192,181737,1,0,0:0:0:0:
192,192,181811,1,0,0:0:0:0:
64,192,181884,1,0,0:0:0:0:
448,192,181884,1,0,0:0:0:0:
320,192,181957,1,0,0:0:0:0:
64,192,182031,1,0,0:0:0:0:
192,192,182031,1,0,0:0:0:0:
448,192,182031,1,0,0:0:0:0:
320,192,182104,1,0,0:0:0:0:
64,192,182177,1,0,0:0:0:0:
192,192,182251,1,0,0:0:0:0:
64,192,182324,1,0,0:0:0:0:
320,192,182324,1,0,0:0:0:0:
448,192,182324,1,0,0:0:0:0:
192,192,182397,1,0,0:0:0:0:
448,192,182471,1,0,0:0:0:0:
320,192,182544,1,0,0:0:0:0:
64,192,182617,1,0,0:0:0:0:
192,192,182617,1,0,0:0:0:0:
448,192,182617,1,0,0:0:0:0:
320,192,182691,1,0,0:0:0:0:
192,192,182764,1,0,0:0:0:0:
448,192,182764,1,0,0:0:0:0:
64,192,182837,1,0,0:0:0:0:
192,192,182911,1,0,0:0:0:0:
320,192,182911,1,0,0:0:0:0:
448,192,182984,1,0,0:0:0:0:
64,192,183057,1,0,0:0:0:0:
320,192,183057,1,0,0:0:0:0:
192,192,183131,1,0,0:0:0:0:
64,192,183204,1,0,0:0:0:0:
320,192,183204,1,0,0:0:0:0:
448,192,183204,1,0,0:0:0:0:
192,192,183278,1,0,0:0:0:0:
64,192,183351,1,0,0:0:0:0:
448,192,183351,1,0,0:0:0:0:
320,192,183424,1,0,0:0:0:0:
64,192,183498,1,0,0:0:0:0:
192,192,183498,1,0,0:0:0:0:
448,192,183498,1,0,0:0:0:0:
320,192,183571,1,0,0:0:0:0:
448,192,183644,1,0,0:0:0:0:
64,192,183718,1,0,0:0:0:0:
192,192,183791,1,0,0:0:0:0:
320,192,183791,1,0,0:0:0:0:
448,192,183791,1,0,0:0:0:0:
64,192,183864,1,0,0:0:0:0:
320,192,183938,1,0,0:0:0:0:
192,192,184011,1,0,0:0:0:0:
64,192,184084,1,0,0:0:0:0:
320,192,184084,1,0,0:0:0:0:
448,192,184084,1,0,0:0:0:0:
192,192,184158,1,0,0:0:0:0:
320,192,184231,1,0,0:0:0:0:
64,192,184304,1,0,0:0:0:0:
192,192,184378,1,0,0:0:0:0:
320,192,184378,1,0,0:0:0:0:
448,192,184378,1,0,0:0:0:0:
64,192,184451,1,0,0:0:0:0:
320,192,184524,1,0,0:0:0:0:
448,192,184524,1,0,0:0:0:0:
64,192,184598,1,0,0:0:0:0:
192,192,184598,1,0,0:0:0:0:
320,192,184671,1,0,0:0:0:0:
448,192,184671,1,0,0:0:0:0:
64,192,184745,1,0,0:0:0:0:
192,192,184818,1,0,0:0:0:0:
320,192,184818,1,0,0:0:0:0:
448,192,184891,1,0,0:0:0:0:
64,192,184965,1,0,0:0:0:0:
192,192,184965,1,0,0:0:0:0:
320,192,184965,1,0,0:0:0:0:
448,192,185038,1,0,0:0:0:0:
64,192,185111,1,0,0:0:0:0:
320,192,185111,1,0,0:0:0:0:
192,192,185185,1,0,0:0:0:0:
448,192,185185,1,0,0:0:0:0:
64,192,185258,1,0,0:0:0:0:
320,192,185258,1,0,0:0:0:0:
192,192,185331,1,0,0:0:0:0:
320,192,185405,1,0,0:0:0:0:
448,192,185405,1,0,0:0:0:0:
64,192,185478,1,0,0:0:0:0:
192,192,185551,1,0,0:0:0:0:
320,192,185551,1,0,0:0:0:0:
448,192,185551,1,0,0:0:0:0:
64,192,185625,1,0,0:0:0:0:
320,192,185698,1,0,0:0:0:0:
448,192,185698,1,0,0:0:0:0:
192,192,185771,1,0,0:0:0:0:
64,192,185845,1,0,0:0:0:0:
320,192,185845,1,0,0:0:0:0:
448,192,185845,1,0,0:0:0:0:
192,192,185918,1,0,0:0:0:0:
64,192,185991,1,0,0:0:0:0:
320,192,186065,1,0,0:0:0:0:
64,192,186138,1,0,0:0:0:0:
192,192,186138,1,0,0:0:0:0:
448,192,186138,1,0,0:0:0:0:
320,192,186211,1,0,0:0:0:0:
64,192,186285,1,0,0:0:0:0:
448,192,186285,1,0,0:0:0:0:
320,192,186334,1,0,0:0:0:0:
192,192,186383,1,0,0:0:0:0:
64,192,186432,1,0,0:0:0:0:
320,192,186432,1,0,0:0:0:0:
448,192,186432,1,0,0:0:0:0:
192,192,186505,1,0,0:0:0:0:
64,192,186578,1,0,0:0:0:0:
448,192,186578,1,0,0:0:0:0:
320,192,186627,1,0,0:0:0:0:
192,192,186676,1,0,0:0:0:0:
64,192,186725,1,0,0:0:0:0:
320,192,186725,1,0,0:0:0:0:
448,192,186725,1,0,0:0:0:0:
192,192,186798,1,0,0:0:0:0:
448,192,186872,1,0,0:0:0:0:
320,192,186945,1,0,0:0:0:0:
64,192,187018,1,0,0:0:0:0:
192,192,187018,1,0,0:0:0:0:
448,192,187018,1,0,0:0:0:0:
320,192,187092,1,0,0:0:0:0:
64,192,187165,1,0,0:0:0:0:
192,192,187165,1,0,0:0:0:0:
448,192,187238,1,0,0:0:0:0:
64,192,187312,1,0,0:0:0:0:
192,192,187312,1,0,0:0:0:0:
320,192,187312,1,0,0:0:0:0:
448,192,187385,1,0,0:0:0:0:
192,192,187458,1,0,0:0:0:0:
320,192,187532,1,0,0:0:0:0:
64,192,187605,1,0,0:0:0:0:
192,192,187605,1,0,0:0:0:0:
448,192,187605,1,0,0:0:0:0:
320,192,187678,1,0,0:0:0:0:
64,192,187752,1,0,0:0:0:0:
448,192,187752,1,0,0:0:0:0:
192,192,187825,1,0,0:0:0:0:
320,192,187899,1,0,0:0:0:0:
448,192,187899,1,0,0:0:0:0:
64,192,187972,1,0,0:0:0:0:
192,192,188045,1,0,0:0:0:0:
448,192,188045,1,0,0:0:0:0:
320,192,188119,1,0,0:0:0:0:
64,192,188192,1,0,0:0:0:0:
192,192,188192,1,0,0:0:0:0:
448,192,188192,1,0,0:0:0:0:
320,192,188265,1,0,0:0:0:0:
64,192,188339,1,0,0:0:0:0:
192,192,188339,1,0,0:0:0:0:
320,192,188412,1,0,0:0:0:0:
64,192,188485,1,0,0:0:0:0:
192,192,188485,1,0,0:0:0:0:
448,192,188485,1,0,0:0:0:0:
320,192,188559,1,0,0:0:0:0:
192,192,188632,1,0,0:0:0:0:
448,192,188632,1,0,0:0:0:0:
64,192,188705,1,0,0:0:0:0:
192,192,188779,1,0,0:0:0:0:
320,192,188779,1,0,0:0:0:0:
448,192,188779,1,0,0:0:0:0:
64,192,188852,1,0,0:0:0:0:
320,192,188925,1,0,0:0:0:0:
448,192,188925,1,0,0:0:0:0:
192,192,188999,1,0,0:0:0:0:
64,192,189072,1,0,0:0:0:0:
320,192,189072,1,0,0:0:0:0:
448,192,189072,1,0,0:0:0:0:
192,192,189145,1,0,0:0:0:0:
320,192,189219,1,0,0:0:0:0:
64,192,189292,1,0,0:0:0:0:
192,192,189366,1,0,0:0:0:0:
320,192,189366,1,0,0:0:0:0:
448,192,189366,1,0,0:0:0:0:
64,192,189439,1,0,0:0:0:0:
192,192,189512,1,0,0:0:0:0:
448,192,189512,1,0,0:0:0:0:
320,192,189586,1,0,0:0:0:0:
64,192,189659,1,0,0:0:0:0:
192,192,189659,1,0,0:0:0:0:
448,192,189659,1,0,0:0:0:0:
320,192,189732,1,0,0:0:0:0:
448,192,189806,1,0,0:0:0:0:
64,192,189879,1,0,0:0:0:0:
192,192,189952,1,0,0:0:0:0:
320,192,189952,1,0,0:0:0:0:
448,192,190026,1,0,0:0:0:0:
64,192,190099,1,0,0:0:0:0:
192,192,190099,1,0,0:0:0:0:
320,192,190172,1,0,0:0:0:0:
64,192,190246,1,0,0:0:0:0:
448,192,190246,1,0,0:0:0:0:
192,192,190319,1,0,0:0:0:0:
64,192,190392,1,0,0:0:0:0:
320,192,190392,1,0,0:0:0:0:
192,192,190466,1,0,0:0:0:0:
64,192,190539,1,0,0:0:0:0:
320,192,190539,1,0,0:0:0:0:
448,192,190539,1,0,0:0:0:0:
192,192,190612,1,0,0:0:0:0:
320,192,190686,1,0,0:0:0:0:
448,192,190686,1,0,0:0:0:0:
64,192,190759,1,0,0:0:0:0:
192,192,190833,1,0,0:0:0:0:
320,192,190833,1,0,0:0:0:0:
448,192,190833,1,0,0:0:0:0:
64,192,190906,1,0,0:0:0:0:
320,192,190979,1,0,0:0:0:0:
192,192,191053,1,0,0:0:0:0:
64,192,191126,1,0,0:0:0:0:
320,192,191126,1,0,0:0:0:0:
448,192,191126,1,0,0:0:0:0:
192,192,191199,1,0,0:0:0:0:
448,192,191273,1,0,0:0:0:0:
320,192,191346,1,0,0:0:0:0:
64,192,191419,1,0,0:0:0:0:
192,192,191419,1,0,0:0:0:0:
448,192,191419,1,0,0:0:0:0:
320,192,191493,1,0,0:0:0:0:
448,192,191566,1,0,0:0:0:0:
192,192,191639,1,0,0:0:0:0:
64,192,191713,1,0,0:0:0:0:
320,192,191713,1,0,0:0:0:0:
448,192,191713,1,0,0:0:0:0:
192,192,191786,1,0,0:0:0:0:
320,192,191859,1,0,0:0:0:0:
64,192,191933,1,0,0:0:0:0:
192,192,192006,1,0,0:0:0:0:
320,192,192006,1,0,0:0:0:0:
448,192,192006,1,0,0:0:0:0:
64,192,192079,1,0,0:0:0:0:
320,192,192153,1,0,0:0:0:0:
448,192,192153,1,0,0:0:0:0:
192,192,192226,1,0,0:0:0:0:
64,192,192300,1,0,0:0:0:0:
320,192,192300,1,0,0:0:0:0:
448,192,192300,1,0,0:0:0:0:
192,192,192373,1,0,0:0:0:0:
64,192,192446,1,0,0:0:0:0:
320,192,192446,1,0,0:0:0:0:
448,192,192520,1,0,0:0:0:0:
64,192,192593,1,0,0:0:0:0:
192,192,192593,1,0,0:0:0:0:
320,192,192666,1,0,0:0:0:0:
192,192,192740,1,0,0:0:0:0:
448,192,192740,1,0,0:0:0:0:
320,192,192813,1,0,0:0:0:0:
64,192,192886,1,0,0:0:0:0:
192,192,192886,1,0,0:0:0:0:
448,192,192886,1,0,0:0:0:0:
320,192,192960,1,0,0:0:0:0:
64,192,193033,1,0,0:0:0:0:
192,192,193033,1,0,0:0:0:0:
448,192,193106,1,0,0:0:0:0:
64,192,193180,1,0,0:0:0:0:
192,192,193180,1,0,0:0:0:0:
320,192,193180,1,0,0:0:0:0:
448,192,193253,1,0,0:0:0:0:
192,192,193326,1,0,0:0:0:0:
320,192,193326,1,0,0:0:0:0:
64,192,193400,1,0,0:0:0:0:
192,192,193473,1,0,0:0:0:0:
320,192,193473,1,0,0:0:0:0:
448,192,193473,1,0,0:0:0:0:
64,192,193546,1,0,0:0:0:0:
320,192,193620,1,0,0:0:0:0:
192,192,193693,1,0,0:0:0:0:
64,192,193767,1,0,0:0:0:0:
320,192,193767,1,0,0:0:0:0:
448,192,193767,1,0,0:0:0:0:
192,192,193840,1,0,0:0:0:0:
320,192,193913,1,0,0:0:0:0:
64,192,193987,1,0,0:0:0:0:
192,192,194060,1,0,0:0:0:0:
448,192,194060,1,0,0:0:0:0:
64,192,194133,1,0,0:0:0:0:
320,192,194207,1,0,0:0:0:0:
448,192,194207,1,0,0:0:0:0:
192,192,194280,1,0,0:0:0:0:
64,192,194353,1,0,0:0:0:0:
448,192,194353,1,0,0:0:0:0:
320,192,194427,1,0,0:0:0:0:
64,192,194500,1,0,0:0:0:0:
192,192,194500,1,0,0:0:0:0:
448,192,194573,1,0,0:0:0:0:
64,192,194647,1,0,0:0:0:0:
192,192,194647,1,0,0:0:0:0:
320,192,194720,1,0,0:0:0:0:
64,192,194793,1,0,0:0:0:0:
448,192,194793,1,0,0:0:0:0:
192,192,194867,1,0,0:0:0:0:
64,192,194940,1,0,0:0:0:0:
320,192,194940,1,0,0:0:0:0:
448,192,194940,1,0,0:0:0:0:
192,192,195013,1,0,0:0:0:0:
320,192,195087,1,0,0:0:0:0:
448,192,195087,1,0,0:0:0:0:
64,192,195160,1,0,0:0:0:0:
192,192,195234,1,0,0:0:0:0:
320,192,195234,1,0,0:0:0:0:
448,192,195234,1,0,0:0:0:0:
64,192,195307,1,0,0:0:0:0:
320,192,195380,1,0,0:0:0:0:
448,192,195380,1,0,0:0:0:0:
192,192,195454,1,0,0:0:0:0:
64,192,195527,1,0,0:0:0:0:
320,192,195527,1,0,0:0:0:0:
448,192,195527,1,0,0:0:0:0:
192,192,195600,1,0,0:0:0:0:
448,192,195674,1,0,0:0:0:0:
320,192,195723,1,0,0:0:0:0:
192,192,195771,1,0,0:0:0:0:
64,192,195820,1,0,0:0:0:0:
320,192,195820,1,0,0:0:0:0:
448,192,195820,1,0,0:0:0:0:
192,192,195894,1,0,0:0:0:0:
64,192,195967,1,0,0:0:0:0:
448,192,195967,1,0,0:0:0:0:
320,192,196016,1,0,0:0:0:0:
192,192,196065,1,0,0:0:0:0:
64,192,196114,1,0,0:0:0:0:
320,192,196114,1,0,0:0:0:0:
448,192,196114,1,0,0:0:0:0:
192,192,196187,1,0,0:0:0:0:
320,192,196260,1,0,0:0:0:0:
64,192,196334,1,0,0:0:0:0:
192,192,196407,1,0,0:0:0:0:
320,192,196407,1,0,0:0:0:0:
448,192,196407,1,0,0:0:0:0:
64,192,196480,1,0,0:0:0:0:
320,192,196554,1,0,0:0:0:0:
448,192,196554,1,0,0:0:0:0:
192,192,196627,1,0,0:0:0:0:
64,192,196700,1,0,0:0:0:0:
320,192,196700,1,0,0:0:0:0:
448,192,196700,1,0,0:0:0:0:
192,192,196774,1,0,0:0:0:0:
320,192,196847,1,0,0:0:0:0:
448,192,196847,1,0,0:0:0:0:
64,192,196921,1,0,0:0:0:0:
192,192,196994,1,0,0:0:0:0:
320,192,196994,1,0,0:0:0:0:
448,192,196994,1,0,0:0:0:0:
64,192,197067,1,0,0:0:0:0:
192,192,197141,1,0,0:0:0:0:
320,192,197141,1,0,0:0:0:0:
448,192,197214,1,0,0:0:0:0:
64,192,197287,1,0,0:0:0:0:
192,192,197287,1,0,0:0:0:0:
320,192,197361,1,0,0:0:0:0:
192,192,197434,1,0,0:0:0:0:
448,192,197434,1,0,0:0:0:0:
320,192,197507,1,0,0:0:0:0:
64,192,197581,1,0,0:0:0:0:
192,192,197581,1,0,0:0:0:0:
448,192,197581,1,0,0:0:0:0:
320,192,197654,1,0,0:0:0:0:
64,192,197727,1,0,0:0:0:0:
192,192,197727,1,0,0:0:0:0:
448,192,197801,1,0,0:0:0:0:
64,192,197874,1,0,0:0:0:0:
192,192,197874,1,0,0:0:0:0:
320,192,197874,1,0,0:0:0:0:
448,192,197947,1,0,0:0:0:0:
192,192,198021,1,0,0:0:0:0:
320,192,198021,1,0,0:0:0:0:
64,192,198094,1,0,0:0:0:0:
192,192,198167,1,0,0:0:0:0:
320,192,198167,1,0,0:0:0:0:
448,192,198167,1,0,0:0:0:0:
64,192,198241,1,0,0:0:0:0:
192,192,198314,1,0,0:0:0:0:
448,192,198314,1,0,0:0:0:0:
320,192,198388,1,0,0:0:0:0:
64,192,198461,1,0,0:0:0:0:
192,192,198461,1,0,0:0:0:0:
448,192,198461,1,0,0:0:0:0:
320,192,198534,1,0,0:0:0:0:
192,192,198608,1,0,0:0:0:0:
448,192,198681,1,0,0:0:0:0:
64,192,198754,1,0,0:0:0:0:
192,192,198754,1,0,0:0:0:0:
320,192,198754,1,0,0:0:0:0:
448,192,198828,1,0,0:0:0:0:
64,192,198901,1,0,0:0:0:0:
192,192,198901,1,0,0:0:0:0:
320,192,198974,1,0,0:0:0:0:
64,192,199048,1,0,0:0:0:0:
192,192,199048,1,0,0:0:0:0:
448,192,199048,1,0,0:0:0:0:
320,192,199121,1,0,0:0:0:0:
64,192,199194,1,0,0:0:0:0:
448,192,199194,1,0,0:0:0:0:
192,192,199268,1,0,0:0:0:0:
320,192,199341,1,0,0:0:0:0:
448,192,199341,1,0,0:0:0:0:
64,192,199414,1,0,0:0:0:0:
192,192,199488,1,0,0:0:0:0:
320,192,199488,1,0,0:0:0:0:
64,192,199561,1,0,0:0:0:0:
320,192,199634,1,0,0:0:0:0:
448,192,199634,1,0,0:0:0:0:
192,192,199708,1,0,0:0:0:0:
64,192,199781,1,0,0:0:0:0:
320,192,199781,1,0,0:0:0:0:
192,192,199855,1,0,0:0:0:0:
64,192,199928,1,0,0:0:0:0:
320,192,199928,1,0,0:0:0:0:
448,192,199928,1,0,0:0:0:0:
192,192,200001,1,0,0:0:0:0:
320,192,200075,1,0,0:0:0:0:
448,192,200075,1,0,0:0:0:0:
64,192,200148,1,0,0:0:0:0:
192,192,200221,1,0,0:0:0:0:
320,192,200221,1,0,0:0:0:0:
448,192,200221,1,0,0:0:0:0:
64,192,200295,1,0,0:0:0:0:
320,192,200368,1,0,0:0:0:0:
192,192,200441,1,0,0:0:0:0:
64,192,200515,1,0,0:0:0:0:
320,192,200515,1,0,0:0:0:0:
448,192,200515,1,0,0:0:0:0:
192,192,200588,1,0,0:0:0:0:
320,192,200661,1,0,0:0:0:0:
448,192,200661,1,0,0:0:0:0:
64,192,200735,1,0,0:0:0:0:
192,192,200808,1,0,0:0:0:0:
320,192,200808,1,0,0:0:0:0:
448,192,200808,1,0,0:0:0:0:
64,192,200881,1,0,0:0:0:0:
320,192,200955,1,0,0:0:0:0:
192,192,201028,1,0,0:0:0:0:
64,192,201101,1,0,0:0:0:0:
320,192,201101,1,0,0:0:0:0:
448,192,201101,1,0,0:0:0:0:
192,192,201175,1,0,0:0:0:0:
448,192,201248,1,0,0:0:0:0:
320,192,201322,1,0,0:0:0:0:
64,192,201395,1,0,0:0:0:0:
192,192,201395,1,0,0:0:0:0:
448,192,201395,1,0,0:0:0:0:
320,192,201468,1,0,0:0:0:0:
192,192,201542,1,0,0:0:0:0:
448,192,201542,1,0,0:0:0:0:
64,192,201615,1,0,0:0:0:0:
192,192,201688,1,0,0:0:0:0:
320,192,201688,1,0,0:0:0:0:
448,192,201762,1,0,0:0:0:0:
64,192,201835,1,0,0:0:0:0:
320,192,201835,1,0,0:0:0:0:
192,192,201908,1,0,0:0:0:0:
64,192,201982,1,0,0:0:0:0:
320,192,201982,1,0,0:0:0:0:
448,192,201982,1,0,0:0:0:0:
192,192,202055,1,0,0:0:0:0:
64,192,202128,1,0,0:0:0:0:
448,192,202128,1,0,0:0:0:0:
320,192,202202,1,0,0:0:0:0:
64,192,202275,1,0,0:0:0:0:
192,192,202275,1,0,0:0:0:0:
448,192,202275,1,0,0:0:0:0:
320,192,202348,1,0,0:0:0:0:
192,192,202422,1,0,0:0:0:0:
64,192,202495,1,0,0:0:0:0:
192,192,202568,1,0,0:0:0:0:
320,192,202568,1,0,0:0:0:0:
448,192,202568,1,0,0:0:0:0:
64,192,202642,1,0,0:0:0:0:
320,192,202715,1,0,0:0:0:0:
192,192,202789,1,0,0:0:0:0:
64,192,202862,1,0,0:0:0:0:
320,192,202862,1,0,0:0:0:0:
448,192,202862,1,0,0:0:0:0:
192,192,202935,1,0,0:0:0:0:
320,192,203009,1,0,0:0:0:0:
64,192,203082,1,0,0:0:0:0:
192,192,203155,1,0,0:0:0:0:
320,192,203155,1,0,0:0:0:0:
448,192,203155,1,0,0:0:0:0:
64,192,203229,1,0,0:0:0:0:
320,192,203302,1,0,0:0:0:0:
448,192,203302,1,0,0:0:0:0:
64,192,203375,1,0,0:0:0:0:
192,192,203375,1,0,0:0:0:0:
320,192,203449,1,0,0:0:0:0:
448,192,203449,1,0,0:0:0:0:
64,192,203522,1,0,0:0:0:0:
192,192,203595,1,0,0:0:0:0:
320,192,203595,1,0,0:0:0:0:
448,192,203669,1,0,0:0:0:0:
64,192,203742,1,0,0:0:0:0:
192,192,203742,1,0,0:0:0:0:
320,192,203742,1,0,0:0:0:0:
448,192,203815,1,0,0:0:0:0:
64,192,203889,1,0,0:0:0:0:
320,192,203889,1,0,0:0:0:0:
192,192,203962,1,0,0:0:0:0:
448,192,203962,1,0,0:0:0:0:
64,192,204035,1,0,0:0:0:0:
320,192,204035,1,0,0:0:0:0:
192,192,204109,1,0,0:0:0:0:
320,192,204182,1,0,0:0:0:0:
448,192,204182,1,0,0:0:0:0:
64,192,204256,1,0,0:0:0:0:
192,192,204329,1,0,0:0:0:0:
320,192,204329,1,0,0:0:0:0:
448,192,204329,1,0,0:0:0:0:
64,192,204402,1,0,0:0:0:0:
320,192,204476,1,0,0:0:0:0:
448,192,204476,1,0,0:0:0:0:
192,192,204549,1,0,0:0:0:0:
64,192,204622,1,0,0:0:0:0:
320,192,204622,1,0,0:0:0:0:
448,192,204622,1,0,0:0:0:0:
192,192,204696,1,0,0:0:0:0:
448,192,204769,1,0,0:0:0:0:
320,192,204842,1,0,0:0:0:0:
64,192,204916,1,0,0:0:0:0:
192,192,204916,1,0,0:0:0:0:
448,192,204916,1,0,0:0:0:0:
320,192,204989,1,0,0:0:0:0:
64,192,205062,1,0,0:0:0:0:
448,192,205062,1,0,0:0:0:0:
320,192,205111,1,0,0:0:0:0:
192,192,205160,1,0,0:0:0:0:
64,192,205209,1,0,0:0:0:0:
320,192,205209,1,0,0:0:0:0:
448,192,205209,1,0,0:0:0:0:
192,192,205282,1,0,0:0:0:0:
64,192,205356,1,0,0:0:0:0:
448,192,205356,1,0,0:0:0:0:
320,192,205405,1,0,0:0:0:0:
192,192,205454,1,0,0:0:0:0:
64,192,205502,1,0,0:0:0:0:
320,192,205502,1,0,0:0:0:0:
448,192,205502,1,0,0:0:0:0:
192,192,205576,1,0,0:0:0:0:
448,192,205649,1,0,0:0:0:0:
320,192,205722,1,0,0:0:0:0:
64,192,205796,1,0,0:0:0:0:
192,192,205796,1,0,0:0:0:0:
448,192,205796,1,0,0:0:0:0:
320,192,205869,1,0,0:0:0:0:
64,192,205943,1,0,0:0:0:0:
192,192,205943,1,0,0:0:0:0:
448,192,206016,1,0,0:0:0:0:
64,192,206089,1,0,0:0:0:0:
192,192,206089,1,0,0:0:0:0:
320,192,206089,1,0,0:0:0:0:
448,192,206163,1,0,0:0:0:0:
192,192,206236,1,0,0:0:0:0:
320,192,206309,1,0,0:0:0:0:
64,192,206383,1,0,0:0:0:0:
192,192,206383,1,0,0:0:0:0:
448,192,206383,1,0,0:0:0:0:
320,192,206456,1,0,0:0:0:0:
64,192,206529,1,0,0:0:0:0:
448,192,206529,1,0,0:0:0:0:
192,192,206603,1,0,0:0:0:0:
320,192,206676,1,0,0:0:0:0:
448,192,206676,1,0,0:0:0:0:
64,192,206749,1,0,0:0:0:0:
192,192,206823,1,0,0:0:0:0:
448,192,206823,1,0,0:0:0:0:
320,192,206896,1,0,0:0:0:0:
64,192,206969,1,0,0:0:0:0:
192,192,206969,1,0,0:0:0:0:
448,192,206969,1,0,0:0:0:0:
320,192,207043,1,0,0:0:0:0:
64,192,207116,1,0,0:0:0:0:
192,192,207116,1,0,0:0:0:0:
320,192,207189,1,0,0:0:0:0:
64,192,207263,1,0,0:0:0:0:
192,192,207263,1,0,0:0:0:0:
448,192,207263,1,0,0:0:0:0:
320,192,207336,1,0,0:0:0:0:
192,192,207410,1,0,0:0:0:0:
448,192,207410,1,0,0:0:0:0:
64,192,207483,1,0,0:0:0:0:
192,192,207556,1,0,0:0:0:0:
320,192,207556,1,0,0:0:0:0:
448,192,207556,1,0,0:0:0:0:
64,192,207630,1,0,0:0:0:0:
320,192,207703,1,0,0:0:0:0:
448,192,207703,1,0,0:0:0:0:
192,192,207776,1,0,0:0:0:0:
64,192,207850,1,0,0:0:0:0:
320,192,207850,1,0,0:0:0:0:
448,192,207850,1,0,0:0:0:0:
192,192,207923,1,0,0:0:0:0:
320,192,207996,1,0,0:0:0:0:
64,192,208070,1,0,0:0:0:0:
192,192,208143,1,0,0:0:0:0:
320,192,208143,1,0,0:0:0:0:
448,192,208143,1,0,0:0:0:0:
64,192,208216,1,0,0:0:0:0:
192,192,208290,1,0,0:0:0:0:
448,192,208290,1,0,0:0:0:0:
320,192,208363,1,0,0:0:0:0:
64,192,208436,1,0,0:0:0:0:
192,192,208436,1,0,0:0:0:0:
448,192,208436,1,0,0:0:0:0:
320,192,208510,1,0,0:0:0:0:
192,192,208583,1,0,0:0:0:0:
448,192,208583,1,0,0:0:0:0:
64,192,208656,1,0,0:0:0:0:
192,192,208730,1,0,0:0:0:0:
320,192,208730,1,0,0:0:0:0:
448,192,208803,1,0,0:0:0:0:
64,192,208877,1,0,0:0:0:0:
192,192,208877,1,0,0:0:0:0:
320,192,208950,1,0,0:0:0:0:
64,192,209023,1,0,0:0:0:0:
448,192,209023,1,0,0:0:0:0:
192,192,209097,1,0,0:0:0:0:
64,192,209170,1,0,0:0:0:0:
320,192,209170,1,0,0:0:0:0:
192,192,209243,1,0,0:0:0:0:
64,192,209317,1,0,0:0:0:0:
320,192,209317,1,0,0:0:0:0:
448,192,209317,1,0,0:0:0:0:
192,192,209390,1,0,0:0:0:0:
320,192,209463,1,0,0:0:0:0:
448,192,209463,1,0,0:0:0:0:
64,192,209537,1,0,0:0:0:0:
192,192,209610,1,0,0:0:0:0:
320,192,209610,1,0,0:0:0:0:
448,192,209610,1,0,0:0:0:0:
64,192,209683,1,0,0:0:0:0:
320,192,209757,1,0,0:0:0:0:
192,192,209830,1,0,0:0:0:0:
64,192,209903,1,0,0:0:0:0:
320,192,209903,1,0,0:0:0:0:
448,192,209903,1,0,0:0:0:0:
192,192,209977,1,0,0:0:0:0:
320,192,210050,1,0,0:0:0:0:
64,192,210123,1,0,0:0:0:0:
192,192,210197,1,0,0:0:0:0:
320,192,210197,1,0,0:0:0:0:
448,192,210197,1,0,0:0:0:0:
64,192,210270,1,0,0:0:0:0:
320,192,210344,1,0,0:0:0:0:
192,192,210417,1,0,0:0:0:0:
64,192,210490,1,0,0:0:0:0:
320,192,210490,1,0,0:0:0:0:
448,192,210490,1,0,0:0:0:0:
192,192,210564,1,0,0:0:0:0:
448,192,210637,1,0,0:0:0:0:
320,192,210710,1,0,0:0:0:0:
64,192,210784,1,0,0:0:0:0:
192,192,210784,1,0,0:0:0:0:
448,192,210784,1,0,0:0:0:0:
320,192,210857,1,0,0:0:0:0:
64,192,210930,1,0,0:0:0:0:
448,192,210930,1,0,0:0:0:0:
192,192,211004,1,0,0:0:0:0:
64,192,211077,1,0,0:0:0:0:
320,192,211077,1,0,0:0:0:0:
448,192,211077,1,0,0:0:0:0:
192,192,211150,1,0,0:0:0:0:
64,192,211224,1,0,0:0:0:0:
320,192,211224,1,0,0:0:0:0:
448,192,211297,1,0,0:0:0:0:
64,192,211370,1,0,0:0:0:0:
192,192,211370,1,0,0:0:0:0:
320,192,211444,1,0,0:0:0:0:
192,192,211517,1,0,0:0:0:0:
448,192,211517,1,0,0:0:0:0:
320,192,211590,1,0,0:0:0:0:
64,192,211664,1,0,0:0:0:0:
192,192,211664,1,0,0:0:0:0:
448,192,211664,1,0,0:0:0:0:
320,192,211737,1,0,0:0:0:0:
64,192,211811,1,0,0:0:0:0:
192,192,211811,1,0,0:0:0:0:
320,192,211884,1,0,0:0:0:0:
64,192,211957,1,0,0:0:0:0:
192,192,211957,1,0,0:0:0:0:
448,192,211957,1,0,0:0:0:0:
320,192,212031,1,0,0:0:0:0:
192,192,212104,1,0,0:0:0:0:
448,192,212104,1,0,0:0:0:0:
64,192,212177,1,0,0:0:0:0:
192,192,212251,1,0,0:0:0:0:
320,192,212251,1,0,0:0:0:0:
448,192,212251,1,0,0:0:0:0:
64,192,212324,1,0,0:0:0:0:
320,192,212397,1,0,0:0:0:0:
192,192,212471,1,0,0:0:0:0:
64,192,212544,1,0,0:0:0:0:
320,192,212544,1,0,0:0:0:0:
448,192,212544,1,0,0:0:0:0:
192,192,212617,1,0,0:0:0:0:
320,192,212691,1,0,0:0:0:0:
64,192,212764,1,0,0:0:0:0:
192,192,212837,1,0,0:0:0:0:
448,192,212837,1,0,0:0:0:0:
64,192,212911,1,0,0:0:0:0:
320,192,212984,1,0,0:0:0:0:
192,192,213057,1,0,0:0:0:0:
64,192,213131,1,0,0:0:0:0:
448,192,213131,1,0,0:0:0:0:
320,192,213204,1,0,0:0:0:0:
64,192,213278,1,0,0:0:0:0:
192,192,213278,1,0,0:0:0:0:
448,192,213351,1,0,0:0:0:0:
64,192,213424,1,0,0:0:0:0:
192,192,213424,1,0,0:0:0:0:
320,192,213498,1,0,0:0:0:0:
64,192,213571,1,0,0:0:0:0:
448,192,213571,1,0,0:0:0:0:
192,192,213644,1,0,0:0:0:0:
320,192,213718,1,0,0:0:0:0:
448,192,213718,1,0,0:0:0:0:
192,192,213791,1,0,0:0:0:0:
64,192,213864,1,0,0:0:0:0:
448,192,213864,1,0,0:0:0:0:
320,192,213938,1,0,0:0:0:0:
64,192,214011,1,0,0:0:0:0:
192,192,214011,1,0,0:0:0:0:
448,192,214084,1,0,0:0:0:0:
320,192,214158,1,0,0:0:0:0:
64,192,214231,1,0,0:0:0:0:
192,192,214304,1,0,0:0:0:0:
448,192,214304,1,0,0:0:0:0:
320,192,214378,1,0,0:0:0:0:
64,192,214451,1,0,0:0:0:0:
192,192,214500,1,0,0:0:0:0:
320,192,214549,1,0,0:0:0:0:
64,192,214598,1,0,0:0:0:0:
448,192,214598,1,0,0:0:0:0:
320,192,214671,1,0,0:0:0:0:
64,192,214745,1,0,0:0:0:0:
192,192,214793,1,0,0:0:0:0:
320,192,214842,1,0,0:0:0:0:
64,192,214891,1,0,0:0:0:0:
192,192,214891,1,0,0:0:0:0:
448,192,214891,1,0,0:0:0:0:
320,192,214965,1,0,0:0:0:0:
448,192,215038,1,0,0:0:0:0:
192,192,215111,1,0,0:0:0:0:
64,192,215185,1,0,0:0:0:0:
320,192,215185,1,0,0:0:0:0:
448,192,215185,1,0,0:0:0:0:
192,192,215258,1,0,0:0:0:0:
320,192,215331,1,0,0:0:0:0:
64,192,215405,1,0,0:0:0:0:
192,192,215478,1,0,0:0:0:0:
320,192,215478,1,0,0:0:0:0:
448,192,215478,1,0,0:0:0:0:
64,192,215551,1,0,0:0:0:0:
320,192,215625,1,0,0:0:0:0:
448,192,215625,1,0,0:0:0:0:
192,192,215698,1,0,0:0:0:0:
64,192,215771,1,0,0:0:0:0:
448,192,215771,1,0,0:0:0:0:
320,192,215845,1,0,0:0:0:0:
192,192,215918,1,0,0:0:0:0:
448,192,215918,1,0,0:0:0:0:
64,192,215991,1,0,0:0:0:0:
192,192,216065,1,0,0:0:0:0:
320,192,216065,1,0,0:0:0:0:
448,192,216138,1,0,0:0:0:0:
64,192,216211,1,0,0:0:0:0:
192,192,216211,1,0,0:0:0:0:
320,192,216285,1,0,0:0:0:0:
64,192,216358,1,0,0:0:0:0:
192,192,216358,1,0,0:0:0:0:
448,192,216358,1,0,0:0:0:0:
320,192,216432,1,0,0:0:0:0:
448,192,216505,1,0,0:0:0:0:
192,192,216578,1,0,0:0:0:0:
64,192,216652,1,0,0:0:0:0:
320,192,216652,1,0,0:0:0:0:
448,192,216652,1,0,0:0:0:0:
192,192,216725,1,0,0:0:0:0:
320,192,216798,1,0,0:0:0:0:
448,192,216798,1,0,0:0:0:0:
64,192,216872,1,0,0:0:0:0:
192,192,216945,1,0,0:0:0:0:
320,192,216945,1,0,0:0:0:0:
448,192,216945,1,0,0:0:0:0:
64,192,217018,1,0,0:0:0:0:
192,192,217092,1,0,0:0:0:0:
448,192,217092,1,0,0:0:0:0:
320,192,217165,1,0,0:0:0:0:
64,192,217238,1,0,0:0:0:0:
192,192,217238,1,0,0:0:0:0:
448,192,217238,1,0,0:0:0:0:
320,192,217312,1,0,0:0:0:0:
192,192,217385,1,0,0:0:0:0:
64,192,217458,1,0,0:0:0:0:
192,192,217532,1,0,0:0:0:0:
320,192,217532,1,0,0:0:0:0:
448,192,217532,1,0,0:0:0:0:
64,192,217605,1,0,0:0:0:0:
320,192,217678,1,0,0:0:0:0:
192,192,217752,1,0,0:0:0:0:
64,192,217825,1,0,0:0:0:0:
320,192,217825,1,0,0:0:0:0:
448,192,217825,1,0,0:0:0:0:
192,192,217899,1,0,0:0:0:0:
64,192,217972,1,0,0:0:0:0:
320,192,217972,1,0,0:0:0:0:
448,192,218045,1,0,0:0:0:0:
64,192,218119,1,0,0:0:0:0:
192,192,218119,1,0,0:0:0:0:
320,192,218192,1,0,0:0:0:0:
64,192,218265,1,0,0:0:0:0:
448,192,218265,1,0,0:0:0:0:
192,192,218339,1,0,0:0:0:0:
320,192,218412,1,0,0:0:0:0:
448,192,218412,1,0,0:0:0:0:
64,192,218485,1,0,0:0:0:0:
192,192,218559,1,0,0:0:0:0:
448,192,218559,1,0,0:0:0:0:
64,192,218632,1,0,0:0:0:0:
192,192,218705,1,0,0:0:0:0:
320,192,218705,1,0,0:0:0:0:
448,192,218705,1,0,0:0:0:0:
64,192,218779,1,0,0:0:0:0:
320,192,218852,1,0,0:0:0:0:
192,192,218925,1,0,0:0:0:0:
64,192,218999,1,0,0:0:0:0:
320,192,218999,1,0,0:0:0:0:
448,192,218999,1,0,0:0:0:0:
192,192,219072,1,0,0:0:0:0:
448,192,219145,1,0,0:0:0:0:
320,192,219219,1,0,0:0:0:0:
64,192,219292,1,0,0:0:0:0:
192,192,219292,1,0,0:0:0:0:
448,192,219292,1,0,0:0:0:0:
320,192,219366,1,0,0:0:0:0:
192,192,219439,1,0,0:0:0:0:
64,192,219512,1,0,0:0:0:0:
192,192,219586,1,0,0:0:0:0:
320,192,219586,1,0,0:0:0:0:
448,192,219586,1,0,0:0:0:0:
64,192,219659,1,0,0:0:0:0:
320,192,219732,1,0,0:0:0:0:
192,192,219806,1,0,0:0:0:0:
64,192,219879,1,0,0:0:0:0:
448,192,219879,1,0,0:0:0:0:
192,192,219952,1,0,0:0:0:0:
448,192,220026,1,0,0:0:0:0:
320,192,220099,1,0,0:0:0:0:
64,192,220172,1,0,0:0:0:0:
448,192,220172,1,0,0:0:0:0:
192,192,220246,1,0,0:0:0:0:
320,192,220319,1,0,0:0:0:0:
64,192,220392,1,0,0:0:0:0:
192,192,220466,1,0,0:0:0:0:
448,192,220466,1,0,0:0:0:0:
320,192,220539,1,0,0:0:0:0:
64,192,220612,1,0,0:0:0:0:
192,192,220612,1,0,0:0:0:0:
448,192,220686,1,0,0:0:0:0:
192,192,220759,1,0,0:0:0:0:
320,192,220759,1,0,0:0:0:0:
64,192,220833,1,0,0:0:0:0:
320,192,220906,1,0,0:0:0:0:
448,192,220906,1,0,0:0:0:0:
192,192,220979,1,0,0:0:0:0:
64,192,221053,1,0,0:0:0:0:
448,192,221053,1,0,0:0:0:0:
192,192,221126,1,0,0:0:0:0:
320,192,221199,1,0,0:0:0:0:
64,192,221273,1,0,0:0:0:0:
192,192,221346,1,0,0:0:0:0:
320,192,221346,1,0,0:0:0:0:
448,192,221419,1,0,0:0:0:0:
64,192,221493,1,0,0:0:0:0:
320,192,221566,1,0,0:0:0:0:
192,192,221639,1,0,0:0:0:0:
448,192,221639,1,0,0:0:0:0:
64,192,221713,1,0,0:0:0:0:
320,192,221786,1,0,0:0:0:0:
448,192,221786,1,0,0:0:0:0:
192,192,221859,1,0,0:0:0:0:
64,192,221933,1,0,0:0:0:0:
448,192,221933,1,0,0:0:0:0:
320,192,222006,1,0,0:0:0:0:
192,192,222079,1,0,0:0:0:0:
64,192,222153,1,0,0:0:0:0:
192,192,222226,1,0,0:0:0:0:
320,192,222226,1,0,0:0:0:0:
448,192,222300,1,0,0:0:0:0:
192,192,222373,1,0,0:0:0:0:
320,192,222446,1,0,0:0:0:0:
64,192,222520,1,0,0:0:0:0:
448,192,222520,1,0,0:0:0:0:
192,192,222593,1,0,0:0:0:0:
448,192,222666,1,0,0:0:0:0:
320,192,222740,1,0,0:0:0:0:
64,192,222813,1,0,0:0:0:0:
192,192,222813,1,0,0:0:0:0:
320,192,222886,1,0,0:0:0:0:
64,192,222960,1,0,0:0:0:0:
448,192,222960,1,0,0:0:0:0:
192,192,223033,1,0,0:0:0:0:
320,192,223106,1,0,0:0:0:0:
64,192,223180,1,0,0:0:0:0:
320,192,223253,1,0,0:0:0:0:
448,192,223253,1,0,0:0:0:0:
192,192,223326,1,0,0:0:0:0:
64,192,223400,1,0,0:0:0:0:
320,192,223400,1,0,0:0:0:0:
448,192,223473,1,0,0:0:0:0:
64,192,223546,1,0,0:0:0:0:
192,192,223620,1,0,0:0:0:0:
320,192,223693,1,0,0:0:0:0:
448,192,223693,1,0,0:0:0:0:
64,192,223767,1,0,0:0:0:0:
320,192,223840,1,0,0:0:0:0:
192,192,223913,1,0,0:0:0:0:
64,192,223987,1,0,0:0:0:0:
448,192,223987,1,0,0:0:0:0:
320,192,224060,1,0,0:0:0:0:
64,192,224133,1,0,0:0:0:0:
192,192,224207,1,0,0:0:0:0:
64,192,224280,1,0,0:0:0:0:
320,192,224280,1,0,0:0:0:0:
448,192,224280,1,0,0:0:0:0:
192,192,224353,1,0,0:0:0:0:
448,192,224427,1,0,0:0:0:0:
320,192,224500,1,0,0:0:0:0:
64,192,224573,1,0,0:0:0:0:
192,192,224573,1,0,0:0:0:0:
448,192,224573,1,0,0:0:0:0:
320,192,224647,1,0,0:0:0:0:
192,192,224720,1,0,0:0:0:0:
64,192,224793,1,0,0:0:0:0:
192,192,224867,1,0,0:0:0:0:
320,192,224867,1,0,0:0:0:0:
448,192,224867,1,0,0:0:0:0:
64,192,224940,1,0,0:0:0:0:
192,192,225013,1,0,0:0:0:0:
448,192,225013,1,0,0:0:0:0:
320,192,225087,1,0,0:0:0:0:
64,192,225160,1,0,0:0:0:0:
192,192,225160,1,0,0:0:0:0:
320,192,225233,1,0,0:0:0:0:
64,192,225307,1,0,0:0:0:0:
448,192,225307,1,0,0:0:0:0:
192,192,225380,1,0,0:0:0:0:
320,192,225454,1,0,0:0:0:0:
448,192,225454,1,0,0:0:0:0:
64,192,225527,1,0,0:0:0:0:
192,192,225600,1,0,0:0:0:0:
448,192,225600,1,0,0:0:0:0:
320,192,225674,1,0,0:0:0:0:
64,192,225747,1,0,0:0:0:0:
192,192,225747,1,0,0:0:0:0:
448,192,225747,1,0,0:0:0:0:
320,192,225820,1,0,0:0:0:0:
64,192,225894,1,0,0:0:0:0:
192,192,225967,1,0,0:0:0:0:
64,192,226040,1,0,0:0:0:0:
320,192,226040,1,0,0:0:0:0:
448,192,226040,1,0,0:0:0:0:
192,192,226114,1,0,0:0:0:0:
320,192,226187,1,0,0:0:0:0:
448,192,226187,1,0,0:0:0:0:
64,192,226260,1,0,0:0:0:0:
192,192,226334,1,0,0:0:0:0:
320,192,226334,1,0,0:0:0:0:
448,192,226334,1,0,0:0:0:0:
64,192,226407,1,0,0:0:0:0:
192,192,226480,1,0,0:0:0:0:
448,192,226480,1,0,0:0:0:0:
320,192,226554,1,0,0:0:0:0:
64,192,226627,1,0,0:0:0:0:
192,192,226627,1,0,0:0:0:0:
448,192,226627,1,0,0:0:0:0:
320,192,226700,1,0,0:0:0:0:
64,192,226774,1,0,0:0:0:0:
192,192,226774,1,0,0:0:0:0:
320,192,226847,1,0,0:0:0:0:
64,192,226921,1,0,0:0:0:0:
192,192,226921,1,0,0:0:0:0:
448,192,226921,1,0,0:0:0:0:
320,192,226994,1,0,0:0:0:0:
448,192,227067,1,0,0:0:0:0:
64,192,227141,1,0,0:0:0:0:
192,192,227214,1,0,0:0:0:0:
320,192,227214,1,0,0:0:0:0:
448,192,227287,1,0,0:0:0:0:
64,192,227361,1,0,0:0:0:0:
320,192,227434,1,0,0:0:0:0:
64,192,227507,1,0,0:0:0:0:
192,192,227507,1,0,0:0:0:0:
448,192,227507,1,0,0:0:0:0:
320,192,227581,1,0,0:0:0:0:
192,192,227654,1,0,0:0:0:0:
448,192,227727,1,0,0:0:0:0:
64,192,227801,1,0,0:0:0:0:
192,192,227801,1,0,0:0:0:0:
320,192,227874,1,0,0:0:0:0:
448,192,227947,1,0,0:0:0:0:
64,192,228021,1,0,0:0:0:0:
192,192,228094,1,0,0:0:0:0:
320,192,228094,1,0,0:0:0:0:
448,192,228094,1,0,0:0:0:0:
64,192,228167,1,0,0:0:0:0:
448,192,228241,1,0,0:0:0:0:
320,192,228314,1,0,0:0:0:0:
64,192,228388,1,0,0:0:0:0:
192,192,228388,1,0,0:0:0:0:
448,192,228461,1,0,0:0:0:0:
192,192,228534,1,0,0:0:0:0:
320,192,228608,1,0,0:0:0:0:
64,192,228681,1,0,0:0:0:0:
192,192,228681,1,0,0:0:0:0:
448,192,228681,1,0,0:0:0:0:
320,192,228754,1,0,0:0:0:0:
192,192,228828,1,0,0:0:0:0:
64,192,228901,1,0,0:0:0:0:
320,192,228974,1,0,0:0:0:0:
448,192,228974,1,0,0:0:0:0:
192,192,229048,1,0,0:0:0:0:
320,192,229121,1,0,0:0:0:0:
64,192,229194,1,0,0:0:0:0:
192,192,229268,1,0,0:0:0:0:
320,192,229268,1,0,0:0:0:0:
448,192,229268,1,0,0:0:0:0:
64,192,229341,1,0,0:0:0:0:
320,192,229414,1,0,0:0:0:0:
448,192,229488,1,0,0:0:0:0:
64,192,229561,1,0,0:0:0:0:
192,192,229561,1,0,0:0:0:0:
320,192,229634,1,0,0:0:0:0:
448,192,229708,1,0,0:0:0:0:
192,192,229781,1,0,0:0:0:0:
64,192,229855,1,0,0:0:0:0:
320,192,229855,1,0,0:0:0:0:
448,192,229855,1,0,0:0:0:0:
192,192,229928,1,0,0:0:0:0:
320,192,230001,1,0,0:0:0:0:
64,192,230075,1,0,0:0:0:0:
192,192,230148,1,0,0:0:0:0:
448,192,230148,1,0,0:0:0:0:
320,192,230221,1,0,0:0:0:0:
448,192,230295,1,0,0:0:0:0:
192,192,230368,1,0,0:0:0:0:
64,192,230441,1,0,0:0:0:0:
320,192,230441,1,0,0:0:0:0:
448,192,230441,1,0,0:0:0:0:
192,192,230515,1,0,0:0:0:0:
320,192,230588,1,0,0:0:0:0:
64,192,230661,1,0,0:0:0:0:
192,192,230735,1,0,0:0:0:0:
320,192,230735,1,0,0:0:0:0:
448,192,230808,1,0,0:0:0:0:
192,192,230881,1,0,0:0:0:0:
64,192,230955,1,0,0:0:0:0:
192,192,231028,1,0,0:0:0:0:
320,192,231028,1,0,0:0:0:0:
448,192,231028,1,0,0:0:0:0:
64,192,231101,1,0,0:0:0:0:
448,192,231175,1,0,0:0:0:0:
320,192,231248,1,0,0:0:0:0:
64,192,231322,1,0,0:0:0:0:
192,192,231322,1,0,0:0:0:0:
448,192,231395,1,0,0:0:0:0:
192,192,231468,1,0,0:0:0:0:
320,192,231542,1,0,0:0:0:0:
64,192,231615,1,0,0:0:0:0:
192,192,231615,1,0,0:0:0:0:
448,192,231615,1,0,0:0:0:0:
320,192,231688,1,0,0:0:0:0:
448,192,231762,1,0,0:0:0:0:
192,192,231835,1,0,0:0:0:0:
64,192,231908,1,0,0:0:0:0:
320,192,231908,1,0,0:0:0:0:
448,192,231982,1,0,0:0:0:0:
192,192,232055,1,0,0:0:0:0:
320,192,232128,1,0,0:0:0:0:
64,192,232202,1,0,0:0:0:0:
192,192,232202,1,0,0:0:0:0:
448,192,232202,1,0,0:0:0:0:
320,192,232275,1,0,0:0:0:0:
192,192,232348,1,0,0:0:0:0:
64,192,232422,1,0,0:0:0:0:
320,192,232495,1,0,0:0:0:0:
448,192,232495,1,0,0:0:0:0:
192,192,232568,1,0,0:0:0:0:
320,192,232642,1,0,0:0:0:0:
64,192,232715,1,0,0:0:0:0:
192,192,232789,1,0,0:0:0:0:
320,192,232789,1,0,0:0:0:0:
448,192,232789,1,0,0:0:0:0:
64,192,232862,1,0,0:0:0:0:
192,192,232935,1,0,0:0:0:0:
448,192,233009,1,0,0:0:0:0:
64,192,233082,1,0,0:0:0:0:
320,192,233082,1,0,0:0:0:0:
192,192,233155,1,0,0:0:0:0:
320,192,233229,1,0,0:0:0:0:
64,192,233302,1,0,0:0:0:0:
192,192,233375,1,0,0:0:0:0:
320,192,233375,1,0,0:0:0:0:
448,192,233375,1,0,0:0:0:0:
64,192,233449,1,0,0:0:0:0:
320,192,233522,1,0,0:0:0:0:
448,192,233522,1,0,0:0:0:0:
64,192,233595,1,0,0:0:0:0:
192,192,233595,1,0,0:0:0:0:
320,192,233669,1,0,0:0:0:0:
448,192,233669,1,0,0:0:0:0:
64,192,233742,1,0,0:0:0:0:
320,192,233815,1,0,0:0:0:0:
192,192,233889,1,0,0:0:0:0:
64,192,233962,1,0,0:0:0:0:
320,192,233962,1,0,0:0:0:0:
448,192,233962,1,0,0:0:0:0:
192,192,234035,1,0,0:0:0:0:
320,192,234109,1,0,0:0:0:0:
64,192,234182,1,0,0:0:0:0:
192,192,234256,1,0,0:0:0:0:
448,192,234256,1,0,0:0:0:0:
320,192,234329,1,0,0:0:0:0:
448,192,234402,1,0,0:0:0:0:
64,192,234476,1,0,0:0:0:0:
192,192,234549,1,0,0:0:0:0:
320,192,234549,1,0,0:0:0:0:
448,192,234549,1,0,0:0:0:0:
64,192,234622,1,0,0:0:0:0:
448,192,234696,1,0,0:0:0:0:
192,192,234769,1,0,0:0:0:0:
320,192,234842,1,0,0:0:0:0:
448,192,234842,1,0,0:0:0:0:
64,192,234916,1,0,0:0:0:0:
320,192,234989,1,0,0:0:0:0:
192,192,235062,1,0,0:0:0:0:
64,192,235136,1,0,0:0:0:0:
320,192,235136,1,0,0:0:0:0:
448,192,235136,1,0,0:0:0:0:
192,192,235209,1,0,0:0:0:0:
448,192,235282,1,0,0:0:0:0:
64,192,235356,1,0,0:0:0:0:
192,192,235429,1,0,0:0:0:0:
320,192,235429,1,0,0:0:0:0:
448,192,235502,1,0,0:0:0:0:
192,192,235576,1,0,0:0:0:0:
64,192,235649,1,0,0:0:0:0:
192,192,235722,1,0,0:0:0:0:
320,192,235722,1,0,0:0:0:0:
448,192,235722,1,0,0:0:0:0:
64,192,235796,1,0,0:0:0:0:
448,192,235869,1,0,0:0:0:0:
320,192,235943,1,0,0:0:0:0:
64,192,236016,1,0,0:0:0:0:
192,192,236016,1,0,0:0:0:0:
448,192,236016,1,0,0:0:0:0:
320,192,236089,1,0,0:0:0:0:
64,192,236163,1,0,0:0:0:0:
192,192,236236,1,0,0:0:0:0:
64,192,236309,1,0,0:0:0:0:
320,192,236309,1,0,0:0:0:0:
448,192,236309,1,0,0:0:0:0:
192,192,236383,1,0,0:0:0:0:
448,192,236456,1,0,0:0:0:0:
64,192,236529,1,0,0:0:0:0:
192,192,236603,1,0,0:0:0:0:
320,192,236603,1,0,0:0:0:0:
448,192,236676,1,0,0:0:0:0:
64,192,236749,1,0,0:0:0:0:
320,192,236823,1,0,0:0:0:0:
64,192,236896,1,0,0:0:0:0:
192,192,236896,1,0,0:0:0:0:
448,192,236896,1,0,0:0:0:0:
320,192,236969,1,0,0:0:0:0:
192,192,237043,1,0,0:0:0:0:
448,192,237116,1,0,0:0:0:0:
64,192,237189,1,0,0:0:0:0:
192,192,237189,1,0,0:0:0:0:
320,192,237263,1,0,0:0:0:0:
448,192,237336,1,0,0:0:0:0:
64,192,237410,1,0,0:0:0:0:
192,192,237483,1,0,0:0:0:0:
320,192,237483,1,0,0:0:0:0:
448,192,237483,1,0,0:0:0:0:
64,192,237556,1,0,0:0:0:0:
448,192,237630,1,0,0:0:0:0:
320,192,237703,1,0,0:0:0:0:
64,192,237776,1,0,0:0:0:0:
192,192,237776,1,0,0:0:0:0:
448,192,237850,1,0,0:0:0:0:
192,192,237923,1,0,0:0:0:0:
320,192,237996,1,0,0:0:0:0:
64,192,238070,1,0,0:0:0:0:
192,192,238070,1,0,0:0:0:0:
448,192,238070,1,0,0:0:0:0:
320,192,238143,1,0,0:0:0:0:
192,192,238216,1,0,0:0:0:0:
64,192,238290,1,0,0:0:0:0:
320,192,238363,1,0,0:0:0:0:
448,192,238363,1,0,0:0:0:0:
192,192,238436,1,0,0:0:0:0:
320,192,238510,1,0,0:0:0:0:
64,192,238583,1,0,0:0:0:0:
192,192,238656,1,0,0:0:0:0:
320,192,238656,1,0,0:0:0:0:
448,192,238656,1,0,0:0:0:0:
64,192,238730,1,0,0:0:0:0:
320,192,238803,1,0,0:0:0:0:
448,192,238877,1,0,0:0:0:0:
64,192,238950,1,0,0:0:0:0:
192,192,238950,1,0,0:0:0:0:
320,192,239023,1,0,0:0:0:0:
448,192,239097,1,0,0:0:0:0:
192,192,239170,1,0,0:0:0:0:
64,192,239243,1,0,0:0:0:0:
320,192,239243,1,0,0:0:0:0:
448,192,239243,1,0,0:0:0:0:
192,192,239317,1,0,0:0:0:0:
320,192,239390,1,0,0:0:0:0:
64,192,239463,1,0,0:0:0:0:
192,192,239537,1,0,0:0:0:0:
448,192,239537,1,0,0:0:0:0:
320,192,239610,1,0,0:0:0:0:
448,192,239683,1,0,0:0:0:0:
192,192,239757,1,0,0:0:0:0:
64,192,239830,1,0,0:0:0:0:
320,192,239830,1,0,0:0:0:0:
448,192,239830,1,0,0:0:0:0:
192,192,239903,1,0,0:0:0:0:
320,192,239977,1,0,0:0:0:0:
64,192,240050,1,0,0:0:0:0:
192,192,240123,1,0,0:0:0:0:
320,192,240123,1,0,0:0:0:0:
448,192,240197,1,0,0:0:0:0:
192,192,240270,1,0,0:0:0:0:
64,192,240344,1,0,0:0:0:0:
192,192,240417,1,0,0:0:0:0:
320,192,240417,1,0,0:0:0:0:
448,192,240417,1,0,0:0:0:0:
64,192,240490,1,0,0:0:0:0:
448,192,240564,1,0,0:0:0:0:
320,192,240637,1,0,0:0:0:0:
64,192,240710,1,0,0:0:0:0:
192,192,240710,1,0,0:0:0:0:
448,192,240784,1,0,0:0:0:0:
192,192,240857,1,0,0:0:0:0:
320,192,240930,1,0,0:0:0:0:
64,192,241004,1,0,0:0:0:0:
192,192,241004,1,0,0:0:0:0:
448,192,241004,1,0,0:0:0:0:
320,192,241077,1,0,0:0:0:0:
448,192,241150,1,0,0:0:0:0:
192,192,241224,1,0,0:0:0:0:
64,192,241297,1,0,0:0:0:0:
320,192,241297,1,0,0:0:0:0:
448,192,241370,1,0,0:0:0:0:
192,192,241444,1,0,0:0:0:0:
320,192,241517,1,0,0:0:0:0:
64,192,241590,1,0,0:0:0:0:
192,192,241590,1,0,0:0:0:0:
448,192,241590,1,0,0:0:0:0:
320,192,241664,1,0,0:0:0:0:
192,192,241737,1,0,0:0:0:0:
64,192,241811,1,0,0:0:0:0:
320,192,241884,1,0,0:0:0:0:
448,192,241884,1,0,0:0:0:0:
192,192,241957,1,0,0:0:0:0:
320,192,242031,1,0,0:0:0:0:
64,192,242104,1,0,0:0:0:0:
192,192,242177,1,0,0:0:0:0:
320,192,242177,1,0,0:0:0:0:
448,192,242177,1,0,0:0:0:0:
64,192,242251,1,0,0:0:0:0:
192,192,242324,1,0,0:0:0:0:
448,192,242397,1,0,0:0:0:0:
64,192,242471,1,0,0:0:0:0:
320,192,242471,1,0,0:0:0:0:
192,192,242544,1,0,0:0:0:0:
320,192,242617,1,0,0:0:0:0:
64,192,242691,1,0,0:0:0:0:
192,192,242764,1,0,0:0:0:0:
320,192,242764,1,0,0:0:0:0:
448,192,242764,1,0,0:0:0:0:
64,192,242837,1,0,0:0:0:0:
320,192,242911,1,0,0:0:0:0:
64,192,242984,1,0,0:0:0:0:
320,192,243057,1,0,0:0:0:0:
448,192,243057,1,0,0:0:0:0:
64,192,243131,1,0,0:0:0:0:
192,192,243131,1,0,0:0:0:0:
320,192,243204,1,0,0:0:0:0:
448,192,243204,1,0,0:0:0:0:
64,192,243278,1,0,0:0:0:0:
192,192,243278,1,0,0:0:0:0:
320,192,243351,1,0,0:0:0:0:
448,192,243351,1,0,0:0:0:0:
64,192,243424,1,0,0:0:0:0:
192,192,243424,1,0,0:0:0:0:
320,192,243498,1,0,0:0:0:0:
448,192,243498,1,0,0:0:0:0:
64,192,243571,1,0,0:0:0:0:
192,192,243571,1,0,0:0:0:0:
320,192,243644,1,0,0:0:0:0:
448,192,243644,1,0,0:0:0:0:
64,192,243718,1,0,0:0:0:0:
192,192,243718,1,0,0:0:0:0:
320,192,243791,1,0,0:0:0:0:
448,192,243791,1,0,0:0:0:0:
64,192,243864,1,0,0:0:0:0:
192,192,243864,1,0,0:0:0:0:
320,192,243938,1,0,0:0:0:0:
448,192,243938,1,0,0:0:0:0:
64,192,244011,1,0,0:0:0:0:
192,192,244011,1,0,0:0:0:0:
320,192,244084,1,0,0:0:0:0:
448,192,244084,1,0,0:0:0:0:
64,192,244158,1,0,0:0:0:0:
192,192,244158,1,0,0:0:0:0:
320,192,244231,1,0,0:0:0:0:
448,192,244231,1,0,0:0:0:0:
64,192,244304,1,0,0:0:0:0:
192,192,244304,1,0,0:0:0:0:
320,192,244378,1,0,0:0:0:0:
448,192,244378,1,0,0:0:0:0:
64,192,244451,1,0,0:0:0:0:
192,192,244451,1,0,0:0:0:0:
320,192,244524,1,0,0:0:0:0:
448,192,244524,1,0,0:0:0:0:
64,192,244598,1,0,0:0:0:0:
192,192,244598,1,0,0:0:0:0:
320,192,244671,1,0,0:0:0:0:
448,192,244671,1,0,0:0:0:0:
64,192,244744,1,0,0:0:0:0:
192,192,244744,1,0,0:0:0:0:
320,192,244818,1,0,0:0:0:0:
448,192,244818,1,0,0:0:0:0:
64,192,244891,1,0,0:0:0:0:
192,192,244891,1,0,0:0:0:0:
320,192,244965,1,0,0:0:0:0:
448,192,244965,1,0,0:0:0:0:
64,192,245038,1,0,0:0:0:0:
192,192,245038,1,0,0:0:0:0:
320,192,245111,1,0,0:0:0:0:
448,192,245111,1,0,0:0:0:0:
64,192,245185,1,0,0:0:0:0:
192,192,245185,1,0,0:0:0:0:
320,192,245258,1,0,0:0:0:0:
448,192,245258,1,0,0:0:0:0:
64,192,245331,1,0,0:0:0:0:
192,192,245331,1,0,0:0:0:0:
64,192,245405,1,0,0:0:0:0:
320,192,245405,1,0,0:0:0:0:
448,192,245405,1,0,0:0:0:0:
192,192,245478,1,0,0:0:0:0:
64,192,245551,1,0,0:0:0:0:
320,192,245625,1,0,0:0:0:0:
64,192,245698,1,0,0:0:0:0:
192,192,245698,1,0,0:0:0:0:
448,192,245698,1,0,0:0:0:0:
320,192,245771,1,0,0:0:0:0:
448,192,245845,1,0,0:0:0:0:
64,192,245918,1,0,0:0:0:0:
192,192,245991,1,0,0:0:0:0:
320,192,245991,1,0,0:0:0:0:
448,192,246065,1,0,0:0:0:0:
64,192,246138,1,0,0:0:0:0:
320,192,246211,1,0,0:0:0:0:
64,192,246285,1,0,0:0:0:0:
192,192,246285,1,0,0:0:0:0:
448,192,246285,1,0,0:0:0:0:
320,192,246358,1,0,0:0:0:0:
192,192,246432,1,0,0:0:0:0:
448,192,246505,1,0,0:0:0:0:
64,192,246578,1,0,0:0:0:0:
192,192,246578,1,0,0:0:0:0:
320,192,246652,1,0,0:0:0:0:
448,192,246725,1,0,0:0:0:0:
64,192,246798,1,0,0:0:0:0:
192,192,246872,1,0,0:0:0:0:
320,192,246872,1,0,0:0:0:0:
448,192,246872,1,0,0:0:0:0:
64,192,246945,1,0,0:0:0:0:
448,192,247018,1,0,0:0:0:0:
320,192,247092,1,0,0:0:0:0:
64,192,247165,1,0,0:0:0:0:
192,192,247165,1,0,0:0:0:0:
448,192,247238,1,0,0:0:0:0:
192,192,247312,1,0,0:0:0:0:
320,192,247385,1,0,0:0:0:0:
64,192,247458,1,0,0:0:0:0:
192,192,247458,1,0,0:0:0:0:
448,192,247458,1,0,0:0:0:0:
320,192,247532,1,0,0:0:0:0:
192,192,247605,1,0,0:0:0:0:
64,192,247678,1,0,0:0:0:0:
320,192,247752,1,0,0:0:0:0:
448,192,247752,1,0,0:0:0:0:
192,192,247825,1,0,0:0:0:0:
320,192,247899,1,0,0:0:0:0:
64,192,247972,1,0,0:0:0:0:
192,192,248045,1,0,0:0:0:0:
320,192,248045,1,0,0:0:0:0:
448,192,248045,1,0,0:0:0:0:
64,192,248119,1,0,0:0:0:0:
320,192,248192,1,0,0:0:0:0:
448,192,248265,1,0,0:0:0:0:
64,192,248339,1,0,0:0:0:0:
192,192,248339,1,0,0:0:0:0:
320,192,248412,1,0,0:0:0:0:
448,192,248485,1,0,0:0:0:0:
192,192,248559,1,0,0:0:0:0:
64,192,248632,1,0,0:0:0:0:
320,192,248632,1,0,0:0:0:0:
448,192,248632,1,0,0:0:0:0:
192,192,248705,1,0,0:0:0:0:
320,192,248779,1,0,0:0:0:0:
64,192,248852,1,0,0:0:0:0:
192,192,248925,1,0,0:0:0:0:
448,192,248925,1,0,0:0:0:0:
320,192,248999,1,0,0:0:0:0:
448,192,249072,1,0,0:0:0:0:
192,192,249145,1,0,0:0:0:0:
64,192,249219,1,0,0:0:0:0:
320,192,249219,1,0,0:0:0:0:
448,192,249219,1,0,0:0:0:0:
192,192,249292,1,0,0:0:0:0:
320,192,249366,1,0,0:0:0:0:
64,192,249439,1,0,0:0:0:0:
192,192,249512,1,0,0:0:0:0:
320,192,249512,1,0,0:0:0:0:
448,192,249586,1,0,0:0:0:0:
192,192,249659,1,0,0:0:0:0:
64,192,249732,1,0,0:0:0:0:
192,192,249806,1,0,0:0:0:0:
320,192,249806,1,0,0:0:0:0:
448,192,249806,1,0,0:0:0:0:
64,192,249879,1,0,0:0:0:0:
192,192,249952,1,0,0:0:0:0:
448,192,249952,1,0,0:0:0:0:
320,192,250026,1,0,0:0:0:0:
64,192,250099,1,0,0:0:0:0:
192,192,250099,1,0,0:0:0:0:
448,192,250172,1,0,0:0:0:0:
192,192,250246,1,0,0:0:0:0:
320,192,250319,1,0,0:0:0:0:
64,192,250392,1,0,0:0:0:0:
192,192,250392,1,0,0:0:0:0:
448,192,250392,1,0,0:0:0:0:
320,192,250466,1,0,0:0:0:0:
448,192,250539,1,0,0:0:0:0:
192,192,250612,1,0,0:0:0:0:
64,192,250686,1,0,0:0:0:0:
320,192,250686,1,0,0:0:0:0:
448,192,250759,1,0,0:0:0:0:
192,192,250833,1,0,0:0:0:0:
320,192,250906,1,0,0:0:0:0:
64,192,250979,1,0,0:0:0:0:
192,192,250979,1,0,0:0:0:0:
448,192,250979,1,0,0:0:0:0:
320,192,251053,1,0,0:0:0:0:
192,192,251126,1,0,0:0:0:0:
64,192,251199,1,0,0:0:0:0:
320,192,251273,1,0,0:0:0:0:
448,192,251273,1,0,0:0:0:0:
192,192,251346,1,0,0:0:0:0:
320,192,251419,1,0,0:0:0:0:
64,192,251493,1,0,0:0:0:0:
192,192,251566,1,0,0:0:0:0:
320,192,251566,1,0,0:0:0:0:
448,192,251566,1,0,0:0:0:0:
64,192,251639,1,0,0:0:0:0:
192,192,251713,1,0,0:0:0:0:
448,192,251786,1,0,0:0:0:0:
64,192,251859,1,0,0:0:0:0:
320,192,251859,1,0,0:0:0:0:
192,192,251933,1,0,0:0:0:0:
320,192,252006,1,0,0:0:0:0:
64,192,252079,1,0,0:0:0:0:
192,192,252153,1,0,0:0:0:0:
320,192,252153,1,0,0:0:0:0:
448,192,252153,1,0,0:0:0:0:
64,192,252226,1,0,0:0:0:0:
320,192,252300,1,0,0:0:0:0:
64,192,252373,1,0,0:0:0:0:
192,192,252446,1,0,0:0:0:0:
448,192,252446,1,0,0:0:0:0:
320,192,252520,1,0,0:0:0:0:
448,192,252593,1,0,0:0:0:0:
192,192,252666,1,0,0:0:0:0:
64,192,252740,1,0,0:0:0:0:
320,192,252740,1,0,0:0:0:0:
448,192,252740,1,0,0:0:0:0:
192,192,252813,1,0,0:0:0:0:
320,192,252886,1,0,0:0:0:0:
64,192,252960,1,0,0:0:0:0:
192,192,253033,1,0,0:0:0:0:
448,192,253033,1,0,0:0:0:0:
320,192,253106,1,0,0:0:0:0:
448,192,253180,1,0,0:0:0:0:
64,192,253253,1,0,0:0:0:0:
192,192,253326,1,0,0:0:0:0:
320,192,253326,1,0,0:0:0:0:
448,192,253326,1,0,0:0:0:0:
64,192,253400,1,0,0:0:0:0:
448,192,253473,1,0,0:0:0:0:
192,192,253546,1,0,0:0:0:0:
320,192,253620,1,0,0:0:0:0:
448,192,253620,1,0,0:0:0:0:
64,192,253693,1,0,0:0:0:0:
320,192,253767,1,0,0:0:0:0:
448,192,253767,1,0,0:0:0:0:
192,192,253840,1,0,0:0:0:0:
64,192,253913,1,0,0:0:0:0:
320,192,253913,1,0,0:0:0:0:
448,192,253913,1,0,0:0:0:0:
192,192,253987,1,0,0:0:0:0:
448,192,254060,1,0,0:0:0:0:
64,192,254133,1,0,0:0:0:0:
192,192,254207,1,0,0:0:0:0:
320,192,254207,1,0,0:0:0:0:
64,192,254280,1,0,0:0:0:0:
448,192,254353,1,0,0:0:0:0:
320,192,254402,1,0,0:0:0:0:
192,192,254451,1,0,0:0:0:0:
64,192,254500,1,0,0:0:0:0:
448,192,254549,1,0,0:0:0:0:
320,192,254598,1,0,0:0:0:0:
192,192,254647,1,0,0:0:0:0:
64,192,254696,1,0,0:0:0:0:
448,192,254744,1,0,0:0:0:0:
64,192,254793,1,0,0:0:0:0:
192,192,254793,1,0,0:0:0:0:
320,192,254793,1,0,0:0:0:0:
448,192,254940,1,0,0:0:0:0:
64,192,255087,1,0,0:0:0:0:
192,192,255087,1,0,0:0:0:0:
320,192,255087,1,0,0:0:0:0:
448,192,255233,1,0,0:0:0:0:
64,192,255380,1,0,0:0:0:0:
320,192,255380,1,0,0:0:0:0:
192,192,255527,1,0,0:0:0:0:
64,192,255674,1,0,0:0:0:0:
320,192,255674,1,0,0:0:0:0:
448,192,255674,1,0,0:0:0:0:
192,192,255820,1,0,0:0:0:0:
64,192,255967,1,0,0:0:0:0:
320,192,255967,1,0,0:0:0:0:
448,192,256114,1,0,0:0:0:0:
64,192,256260,1,0,0:0:0:0:
192,192,256260,1,0,0:0:0:0:
320,192,256260,1,0,0:0:0:0:
448,192,256407,1,0,0:0:0:0:
64,192,256554,1,0,0:0:0:0:
320,192,256554,1,0,0:0:0:0:
192,192,256700,1,0,0:0:0:0:
64,192,256847,1,0,0:0:0:0:
320,192,256847,1,0,0:0:0:0:
448,192,256847,1,0,0:0:0:0:
192,192,256994,1,0,0:0:0:0:
64,192,257141,1,0,0:0:0:0:
448,192,257141,1,0,0:0:0:0:
320,192,257287,1,0,0:0:0:0:
64,192,257434,1,0,0:0:0:0:
192,192,257434,1,0,0:0:0:0:
448,192,257434,1,0,0:0:0:0:
320,192,257581,1,0,0:0:0:0:
64,192,257727,1,0,0:0:0:0:
192,192,257727,1,0,0:0:0:0:
448,192,257874,1,0,0:0:0:0:
64,192,258021,1,0,0:0:0:0:
192,192,258021,1,0,0:0:0:0:
320,192,258021,1,0,0:0:0:0:
448,192,258167,1,0,0:0:0:0:
192,192,258314,1,0,0:0:0:0:
320,192,258314,1,0,0:0:0:0:
64,192,258461,1,0,0:0:0:0:
192,192,258608,1,0,0:0:0:0:
320,192,258608,1,0,0:0:0:0:
448,192,258608,1,0,0:0:0:0:
64,192,258754,1,0,0:0:0:0:
192,192,258901,1,0,0:0:0:0:
320,192,258901,1,0,0:0:0:0:
448,192,259048,1,0,0:0:0:0:
64,192,259194,1,0,0:0:0:0:
192,192,259194,1,0,0:0:0:0:
320,192,259194,1,0,0:0:0:0:
192,192,259341,1,0,0:0:0:0:
448,192,259341,1,0,0:0:0:0:
64,192,259488,1,0,0:0:0:0:
320,192,259488,1,0,0:0:0:0:
192,192,259634,1,0,0:0:0:0:
448,192,259634,1,0,0:0:0:0:
64,192,259781,1,0,0:0:0:0:
192,192,259781,1,0,0:0:0:0:
320,192,259781,1,0,0:0:0:0:
320,192,259928,1,0,0:0:0:0:
448,192,259928,1,0,0:0:0:0:
64,192,260075,1,0,0:0:0:0:
320,192,260075,1,0,0:0:0:0:
64,192,260221,1,0,0:0:0:0:
192,192,260221,1,0,0:0:0:0:
64,192,260368,1,0,0:0:0:0:
320,192,260368,1,0,0:0:0:0:
448,192,260368,1,0,0:0:0:0:
192,192,260515,1,0,0:0:0:0:
320,192,260515,1,0,0:0:0:0:
64,192,260661,1,0,0:0:0:0:
448,192,260661,1,0,0:0:0:0:
192,192,260808,1,0,0:0:0:0:
320,192,260808,1,0,0:0:0:0:
64,192,260955,1,0,0:0:0:0:
320,192,260955,1,0,0:0:0:0:
448,192,260955,1,0,0:0:0:0:
192,192,261101,1,0,0:0:0:0:
448,192,261101,1,0,0:0:0:0:
64,192,261248,1,0,0:0:0:0:
320,192,261248,1,0,0:0:0:0:
192,192,261395,1,0,0:0:0:0:
320,192,261395,1,0,0:0:0:0:
64,192,261542,1,0,0:0:0:0:
192,192,261542,1,0,0:0:0:0:
448,192,261542,1,0,0:0:0:0:
64,192,261688,1,0,0:0:0:0:
320,192,261688,1,0,0:0:0:0:
320,192,261835,1,0,0:0:0:0:
448,192,261835,1,0,0:0:0:0:
64,192,261908,1,0,0:0:0:0:
192,192,261908,1,0,0:0:0:0:
320,192,261982,1,0,0:0:0:0:
448,192,261982,1,0,0:0:0:0:
64,192,262055,1,0,0:0:0:0:
192,192,262055,1,0,0:0:0:0:
320,192,262128,1,0,0:0:0:0:
448,192,262128,1,0,0:0:0:0:
64,192,262202,1,0,0:0:0:0:
192,192,262202,1,0,0:0:0:0:
320,192,262275,1,0,0:0:0:0:
448,192,262275,1,0,0:0:0:0:
64,192,262348,1,0,0:0:0:0:
192,192,262348,1,0,0:0:0:0:
320,192,262422,1,0,0:0:0:0:
448,192,262422,1,0,0:0:0:0:
64,192,262495,1,0,0:0:0:0:
192,192,262495,1,0,0:0:0:0:
320,192,262568,1,0,0:0:0:0:
448,192,262568,1,0,0:0:0:0:
64,192,262642,1,0,0:0:0:0:
192,192,262642,1,0,0:0:0:0:
320,192,262715,1,0,0:0:0:0:
448,192,262715,1,0,0:0:0:0:
64,192,262789,1,0,0:0:0:0:
192,192,262789,1,0,0:0:0:0:
320,192,262862,1,0,0:0:0:0:
448,192,262862,1,0,0:0:0:0:
64,192,262935,1,0,0:0:0:0:
192,192,262935,1,0,0:0:0:0:
448,192,263009,1,0,0:0:0:0:
320,192,263057,1,0,0:0:0:0:
192,192,263106,1,0,0:0:0:0:
64,192,263155,1,0,0:0:0:0:
448,192,263204,1,0,0:0:0:0:
320,192,263253,1,0,0:0:0:0:
192,192,263302,1,0,0:0:0:0:
64,192,263351,1,0,0:0:0:0:
448,192,263400,1,0,0:0:0:0:
320,192,263449,1,0,0:0:0:0:
192,192,263498,1,0,0:0:0:0:
64,192,263546,1,0,0:0:0:0:
448,0,263595,128,0,263742:1:0:0:0:
320,0,263632,128,0,263779:1:0:0:0:
192,0,263669,128,0,263815:1:0:0:0:
64,0,263705,128,0,263852:1:0:0:0:
448,0,263815,128,0,263962:1:0:0:0:
320,0,263852,128,0,263999:1:0:0:0:
192,0,263889,128,0,264035:1:0:0:0:
64,0,263925,128,0,264072:1:0:0:0:
448,192,264035,1,0,0:0:0:0:
320,192,264072,1,0,0:0:0:0:
192,192,264109,1,0,0:0:0:0:
64,192,264145,1,0,0:0:0:0:
192,192,264182,1,0,0:0:0:0:
320,192,264182,1,0,0:0:0:0:
448,192,264182,1,0,0:0:0:0:
