osu file format v14

[General]
AudioFilename: Streaming Heart.mp3
AudioLeadIn: 2
PreviewTime: 57340
Countdown: 0
SampleSet: None
StackLeniency: 0.7
Mode: 3
LetterboxInBreaks: 0
SpecialStyle: 0
WidescreenStoryboard: 0

[Editor]
DistanceSpacing: 0.8
BeatDivisor: 4
GridSize: 8
TimelineZoom: 2.5

[Metadata]
Title:dakemoto's Collection Pack Vol.1
TitleUnicode:dakemoto's Collection Pack Vol.1
Artist:Various Artist
ArtistUnicode:Various Artist
Creator:dakemoto
Version:Streaming Heart (Hard)
Source:Stepmania
Tags:
BeatmapID:741052
BeatmapSetID:329410

[Difficulty]
HPDrainRate:7
CircleSize:4
OverallDifficulty:8
ApproachRate:10
SliderMultiplier:1.4
SliderTickRate:1

[Events]
//Background and Video events
0,0,"Streaming Heart bg.jpg",0,0
//Break Periods
//Storyboard Layer 0 (Background)
//Storyboard Layer 1 (Fail)
//Storyboard Layer 2 (Pass)
//Storyboard Layer 3 (Foreground)
//Storyboard Sound Samples

[TimingPoints]
194,285.7143,4,3,0,15,1,0

[HitObjects]
64,192,1336,5,0,0:0:0:0:
320,192,1336,1,0,0:0:0:0:
448,192,1336,1,0,0:0:0:0:
64,192,1622,1,0,0:0:0:0:
320,192,1622,1,0,0:0:0:0:
448,192,1622,1,0,0:0:0:0:
64,192,1908,1,0,0:0:0:0:
320,192,1908,1,0,0:0:0:0:
448,192,1908,1,0,0:0:0:0:
64,192,2194,1,0,0:0:0:0:
320,192,2194,1,0,0:0:0:0:
448,192,2194,1,0,0:0:0:0:
64,192,2479,1,0,0:0:0:0:
320,192,2479,1,0,0:0:0:0:
448,192,2479,1,0,0:0:0:0:
64,192,2765,1,0,0:0:0:0:
320,192,2765,1,0,0:0:0:0:
448,192,2765,1,0,0:0:0:0:
64,192,3051,1,0,0:0:0:0:
320,192,3051,1,0,0:0:0:0:
448,192,3051,1,0,0:0:0:0:
64,192,3336,1,0,0:0:0:0:
320,192,3336,1,0,0:0:0:0:
448,192,3336,1,0,0:0:0:0:
64,192,3622,1,0,0:0:0:0:
192,192,3622,1,0,0:0:0:0:
448,192,3622,1,0,0:0:0:0:
64,192,3908,1,0,0:0:0:0:
192,192,3908,1,0,0:0:0:0:
448,192,3908,1,0,0:0:0:0:
64,192,4194,1,0,0:0:0:0:
192,192,4194,1,0,0:0:0:0:
448,192,4194,1,0,0:0:0:0:
64,192,4479,1,0,0:0:0:0:
192,192,4479,1,0,0:0:0:0:
448,192,4479,1,0,0:0:0:0:
64,192,4765,1,0,0:0:0:0:
192,192,4765,1,0,0:0:0:0:
448,192,4765,1,0,0:0:0:0:
64,192,5051,1,0,0:0:0:0:
192,192,5051,1,0,0:0:0:0:
448,192,5051,1,0,0:0:0:0:
64,192,5336,1,0,0:0:0:0:
192,192,5336,1,0,0:0:0:0:
448,192,5336,1,0,0:0:0:0:
64,192,5622,1,0,0:0:0:0:
192,192,5622,1,0,0:0:0:0:
448,192,5622,1,0,0:0:0:0:
64,192,5908,1,0,0:0:0:0:
320,192,5908,1,0,0:0:0:0:
448,192,5908,1,0,0:0:0:0:
64,192,6194,1,0,0:0:0:0:
320,192,6194,1,0,0:0:0:0:
448,192,6194,1,0,0:0:0:0:
64,192,6479,1,0,0:0:0:0:
320,192,6479,1,0,0:0:0:0:
448,192,6479,1,0,0:0:0:0:
64,192,6765,1,0,0:0:0:0:
320,192,6765,1,0,0:0:0:0:
448,192,6765,1,0,0:0:0:0:
64,192,7051,1,0,0:0:0:0:
320,192,7051,1,0,0:0:0:0:
448,192,7051,1,0,0:0:0:0:
64,192,7336,1,0,0:0:0:0:
320,192,7336,1,0,0:0:0:0:
448,192,7336,1,0,0:0:0:0:
64,192,7622,1,0,0:0:0:0:
320,192,7622,1,0,0:0:0:0:
448,192,7622,1,0,0:0:0:0:
64,192,7908,1,0,0:0:0:0:
320,192,7908,1,0,0:0:0:0:
448,192,7908,1,0,0:0:0:0:
64,192,8194,1,0,0:0:0:0:
192,192,8194,1,0,0:0:0:0:
448,192,8194,1,0,0:0:0:0:
320,192,9336,1,0,0:0:0:0:
448,192,9336,1,0,0:0:0:0:
64,192,9408,1,0,0:0:0:0:
448,192,9479,1,0,0:0:0:0:
64,192,9551,1,0,0:0:0:0:
192,192,9622,1,0,0:0:0:0:
448,192,9622,1,0,0:0:0:0:
320,192,9765,1,0,0:0:0:0:
64,192,9908,1,0,0:0:0:0:
192,192,9908,1,0,0:0:0:0:
448,192,9979,1,0,0:0:0:0:
192,192,10051,1,0,0:0:0:0:
448,192,10122,1,0,0:0:0:0:
64,192,10194,1,0,0:0:0:0:
320,192,10194,1,0,0:0:0:0:
320,192,10336,1,0,0:0:0:0:
448,192,10336,1,0,0:0:0:0:
64,192,10408,1,0,0:0:0:0:
192,192,10408,1,0,0:0:0:0:
320,192,10479,1,0,0:0:0:0:
448,192,10479,1,0,0:0:0:0:
64,192,10551,1,0,0:0:0:0:
320,192,10622,1,0,0:0:0:0:
448,192,10622,1,0,0:0:0:0:
64,192,10694,1,0,0:0:0:0:
320,192,10765,1,0,0:0:0:0:
448,192,10765,1,0,0:0:0:0:
64,192,10836,1,0,0:0:0:0:
192,192,10908,1,0,0:0:0:0:
448,192,10908,1,0,0:0:0:0:
320,192,10979,1,0,0:0:0:0:
64,192,11051,1,0,0:0:0:0:
192,192,11051,1,0,0:0:0:0:
448,192,11122,1,0,0:0:0:0:
64,192,11194,1,0,0:0:0:0:
192,192,11265,1,0,0:0:0:0:
320,192,11336,1,0,0:0:0:0:
448,192,11336,1,0,0:0:0:0:
64,192,11408,1,0,0:0:0:0:
448,192,11479,1,0,0:0:0:0:
320,192,11551,1,0,0:0:0:0:
64,192,11622,1,0,0:0:0:0:
192,192,11622,1,0,0:0:0:0:
448,192,11694,1,0,0:0:0:0:
64,192,11765,1,0,0:0:0:0:
192,192,11765,1,0,0:0:0:0:
448,192,11836,1,0,0:0:0:0:
64,192,11908,1,0,0:0:0:0:
192,192,11908,1,0,0:0:0:0:
448,192,11979,1,0,0:0:0:0:
64,192,12051,1,0,0:0:0:0:
320,192,12051,1,0,0:0:0:0:
192,192,12122,1,0,0:0:0:0:
64,192,12194,1,0,0:0:0:0:
448,192,12194,1,0,0:0:0:0:
320,192,12265,1,0,0:0:0:0:
64,192,12336,1,0,0:0:0:0:
192,192,12408,1,0,0:0:0:0:
320,192,12479,1,0,0:0:0:0:
448,192,12479,1,0,0:0:0:0:
64,192,12551,1,0,0:0:0:0:
320,192,12622,1,0,0:0:0:0:
192,192,12694,1,0,0:0:0:0:
64,192,12765,1,0,0:0:0:0:
448,192,12765,1,0,0:0:0:0:
320,192,12836,1,0,0:0:0:0:
64,192,12908,1,0,0:0:0:0:
448,192,12908,1,0,0:0:0:0:
320,192,12979,1,0,0:0:0:0:
64,192,13051,1,0,0:0:0:0:
448,192,13051,1,0,0:0:0:0:
320,192,13122,1,0,0:0:0:0:
64,192,13194,1,0,0:0:0:0:
192,192,13194,1,0,0:0:0:0:
320,192,13265,1,0,0:0:0:0:
192,192,13336,1,0,0:0:0:0:
448,192,13336,1,0,0:0:0:0:
64,192,13408,1,0,0:0:0:0:
320,192,13479,1,0,0:0:0:0:
192,192,13551,1,0,0:0:0:0:
64,192,13622,1,0,0:0:0:0:
448,192,13622,1,0,0:0:0:0:
192,192,13694,1,0,0:0:0:0:
448,192,13765,1,0,0:0:0:0:
320,192,13836,1,0,0:0:0:0:
64,192,13908,1,0,0:0:0:0:
448,192,13908,1,0,0:0:0:0:
192,192,13979,1,0,0:0:0:0:
64,192,14051,1,0,0:0:0:0:
448,192,14051,1,0,0:0:0:0:
192,192,14122,1,0,0:0:0:0:
64,192,14194,1,0,0:0:0:0:
448,192,14194,1,0,0:0:0:0:
192,192,14265,1,0,0:0:0:0:
320,192,14336,1,0,0:0:0:0:
448,192,14336,1,0,0:0:0:0:
192,192,14408,1,0,0:0:0:0:
64,192,14479,1,0,0:0:0:0:
448,192,14479,1,0,0:0:0:0:
320,192,14551,1,0,0:0:0:0:
448,192,14622,1,0,0:0:0:0:
192,192,14694,1,0,0:0:0:0:
320,192,14765,1,0,0:0:0:0:
448,192,14765,1,0,0:0:0:0:
64,192,14836,1,0,0:0:0:0:
192,192,14908,1,0,0:0:0:0:
320,192,14979,1,0,0:0:0:0:
192,192,15051,1,0,0:0:0:0:
448,192,15051,1,0,0:0:0:0:
64,192,15122,1,0,0:0:0:0:
192,192,15194,1,0,0:0:0:0:
448,192,15194,1,0,0:0:0:0:
64,192,15265,1,0,0:0:0:0:
192,192,15336,1,0,0:0:0:0:
448,192,15336,1,0,0:0:0:0:
64,192,15408,1,0,0:0:0:0:
320,192,15479,1,0,0:0:0:0:
448,192,15479,1,0,0:0:0:0:
192,192,15551,1,0,0:0:0:0:
64,192,15622,1,0,0:0:0:0:
448,192,15622,1,0,0:0:0:0:
320,192,15694,1,0,0:0:0:0:
192,192,15765,1,0,0:0:0:0:
448,192,15836,1,0,0:0:0:0:
192,192,15908,1,0,0:0:0:0:
320,192,15908,1,0,0:0:0:0:
64,192,15979,1,0,0:0:0:0:
448,192,16051,1,0,0:0:0:0:
192,192,16122,1,0,0:0:0:0:
64,192,16194,1,0,0:0:0:0:
320,192,16194,1,0,0:0:0:0:
448,192,16265,1,0,0:0:0:0:
64,192,16336,1,0,0:0:0:0:
320,192,16336,1,0,0:0:0:0:
448,192,16408,1,0,0:0:0:0:
64,192,16479,1,0,0:0:0:0:
320,192,16479,1,0,0:0:0:0:
448,192,16551,1,0,0:0:0:0:
64,192,16622,1,0,0:0:0:0:
192,192,16622,1,0,0:0:0:0:
320,192,16694,1,0,0:0:0:0:
64,192,16765,1,0,0:0:0:0:
448,192,16765,1,0,0:0:0:0:
192,192,16836,1,0,0:0:0:0:
320,192,16908,1,0,0:0:0:0:
64,192,16979,1,0,0:0:0:0:
192,192,17051,1,0,0:0:0:0:
448,192,17051,1,0,0:0:0:0:
64,192,17122,1,0,0:0:0:0:
320,192,17194,1,0,0:0:0:0:
192,192,17265,1,0,0:0:0:0:
320,192,17336,1,0,0:0:0:0:
448,192,17336,1,0,0:0:0:0:
192,192,17408,1,0,0:0:0:0:
320,192,17479,1,0,0:0:0:0:
448,192,17479,1,0,0:0:0:0:
192,192,17551,1,0,0:0:0:0:
320,192,17622,1,0,0:0:0:0:
448,192,17622,1,0,0:0:0:0:
192,192,17694,1,0,0:0:0:0:
64,192,17765,1,0,0:0:0:0:
320,192,17765,1,0,0:0:0:0:
448,192,17836,1,0,0:0:0:0:
64,192,17908,1,0,0:0:0:0:
192,192,17908,1,0,0:0:0:0:
320,192,17979,1,0,0:0:0:0:
448,192,18051,1,0,0:0:0:0:
192,192,18122,1,0,0:0:0:0:
320,192,18194,1,0,0:0:0:0:
448,192,18194,1,0,0:0:0:0:
64,192,18265,1,0,0:0:0:0:
448,192,18336,1,0,0:0:0:0:
320,192,18408,1,0,0:0:0:0:
64,192,18479,1,0,0:0:0:0:
192,192,18479,1,0,0:0:0:0:
320,192,18551,1,0,0:0:0:0:
64,192,18622,1,0,0:0:0:0:
192,192,18622,1,0,0:0:0:0:
320,192,18694,1,0,0:0:0:0:
64,192,18765,1,0,0:0:0:0:
192,192,18765,1,0,0:0:0:0:
320,192,18836,1,0,0:0:0:0:
64,192,18908,1,0,0:0:0:0:
448,192,18908,1,0,0:0:0:0:
192,192,18979,1,0,0:0:0:0:
320,192,19051,1,0,0:0:0:0:
448,192,19051,1,0,0:0:0:0:
64,192,19122,1,0,0:0:0:0:
448,192,19194,1,0,0:0:0:0:
192,192,19265,1,0,0:0:0:0:
320,192,19336,1,0,0:0:0:0:
448,192,19336,1,0,0:0:0:0:
64,192,19408,1,0,0:0:0:0:
320,192,19479,1,0,0:0:0:0:
192,192,19551,1,0,0:0:0:0:
320,192,19622,1,0,0:0:0:0:
448,192,19622,1,0,0:0:0:0:
64,192,19694,1,0,0:0:0:0:
320,192,19765,1,0,0:0:0:0:
448,192,19765,1,0,0:0:0:0:
64,192,19836,1,0,0:0:0:0:
320,192,19908,1,0,0:0:0:0:
448,192,19908,1,0,0:0:0:0:
64,192,19979,1,0,0:0:0:0:
192,192,20051,1,0,0:0:0:0:
448,192,20051,1,0,0:0:0:0:
320,192,20122,1,0,0:0:0:0:
64,192,20194,1,0,0:0:0:0:
192,192,20194,1,0,0:0:0:0:
448,192,20265,1,0,0:0:0:0:
64,192,20336,1,0,0:0:0:0:
192,192,20408,1,0,0:0:0:0:
320,192,20479,1,0,0:0:0:0:
448,192,20479,1,0,0:0:0:0:
64,192,20551,1,0,0:0:0:0:
448,192,20622,1,0,0:0:0:0:
320,192,20694,1,0,0:0:0:0:
64,192,20765,1,0,0:0:0:0:
192,192,20765,1,0,0:0:0:0:
448,192,20836,1,0,0:0:0:0:
64,192,20908,1,0,0:0:0:0:
192,192,20908,1,0,0:0:0:0:
448,192,20979,1,0,0:0:0:0:
64,192,21051,1,0,0:0:0:0:
192,192,21051,1,0,0:0:0:0:
448,192,21122,1,0,0:0:0:0:
64,192,21194,1,0,0:0:0:0:
320,192,21194,1,0,0:0:0:0:
192,192,21265,1,0,0:0:0:0:
64,192,21336,1,0,0:0:0:0:
448,192,21336,1,0,0:0:0:0:
320,192,21408,1,0,0:0:0:0:
64,192,21479,1,0,0:0:0:0:
192,192,21551,1,0,0:0:0:0:
320,192,21622,1,0,0:0:0:0:
448,192,21622,1,0,0:0:0:0:
64,192,21694,1,0,0:0:0:0:
320,192,21765,1,0,0:0:0:0:
192,192,21836,1,0,0:0:0:0:
64,192,21908,1,0,0:0:0:0:
448,192,21908,1,0,0:0:0:0:
320,192,21979,1,0,0:0:0:0:
64,192,22051,1,0,0:0:0:0:
448,192,22051,1,0,0:0:0:0:
320,192,22122,1,0,0:0:0:0:
64,192,22194,1,0,0:0:0:0:
448,192,22194,1,0,0:0:0:0:
320,192,22265,1,0,0:0:0:0:
64,192,22336,1,0,0:0:0:0:
192,192,22336,1,0,0:0:0:0:
320,192,22408,1,0,0:0:0:0:
192,192,22479,1,0,0:0:0:0:
448,192,22479,1,0,0:0:0:0:
64,192,22551,1,0,0:0:0:0:
320,192,22622,1,0,0:0:0:0:
192,192,22694,1,0,0:0:0:0:
64,192,22765,1,0,0:0:0:0:
448,192,22765,1,0,0:0:0:0:
192,192,22836,1,0,0:0:0:0:
448,192,22908,1,0,0:0:0:0:
320,192,22979,1,0,0:0:0:0:
64,192,23051,1,0,0:0:0:0:
448,192,23051,1,0,0:0:0:0:
192,192,23122,1,0,0:0:0:0:
64,192,23194,1,0,0:0:0:0:
448,192,23194,1,0,0:0:0:0:
192,192,23265,1,0,0:0:0:0:
64,192,23336,1,0,0:0:0:0:
448,192,23336,1,0,0:0:0:0:
192,192,23408,1,0,0:0:0:0:
320,192,23479,1,0,0:0:0:0:
448,192,23479,1,0,0:0:0:0:
192,192,23551,1,0,0:0:0:0:
64,192,23622,1,0,0:0:0:0:
448,192,23622,1,0,0:0:0:0:
320,192,23694,1,0,0:0:0:0:
448,192,23765,1,0,0:0:0:0:
192,192,23836,1,0,0:0:0:0:
320,192,23908,1,0,0:0:0:0:
448,192,23908,1,0,0:0:0:0:
64,192,23979,1,0,0:0:0:0:
192,192,24051,1,0,0:0:0:0:
320,192,24122,1,0,0:0:0:0:
192,192,24194,1,0,0:0:0:0:
448,192,24194,1,0,0:0:0:0:
64,192,24265,1,0,0:0:0:0:
192,192,24336,1,0,0:0:0:0:
448,192,24336,1,0,0:0:0:0:
64,192,24408,1,0,0:0:0:0:
192,192,24479,1,0,0:0:0:0:
448,192,24479,1,0,0:0:0:0:
64,192,24551,1,0,0:0:0:0:
320,192,24622,1,0,0:0:0:0:
448,192,24622,1,0,0:0:0:0:
192,192,24694,1,0,0:0:0:0:
64,192,24765,1,0,0:0:0:0:
448,192,24765,1,0,0:0:0:0:
320,192,24836,1,0,0:0:0:0:
192,192,24908,1,0,0:0:0:0:
448,192,24979,1,0,0:0:0:0:
192,192,25051,1,0,0:0:0:0:
320,192,25051,1,0,0:0:0:0:
64,192,25122,1,0,0:0:0:0:
448,192,25194,1,0,0:0:0:0:
192,192,25265,1,0,0:0:0:0:
64,192,25336,1,0,0:0:0:0:
320,192,25336,1,0,0:0:0:0:
448,192,25408,1,0,0:0:0:0:
64,192,25479,1,0,0:0:0:0:
320,192,25479,1,0,0:0:0:0:
448,192,25551,1,0,0:0:0:0:
64,192,25622,1,0,0:0:0:0:
320,192,25622,1,0,0:0:0:0:
448,192,25694,1,0,0:0:0:0:
64,192,25765,1,0,0:0:0:0:
192,192,25765,1,0,0:0:0:0:
320,192,25836,1,0,0:0:0:0:
64,192,25908,1,0,0:0:0:0:
448,192,25908,1,0,0:0:0:0:
192,192,25979,1,0,0:0:0:0:
320,192,26051,1,0,0:0:0:0:
64,192,26122,1,0,0:0:0:0:
192,192,26194,1,0,0:0:0:0:
448,192,26194,1,0,0:0:0:0:
64,192,26265,1,0,0:0:0:0:
320,192,26336,1,0,0:0:0:0:
192,192,26408,1,0,0:0:0:0:
320,192,26479,1,0,0:0:0:0:
448,192,26479,1,0,0:0:0:0:
192,192,26551,1,0,0:0:0:0:
320,192,26622,1,0,0:0:0:0:
448,192,26622,1,0,0:0:0:0:
192,192,26694,1,0,0:0:0:0:
320,192,26765,1,0,0:0:0:0:
448,192,26765,1,0,0:0:0:0:
192,192,26836,1,0,0:0:0:0:
64,192,26908,1,0,0:0:0:0:
320,192,26908,1,0,0:0:0:0:
448,192,26979,1,0,0:0:0:0:
64,192,27051,1,0,0:0:0:0:
192,192,27051,1,0,0:0:0:0:
320,192,27122,1,0,0:0:0:0:
448,192,27194,1,0,0:0:0:0:
192,192,27265,1,0,0:0:0:0:
320,192,27336,1,0,0:0:0:0:
448,192,27336,1,0,0:0:0:0:
64,192,27408,1,0,0:0:0:0:
448,192,27479,1,0,0:0:0:0:
320,192,27551,1,0,0:0:0:0:
64,192,27622,1,0,0:0:0:0:
192,192,27622,1,0,0:0:0:0:
320,192,27694,1,0,0:0:0:0:
64,192,27765,1,0,0:0:0:0:
192,192,27765,1,0,0:0:0:0:
320,192,27836,1,0,0:0:0:0:
64,192,27908,1,0,0:0:0:0:
192,192,27908,1,0,0:0:0:0:
320,192,27979,1,0,0:0:0:0:
64,192,28051,1,0,0:0:0:0:
448,192,28051,1,0,0:0:0:0:
192,192,28122,1,0,0:0:0:0:
320,192,28194,1,0,0:0:0:0:
448,192,28194,1,0,0:0:0:0:
64,192,28265,1,0,0:0:0:0:
448,192,28336,1,0,0:0:0:0:
192,192,28408,1,0,0:0:0:0:
320,192,28479,1,0,0:0:0:0:
448,192,28479,1,0,0:0:0:0:
64,192,28551,1,0,0:0:0:0:
320,192,28622,1,0,0:0:0:0:
192,192,28694,1,0,0:0:0:0:
64,192,28765,1,0,0:0:0:0:
448,192,28765,1,0,0:0:0:0:
192,192,28908,1,0,0:0:0:0:
320,192,29122,1,0,0:0:0:0:
448,192,29336,1,0,0:0:0:0:
192,192,29551,1,0,0:0:0:0:
320,0,29694,128,0,29836:0:0:0:0:
64,192,29908,1,0,0:0:0:0:
448,192,29908,1,0,0:0:0:0:
192,192,30051,1,0,0:0:0:0:
320,192,30194,1,0,0:0:0:0:
64,192,30336,1,0,0:0:0:0:
192,192,30336,1,0,0:0:0:0:
64,192,30479,1,0,0:0:0:0:
320,192,30479,1,0,0:0:0:0:
448,192,30479,1,0,0:0:0:0:
192,192,30622,1,0,0:0:0:0:
448,192,30765,1,0,0:0:0:0:
320,192,30908,1,0,0:0:0:0:
64,192,31051,1,0,0:0:0:0:
192,192,31051,1,0,0:0:0:0:
192,192,31194,1,0,0:0:0:0:
320,192,31194,1,0,0:0:0:0:
320,192,31336,1,0,0:0:0:0:
448,192,31336,1,0,0:0:0:0:
64,192,31479,1,0,0:0:0:0:
192,192,31622,1,0,0:0:0:0:
320,192,31622,1,0,0:0:0:0:
448,192,31622,1,0,0:0:0:0:
64,192,31765,1,0,0:0:0:0:
448,192,31908,1,0,0:0:0:0:
192,192,32051,1,0,0:0:0:0:
320,192,32194,1,0,0:0:0:0:
448,192,32194,1,0,0:0:0:0:
64,192,32336,1,0,0:0:0:0:
448,192,32479,1,0,0:0:0:0:
192,192,32622,1,0,0:0:0:0:
320,192,32622,1,0,0:0:0:0:
64,192,32765,1,0,0:0:0:0:
320,192,32765,1,0,0:0:0:0:
448,192,32765,1,0,0:0:0:0:
192,192,32908,1,0,0:0:0:0:
448,192,33051,1,0,0:0:0:0:
320,192,33194,1,0,0:0:0:0:
64,192,33336,1,0,0:0:0:0:
192,192,33336,1,0,0:0:0:0:
192,192,33479,1,0,0:0:0:0:
448,192,33479,1,0,0:0:0:0:
64,192,33622,1,0,0:0:0:0:
320,192,33622,1,0,0:0:0:0:
192,192,33765,1,0,0:0:0:0:
64,192,33908,1,0,0:0:0:0:
320,192,33908,1,0,0:0:0:0:
448,192,33908,1,0,0:0:0:0:
192,192,34051,1,0,0:0:0:0:
320,192,34194,1,0,0:0:0:0:
64,192,34336,1,0,0:0:0:0:
192,192,34479,1,0,0:0:0:0:
448,192,34479,1,0,0:0:0:0:
64,192,34622,1,0,0:0:0:0:
448,192,34765,1,0,0:0:0:0:
192,192,34908,1,0,0:0:0:0:
320,192,34908,1,0,0:0:0:0:
64,192,35051,1,0,0:0:0:0:
192,192,35051,1,0,0:0:0:0:
448,192,35051,1,0,0:0:0:0:
320,192,35194,1,0,0:0:0:0:
64,192,35336,1,0,0:0:0:0:
192,192,35479,1,0,0:0:0:0:
320,192,35622,1,0,0:0:0:0:
448,192,35622,1,0,0:0:0:0:
64,192,35765,1,0,0:0:0:0:
192,192,35765,1,0,0:0:0:0:
192,192,35908,1,0,0:0:0:0:
448,192,35908,1,0,0:0:0:0:
320,192,36051,1,0,0:0:0:0:
64,192,36194,1,0,0:0:0:0:
192,192,36194,1,0,0:0:0:0:
448,192,36194,1,0,0:0:0:0:
448,192,36336,1,0,0:0:0:0:
192,192,36479,1,0,0:0:0:0:
320,192,36622,1,0,0:0:0:0:
64,192,36765,1,0,0:0:0:0:
448,192,36765,1,0,0:0:0:0:
320,192,36908,1,0,0:0:0:0:
192,192,37051,1,0,0:0:0:0:
320,192,37194,1,0,0:0:0:0:
448,192,37194,1,0,0:0:0:0:
64,192,37336,1,0,0:0:0:0:
192,192,37336,1,0,0:0:0:0:
448,192,37336,1,0,0:0:0:0:
320,192,37479,1,0,0:0:0:0:
64,192,37622,1,0,0:0:0:0:
448,192,37765,1,0,0:0:0:0:
192,192,37908,1,0,0:0:0:0:
320,192,37908,1,0,0:0:0:0:
320,192,38051,1,0,0:0:0:0:
448,192,38051,1,0,0:0:0:0:
64,192,38122,1,0,0:0:0:0:
192,192,38122,1,0,0:0:0:0:
320,192,38194,1,0,0:0:0:0:
448,192,38194,1,0,0:0:0:0:
192,192,38336,1,0,0:0:0:0:
320,192,38336,1,0,0:0:0:0:
64,192,38479,1,0,0:0:0:0:
320,192,38479,1,0,0:0:0:0:
448,192,38479,1,0,0:0:0:0:
64,192,38622,1,0,0:0:0:0:
192,192,38622,1,0,0:0:0:0:
320,192,38765,1,0,0:0:0:0:
448,192,38765,1,0,0:0:0:0:
64,192,38908,1,0,0:0:0:0:
448,192,38908,1,0,0:0:0:0:
192,192,38979,1,0,0:0:0:0:
320,192,38979,1,0,0:0:0:0:
64,192,39051,1,0,0:0:0:0:
448,192,39051,1,0,0:0:0:0:
192,192,39122,1,0,0:0:0:0:
320,192,39194,1,0,0:0:0:0:
448,192,39194,1,0,0:0:0:0:
64,192,39265,1,0,0:0:0:0:
192,192,39336,1,0,0:0:0:0:
320,192,39336,1,0,0:0:0:0:
448,192,39336,1,0,0:0:0:0:
64,192,39408,1,0,0:0:0:0:
192,192,39479,1,0,0:0:0:0:
320,192,39479,1,0,0:0:0:0:
64,192,39551,1,0,0:0:0:0:
192,192,39622,1,0,0:0:0:0:
320,192,39622,1,0,0:0:0:0:
448,192,39622,1,0,0:0:0:0:
64,192,39694,1,0,0:0:0:0:
192,192,39765,1,0,0:0:0:0:
448,192,39765,1,0,0:0:0:0:
320,192,39836,1,0,0:0:0:0:
64,192,39908,1,0,0:0:0:0:
192,192,39908,1,0,0:0:0:0:
448,192,39908,1,0,0:0:0:0:
320,192,39979,1,0,0:0:0:0:
64,192,40051,1,0,0:0:0:0:
448,192,40051,1,0,0:0:0:0:
192,192,40122,1,0,0:0:0:0:
64,192,40194,1,0,0:0:0:0:
320,192,40194,1,0,0:0:0:0:
448,192,40194,1,0,0:0:0:0:
192,192,40265,1,0,0:0:0:0:
448,192,40336,1,0,0:0:0:0:
320,192,40408,1,0,0:0:0:0:
64,192,40479,1,0,0:0:0:0:
192,192,40479,1,0,0:0:0:0:
448,192,40479,1,0,0:0:0:0:
320,192,40551,1,0,0:0:0:0:
64,192,40622,1,0,0:0:0:0:
192,192,40622,1,0,0:0:0:0:
448,192,40694,1,0,0:0:0:0:
192,192,40765,1,0,0:0:0:0:
320,192,40765,1,0,0:0:0:0:
448,192,40836,1,0,0:0:0:0:
64,192,40908,1,0,0:0:0:0:
320,192,40908,1,0,0:0:0:0:
192,192,40979,1,0,0:0:0:0:
64,192,41051,1,0,0:0:0:0:
448,192,41051,1,0,0:0:0:0:
320,192,41122,1,0,0:0:0:0:
64,192,41194,1,0,0:0:0:0:
192,192,41194,1,0,0:0:0:0:
448,192,41265,1,0,0:0:0:0:
64,192,41336,1,0,0:0:0:0:
320,192,41336,1,0,0:0:0:0:
448,192,41408,1,0,0:0:0:0:
192,192,41479,1,0,0:0:0:0:
320,192,41479,1,0,0:0:0:0:
64,192,41551,1,0,0:0:0:0:
192,192,41622,1,0,0:0:0:0:
320,192,41622,1,0,0:0:0:0:
448,192,41622,1,0,0:0:0:0:
64,192,41694,1,0,0:0:0:0:
192,192,41765,1,0,0:0:0:0:
448,192,41765,1,0,0:0:0:0:
320,192,41836,1,0,0:0:0:0:
64,192,41908,1,0,0:0:0:0:
192,192,41908,1,0,0:0:0:0:
448,192,41908,1,0,0:0:0:0:
320,192,41979,1,0,0:0:0:0:
192,192,42051,1,0,0:0:0:0:
448,192,42051,1,0,0:0:0:0:
64,192,42122,1,0,0:0:0:0:
192,192,42194,1,0,0:0:0:0:
320,192,42194,1,0,0:0:0:0:
448,192,42194,1,0,0:0:0:0:
64,192,42265,1,0,0:0:0:0:
192,192,42336,1,0,0:0:0:0:
448,192,42336,1,0,0:0:0:0:
320,192,42408,1,0,0:0:0:0:
64,192,42479,1,0,0:0:0:0:
192,192,42479,1,0,0:0:0:0:
448,192,42479,1,0,0:0:0:0:
320,192,42551,1,0,0:0:0:0:
192,192,42622,1,0,0:0:0:0:
448,192,42694,1,0,0:0:0:0:
64,192,42765,1,0,0:0:0:0:
192,192,42765,1,0,0:0:0:0:
320,192,42765,1,0,0:0:0:0:
448,192,42836,1,0,0:0:0:0:
64,192,42908,1,0,0:0:0:0:
320,192,42908,1,0,0:0:0:0:
192,192,42979,1,0,0:0:0:0:
320,192,43051,1,0,0:0:0:0:
448,192,43051,1,0,0:0:0:0:
64,192,43122,1,0,0:0:0:0:
192,192,43194,1,0,0:0:0:0:
320,192,43194,1,0,0:0:0:0:
448,192,43265,1,0,0:0:0:0:
64,192,43336,1,0,0:0:0:0:
320,192,43336,1,0,0:0:0:0:
448,192,43408,1,0,0:0:0:0:
64,192,43479,1,0,0:0:0:0:
192,192,43479,1,0,0:0:0:0:
320,192,43551,1,0,0:0:0:0:
64,192,43622,1,0,0:0:0:0:
448,192,43622,1,0,0:0:0:0:
320,192,43694,1,0,0:0:0:0:
192,192,43765,1,0,0:0:0:0:
448,192,43765,1,0,0:0:0:0:
64,192,43836,1,0,0:0:0:0:
192,192,43908,1,0,0:0:0:0:
320,192,43908,1,0,0:0:0:0:
448,192,43908,1,0,0:0:0:0:
64,192,43979,1,0,0:0:0:0:
192,192,44051,1,0,0:0:0:0:
320,192,44051,1,0,0:0:0:0:
448,192,44122,1,0,0:0:0:0:
64,192,44194,1,0,0:0:0:0:
192,192,44194,1,0,0:0:0:0:
320,192,44194,1,0,0:0:0:0:
448,192,44265,1,0,0:0:0:0:
64,192,44336,1,0,0:0:0:0:
192,192,44336,1,0,0:0:0:0:
320,192,44408,1,0,0:0:0:0:
64,192,44479,1,0,0:0:0:0:
192,192,44479,1,0,0:0:0:0:
448,192,44479,1,0,0:0:0:0:
320,192,44551,1,0,0:0:0:0:
192,192,44622,1,0,0:0:0:0:
448,192,44622,1,0,0:0:0:0:
64,192,44694,1,0,0:0:0:0:
192,192,44765,1,0,0:0:0:0:
320,192,44765,1,0,0:0:0:0:
448,192,44765,1,0,0:0:0:0:
64,192,44836,1,0,0:0:0:0:
320,192,44908,1,0,0:0:0:0:
448,192,44908,1,0,0:0:0:0:
192,192,44979,1,0,0:0:0:0:
64,192,45051,1,0,0:0:0:0:
320,192,45051,1,0,0:0:0:0:
448,192,45051,1,0,0:0:0:0:
192,192,45122,1,0,0:0:0:0:
64,192,45194,1,0,0:0:0:0:
320,192,45194,1,0,0:0:0:0:
448,192,45265,1,0,0:0:0:0:
192,192,45336,1,0,0:0:0:0:
320,192,45336,1,0,0:0:0:0:
448,192,45408,1,0,0:0:0:0:
64,192,45479,1,0,0:0:0:0:
192,192,45479,1,0,0:0:0:0:
320,192,45551,1,0,0:0:0:0:
64,192,45622,1,0,0:0:0:0:
192,192,45622,1,0,0:0:0:0:
320,192,45694,1,0,0:0:0:0:
192,192,45765,1,0,0:0:0:0:
448,192,45765,1,0,0:0:0:0:
64,192,45836,1,0,0:0:0:0:
320,192,45908,1,0,0:0:0:0:
448,192,45908,1,0,0:0:0:0:
64,192,45979,1,0,0:0:0:0:
192,192,46051,1,0,0:0:0:0:
448,192,46051,1,0,0:0:0:0:
320,192,46122,1,0,0:0:0:0:
64,192,46194,1,0,0:0:0:0:
192,192,46194,1,0,0:0:0:0:
448,192,46194,1,0,0:0:0:0:
320,192,46265,1,0,0:0:0:0:
192,192,46336,1,0,0:0:0:0:
448,192,46336,1,0,0:0:0:0:
64,192,46408,1,0,0:0:0:0:
192,192,46479,1,0,0:0:0:0:
320,192,46479,1,0,0:0:0:0:
448,192,46479,1,0,0:0:0:0:
64,192,46551,1,0,0:0:0:0:
192,192,46622,1,0,0:0:0:0:
320,192,46622,1,0,0:0:0:0:
448,192,46694,1,0,0:0:0:0:
64,192,46765,1,0,0:0:0:0:
192,192,46765,1,0,0:0:0:0:
320,192,46765,1,0,0:0:0:0:
448,192,46836,1,0,0:0:0:0:
64,192,46908,1,0,0:0:0:0:
192,192,46908,1,0,0:0:0:0:
320,192,46979,1,0,0:0:0:0:
64,192,47051,1,0,0:0:0:0:
192,192,47051,1,0,0:0:0:0:
448,192,47051,1,0,0:0:0:0:
320,192,47122,1,0,0:0:0:0:
192,192,47194,1,0,0:0:0:0:
448,192,47194,1,0,0:0:0:0:
64,192,47265,1,0,0:0:0:0:
192,192,47336,1,0,0:0:0:0:
320,192,47336,1,0,0:0:0:0:
448,192,47336,1,0,0:0:0:0:
64,192,47408,1,0,0:0:0:0:
192,192,47479,1,0,0:0:0:0:
448,192,47479,1,0,0:0:0:0:
320,192,47551,1,0,0:0:0:0:
192,192,47622,1,0,0:0:0:0:
448,192,47622,1,0,0:0:0:0:
320,192,47694,1,0,0:0:0:0:
64,192,47765,1,0,0:0:0:0:
192,192,47765,1,0,0:0:0:0:
448,192,47836,1,0,0:0:0:0:
64,192,47908,1,0,0:0:0:0:
192,192,47908,1,0,0:0:0:0:
448,192,47979,1,0,0:0:0:0:
192,192,48051,1,0,0:0:0:0:
320,192,48122,1,0,0:0:0:0:
64,192,48194,1,0,0:0:0:0:
448,192,48194,1,0,0:0:0:0:
192,192,48336,1,0,0:0:0:0:
320,192,48479,1,0,0:0:0:0:
64,192,48622,1,0,0:0:0:0:
448,192,48622,1,0,0:0:0:0:
192,192,48765,1,0,0:0:0:0:
448,192,48908,1,0,0:0:0:0:
64,192,49051,1,0,0:0:0:0:
192,192,49051,1,0,0:0:0:0:
320,192,49194,1,0,0:0:0:0:
192,192,49336,1,0,0:0:0:0:
448,192,49336,1,0,0:0:0:0:
320,192,49479,1,0,0:0:0:0:
64,192,49622,1,0,0:0:0:0:
320,192,49765,1,0,0:0:0:0:
448,192,49765,1,0,0:0:0:0:
192,192,49908,1,0,0:0:0:0:
64,192,50051,1,0,0:0:0:0:
320,192,50194,1,0,0:0:0:0:
448,192,50194,1,0,0:0:0:0:
192,192,50336,1,0,0:0:0:0:
64,192,50479,1,0,0:0:0:0:
448,192,50479,1,0,0:0:0:0:
320,192,50622,1,0,0:0:0:0:
448,192,50765,1,0,0:0:0:0:
64,192,50908,1,0,0:0:0:0:
320,192,50908,1,0,0:0:0:0:
192,192,51051,1,0,0:0:0:0:
448,192,51194,1,0,0:0:0:0:
64,192,51336,1,0,0:0:0:0:
192,192,51336,1,0,0:0:0:0:
320,192,51479,1,0,0:0:0:0:
64,192,51622,1,0,0:0:0:0:
448,192,51622,1,0,0:0:0:0:
192,192,51765,1,0,0:0:0:0:
64,192,51908,1,0,0:0:0:0:
192,192,52051,1,0,0:0:0:0:
448,192,52051,1,0,0:0:0:0:
320,192,52194,1,0,0:0:0:0:
192,192,52336,1,0,0:0:0:0:
320,192,52479,1,0,0:0:0:0:
448,192,52479,1,0,0:0:0:0:
64,192,52622,1,0,0:0:0:0:
192,192,52765,1,0,0:0:0:0:
448,192,52765,1,0,0:0:0:0:
320,192,52908,1,0,0:0:0:0:
448,192,53051,1,0,0:0:0:0:
64,192,53194,1,0,0:0:0:0:
192,192,53194,1,0,0:0:0:0:
320,192,53336,1,0,0:0:0:0:
448,192,53479,1,0,0:0:0:0:
64,192,53622,1,0,0:0:0:0:
320,192,53622,1,0,0:0:0:0:
192,192,53765,1,0,0:0:0:0:
64,192,53908,1,0,0:0:0:0:
448,192,53908,1,0,0:0:0:0:
320,192,54051,1,0,0:0:0:0:
192,192,54194,1,0,0:0:0:0:
320,192,54336,1,0,0:0:0:0:
448,192,54336,1,0,0:0:0:0:
192,192,54479,1,0,0:0:0:0:
64,192,54622,1,0,0:0:0:0:
320,192,54765,1,0,0:0:0:0:
448,192,54765,1,0,0:0:0:0:
192,192,54908,1,0,0:0:0:0:
64,192,55051,1,0,0:0:0:0:
448,192,55051,1,0,0:0:0:0:
192,192,55194,1,0,0:0:0:0:
320,192,55336,1,0,0:0:0:0:
448,192,55336,1,0,0:0:0:0:
64,192,55479,1,0,0:0:0:0:
192,192,55622,1,0,0:0:0:0:
320,192,55622,1,0,0:0:0:0:
448,192,55765,1,0,0:0:0:0:
64,192,55908,1,0,0:0:0:0:
192,192,55908,1,0,0:0:0:0:
320,192,56051,1,0,0:0:0:0:
64,192,56194,1,0,0:0:0:0:
448,192,56194,1,0,0:0:0:0:
192,192,56265,1,0,0:0:0:0:
320,192,56265,1,0,0:0:0:0:
64,192,56336,1,0,0:0:0:0:
448,192,56336,1,0,0:0:0:0:
192,192,56408,1,0,0:0:0:0:
320,192,56408,1,0,0:0:0:0:
64,192,56479,1,0,0:0:0:0:
448,192,56479,1,0,0:0:0:0:
192,192,56551,1,0,0:0:0:0:
320,192,56551,1,0,0:0:0:0:
64,192,56622,1,0,0:0:0:0:
448,192,56622,1,0,0:0:0:0:
192,192,56694,1,0,0:0:0:0:
320,192,56694,1,0,0:0:0:0:
64,0,56765,128,0,57194:0:0:0:0:
448,0,56765,128,0,57194:0:0:0:0:
64,192,57336,1,0,0:0:0:0:
320,192,57336,1,0,0:0:0:0:
448,192,57336,1,0,0:0:0:0:
192,192,57408,1,0,0:0:0:0:
320,192,57479,1,0,0:0:0:0:
192,192,57551,1,0,0:0:0:0:
64,192,57622,1,0,0:0:0:0:
320,192,57622,1,0,0:0:0:0:
448,192,57622,1,0,0:0:0:0:
192,192,57694,1,0,0:0:0:0:
320,192,57765,1,0,0:0:0:0:
448,192,57765,1,0,0:0:0:0:
64,192,57836,1,0,0:0:0:0:
192,192,57908,1,0,0:0:0:0:
448,192,57908,1,0,0:0:0:0:
320,192,57979,1,0,0:0:0:0:
64,192,58051,1,0,0:0:0:0:
448,192,58122,1,0,0:0:0:0:
64,192,58194,1,0,0:0:0:0:
192,192,58194,1,0,0:0:0:0:
320,192,58194,1,0,0:0:0:0:
448,192,58265,1,0,0:0:0:0:
64,192,58336,1,0,0:0:0:0:
192,192,58336,1,0,0:0:0:0:
320,192,58408,1,0,0:0:0:0:
64,192,58479,1,0,0:0:0:0:
192,192,58479,1,0,0:0:0:0:
448,192,58479,1,0,0:0:0:0:
320,192,58551,1,0,0:0:0:0:
192,192,58622,1,0,0:0:0:0:
64,192,58694,1,0,0:0:0:0:
192,192,58765,1,0,0:0:0:0:
320,192,58765,1,0,0:0:0:0:
448,192,58765,1,0,0:0:0:0:
64,192,58836,1,0,0:0:0:0:
320,192,58908,1,0,0:0:0:0:
448,192,58908,1,0,0:0:0:0:
192,192,58979,1,0,0:0:0:0:
64,192,59051,1,0,0:0:0:0:
320,192,59051,1,0,0:0:0:0:
448,192,59122,1,0,0:0:0:0:
64,192,59194,1,0,0:0:0:0:
192,192,59194,1,0,0:0:0:0:
320,192,59265,1,0,0:0:0:0:
64,192,59336,1,0,0:0:0:0:
192,192,59336,1,0,0:0:0:0:
448,192,59336,1,0,0:0:0:0:
320,192,59408,1,0,0:0:0:0:
64,192,59479,1,0,0:0:0:0:
448,192,59479,1,0,0:0:0:0:
320,192,59551,1,0,0:0:0:0:
64,192,59622,1,0,0:0:0:0:
192,192,59622,1,0,0:0:0:0:
320,192,59694,1,0,0:0:0:0:
64,192,59765,1,0,0:0:0:0:
448,192,59765,1,0,0:0:0:0:
192,192,59836,1,0,0:0:0:0:
64,192,59908,1,0,0:0:0:0:
320,192,59908,1,0,0:0:0:0:
448,192,59908,1,0,0:0:0:0:
192,192,59979,1,0,0:0:0:0:
320,192,60051,1,0,0:0:0:0:
64,192,60122,1,0,0:0:0:0:
192,192,60194,1,0,0:0:0:0:
320,192,60194,1,0,0:0:0:0:
448,192,60194,1,0,0:0:0:0:
64,192,60265,1,0,0:0:0:0:
448,192,60336,1,0,0:0:0:0:
192,192,60408,1,0,0:0:0:0:
64,192,60479,1,0,0:0:0:0:
320,192,60479,1,0,0:0:0:0:
448,192,60479,1,0,0:0:0:0:
192,192,60551,1,0,0:0:0:0:
64,192,60622,1,0,0:0:0:0:
320,192,60622,1,0,0:0:0:0:
448,192,60694,1,0,0:0:0:0:
64,192,60765,1,0,0:0:0:0:
192,192,60765,1,0,0:0:0:0:
448,192,60836,1,0,0:0:0:0:
192,192,60908,1,0,0:0:0:0:
320,192,60908,1,0,0:0:0:0:
64,192,60979,1,0,0:0:0:0:
192,192,61051,1,0,0:0:0:0:
320,192,61051,1,0,0:0:0:0:
448,192,61051,1,0,0:0:0:0:
64,192,61122,1,0,0:0:0:0:
192,192,61194,1,0,0:0:0:0:
448,192,61194,1,0,0:0:0:0:
320,192,61265,1,0,0:0:0:0:
64,192,61336,1,0,0:0:0:0:
192,192,61336,1,0,0:0:0:0:
448,192,61336,1,0,0:0:0:0:
320,192,61408,1,0,0:0:0:0:
192,192,61479,1,0,0:0:0:0:
64,192,61551,1,0,0:0:0:0:
192,192,61622,1,0,0:0:0:0:
320,192,61622,1,0,0:0:0:0:
448,192,61622,1,0,0:0:0:0:
64,192,61694,1,0,0:0:0:0:
448,192,61765,1,0,0:0:0:0:
192,192,61836,1,0,0:0:0:0:
64,192,61908,1,0,0:0:0:0:
320,192,61908,1,0,0:0:0:0:
448,192,61908,1,0,0:0:0:0:
192,192,61979,1,0,0:0:0:0:
320,192,62051,1,0,0:0:0:0:
64,192,62122,1,0,0:0:0:0:
192,192,62194,1,0,0:0:0:0:
448,192,62194,1,0,0:0:0:0:
64,192,62265,1,0,0:0:0:0:
320,192,62336,1,0,0:0:0:0:
448,192,62336,1,0,0:0:0:0:
192,192,62408,1,0,0:0:0:0:
64,192,62479,1,0,0:0:0:0:
320,192,62479,1,0,0:0:0:0:
448,192,62551,1,0,0:0:0:0:
192,192,62622,1,0,0:0:0:0:
448,192,62694,1,0,0:0:0:0:
64,192,62765,1,0,0:0:0:0:
192,192,62765,1,0,0:0:0:0:
320,192,62765,1,0,0:0:0:0:
448,192,62836,1,0,0:0:0:0:
64,192,62908,1,0,0:0:0:0:
192,192,62908,1,0,0:0:0:0:
320,192,62979,1,0,0:0:0:0:
64,192,63051,1,0,0:0:0:0:
192,192,63051,1,0,0:0:0:0:
448,192,63051,1,0,0:0:0:0:
320,192,63122,1,0,0:0:0:0:
192,192,63194,1,0,0:0:0:0:
64,192,63265,1,0,0:0:0:0:
192,192,63336,1,0,0:0:0:0:
320,192,63336,1,0,0:0:0:0:
448,192,63336,1,0,0:0:0:0:
64,192,63408,1,0,0:0:0:0:
320,192,63479,1,0,0:0:0:0:
448,192,63479,1,0,0:0:0:0:
192,192,63551,1,0,0:0:0:0:
64,192,63622,1,0,0:0:0:0:
320,192,63622,1,0,0:0:0:0:
448,192,63694,1,0,0:0:0:0:
192,192,63765,1,0,0:0:0:0:
320,192,63765,1,0,0:0:0:0:
64,192,63836,1,0,0:0:0:0:
192,192,63908,1,0,0:0:0:0:
320,192,63908,1,0,0:0:0:0:
448,192,63908,1,0,0:0:0:0:
64,192,63979,1,0,0:0:0:0:
192,192,64051,1,0,0:0:0:0:
320,192,64051,1,0,0:0:0:0:
448,192,64122,1,0,0:0:0:0:
64,192,64194,1,0,0:0:0:0:
192,192,64194,1,0,0:0:0:0:
320,192,64194,1,0,0:0:0:0:
448,192,64265,1,0,0:0:0:0:
320,192,64336,1,0,0:0:0:0:
192,192,64408,1,0,0:0:0:0:
64,192,64479,1,0,0:0:0:0:
320,192,64479,1,0,0:0:0:0:
448,192,64479,1,0,0:0:0:0:
192,192,64551,1,0,0:0:0:0:
448,192,64622,1,0,0:0:0:0:
320,192,64694,1,0,0:0:0:0:
64,192,64765,1,0,0:0:0:0:
192,192,64765,1,0,0:0:0:0:
448,192,64765,1,0,0:0:0:0:
320,192,64836,1,0,0:0:0:0:
192,192,64908,1,0,0:0:0:0:
448,192,64979,1,0,0:0:0:0:
64,192,65051,1,0,0:0:0:0:
192,192,65051,1,0,0:0:0:0:
320,192,65051,1,0,0:0:0:0:
448,192,65122,1,0,0:0:0:0:
192,192,65194,1,0,0:0:0:0:
320,192,65194,1,0,0:0:0:0:
64,192,65265,1,0,0:0:0:0:
192,192,65336,1,0,0:0:0:0:
320,192,65336,1,0,0:0:0:0:
448,192,65336,1,0,0:0:0:0:
64,192,65408,1,0,0:0:0:0:
448,192,65479,1,0,0:0:0:0:
192,192,65551,1,0,0:0:0:0:
320,192,65622,1,0,0:0:0:0:
448,192,65694,1,0,0:0:0:0:
192,192,65765,1,0,0:0:0:0:
64,192,65836,1,0,0:0:0:0:
192,192,65908,1,0,0:0:0:0:
320,192,65908,1,0,0:0:0:0:
448,192,65908,1,0,0:0:0:0:
64,192,65979,1,0,0:0:0:0:
192,192,66051,1,0,0:0:0:0:
320,192,66051,1,0,0:0:0:0:
448,192,66051,1,0,0:0:0:0:
64,192,66122,1,0,0:0:0:0:
192,192,66194,1,0,0:0:0:0:
320,192,66194,1,0,0:0:0:0:
448,192,66194,1,0,0:0:0:0:
64,192,66265,1,0,0:0:0:0:
192,192,66336,1,0,0:0:0:0:
320,192,66336,1,0,0:0:0:0:
448,192,66336,1,0,0:0:0:0:
64,192,66408,1,0,0:0:0:0:
192,192,66479,1,0,0:0:0:0:
320,192,66479,1,0,0:0:0:0:
448,0,66479,128,0,66765:0:0:0:0:
64,192,66551,1,0,0:0:0:0:
320,192,66622,1,0,0:0:0:0:
192,192,66694,1,0,0:0:0:0:
64,192,66765,1,0,0:0:0:0:
320,192,66765,1,0,0:0:0:0:
192,192,66836,1,0,0:0:0:0:
320,192,66908,1,0,0:0:0:0:
448,0,66908,128,0,67336:0:0:0:0:
64,192,66979,1,0,0:0:0:0:
192,192,67051,1,0,0:0:0:0:
320,192,67051,1,0,0:0:0:0:
64,192,67122,1,0,0:0:0:0:
320,192,67194,1,0,0:0:0:0:
192,192,67265,1,0,0:0:0:0:
64,192,67336,1,0,0:0:0:0:
320,192,67336,1,0,0:0:0:0:
448,192,67408,1,0,0:0:0:0:
192,192,67479,1,0,0:0:0:0:
320,192,67551,1,0,0:0:0:0:
64,192,67622,1,0,0:0:0:0:
448,192,67622,1,0,0:0:0:0:
192,192,67694,1,0,0:0:0:0:
320,192,67765,1,0,0:0:0:0:
64,0,67765,128,0,67908:0:0:0:0:
448,192,67836,1,0,0:0:0:0:
192,192,67908,1,0,0:0:0:0:
320,192,67908,1,0,0:0:0:0:
448,192,67979,1,0,0:0:0:0:
320,192,68051,1,0,0:0:0:0:
192,0,68051,128,0,68194:0:0:0:0:
64,192,68122,1,0,0:0:0:0:
320,192,68194,1,0,0:0:0:0:
448,192,68194,1,0,0:0:0:0:
64,192,68265,1,0,0:0:0:0:
192,192,68336,1,0,0:0:0:0:
320,0,68336,128,0,68622:0:0:0:0:
448,192,68408,1,0,0:0:0:0:
64,192,68479,1,0,0:0:0:0:
192,192,68479,1,0,0:0:0:0:
448,192,68551,1,0,0:0:0:0:
64,192,68622,1,0,0:0:0:0:
192,192,68694,1,0,0:0:0:0:
320,192,68765,1,0,0:0:0:0:
448,192,68765,1,0,0:0:0:0:
64,0,68765,128,0,69051:0:0:0:0:
192,192,68836,1,0,0:0:0:0:
448,192,68908,1,0,0:0:0:0:
320,192,68979,1,0,0:0:0:0:
192,192,69051,1,0,0:0:0:0:
448,192,69051,1,0,0:0:0:0:
320,192,69122,1,0,0:0:0:0:
448,192,69194,1,0,0:0:0:0:
64,0,69194,128,0,69622:0:0:0:0:
192,192,69265,1,0,0:0:0:0:
320,192,69336,1,0,0:0:0:0:
448,192,69336,1,0,0:0:0:0:
192,192,69408,1,0,0:0:0:0:
448,192,69479,1,0,0:0:0:0:
320,192,69551,1,0,0:0:0:0:
192,192,69622,1,0,0:0:0:0:
448,192,69622,1,0,0:0:0:0:
64,192,69694,1,0,0:0:0:0:
320,192,69765,1,0,0:0:0:0:
192,192,69836,1,0,0:0:0:0:
64,192,69908,1,0,0:0:0:0:
320,192,69908,1,0,0:0:0:0:
192,192,69979,1,0,0:0:0:0:
320,192,70051,1,0,0:0:0:0:
448,0,70051,128,0,70194:0:0:0:0:
64,192,70122,1,0,0:0:0:0:
192,192,70194,1,0,0:0:0:0:
320,192,70194,1,0,0:0:0:0:
448,192,70265,1,0,0:0:0:0:
64,192,70336,1,0,0:0:0:0:
320,0,70336,128,0,70479:0:0:0:0:
192,192,70408,1,0,0:0:0:0:
64,192,70479,1,0,0:0:0:0:
448,192,70479,1,0,0:0:0:0:
320,192,70551,1,0,0:0:0:0:
448,192,70622,1,0,0:0:0:0:
192,0,70622,128,0,70908:0:0:0:0:
64,192,70694,1,0,0:0:0:0:
320,192,70765,1,0,0:0:0:0:
448,192,70765,1,0,0:0:0:0:
64,192,70836,1,0,0:0:0:0:
320,192,70908,1,0,0:0:0:0:
64,192,70979,1,0,0:0:0:0:
192,192,71051,1,0,0:0:0:0:
320,192,71051,1,0,0:0:0:0:
448,0,71051,128,0,71336:0:0:0:0:
64,192,71122,1,0,0:0:0:0:
320,192,71194,1,0,0:0:0:0:
192,192,71265,1,0,0:0:0:0:
64,192,71336,1,0,0:0:0:0:
320,192,71336,1,0,0:0:0:0:
192,192,71408,1,0,0:0:0:0:
320,192,71479,1,0,0:0:0:0:
448,0,71479,128,0,71908:0:0:0:0:
64,192,71551,1,0,0:0:0:0:
192,192,71622,1,0,0:0:0:0:
320,192,71622,1,0,0:0:0:0:
64,192,71694,1,0,0:0:0:0:
320,192,71765,1,0,0:0:0:0:
192,192,71836,1,0,0:0:0:0:
64,192,71908,1,0,0:0:0:0:
320,192,71908,1,0,0:0:0:0:
448,192,71979,1,0,0:0:0:0:
192,192,72051,1,0,0:0:0:0:
320,192,72122,1,0,0:0:0:0:
64,192,72194,1,0,0:0:0:0:
448,192,72194,1,0,0:0:0:0:
192,192,72265,1,0,0:0:0:0:
320,192,72336,1,0,0:0:0:0:
64,0,72336,128,0,72479:0:0:0:0:
448,192,72408,1,0,0:0:0:0:
192,192,72479,1,0,0:0:0:0:
320,192,72479,1,0,0:0:0:0:
448,192,72551,1,0,0:0:0:0:
320,192,72622,1,0,0:0:0:0:
192,0,72622,128,0,72765:0:0:0:0:
64,192,72694,1,0,0:0:0:0:
320,192,72765,1,0,0:0:0:0:
448,192,72765,1,0,0:0:0:0:
64,192,72836,1,0,0:0:0:0:
192,192,72908,1,0,0:0:0:0:
320,0,72908,128,0,73194:0:0:0:0:
448,192,72979,1,0,0:0:0:0:
64,192,73051,1,0,0:0:0:0:
192,192,73051,1,0,0:0:0:0:
448,192,73122,1,0,0:0:0:0:
64,192,73194,1,0,0:0:0:0:
192,192,73265,1,0,0:0:0:0:
320,192,73336,1,0,0:0:0:0:
448,192,73336,1,0,0:0:0:0:
64,0,73336,128,0,73622:0:0:0:0:
192,192,73408,1,0,0:0:0:0:
448,192,73479,1,0,0:0:0:0:
320,192,73551,1,0,0:0:0:0:
192,192,73622,1,0,0:0:0:0:
448,192,73622,1,0,0:0:0:0:
320,192,73694,1,0,0:0:0:0:
448,192,73765,1,0,0:0:0:0:
64,0,73765,128,0,74194:0:0:0:0:
192,192,73836,1,0,0:0:0:0:
320,192,73908,1,0,0:0:0:0:
448,192,73908,1,0,0:0:0:0:
192,192,73979,1,0,0:0:0:0:
448,192,74051,1,0,0:0:0:0:
320,192,74122,1,0,0:0:0:0:
192,192,74194,1,0,0:0:0:0:
448,192,74194,1,0,0:0:0:0:
64,192,74265,1,0,0:0:0:0:
320,192,74336,1,0,0:0:0:0:
192,192,74408,1,0,0:0:0:0:
64,192,74479,1,0,0:0:0:0:
320,192,74479,1,0,0:0:0:0:
192,192,74551,1,0,0:0:0:0:
320,192,74622,1,0,0:0:0:0:
448,0,74622,128,0,74765:0:0:0:0:
192,192,74694,1,0,0:0:0:0:
64,192,74765,1,0,0:0:0:0:
320,192,74765,1,0,0:0:0:0:
192,192,74836,1,0,0:0:0:0:
320,192,74908,1,0,0:0:0:0:
448,192,74908,1,0,0:0:0:0:
64,0,74908,128,0,75194:0:0:0:0:
192,192,74979,1,0,0:0:0:0:
320,192,75051,1,0,0:0:0:0:
448,192,75051,1,0,0:0:0:0:
192,192,75122,1,0,0:0:0:0:
320,192,75194,1,0,0:0:0:0:
448,192,75194,1,0,0:0:0:0:
192,192,75265,1,0,0:0:0:0:
64,192,75336,1,0,0:0:0:0:
448,192,75336,1,0,0:0:0:0:
192,192,75408,1,0,0:0:0:0:
320,192,75479,1,0,0:0:0:0:
448,192,75479,1,0,0:0:0:0:
64,192,75551,1,0,0:0:0:0:
448,0,75622,128,0,76051:0:0:0:0:
320,0,76051,128,0,76194:0:0:0:0:
192,0,76479,128,0,76765:0:0:0:0:
320,0,76765,128,0,77194:0:0:0:0:
192,0,77194,128,0,77265:0:0:0:0:
64,0,77622,128,0,77908:0:0:0:0:
448,0,77908,128,0,78336:0:0:0:0:
320,0,78336,128,0,78479:0:0:0:0:
192,0,78765,128,0,79051:0:0:0:0:
320,0,79051,128,0,79479:0:0:0:0:
192,0,79479,128,0,79551:0:0:0:0:
64,0,79908,128,0,80194:0:0:0:0:
448,0,80194,128,0,80622:0:0:0:0:
320,0,80622,128,0,80765:0:0:0:0:
192,0,81051,128,0,81336:0:0:0:0:
320,0,81336,128,0,81765:0:0:0:0:
192,0,81765,128,0,81836:0:0:0:0:
64,0,82194,128,0,82479:0:0:0:0:
448,0,82479,128,0,82908:0:0:0:0:
320,0,82908,128,0,83051:0:0:0:0:
192,0,83336,128,0,83622:0:0:0:0:
320,0,83622,128,0,84051:0:0:0:0:
192,0,84051,128,0,84122:0:0:0:0:
64,0,84479,128,0,84765:0:0:0:0:
320,192,84765,1,0,0:0:0:0:
448,192,84765,1,0,0:0:0:0:
192,192,85051,1,0,0:0:0:0:
448,192,85051,1,0,0:0:0:0:
64,192,85194,1,0,0:0:0:0:
192,192,85622,1,0,0:0:0:0:
448,192,85622,1,0,0:0:0:0:
64,192,85908,1,0,0:0:0:0:
192,192,86194,1,0,0:0:0:0:
448,192,86194,1,0,0:0:0:0:
64,192,86336,1,0,0:0:0:0:
192,192,86765,1,0,0:0:0:0:
448,192,86765,1,0,0:0:0:0:
320,192,87051,1,0,0:0:0:0:
64,192,87336,1,0,0:0:0:0:
448,192,87336,1,0,0:0:0:0:
320,192,87479,1,0,0:0:0:0:
64,192,87908,1,0,0:0:0:0:
448,192,87908,1,0,0:0:0:0:
320,192,88194,1,0,0:0:0:0:
64,192,88479,1,0,0:0:0:0:
448,192,88479,1,0,0:0:0:0:
320,192,88622,1,0,0:0:0:0:
64,192,89051,1,0,0:0:0:0:
448,192,89051,1,0,0:0:0:0:
192,192,89336,1,0,0:0:0:0:
320,192,89622,1,0,0:0:0:0:
448,192,89622,1,0,0:0:0:0:
192,192,89765,1,0,0:0:0:0:
320,192,90194,1,0,0:0:0:0:
448,192,90194,1,0,0:0:0:0:
192,192,90479,1,0,0:0:0:0:
320,192,90765,1,0,0:0:0:0:
448,192,90765,1,0,0:0:0:0:
192,192,90908,1,0,0:0:0:0:
320,192,91336,1,0,0:0:0:0:
448,192,91336,1,0,0:0:0:0:
448,192,91622,1,0,0:0:0:0:
64,192,91908,1,0,0:0:0:0:
192,192,91908,1,0,0:0:0:0:
448,192,92051,1,0,0:0:0:0:
64,192,92479,1,0,0:0:0:0:
192,192,92479,1,0,0:0:0:0:
192,192,92765,1,0,0:0:0:0:
320,192,92765,1,0,0:0:0:0:
64,192,93051,1,0,0:0:0:0:
448,192,93051,1,0,0:0:0:0:
192,192,93122,1,0,0:0:0:0:
320,192,93122,1,0,0:0:0:0:
64,192,93194,1,0,0:0:0:0:
448,192,93194,1,0,0:0:0:0:
192,192,93265,1,0,0:0:0:0:
320,192,93265,1,0,0:0:0:0:
64,192,93336,1,0,0:0:0:0:
448,192,93336,1,0,0:0:0:0:
192,192,93408,1,0,0:0:0:0:
320,192,93408,1,0,0:0:0:0:
64,0,93479,128,0,93765:0:0:0:0:
448,0,93479,128,0,93765:0:0:0:0:
64,192,93908,1,0,0:0:0:0:
320,192,93908,1,0,0:0:0:0:
448,0,93908,128,0,94765:0:0:0:0:
192,192,93979,1,0,0:0:0:0:
320,192,94051,1,0,0:0:0:0:
64,192,94122,1,0,0:0:0:0:
192,192,94194,1,0,0:0:0:0:
320,192,94194,1,0,0:0:0:0:
64,192,94265,1,0,0:0:0:0:
320,192,94336,1,0,0:0:0:0:
192,192,94408,1,0,0:0:0:0:
64,192,94479,1,0,0:0:0:0:
320,192,94479,1,0,0:0:0:0:
192,192,94551,1,0,0:0:0:0:
320,192,94622,1,0,0:0:0:0:
64,192,94694,1,0,0:0:0:0:
192,192,94765,1,0,0:0:0:0:
320,192,94765,1,0,0:0:0:0:
448,192,94836,1,0,0:0:0:0:
64,192,94908,1,0,0:0:0:0:
320,192,94979,1,0,0:0:0:0:
64,192,95051,1,0,0:0:0:0:
192,192,95051,1,0,0:0:0:0:
448,192,95051,1,0,0:0:0:0:
320,192,95122,1,0,0:0:0:0:
64,192,95194,1,0,0:0:0:0:
192,192,95194,1,0,0:0:0:0:
320,192,95265,1,0,0:0:0:0:
64,192,95336,1,0,0:0:0:0:
192,192,95336,1,0,0:0:0:0:
448,192,95336,1,0,0:0:0:0:
320,192,95408,1,0,0:0:0:0:
192,192,95479,1,0,0:0:0:0:
448,192,95479,1,0,0:0:0:0:
64,192,95551,1,0,0:0:0:0:
192,192,95622,1,0,0:0:0:0:
320,192,95622,1,0,0:0:0:0:
448,192,95694,1,0,0:0:0:0:
64,192,95765,1,0,0:0:0:0:
192,192,95765,1,0,0:0:0:0:
320,192,95836,1,0,0:0:0:0:
64,192,95908,1,0,0:0:0:0:
448,192,95908,1,0,0:0:0:0:
192,192,95979,1,0,0:0:0:0:
320,192,96051,1,0,0:0:0:0:
448,192,96051,1,0,0:0:0:0:
64,192,96122,1,0,0:0:0:0:
320,192,96194,1,0,0:0:0:0:
448,192,96194,1,0,0:0:0:0:
192,192,96265,1,0,0:0:0:0:
64,192,96336,1,0,0:0:0:0:
320,192,96336,1,0,0:0:0:0:
448,192,96408,1,0,0:0:0:0:
64,192,96479,1,0,0:0:0:0:
192,192,96479,1,0,0:0:0:0:
320,192,96479,1,0,0:0:0:0:
448,192,96551,1,0,0:0:0:0:
64,192,96622,1,0,0:0:0:0:
320,192,96622,1,0,0:0:0:0:
192,192,96694,1,0,0:0:0:0:
64,192,96765,1,0,0:0:0:0:
320,192,96765,1,0,0:0:0:0:
448,192,96765,1,0,0:0:0:0:
192,192,96836,1,0,0:0:0:0:
64,192,96908,1,0,0:0:0:0:
320,192,96908,1,0,0:0:0:0:
448,192,96979,1,0,0:0:0:0:
64,192,97051,1,0,0:0:0:0:
192,192,97051,1,0,0:0:0:0:
320,192,97051,1,0,0:0:0:0:
448,192,97122,1,0,0:0:0:0:
192,192,97194,1,0,0:0:0:0:
320,192,97194,1,0,0:0:0:0:
64,192,97265,1,0,0:0:0:0:
192,192,97336,1,0,0:0:0:0:
320,192,97336,1,0,0:0:0:0:
448,192,97336,1,0,0:0:0:0:
64,192,97408,1,0,0:0:0:0:
192,192,97479,1,0,0:0:0:0:
448,192,97479,1,0,0:0:0:0:
320,192,97551,1,0,0:0:0:0:
64,192,97622,1,0,0:0:0:0:
192,192,97622,1,0,0:0:0:0:
448,192,97622,1,0,0:0:0:0:
320,192,97694,1,0,0:0:0:0:
64,192,97765,1,0,0:0:0:0:
448,192,97765,1,0,0:0:0:0:
192,192,97836,1,0,0:0:0:0:
64,192,97908,1,0,0:0:0:0:
320,192,97908,1,0,0:0:0:0:
448,192,97979,1,0,0:0:0:0:
192,192,98051,1,0,0:0:0:0:
320,192,98051,1,0,0:0:0:0:
448,192,98122,1,0,0:0:0:0:
64,192,98194,1,0,0:0:0:0:
192,192,98194,1,0,0:0:0:0:
320,192,98265,1,0,0:0:0:0:
64,192,98336,1,0,0:0:0:0:
448,192,98336,1,0,0:0:0:0:
192,192,98408,1,0,0:0:0:0:
320,192,98479,1,0,0:0:0:0:
448,192,98479,1,0,0:0:0:0:
192,192,98551,1,0,0:0:0:0:
320,192,98622,1,0,0:0:0:0:
448,192,98622,1,0,0:0:0:0:
192,192,98694,1,0,0:0:0:0:
64,192,98765,1,0,0:0:0:0:
320,192,98765,1,0,0:0:0:0:
448,192,98765,1,0,0:0:0:0:
192,192,98836,1,0,0:0:0:0:
64,192,98908,1,0,0:0:0:0:
448,192,98908,1,0,0:0:0:0:
320,192,98979,1,0,0:0:0:0:
64,192,99051,1,0,0:0:0:0:
192,192,99051,1,0,0:0:0:0:
448,192,99051,1,0,0:0:0:0:
320,192,99122,1,0,0:0:0:0:
64,192,99194,1,0,0:0:0:0:
192,192,99194,1,0,0:0:0:0:
320,192,99265,1,0,0:0:0:0:
64,192,99336,1,0,0:0:0:0:
192,192,99336,1,0,0:0:0:0:
448,192,99336,1,0,0:0:0:0:
320,192,99408,1,0,0:0:0:0:
192,192,99479,1,0,0:0:0:0:
448,192,99479,1,0,0:0:0:0:
64,192,99551,1,0,0:0:0:0:
192,192,99622,1,0,0:0:0:0:
320,192,99622,1,0,0:0:0:0:
448,192,99622,1,0,0:0:0:0:
64,192,99694,1,0,0:0:0:0:
320,192,99765,1,0,0:0:0:0:
192,192,99836,1,0,0:0:0:0:
64,192,99908,1,0,0:0:0:0:
320,192,99908,1,0,0:0:0:0:
448,192,99908,1,0,0:0:0:0:
192,192,99979,1,0,0:0:0:0:
64,192,100051,1,0,0:0:0:0:
448,192,100051,1,0,0:0:0:0:
192,192,100122,1,0,0:0:0:0:
320,192,100194,1,0,0:0:0:0:
448,192,100194,1,0,0:0:0:0:
64,192,100265,1,0,0:0:0:0:
192,192,100336,1,0,0:0:0:0:
320,192,100336,1,0,0:0:0:0:
448,192,100408,1,0,0:0:0:0:
64,192,100479,1,0,0:0:0:0:
192,192,100479,1,0,0:0:0:0:
320,192,100551,1,0,0:0:0:0:
192,192,100622,1,0,0:0:0:0:
448,192,100622,1,0,0:0:0:0:
320,192,100694,1,0,0:0:0:0:
64,192,100765,1,0,0:0:0:0:
448,192,100765,1,0,0:0:0:0:
320,192,100836,1,0,0:0:0:0:
64,192,100908,1,0,0:0:0:0:
192,192,100908,1,0,0:0:0:0:
448,192,100979,1,0,0:0:0:0:
64,192,101051,1,0,0:0:0:0:
192,192,101051,1,0,0:0:0:0:
320,192,101051,1,0,0:0:0:0:
448,192,101122,1,0,0:0:0:0:
64,192,101194,1,0,0:0:0:0:
192,192,101194,1,0,0:0:0:0:
320,192,101265,1,0,0:0:0:0:
64,192,101336,1,0,0:0:0:0:
192,192,101336,1,0,0:0:0:0:
448,192,101336,1,0,0:0:0:0:
320,192,101408,1,0,0:0:0:0:
192,192,101479,1,0,0:0:0:0:
448,192,101479,1,0,0:0:0:0:
64,192,101551,1,0,0:0:0:0:
192,192,101622,1,0,0:0:0:0:
320,192,101622,1,0,0:0:0:0:
448,192,101622,1,0,0:0:0:0:
64,192,101694,1,0,0:0:0:0:
192,192,101765,1,0,0:0:0:0:
320,192,101765,1,0,0:0:0:0:
64,192,101836,1,0,0:0:0:0:
192,192,101908,1,0,0:0:0:0:
320,192,101908,1,0,0:0:0:0:
448,192,101908,1,0,0:0:0:0:
64,192,101979,1,0,0:0:0:0:
448,192,102051,1,0,0:0:0:0:
320,192,102122,1,0,0:0:0:0:
64,192,102194,1,0,0:0:0:0:
192,192,102194,1,0,0:0:0:0:
448,192,102194,1,0,0:0:0:0:
320,192,102265,1,0,0:0:0:0:
64,192,102336,1,0,0:0:0:0:
192,192,102336,1,0,0:0:0:0:
320,192,102408,1,0,0:0:0:0:
64,192,102479,1,0,0:0:0:0:
448,192,102479,1,0,0:0:0:0:
192,192,102551,1,0,0:0:0:0:
320,192,102622,1,0,0:0:0:0:
448,192,102622,1,0,0:0:0:0:
64,192,102694,1,0,0:0:0:0:
192,192,102765,1,0,0:0:0:0:
448,192,102765,1,0,0:0:0:0:
320,192,102836,1,0,0:0:0:0:
64,192,102908,1,0,0:0:0:0:
448,0,102908,128,0,104479:0:0:0:0:
320,192,102979,1,0,0:0:0:0:
64,192,103051,1,0,0:0:0:0:
192,192,103051,1,0,0:0:0:0:
64,192,103336,1,0,0:0:0:0:
64,192,103622,1,0,0:0:0:0:
64,192,103908,1,0,0:0:0:0:
64,192,104194,1,0,0:0:0:0:
64,192,104479,1,0,0:0:0:0:
64,192,104765,1,0,0:0:0:0:
64,192,105051,1,0,0:0:0:0:
64,192,105336,1,0,0:0:0:0:
64,192,105622,1,0,0:0:0:0:
64,192,105908,1,0,0:0:0:0:
64,192,106194,1,0,0:0:0:0:
64,192,106479,1,0,0:0:0:0:
64,192,106765,1,0,0:0:0:0:
64,192,107051,1,0,0:0:0:0:
64,192,107336,1,0,0:0:0:0:
64,192,107622,1,0,0:0:0:0:
64,192,107908,1,0,0:0:0:0:
64,192,108194,1,0,0:0:0:0:
64,192,108479,1,0,0:0:0:0:
64,192,108765,1,0,0:0:0:0:
64,192,109051,1,0,0:0:0:0:
64,192,109336,1,0,0:0:0:0:
64,192,109622,1,0,0:0:0:0:
64,192,109908,1,0,0:0:0:0:
64,192,110194,1,0,0:0:0:0:
64,192,110479,1,0,0:0:0:0:
64,192,110765,1,0,0:0:0:0:
192,192,111336,1,0,0:0:0:0:
320,192,111336,1,0,0:0:0:0:
192,192,111908,1,0,0:0:0:0:
320,192,111908,1,0,0:0:0:0:
192,192,112051,1,0,0:0:0:0:
320,192,112051,1,0,0:0:0:0:
320,192,112194,1,0,0:0:0:0:
448,192,112194,1,0,0:0:0:0:
64,192,112265,1,0,0:0:0:0:
192,192,112265,1,0,0:0:0:0:
320,192,112336,1,0,0:0:0:0:
448,192,112336,1,0,0:0:0:0:
64,192,112408,1,0,0:0:0:0:
192,192,112408,1,0,0:0:0:0:
320,192,112479,1,0,0:0:0:0:
448,192,112479,1,0,0:0:0:0:
64,192,112551,1,0,0:0:0:0:
320,192,112622,1,0,0:0:0:0:
192,192,112694,1,0,0:0:0:0:
64,192,112765,1,0,0:0:0:0:
448,192,112765,1,0,0:0:0:0:
192,192,112836,1,0,0:0:0:0:
320,192,112836,1,0,0:0:0:0:
64,192,112908,1,0,0:0:0:0:
448,192,112908,1,0,0:0:0:0:
192,192,112979,1,0,0:0:0:0:
320,192,112979,1,0,0:0:0:0:
64,192,113051,1,0,0:0:0:0:
448,192,113051,1,0,0:0:0:0:
192,192,113122,1,0,0:0:0:0:
320,192,113194,1,0,0:0:0:0:
192,192,113265,1,0,0:0:0:0:
64,192,113336,1,0,0:0:0:0:
320,192,113336,1,0,0:0:0:0:
192,192,113408,1,0,0:0:0:0:
448,192,113408,1,0,0:0:0:0:
64,192,113479,1,0,0:0:0:0:
320,192,113479,1,0,0:0:0:0:
192,192,113551,1,0,0:0:0:0:
448,192,113551,1,0,0:0:0:0:
64,192,113622,1,0,0:0:0:0:
320,192,113622,1,0,0:0:0:0:
192,192,113694,1,0,0:0:0:0:
448,192,113765,1,0,0:0:0:0:
64,192,113836,1,0,0:0:0:0:
320,192,113908,1,0,0:0:0:0:
448,192,113908,1,0,0:0:0:0:
64,192,113979,1,0,0:0:0:0:
192,192,113979,1,0,0:0:0:0:
320,192,114051,1,0,0:0:0:0:
448,192,114051,1,0,0:0:0:0:
64,192,114122,1,0,0:0:0:0:
192,192,114122,1,0,0:0:0:0:
320,192,114194,1,0,0:0:0:0:
448,192,114194,1,0,0:0:0:0:
64,192,114265,1,0,0:0:0:0:
192,192,114265,1,0,0:0:0:0:
320,192,114336,1,0,0:0:0:0:
448,192,114336,1,0,0:0:0:0:
64,192,114408,1,0,0:0:0:0:
192,192,114479,1,0,0:0:0:0:
448,192,114479,1,0,0:0:0:0:
64,192,114551,1,0,0:0:0:0:
320,192,114551,1,0,0:0:0:0:
192,192,114622,1,0,0:0:0:0:
448,192,114622,1,0,0:0:0:0:
64,192,114694,1,0,0:0:0:0:
320,192,114694,1,0,0:0:0:0:
192,192,114765,1,0,0:0:0:0:
448,192,114765,1,0,0:0:0:0:
320,192,114836,1,0,0:0:0:0:
64,192,114908,1,0,0:0:0:0:
192,192,114979,1,0,0:0:0:0:
320,192,115051,1,0,0:0:0:0:
448,192,115051,1,0,0:0:0:0:
64,192,115122,1,0,0:0:0:0:
192,192,115122,1,0,0:0:0:0:
320,192,115194,1,0,0:0:0:0:
448,192,115194,1,0,0:0:0:0:
64,192,115265,1,0,0:0:0:0:
192,192,115265,1,0,0:0:0:0:
320,192,115336,1,0,0:0:0:0:
448,192,115336,1,0,0:0:0:0:
64,192,115408,1,0,0:0:0:0:
320,192,115479,1,0,0:0:0:0:
192,192,115551,1,0,0:0:0:0:
64,192,115622,1,0,0:0:0:0:
320,192,115622,1,0,0:0:0:0:
192,192,115694,1,0,0:0:0:0:
448,192,115694,1,0,0:0:0:0:
64,192,115765,1,0,0:0:0:0:
320,192,115765,1,0,0:0:0:0:
192,192,115836,1,0,0:0:0:0:
448,192,115836,1,0,0:0:0:0:
64,192,115908,1,0,0:0:0:0:
320,192,115908,1,0,0:0:0:0:
192,192,115979,1,0,0:0:0:0:
448,192,116051,1,0,0:0:0:0:
320,192,116122,1,0,0:0:0:0:
64,192,116194,1,0,0:0:0:0:
192,192,116194,1,0,0:0:0:0:
320,192,116265,1,0,0:0:0:0:
448,192,116265,1,0,0:0:0:0:
64,192,116336,1,0,0:0:0:0:
192,192,116336,1,0,0:0:0:0:
320,192,116408,1,0,0:0:0:0:
448,192,116408,1,0,0:0:0:0:
64,192,116479,1,0,0:0:0:0:
192,192,116479,1,0,0:0:0:0:
320,192,116551,1,0,0:0:0:0:
448,192,116551,1,0,0:0:0:0:
64,192,116622,1,0,0:0:0:0:
192,192,116622,1,0,0:0:0:0:
320,192,116694,1,0,0:0:0:0:
64,192,116765,1,0,0:0:0:0:
448,192,116765,1,0,0:0:0:0:
192,192,116836,1,0,0:0:0:0:
320,192,116836,1,0,0:0:0:0:
64,192,116908,1,0,0:0:0:0:
448,192,116908,1,0,0:0:0:0:
192,192,116979,1,0,0:0:0:0:
320,192,116979,1,0,0:0:0:0:
64,192,117051,1,0,0:0:0:0:
448,192,117051,1,0,0:0:0:0:
192,192,117122,1,0,0:0:0:0:
320,192,117194,1,0,0:0:0:0:
64,192,117265,1,0,0:0:0:0:
192,192,117336,1,0,0:0:0:0:
320,192,117336,1,0,0:0:0:0:
64,192,117408,1,0,0:0:0:0:
448,192,117408,1,0,0:0:0:0:
192,192,117479,1,0,0:0:0:0:
320,192,117479,1,0,0:0:0:0:
64,192,117551,1,0,0:0:0:0:
448,192,117551,1,0,0:0:0:0:
192,192,117622,1,0,0:0:0:0:
320,192,117622,1,0,0:0:0:0:
448,192,117694,1,0,0:0:0:0:
64,192,117765,1,0,0:0:0:0:
320,192,117836,1,0,0:0:0:0:
64,192,117908,1,0,0:0:0:0:
192,192,117908,1,0,0:0:0:0:
320,192,117979,1,0,0:0:0:0:
448,192,117979,1,0,0:0:0:0:
64,192,118051,1,0,0:0:0:0:
192,192,118051,1,0,0:0:0:0:
320,192,118122,1,0,0:0:0:0:
448,192,118122,1,0,0:0:0:0:
64,192,118194,1,0,0:0:0:0:
192,192,118194,1,0,0:0:0:0:
320,192,118265,1,0,0:0:0:0:
448,192,118336,1,0,0:0:0:0:
192,192,118408,1,0,0:0:0:0:
64,192,118479,1,0,0:0:0:0:
448,192,118479,1,0,0:0:0:0:
192,192,118551,1,0,0:0:0:0:
320,192,118551,1,0,0:0:0:0:
64,192,118622,1,0,0:0:0:0:
448,192,118622,1,0,0:0:0:0:
192,192,118694,1,0,0:0:0:0:
320,192,118694,1,0,0:0:0:0:
64,192,118765,1,0,0:0:0:0:
448,192,118765,1,0,0:0:0:0:
192,192,118836,1,0,0:0:0:0:
320,192,118836,1,0,0:0:0:0:
64,192,118908,1,0,0:0:0:0:
448,192,118908,1,0,0:0:0:0:
320,192,118979,1,0,0:0:0:0:
192,192,119051,1,0,0:0:0:0:
448,192,119051,1,0,0:0:0:0:
64,192,119122,1,0,0:0:0:0:
320,192,119122,1,0,0:0:0:0:
192,192,119194,1,0,0:0:0:0:
448,192,119194,1,0,0:0:0:0:
64,192,119265,1,0,0:0:0:0:
320,192,119265,1,0,0:0:0:0:
192,192,119336,1,0,0:0:0:0:
448,192,119336,1,0,0:0:0:0:
320,192,119408,1,0,0:0:0:0:
192,192,119479,1,0,0:0:0:0:
64,192,119551,1,0,0:0:0:0:
320,192,119622,1,0,0:0:0:0:
448,192,119622,1,0,0:0:0:0:
64,192,119694,1,0,0:0:0:0:
192,192,119694,1,0,0:0:0:0:
320,192,119765,1,0,0:0:0:0:
448,192,119765,1,0,0:0:0:0:
64,192,119836,1,0,0:0:0:0:
192,192,119836,1,0,0:0:0:0:
320,192,119908,1,0,0:0:0:0:
448,192,119908,1,0,0:0:0:0:
64,192,119979,1,0,0:0:0:0:
320,192,120051,1,0,0:0:0:0:
192,192,120122,1,0,0:0:0:0:
64,192,120194,1,0,0:0:0:0:
320,192,120194,1,0,0:0:0:0:
192,192,120265,1,0,0:0:0:0:
448,192,120265,1,0,0:0:0:0:
64,192,120336,1,0,0:0:0:0:
320,192,120336,1,0,0:0:0:0:
192,192,120408,1,0,0:0:0:0:
448,192,120408,1,0,0:0:0:0:
64,192,120479,1,0,0:0:0:0:
320,192,120479,1,0,0:0:0:0:
192,192,120551,1,0,0:0:0:0:
448,192,120622,1,0,0:0:0:0:
320,192,120694,1,0,0:0:0:0:
64,0,120765,128,0,121265:0:0:0:0:
192,0,120765,128,0,121265:0:0:0:0:
320,192,121336,1,0,0:0:0:0:
448,192,121336,1,0,0:0:0:0:
192,192,121479,1,0,0:0:0:0:
320,192,121622,1,0,0:0:0:0:
64,192,121765,1,0,0:0:0:0:
448,192,121765,1,0,0:0:0:0:
192,192,121908,1,0,0:0:0:0:
448,192,122051,1,0,0:0:0:0:
64,192,122194,1,0,0:0:0:0:
192,192,122194,1,0,0:0:0:0:
320,192,122336,1,0,0:0:0:0:
64,192,122479,1,0,0:0:0:0:
448,192,122479,1,0,0:0:0:0:
320,192,122622,1,0,0:0:0:0:
64,192,122765,1,0,0:0:0:0:
320,192,122908,1,0,0:0:0:0:
448,192,122908,1,0,0:0:0:0:
192,192,123051,1,0,0:0:0:0:
64,192,123194,1,0,0:0:0:0:
320,192,123336,1,0,0:0:0:0:
448,192,123336,1,0,0:0:0:0:
192,192,123479,1,0,0:0:0:0:
64,192,123622,1,0,0:0:0:0:
448,192,123622,1,0,0:0:0:0:
320,192,123765,1,0,0:0:0:0:
448,192,123908,1,0,0:0:0:0:
64,192,124051,1,0,0:0:0:0:
320,192,124051,1,0,0:0:0:0:
192,192,124194,1,0,0:0:0:0:
448,192,124336,1,0,0:0:0:0:
64,192,124479,1,0,0:0:0:0:
192,192,124479,1,0,0:0:0:0:
320,192,124622,1,0,0:0:0:0:
64,192,124765,1,0,0:0:0:0:
448,192,124765,1,0,0:0:0:0:
192,192,124908,1,0,0:0:0:0:
64,192,125051,1,0,0:0:0:0:
192,192,125194,1,0,0:0:0:0:
448,192,125194,1,0,0:0:0:0:
320,192,125336,1,0,0:0:0:0:
192,192,125479,1,0,0:0:0:0:
320,192,125622,1,0,0:0:0:0:
448,192,125622,1,0,0:0:0:0:
64,192,125765,1,0,0:0:0:0:
192,192,125908,1,0,0:0:0:0:
448,192,125908,1,0,0:0:0:0:
320,192,126051,1,0,0:0:0:0:
448,192,126194,1,0,0:0:0:0:
64,192,126336,1,0,0:0:0:0:
192,192,126336,1,0,0:0:0:0:
320,192,126479,1,0,0:0:0:0:
448,192,126622,1,0,0:0:0:0:
64,192,126765,1,0,0:0:0:0:
320,192,126765,1,0,0:0:0:0:
192,192,126908,1,0,0:0:0:0:
64,192,127051,1,0,0:0:0:0:
448,192,127051,1,0,0:0:0:0:
320,192,127194,1,0,0:0:0:0:
192,192,127336,1,0,0:0:0:0:
320,192,127479,1,0,0:0:0:0:
448,192,127479,1,0,0:0:0:0:
192,192,127622,1,0,0:0:0:0:
64,192,127765,1,0,0:0:0:0:
320,192,127908,1,0,0:0:0:0:
448,192,127908,1,0,0:0:0:0:
192,192,128051,1,0,0:0:0:0:
64,192,128194,1,0,0:0:0:0:
448,192,128194,1,0,0:0:0:0:
192,192,128336,1,0,0:0:0:0:
320,192,128479,1,0,0:0:0:0:
448,192,128479,1,0,0:0:0:0:
192,192,128622,1,0,0:0:0:0:
64,192,128765,1,0,0:0:0:0:
320,192,128765,1,0,0:0:0:0:
448,192,128908,1,0,0:0:0:0:
64,192,129051,1,0,0:0:0:0:
192,192,129051,1,0,0:0:0:0:
320,192,129194,1,0,0:0:0:0:
64,192,129336,1,0,0:0:0:0:
448,192,129336,1,0,0:0:0:0:
192,192,129408,1,0,0:0:0:0:
320,192,129408,1,0,0:0:0:0:
64,192,129479,1,0,0:0:0:0:
448,192,129479,1,0,0:0:0:0:
192,192,129551,1,0,0:0:0:0:
320,192,129551,1,0,0:0:0:0:
64,192,129622,1,0,0:0:0:0:
448,192,129622,1,0,0:0:0:0:
192,192,129694,1,0,0:0:0:0:
320,192,129694,1,0,0:0:0:0:
64,192,129765,1,0,0:0:0:0:
448,192,129765,1,0,0:0:0:0:
192,192,129836,1,0,0:0:0:0:
320,192,129836,1,0,0:0:0:0:
64,0,129908,128,0,129979:0:0:0:0:
448,0,129908,128,0,129979:0:0:0:0:
192,192,131336,1,0,0:0:0:0:
320,192,131336,1,0,0:0:0:0:
64,0,131622,128,0,131836:0:0:0:0:
320,0,131622,128,0,131836:0:0:0:0:
448,0,131622,128,0,131836:0:0:0:0:
64,192,131908,1,0,0:0:0:0:
320,192,131908,1,0,0:0:0:0:
448,192,131908,1,0,0:0:0:0:
64,0,132051,128,0,132336:0:0:0:0:
320,0,132051,128,0,132336:0:0:0:0:
448,0,132051,128,0,132336:0:0:0:0:
192,192,132479,1,0,0:0:0:0:
320,192,132479,1,0,0:0:0:0:
448,192,132479,1,0,0:0:0:0:
64,192,132622,1,0,0:0:0:0:
192,192,132622,1,0,0:0:0:0:
320,192,132765,1,0,0:0:0:0:
448,192,132765,1,0,0:0:0:0:
64,0,132765,128,0,133051:0:0:0:0:
192,192,133051,1,0,0:0:0:0:
320,192,133051,1,0,0:0:0:0:
448,192,133051,1,0,0:0:0:0:
192,0,133194,128,0,133265:0:0:0:0:
320,0,133194,128,0,133265:0:0:0:0:
448,0,133194,128,0,133265:0:0:0:0:
64,192,133479,1,0,0:0:0:0:
192,192,133479,1,0,0:0:0:0:
320,192,133479,1,0,0:0:0:0:
64,192,133622,1,0,0:0:0:0:
192,192,133622,1,0,0:0:0:0:
320,192,133622,1,0,0:0:0:0:
64,192,133765,1,0,0:0:0:0:
192,192,133765,1,0,0:0:0:0:
448,0,133765,128,0,134051:0:0:0:0:
64,192,134051,1,0,0:0:0:0:
192,192,134051,1,0,0:0:0:0:
320,192,134051,1,0,0:0:0:0:
192,0,134194,128,0,134265:0:0:0:0:
320,0,134194,128,0,134265:0:0:0:0:
448,0,134194,128,0,134265:0:0:0:0:
64,0,134479,128,0,134551:0:0:0:0:
192,0,134479,128,0,134551:0:0:0:0:
448,0,134479,128,0,134551:0:0:0:0:
64,192,134765,1,0,0:0:0:0:
192,192,134765,1,0,0:0:0:0:
320,192,134765,1,0,0:0:0:0:
64,192,134908,1,0,0:0:0:0:
448,192,134908,1,0,0:0:0:0:
320,0,134908,128,0,135194:0:0:0:0:
192,192,135194,1,0,0:0:0:0:
448,192,135194,1,0,0:0:0:0:
64,192,135336,1,0,0:0:0:0:
320,192,135336,1,0,0:0:0:0:
448,192,135336,1,0,0:0:0:0:
64,192,135479,1,0,0:0:0:0:
192,192,135479,1,0,0:0:0:0:
64,192,135622,1,0,0:0:0:0:
192,192,135622,1,0,0:0:0:0:
448,192,135622,1,0,0:0:0:0:
64,192,135765,1,0,0:0:0:0:
320,192,135765,1,0,0:0:0:0:
320,192,135908,1,0,0:0:0:0:
448,192,135908,1,0,0:0:0:0:
192,0,135908,128,0,136122:0:0:0:0:
64,0,136194,128,0,136408:0:0:0:0:
320,0,136194,128,0,136408:0:0:0:0:
448,0,136194,128,0,136408:0:0:0:0:
64,192,136479,1,0,0:0:0:0:
320,192,136479,1,0,0:0:0:0:
448,192,136479,1,0,0:0:0:0:
64,0,136622,128,0,136908:0:0:0:0:
320,0,136622,128,0,136908:0:0:0:0:
448,0,136622,128,0,136908:0:0:0:0:
192,192,137051,1,0,0:0:0:0:
320,192,137051,1,0,0:0:0:0:
448,192,137051,1,0,0:0:0:0:
64,192,137194,1,0,0:0:0:0:
192,192,137194,1,0,0:0:0:0:
320,192,137336,1,0,0:0:0:0:
448,192,137336,1,0,0:0:0:0:
64,0,137336,128,0,137622:0:0:0:0:
192,192,137622,1,0,0:0:0:0:
320,192,137622,1,0,0:0:0:0:
448,192,137622,1,0,0:0:0:0:
192,0,137765,128,0,137836:0:0:0:0:
320,0,137765,128,0,137836:0:0:0:0:
448,0,137765,128,0,137836:0:0:0:0:
64,192,138051,1,0,0:0:0:0:
192,192,138051,1,0,0:0:0:0:
320,192,138051,1,0,0:0:0:0:
64,192,138194,1,0,0:0:0:0:
192,192,138194,1,0,0:0:0:0:
320,192,138194,1,0,0:0:0:0:
64,192,138336,1,0,0:0:0:0:
192,192,138336,1,0,0:0:0:0:
448,0,138336,128,0,138622:0:0:0:0:
64,192,138622,1,0,0:0:0:0:
192,192,138622,1,0,0:0:0:0:
320,192,138622,1,0,0:0:0:0:
192,0,138765,128,0,138836:0:0:0:0:
320,0,138765,128,0,138836:0:0:0:0:
448,0,138765,128,0,138836:0:0:0:0:
64,0,139051,128,0,139122:0:0:0:0:
192,0,139051,128,0,139122:0:0:0:0:
448,0,139051,128,0,139122:0:0:0:0:
64,192,139336,1,0,0:0:0:0:
192,192,139336,1,0,0:0:0:0:
320,192,139336,1,0,0:0:0:0:
64,192,139479,1,0,0:0:0:0:
448,192,139479,1,0,0:0:0:0:
320,0,139479,128,0,139622:0:0:0:0:
64,192,139765,1,0,0:0:0:0:
192,192,139765,1,0,0:0:0:0:
320,192,139908,1,0,0:0:0:0:
448,192,139908,1,0,0:0:0:0:
192,192,140051,1,0,0:0:0:0:
448,192,140051,1,0,0:0:0:0:
64,0,140194,128,0,140694:0:0:0:0:
192,0,140194,128,0,140694:0:0:0:0:
320,0,140479,128,0,140694:0:0:0:0:
448,0,140479,128,0,140694:0:0:0:0:
192,192,140765,1,0,0:0:0:0:
320,192,140765,1,0,0:0:0:0:
448,192,140765,1,0,0:0:0:0:
64,192,140836,1,0,0:0:0:0:
448,192,140908,1,0,0:0:0:0:
320,192,140979,1,0,0:0:0:0:
64,192,141051,1,0,0:0:0:0:
192,192,141051,1,0,0:0:0:0:
448,192,141051,1,0,0:0:0:0:
320,192,141122,1,0,0:0:0:0:
64,192,141194,1,0,0:0:0:0:
192,192,141194,1,0,0:0:0:0:
448,192,141194,1,0,0:0:0:0:
320,192,141265,1,0,0:0:0:0:
64,192,141336,1,0,0:0:0:0:
192,192,141336,1,0,0:0:0:0:
448,192,141336,1,0,0:0:0:0:
320,192,141408,1,0,0:0:0:0:
192,192,141479,1,0,0:0:0:0:
64,192,141551,1,0,0:0:0:0:
192,192,141622,1,0,0:0:0:0:
320,192,141622,1,0,0:0:0:0:
448,192,141622,1,0,0:0:0:0:
64,192,141694,1,0,0:0:0:0:
192,192,141765,1,0,0:0:0:0:
320,192,141765,1,0,0:0:0:0:
448,192,141765,1,0,0:0:0:0:
64,192,141836,1,0,0:0:0:0:
192,192,141908,1,0,0:0:0:0:
320,192,141908,1,0,0:0:0:0:
448,192,141908,1,0,0:0:0:0:
64,192,141979,1,0,0:0:0:0:
320,192,142051,1,0,0:0:0:0:
192,192,142122,1,0,0:0:0:0:
64,192,142194,1,0,0:0:0:0:
320,192,142194,1,0,0:0:0:0:
448,192,142194,1,0,0:0:0:0:
192,192,142265,1,0,0:0:0:0:
64,192,142336,1,0,0:0:0:0:
320,192,142336,1,0,0:0:0:0:
448,192,142336,1,0,0:0:0:0:
192,192,142408,1,0,0:0:0:0:
64,192,142479,1,0,0:0:0:0:
320,192,142479,1,0,0:0:0:0:
448,192,142479,1,0,0:0:0:0:
192,192,142551,1,0,0:0:0:0:
64,192,142622,1,0,0:0:0:0:
320,192,142622,1,0,0:0:0:0:
448,192,142694,1,0,0:0:0:0:
64,192,142765,1,0,0:0:0:0:
192,192,142765,1,0,0:0:0:0:
320,192,142765,1,0,0:0:0:0:
448,192,142836,1,0,0:0:0:0:
64,192,142908,1,0,0:0:0:0:
192,192,142908,1,0,0:0:0:0:
320,192,142908,1,0,0:0:0:0:
448,192,142979,1,0,0:0:0:0:
64,192,143051,1,0,0:0:0:0:
192,192,143051,1,0,0:0:0:0:
320,192,143051,1,0,0:0:0:0:
448,192,143122,1,0,0:0:0:0:
192,192,143194,1,0,0:0:0:0:
320,192,143194,1,0,0:0:0:0:
64,192,143265,1,0,0:0:0:0:
192,192,143336,1,0,0:0:0:0:
320,192,143336,1,0,0:0:0:0:
448,192,143336,1,0,0:0:0:0:
64,192,143408,1,0,0:0:0:0:
448,192,143479,1,0,0:0:0:0:
320,192,143551,1,0,0:0:0:0:
64,192,143622,1,0,0:0:0:0:
192,192,143622,1,0,0:0:0:0:
448,192,143622,1,0,0:0:0:0:
320,192,143694,1,0,0:0:0:0:
192,192,143765,1,0,0:0:0:0:
448,192,143836,1,0,0:0:0:0:
64,192,143908,1,0,0:0:0:0:
192,192,143908,1,0,0:0:0:0:
320,192,143908,1,0,0:0:0:0:
448,192,143979,1,0,0:0:0:0:
64,192,144051,1,0,0:0:0:0:
192,192,144051,1,0,0:0:0:0:
320,192,144051,1,0,0:0:0:0:
448,192,144122,1,0,0:0:0:0:
64,192,144194,1,0,0:0:0:0:
192,192,144194,1,0,0:0:0:0:
320,192,144194,1,0,0:0:0:0:
448,192,144265,1,0,0:0:0:0:
192,192,144336,1,0,0:0:0:0:
320,192,144336,1,0,0:0:0:0:
64,192,144408,1,0,0:0:0:0:
192,192,144479,1,0,0:0:0:0:
320,192,144479,1,0,0:0:0:0:
448,192,144479,1,0,0:0:0:0:
64,192,144551,1,0,0:0:0:0:
192,192,144622,1,0,0:0:0:0:
320,192,144622,1,0,0:0:0:0:
448,192,144622,1,0,0:0:0:0:
64,192,144694,1,0,0:0:0:0:
192,192,144765,1,0,0:0:0:0:
320,192,144765,1,0,0:0:0:0:
448,192,144765,1,0,0:0:0:0:
64,192,144836,1,0,0:0:0:0:
320,192,144908,1,0,0:0:0:0:
192,192,144979,1,0,0:0:0:0:
64,192,145051,1,0,0:0:0:0:
320,192,145051,1,0,0:0:0:0:
448,192,145051,1,0,0:0:0:0:
192,192,145122,1,0,0:0:0:0:
448,192,145194,1,0,0:0:0:0:
320,192,145265,1,0,0:0:0:0:
64,192,145336,1,0,0:0:0:0:
192,192,145336,1,0,0:0:0:0:
448,192,145336,1,0,0:0:0:0:
320,192,145408,1,0,0:0:0:0:
64,192,145479,1,0,0:0:0:0:
192,192,145551,1,0,0:0:0:0:
64,192,145622,1,0,0:0:0:0:
320,192,145622,1,0,0:0:0:0:
448,192,145622,1,0,0:0:0:0:
192,192,145694,1,0,0:0:0:0:
64,192,145765,1,0,0:0:0:0:
320,192,145765,1,0,0:0:0:0:
448,192,145765,1,0,0:0:0:0:
192,192,145836,1,0,0:0:0:0:
64,192,145908,1,0,0:0:0:0:
320,192,145908,1,0,0:0:0:0:
448,192,145908,1,0,0:0:0:0:
192,192,145979,1,0,0:0:0:0:
320,192,146051,1,0,0:0:0:0:
64,192,146122,1,0,0:0:0:0:
192,192,146194,1,0,0:0:0:0:
320,192,146194,1,0,0:0:0:0:
448,192,146194,1,0,0:0:0:0:
64,192,146265,1,0,0:0:0:0:
192,192,146336,1,0,0:0:0:0:
320,192,146336,1,0,0:0:0:0:
448,192,146336,1,0,0:0:0:0:
64,192,146408,1,0,0:0:0:0:
192,192,146479,1,0,0:0:0:0:
320,192,146479,1,0,0:0:0:0:
448,192,146479,1,0,0:0:0:0:
64,192,146551,1,0,0:0:0:0:
192,192,146622,1,0,0:0:0:0:
320,192,146694,1,0,0:0:0:0:
64,192,146765,1,0,0:0:0:0:
192,192,146765,1,0,0:0:0:0:
448,192,146765,1,0,0:0:0:0:
320,192,146836,1,0,0:0:0:0:
64,192,146908,1,0,0:0:0:0:
192,192,146908,1,0,0:0:0:0:
448,192,146908,1,0,0:0:0:0:
320,192,146979,1,0,0:0:0:0:
64,192,147051,1,0,0:0:0:0:
192,192,147051,1,0,0:0:0:0:
448,192,147051,1,0,0:0:0:0:
320,192,147122,1,0,0:0:0:0:
192,192,147194,1,0,0:0:0:0:
448,192,147265,1,0,0:0:0:0:
64,192,147336,1,0,0:0:0:0:
192,192,147336,1,0,0:0:0:0:
320,192,147336,1,0,0:0:0:0:
448,192,147408,1,0,0:0:0:0:
64,192,147479,1,0,0:0:0:0:
192,192,147479,1,0,0:0:0:0:
320,192,147479,1,0,0:0:0:0:
448,192,147551,1,0,0:0:0:0:
64,192,147622,1,0,0:0:0:0:
192,192,147622,1,0,0:0:0:0:
320,192,147622,1,0,0:0:0:0:
448,192,147694,1,0,0:0:0:0:
192,192,147765,1,0,0:0:0:0:
64,192,147836,1,0,0:0:0:0:
192,192,147908,1,0,0:0:0:0:
320,192,147908,1,0,0:0:0:0:
448,192,147908,1,0,0:0:0:0:
64,192,147979,1,0,0:0:0:0:
192,192,148051,1,0,0:0:0:0:
320,192,148051,1,0,0:0:0:0:
448,192,148051,1,0,0:0:0:0:
64,192,148122,1,0,0:0:0:0:
192,192,148194,1,0,0:0:0:0:
320,192,148194,1,0,0:0:0:0:
448,192,148194,1,0,0:0:0:0:
64,192,148265,1,0,0:0:0:0:
192,192,148336,1,0,0:0:0:0:
320,192,148408,1,0,0:0:0:0:
64,192,148479,1,0,0:0:0:0:
192,192,148479,1,0,0:0:0:0:
448,192,148479,1,0,0:0:0:0:
320,192,148551,1,0,0:0:0:0:
64,192,148622,1,0,0:0:0:0:
192,192,148622,1,0,0:0:0:0:
448,192,148622,1,0,0:0:0:0:
320,192,148694,1,0,0:0:0:0:
64,192,148765,1,0,0:0:0:0:
192,192,148765,1,0,0:0:0:0:
448,192,148765,1,0,0:0:0:0:
320,192,148836,1,0,0:0:0:0:
448,192,148908,1,0,0:0:0:0:
192,192,148979,1,0,0:0:0:0:
64,192,149051,1,0,0:0:0:0:
320,192,149051,1,0,0:0:0:0:
448,192,149051,1,0,0:0:0:0:
192,192,149122,1,0,0:0:0:0:
320,192,149194,1,0,0:0:0:0:
448,192,149265,1,0,0:0:0:0:
64,192,149336,1,0,0:0:0:0:
192,192,149336,1,0,0:0:0:0:
320,192,149336,1,0,0:0:0:0:
448,192,149408,1,0,0:0:0:0:
64,192,149479,1,0,0:0:0:0:
192,192,149479,1,0,0:0:0:0:
320,192,149479,1,0,0:0:0:0:
448,192,149551,1,0,0:0:0:0:
64,192,149622,1,0,0:0:0:0:
192,192,149622,1,0,0:0:0:0:
320,192,149622,1,0,0:0:0:0:
448,192,149694,1,0,0:0:0:0:
64,192,149765,1,0,0:0:0:0:
192,192,149765,1,0,0:0:0:0:
320,192,149765,1,0,0:0:0:0:
448,192,149836,1,0,0:0:0:0:
64,0,149908,128,0,150051:0:0:0:0:
192,0,149908,128,0,150051:0:0:0:0:
320,0,149908,128,0,150051:0:0:0:0:
64,192,150194,1,0,0:0:0:0:
320,192,150194,1,0,0:0:0:0:
448,192,150194,1,0,0:0:0:0:
192,192,150265,1,0,0:0:0:0:
320,192,150336,1,0,0:0:0:0:
448,192,150336,1,0,0:0:0:0:
64,192,150408,1,0,0:0:0:0:
192,192,150479,1,0,0:0:0:0:
320,192,150479,1,0,0:0:0:0:
448,192,150479,1,0,0:0:0:0:
64,192,150551,1,0,0:0:0:0:
192,192,150622,1,0,0:0:0:0:
320,192,150622,1,0,0:0:0:0:
448,192,150694,1,0,0:0:0:0:
64,192,150765,1,0,0:0:0:0:
192,192,150765,1,0,0:0:0:0:
320,192,150765,1,0,0:0:0:0:
448,192,150836,1,0,0:0:0:0:
64,192,150908,1,0,0:0:0:0:
192,192,150908,1,0,0:0:0:0:
320,192,150979,1,0,0:0:0:0:
64,192,151051,1,0,0:0:0:0:
192,192,151051,1,0,0:0:0:0:
448,192,151051,1,0,0:0:0:0:
320,192,151122,1,0,0:0:0:0:
192,192,151194,1,0,0:0:0:0:
448,192,151194,1,0,0:0:0:0:
64,192,151265,1,0,0:0:0:0:
192,192,151336,1,0,0:0:0:0:
320,192,151336,1,0,0:0:0:0:
448,192,151336,1,0,0:0:0:0:
64,192,151408,1,0,0:0:0:0:
192,192,151479,1,0,0:0:0:0:
448,192,151479,1,0,0:0:0:0:
320,192,151551,1,0,0:0:0:0:
64,192,151622,1,0,0:0:0:0:
192,192,151622,1,0,0:0:0:0:
448,192,151622,1,0,0:0:0:0:
320,192,151694,1,0,0:0:0:0:
64,192,151765,1,0,0:0:0:0:
192,192,151765,1,0,0:0:0:0:
448,192,151836,1,0,0:0:0:0:
64,192,151908,1,0,0:0:0:0:
192,192,151908,1,0,0:0:0:0:
320,192,151908,1,0,0:0:0:0:
448,192,151979,1,0,0:0:0:0:
64,192,152051,1,0,0:0:0:0:
192,192,152051,1,0,0:0:0:0:
320,192,152122,1,0,0:0:0:0:
64,192,152194,1,0,0:0:0:0:
192,192,152194,1,0,0:0:0:0:
448,192,152194,1,0,0:0:0:0:
320,192,152265,1,0,0:0:0:0:
192,192,152336,1,0,0:0:0:0:
448,192,152336,1,0,0:0:0:0:
64,192,152408,1,0,0:0:0:0:
192,192,152479,1,0,0:0:0:0:
320,192,152479,1,0,0:0:0:0:
448,192,152479,1,0,0:0:0:0:
64,192,152551,1,0,0:0:0:0:
192,192,152622,1,0,0:0:0:0:
320,192,152622,1,0,0:0:0:0:
448,192,152694,1,0,0:0:0:0:
64,192,152765,1,0,0:0:0:0:
192,192,152765,1,0,0:0:0:0:
320,192,152765,1,0,0:0:0:0:
448,192,152836,1,0,0:0:0:0:
192,192,152908,1,0,0:0:0:0:
320,192,152908,1,0,0:0:0:0:
64,192,152979,1,0,0:0:0:0:
192,192,153051,1,0,0:0:0:0:
320,192,153051,1,0,0:0:0:0:
448,192,153051,1,0,0:0:0:0:
64,192,153122,1,0,0:0:0:0:
192,192,153194,1,0,0:0:0:0:
320,192,153194,1,0,0:0:0:0:
448,192,153265,1,0,0:0:0:0:
64,192,153336,1,0,0:0:0:0:
192,192,153336,1,0,0:0:0:0:
320,192,153336,1,0,0:0:0:0:
448,192,153408,1,0,0:0:0:0:
64,192,153479,1,0,0:0:0:0:
192,192,153479,1,0,0:0:0:0:
320,192,153551,1,0,0:0:0:0:
64,192,153622,1,0,0:0:0:0:
192,192,153622,1,0,0:0:0:0:
448,192,153622,1,0,0:0:0:0:
320,192,153694,1,0,0:0:0:0:
192,192,153765,1,0,0:0:0:0:
448,192,153765,1,0,0:0:0:0:
64,192,153836,1,0,0:0:0:0:
192,192,153908,1,0,0:0:0:0:
320,192,153908,1,0,0:0:0:0:
448,192,153908,1,0,0:0:0:0:
64,192,153979,1,0,0:0:0:0:
192,192,154051,1,0,0:0:0:0:
320,192,154051,1,0,0:0:0:0:
448,192,154122,1,0,0:0:0:0:
64,192,154194,1,0,0:0:0:0:
192,192,154194,1,0,0:0:0:0:
320,192,154194,1,0,0:0:0:0:
448,192,154265,1,0,0:0:0:0:
192,192,154336,1,0,0:0:0:0:
320,192,154336,1,0,0:0:0:0:
64,192,154408,1,0,0:0:0:0:
192,192,154479,1,0,0:0:0:0:
320,192,154479,1,0,0:0:0:0:
448,192,154479,1,0,0:0:0:0:
64,192,154551,1,0,0:0:0:0:
192,192,154622,1,0,0:0:0:0:
448,192,154622,1,0,0:0:0:0:
320,192,154694,1,0,0:0:0:0:
64,192,154765,1,0,0:0:0:0:
192,192,154765,1,0,0:0:0:0:
448,192,154765,1,0,0:0:0:0:
320,192,154836,1,0,0:0:0:0:
192,192,154908,1,0,0:0:0:0:
448,192,154908,1,0,0:0:0:0:
64,192,154979,1,0,0:0:0:0:
192,192,155051,1,0,0:0:0:0:
320,192,155051,1,0,0:0:0:0:
448,192,155051,1,0,0:0:0:0:
64,192,155122,1,0,0:0:0:0:
192,192,155194,1,0,0:0:0:0:
320,192,155194,1,0,0:0:0:0:
448,192,155265,1,0,0:0:0:0:
64,192,155336,1,0,0:0:0:0:
192,192,155336,1,0,0:0:0:0:
320,192,155336,1,0,0:0:0:0:
448,192,155408,1,0,0:0:0:0:
64,192,155479,1,0,0:0:0:0:
192,192,155479,1,0,0:0:0:0:
320,192,155551,1,0,0:0:0:0:
64,192,155622,1,0,0:0:0:0:
192,192,155622,1,0,0:0:0:0:
448,192,155622,1,0,0:0:0:0:
320,192,155694,1,0,0:0:0:0:
192,192,155765,1,0,0:0:0:0:
448,192,155765,1,0,0:0:0:0:
64,192,155836,1,0,0:0:0:0:
192,192,155908,1,0,0:0:0:0:
320,192,155908,1,0,0:0:0:0:
448,192,155908,1,0,0:0:0:0:
64,192,155979,1,0,0:0:0:0:
192,192,156051,1,0,0:0:0:0:
320,192,156051,1,0,0:0:0:0:
448,192,156122,1,0,0:0:0:0:
64,192,156194,1,0,0:0:0:0:
192,192,156194,1,0,0:0:0:0:
320,192,156194,1,0,0:0:0:0:
448,192,156265,1,0,0:0:0:0:
64,192,156336,1,0,0:0:0:0:
192,192,156336,1,0,0:0:0:0:
320,192,156408,1,0,0:0:0:0:
64,192,156479,1,0,0:0:0:0:
192,192,156479,1,0,0:0:0:0:
448,192,156479,1,0,0:0:0:0:
320,192,156551,1,0,0:0:0:0:
64,192,156622,1,0,0:0:0:0:
192,192,156622,1,0,0:0:0:0:
448,192,156694,1,0,0:0:0:0:
64,192,156765,1,0,0:0:0:0:
192,192,156765,1,0,0:0:0:0:
320,192,156765,1,0,0:0:0:0:
448,192,156836,1,0,0:0:0:0:
192,192,156908,1,0,0:0:0:0:
320,192,156908,1,0,0:0:0:0:
64,192,156979,1,0,0:0:0:0:
192,192,157051,1,0,0:0:0:0:
320,192,157051,1,0,0:0:0:0:
448,192,157051,1,0,0:0:0:0:
64,192,157122,1,0,0:0:0:0:
192,192,157194,1,0,0:0:0:0:
448,192,157194,1,0,0:0:0:0:
320,192,157265,1,0,0:0:0:0:
64,192,157336,1,0,0:0:0:0:
192,192,157336,1,0,0:0:0:0:
448,192,157336,1,0,0:0:0:0:
320,192,157408,1,0,0:0:0:0:
64,192,157479,1,0,0:0:0:0:
192,192,157479,1,0,0:0:0:0:
448,192,157551,1,0,0:0:0:0:
64,192,157622,1,0,0:0:0:0:
192,192,157622,1,0,0:0:0:0:
320,192,157622,1,0,0:0:0:0:
448,192,157694,1,0,0:0:0:0:
192,192,157765,1,0,0:0:0:0:
320,192,157765,1,0,0:0:0:0:
64,192,157836,1,0,0:0:0:0:
192,192,157908,1,0,0:0:0:0:
320,192,157908,1,0,0:0:0:0:
448,192,157908,1,0,0:0:0:0:
64,192,157979,1,0,0:0:0:0:
192,192,158051,1,0,0:0:0:0:
320,192,158051,1,0,0:0:0:0:
448,192,158122,1,0,0:0:0:0:
64,192,158194,1,0,0:0:0:0:
192,192,158194,1,0,0:0:0:0:
320,192,158194,1,0,0:0:0:0:
448,192,158265,1,0,0:0:0:0:
192,192,158336,1,0,0:0:0:0:
320,192,158336,1,0,0:0:0:0:
64,192,158408,1,0,0:0:0:0:
192,192,158479,1,0,0:0:0:0:
320,192,158479,1,0,0:0:0:0:
448,192,158479,1,0,0:0:0:0:
64,192,158551,1,0,0:0:0:0:
192,192,158622,1,0,0:0:0:0:
320,192,158622,1,0,0:0:0:0:
448,192,158694,1,0,0:0:0:0:
64,192,158765,1,0,0:0:0:0:
192,192,158765,1,0,0:0:0:0:
320,192,158765,1,0,0:0:0:0:
448,192,158836,1,0,0:0:0:0:
64,192,158908,1,0,0:0:0:0:
192,192,158908,1,0,0:0:0:0:
320,192,158979,1,0,0:0:0:0:
64,192,159051,1,0,0:0:0:0:
192,192,159051,1,0,0:0:0:0:
448,192,159051,1,0,0:0:0:0:
320,192,159122,1,0,0:0:0:0:
192,192,159194,1,0,0:0:0:0:
448,192,159194,1,0,0:0:0:0:
64,192,159265,1,0,0:0:0:0:
192,192,159336,1,0,0:0:0:0:
320,192,159336,1,0,0:0:0:0:
448,192,159336,1,0,0:0:0:0:
64,192,159408,1,0,0:0:0:0:
192,192,159479,1,0,0:0:0:0:
448,192,159479,1,0,0:0:0:0:
320,192,159551,1,0,0:0:0:0:
64,192,159622,1,0,0:0:0:0:
192,192,159622,1,0,0:0:0:0:
448,192,159622,1,0,0:0:0:0:
320,192,159694,1,0,0:0:0:0:
192,192,159765,1,0,0:0:0:0:
448,192,159765,1,0,0:0:0:0:
64,192,159836,1,0,0:0:0:0:
192,192,159908,1,0,0:0:0:0:
320,192,159908,1,0,0:0:0:0:
448,192,159908,1,0,0:0:0:0:
64,192,159979,1,0,0:0:0:0:
192,192,160051,1,0,0:0:0:0:
448,192,160051,1,0,0:0:0:0:
320,192,160122,1,0,0:0:0:0:
64,192,160194,1,0,0:0:0:0:
192,192,160194,1,0,0:0:0:0:
448,192,160194,1,0,0:0:0:0:
320,192,160265,1,0,0:0:0:0:
64,192,160336,1,0,0:0:0:0:
192,192,160336,1,0,0:0:0:0:
448,192,160408,1,0,0:0:0:0:
64,192,160479,1,0,0:0:0:0:
192,192,160479,1,0,0:0:0:0:
320,192,160479,1,0,0:0:0:0:
448,192,160551,1,0,0:0:0:0:
64,192,160622,1,0,0:0:0:0:
192,192,160622,1,0,0:0:0:0:
320,192,160694,1,0,0:0:0:0:
64,192,160765,1,0,0:0:0:0:
192,192,160765,1,0,0:0:0:0:
448,192,160765,1,0,0:0:0:0:
320,192,160836,1,0,0:0:0:0:
192,192,160908,1,0,0:0:0:0:
448,192,160908,1,0,0:0:0:0:
64,192,160979,1,0,0:0:0:0:
192,192,161051,1,0,0:0:0:0:
320,192,161051,1,0,0:0:0:0:
448,192,161051,1,0,0:0:0:0:
64,192,161122,1,0,0:0:0:0:
192,192,161194,1,0,0:0:0:0:
448,192,161194,1,0,0:0:0:0:
320,192,161265,1,0,0:0:0:0:
64,192,161336,1,0,0:0:0:0:
192,192,161336,1,0,0:0:0:0:
448,192,161336,1,0,0:0:0:0:
320,192,161408,1,0,0:0:0:0:
64,192,161479,1,0,0:0:0:0:
192,192,161479,1,0,0:0:0:0:
448,192,161551,1,0,0:0:0:0:
64,192,161622,1,0,0:0:0:0:
192,192,161622,1,0,0:0:0:0:
320,192,161622,1,0,0:0:0:0:
448,192,161694,1,0,0:0:0:0:
192,192,161765,1,0,0:0:0:0:
320,192,161765,1,0,0:0:0:0:
64,192,161836,1,0,0:0:0:0:
192,192,161908,1,0,0:0:0:0:
320,192,161908,1,0,0:0:0:0:
448,192,161908,1,0,0:0:0:0:
64,192,161979,1,0,0:0:0:0:
192,192,162051,1,0,0:0:0:0:
320,192,162051,1,0,0:0:0:0:
448,192,162122,1,0,0:0:0:0:
64,192,162194,1,0,0:0:0:0:
192,192,162194,1,0,0:0:0:0:
320,192,162194,1,0,0:0:0:0:
448,192,162265,1,0,0:0:0:0:
192,192,162336,1,0,0:0:0:0:
320,192,162336,1,0,0:0:0:0:
64,192,162408,1,0,0:0:0:0:
192,192,162479,1,0,0:0:0:0:
320,192,162479,1,0,0:0:0:0:
448,192,162479,1,0,0:0:0:0:
64,192,162551,1,0,0:0:0:0:
320,192,162622,1,0,0:0:0:0:
448,192,162622,1,0,0:0:0:0:
192,192,162694,1,0,0:0:0:0:
64,192,162765,1,0,0:0:0:0:
320,192,162765,1,0,0:0:0:0:
448,192,162765,1,0,0:0:0:0:
192,192,162836,1,0,0:0:0:0:
64,192,162908,1,0,0:0:0:0:
320,192,162908,1,0,0:0:0:0:
448,192,162979,1,0,0:0:0:0:
64,192,163051,1,0,0:0:0:0:
192,192,163051,1,0,0:0:0:0:
320,192,163051,1,0,0:0:0:0:
448,192,163122,1,0,0:0:0:0:
64,192,163194,1,0,0:0:0:0:
320,192,163194,1,0,0:0:0:0:
192,192,163265,1,0,0:0:0:0:
64,192,163336,1,0,0:0:0:0:
320,192,163336,1,0,0:0:0:0:
448,192,163336,1,0,0:0:0:0:
192,192,163408,1,0,0:0:0:0:
64,192,163479,1,0,0:0:0:0:
320,192,163479,1,0,0:0:0:0:
448,192,163551,1,0,0:0:0:0:
64,192,163622,1,0,0:0:0:0:
192,192,163622,1,0,0:0:0:0:
320,192,163622,1,0,0:0:0:0:
448,192,163694,1,0,0:0:0:0:
192,192,163765,1,0,0:0:0:0:
320,192,163765,1,0,0:0:0:0:
64,192,163836,1,0,0:0:0:0:
192,192,163908,1,0,0:0:0:0:
320,192,163908,1,0,0:0:0:0:
448,192,163908,1,0,0:0:0:0:
64,192,163979,1,0,0:0:0:0:
192,192,164051,1,0,0:0:0:0:
448,192,164051,1,0,0:0:0:0:
320,192,164122,1,0,0:0:0:0:
64,192,164194,1,0,0:0:0:0:
192,192,164194,1,0,0:0:0:0:
448,192,164194,1,0,0:0:0:0:
320,192,164265,1,0,0:0:0:0:
192,192,164336,1,0,0:0:0:0:
448,192,164336,1,0,0:0:0:0:
64,192,164408,1,0,0:0:0:0:
192,192,164479,1,0,0:0:0:0:
320,192,164479,1,0,0:0:0:0:
448,192,164479,1,0,0:0:0:0:
64,192,164551,1,0,0:0:0:0:
192,192,164622,1,0,0:0:0:0:
320,192,164622,1,0,0:0:0:0:
448,192,164694,1,0,0:0:0:0:
64,192,164765,1,0,0:0:0:0:
192,192,164765,1,0,0:0:0:0:
320,192,164765,1,0,0:0:0:0:
448,192,164836,1,0,0:0:0:0:
192,192,164908,1,0,0:0:0:0:
320,192,164908,1,0,0:0:0:0:
64,192,164979,1,0,0:0:0:0:
192,192,165051,1,0,0:0:0:0:
320,192,165051,1,0,0:0:0:0:
448,192,165051,1,0,0:0:0:0:
64,192,165122,1,0,0:0:0:0:
192,192,165194,1,0,0:0:0:0:
320,192,165194,1,0,0:0:0:0:
448,192,165265,1,0,0:0:0:0:
64,192,165336,1,0,0:0:0:0:
192,192,165336,1,0,0:0:0:0:
320,192,165336,1,0,0:0:0:0:
448,192,165408,1,0,0:0:0:0:
64,192,165479,1,0,0:0:0:0:
192,192,165479,1,0,0:0:0:0:
320,192,165551,1,0,0:0:0:0:
64,192,165622,1,0,0:0:0:0:
192,192,165622,1,0,0:0:0:0:
448,192,165622,1,0,0:0:0:0:
320,192,165694,1,0,0:0:0:0:
192,192,165765,1,0,0:0:0:0:
448,192,165765,1,0,0:0:0:0:
64,192,165836,1,0,0:0:0:0:
192,192,165908,1,0,0:0:0:0:
320,192,165908,1,0,0:0:0:0:
448,192,165908,1,0,0:0:0:0:
64,192,165979,1,0,0:0:0:0:
192,192,166051,1,0,0:0:0:0:
320,192,166051,1,0,0:0:0:0:
448,192,166051,1,0,0:0:0:0:
64,192,166122,1,0,0:0:0:0:
192,192,166194,1,0,0:0:0:0:
320,192,166194,1,0,0:0:0:0:
448,192,166194,1,0,0:0:0:0:
64,192,166265,1,0,0:0:0:0:
192,192,166336,1,0,0:0:0:0:
320,192,166336,1,0,0:0:0:0:
448,192,166408,1,0,0:0:0:0:
64,192,166479,1,0,0:0:0:0:
192,192,166479,1,0,0:0:0:0:
320,192,166479,1,0,0:0:0:0:
448,192,166551,1,0,0:0:0:0:
64,192,166622,1,0,0:0:0:0:
192,192,166622,1,0,0:0:0:0:
320,192,166622,1,0,0:0:0:0:
448,192,166694,1,0,0:0:0:0:
64,192,166765,1,0,0:0:0:0:
192,192,166765,1,0,0:0:0:0:
320,192,166765,1,0,0:0:0:0:
448,192,166836,1,0,0:0:0:0:
192,192,166908,1,0,0:0:0:0:
320,192,166908,1,0,0:0:0:0:
64,192,166979,1,0,0:0:0:0:
320,192,167051,1,0,0:0:0:0:
448,192,167051,1,0,0:0:0:0:
64,192,167122,1,0,0:0:0:0:
192,192,167122,1,0,0:0:0:0:
320,192,167194,1,0,0:0:0:0:
448,192,167194,1,0,0:0:0:0:
64,192,167265,1,0,0:0:0:0:
192,192,167265,1,0,0:0:0:0:
320,192,167336,1,0,0:0:0:0:
448,192,167336,1,0,0:0:0:0:
64,192,167408,1,0,0:0:0:0:
192,192,167408,1,0,0:0:0:0:
320,192,167479,1,0,0:0:0:0:
448,192,167479,1,0,0:0:0:0:
64,192,167551,1,0,0:0:0:0:
192,192,167551,1,0,0:0:0:0:
320,192,167622,1,0,0:0:0:0:
448,192,167622,1,0,0:0:0:0:
64,192,167694,1,0,0:0:0:0:
192,192,167694,1,0,0:0:0:0:
320,192,167765,1,0,0:0:0:0:
448,192,167765,1,0,0:0:0:0:
64,192,167836,1,0,0:0:0:0:
192,192,167836,1,0,0:0:0:0:
320,192,167908,1,0,0:0:0:0:
448,192,167908,1,0,0:0:0:0:
64,192,167979,1,0,0:0:0:0:
192,192,167979,1,0,0:0:0:0:
320,192,168051,1,0,0:0:0:0:
448,192,168051,1,0,0:0:0:0:
64,192,168122,1,0,0:0:0:0:
192,192,168122,1,0,0:0:0:0:
320,0,168194,128,0,168265:0:0:0:0:
448,0,168194,128,0,168265:0:0:0:0:
