osu file format v14

[General]
AudioFilename: Song of the Night Sparrow ~ Night Bird.mp3
AudioLeadIn: 2
PreviewTime: 121980
Countdown: 0
SampleSet: None
StackLeniency: 0.7
Mode: 3
LetterboxInBreaks: 0
SpecialStyle: 0
WidescreenStoryboard: 0

[Editor]
DistanceSpacing: 0.8
BeatDivisor: 4
GridSize: 8
TimelineZoom: 3.099999

[Metadata]
Title:dakemoto's Collection Pack Vol.1
TitleUnicode:dakemoto's Collection Pack Vol.1
Artist:Various Artist
ArtistUnicode:Various Artist
Creator:dakemoto
Version:Song of the Night Sparrow ~ Night Bird (Hard)
Source:Stepmania
Tags:
BeatmapID:741051
BeatmapSetID:329410

[Difficulty]
HPDrainRate:7
CircleSize:4
OverallDifficulty:8
ApproachRate:10
SliderMultiplier:1.4
SliderTickRate:1

[Events]
//Background and Video events
0,0,"Song of the Night Sparrow ~ Night Bird bg.jpg",0,0
//Break Periods
//Storyboard Layer 0 (Background)
//Storyboard Layer 1 (Fail)
//Storyboard Layer 2 (Pass)
//Storyboard Layer 3 (Foreground)
//Storyboard Sound Samples

[TimingPoints]
-830,363.636,4,1,0,15,1,0
87857,-100,4,1,0,15,0,0
122715,363.636,4,1,0,15,1,0

[HitObjects]
448,192,624,5,0,0:0:0:0:
192,0,624,128,0,3169:1:0:0:0:
64,192,3533,1,0,0:0:0:0:
320,0,3533,128,0,6079:1:0:0:0:
64,192,6442,1,0,0:0:0:0:
448,192,6442,1,0,0:0:0:0:
320,192,6624,1,0,0:0:0:0:
192,192,6806,1,0,0:0:0:0:
448,192,6806,1,0,0:0:0:0:
64,192,6988,1,0,0:0:0:0:
192,192,7169,1,0,0:0:0:0:
320,192,7169,1,0,0:0:0:0:
64,192,7442,1,0,0:0:0:0:
448,192,7715,1,0,0:0:0:0:
320,192,7897,1,0,0:0:0:0:
192,192,8079,1,0,0:0:0:0:
64,192,8260,1,0,0:0:0:0:
320,192,8260,1,0,0:0:0:0:
448,192,8442,1,0,0:0:0:0:
192,192,8624,1,0,0:0:0:0:
320,192,8624,1,0,0:0:0:0:
64,192,8806,1,0,0:0:0:0:
320,192,8897,1,0,0:0:0:0:
64,192,8988,1,0,0:0:0:0:
192,192,8988,1,0,0:0:0:0:
320,0,9079,128,0,9260:1:0:0:0:
64,192,9351,1,0,0:0:0:0:
448,192,9351,1,0,0:0:0:0:
320,192,9533,1,0,0:0:0:0:
192,192,9715,1,0,0:0:0:0:
448,192,9715,1,0,0:0:0:0:
64,192,9897,1,0,0:0:0:0:
192,192,10079,1,0,0:0:0:0:
320,192,10079,1,0,0:0:0:0:
64,192,10351,1,0,0:0:0:0:
448,192,10624,1,0,0:0:0:0:
320,192,10806,1,0,0:0:0:0:
192,192,10988,1,0,0:0:0:0:
64,192,11169,1,0,0:0:0:0:
320,192,11169,1,0,0:0:0:0:
448,192,11351,1,0,0:0:0:0:
192,192,11533,1,0,0:0:0:0:
320,192,11533,1,0,0:0:0:0:
64,192,11715,1,0,0:0:0:0:
320,192,11806,1,0,0:0:0:0:
64,192,11897,1,0,0:0:0:0:
192,192,11897,1,0,0:0:0:0:
448,0,12079,128,0,12260:1:0:0:0:
64,192,12260,1,0,0:0:0:0:
320,192,12442,1,0,0:0:0:0:
192,192,12624,1,0,0:0:0:0:
448,192,12624,1,0,0:0:0:0:
64,192,12806,1,0,0:0:0:0:
192,192,12988,1,0,0:0:0:0:
320,192,12988,1,0,0:0:0:0:
192,192,13260,1,0,0:0:0:0:
448,192,13260,1,0,0:0:0:0:
320,192,13533,1,0,0:0:0:0:
448,192,13533,1,0,0:0:0:0:
64,192,13715,1,0,0:0:0:0:
448,192,13897,1,0,0:0:0:0:
64,192,14079,1,0,0:0:0:0:
320,192,14079,1,0,0:0:0:0:
192,192,14260,1,0,0:0:0:0:
320,192,14442,1,0,0:0:0:0:
448,192,14442,1,0,0:0:0:0:
192,192,14624,1,0,0:0:0:0:
64,192,14715,1,0,0:0:0:0:
320,192,14806,1,0,0:0:0:0:
448,192,14806,1,0,0:0:0:0:
192,192,14897,1,0,0:0:0:0:
320,192,14988,1,0,0:0:0:0:
64,192,15169,1,0,0:0:0:0:
448,192,15169,1,0,0:0:0:0:
320,192,15351,1,0,0:0:0:0:
192,192,15533,1,0,0:0:0:0:
448,192,15533,1,0,0:0:0:0:
64,192,15715,1,0,0:0:0:0:
192,192,15897,1,0,0:0:0:0:
320,192,15897,1,0,0:0:0:0:
64,192,16169,1,0,0:0:0:0:
448,192,16442,1,0,0:0:0:0:
320,192,16624,1,0,0:0:0:0:
64,192,16806,1,0,0:0:0:0:
64,192,16988,1,0,0:0:0:0:
320,192,16988,1,0,0:0:0:0:
320,192,17169,1,0,0:0:0:0:
192,0,17351,128,0,17533:1:0:0:0:
448,0,17351,128,0,17533:1:0:0:0:
192,0,17715,128,0,17897:1:0:0:0:
448,0,17715,128,0,17897:1:0:0:0:
448,192,18079,1,0,0:0:0:0:
320,0,18079,128,0,20260:1:0:0:0:
192,192,18260,1,0,0:0:0:0:
64,192,18442,1,0,0:0:0:0:
192,192,18624,1,0,0:0:0:0:
448,192,18806,1,0,0:0:0:0:
64,192,19079,1,0,0:0:0:0:
448,192,19351,1,0,0:0:0:0:
64,192,19715,1,0,0:0:0:0:
192,192,19897,1,0,0:0:0:0:
448,192,20079,1,0,0:0:0:0:
192,192,20260,1,0,0:0:0:0:
64,192,20442,1,0,0:0:0:0:
192,192,20533,1,0,0:0:0:0:
320,192,20624,1,0,0:0:0:0:
448,0,20624,128,0,20806:1:0:0:0:
192,192,20715,1,0,0:0:0:0:
448,192,20988,1,0,0:0:0:0:
192,0,20988,128,0,23169:1:0:0:0:
320,192,21169,1,0,0:0:0:0:
64,192,21351,1,0,0:0:0:0:
320,192,21533,1,0,0:0:0:0:
448,192,21715,1,0,0:0:0:0:
64,192,21988,1,0,0:0:0:0:
448,192,22260,1,0,0:0:0:0:
64,192,22624,1,0,0:0:0:0:
320,192,22806,1,0,0:0:0:0:
448,192,22988,1,0,0:0:0:0:
320,192,23169,1,0,0:0:0:0:
64,192,23351,1,0,0:0:0:0:
320,192,23442,1,0,0:0:0:0:
192,192,23533,1,0,0:0:0:0:
64,0,23533,128,0,23715:1:0:0:0:
192,192,23897,1,0,0:0:0:0:
448,0,23897,128,0,24260:1:0:0:0:
320,192,24079,1,0,0:0:0:0:
192,192,24260,1,0,0:0:0:0:
64,192,24442,1,0,0:0:0:0:
320,0,24442,128,0,24806:1:0:0:0:
448,192,24624,1,0,0:0:0:0:
64,192,24897,1,0,0:0:0:0:
192,0,24988,128,0,25169:1:0:0:0:
320,192,25169,1,0,0:0:0:0:
64,0,25351,128,0,26442:1:0:0:0:
448,192,25533,1,0,0:0:0:0:
320,192,25715,1,0,0:0:0:0:
192,192,25897,1,0,0:0:0:0:
448,192,26079,1,0,0:0:0:0:
320,192,26260,1,0,0:0:0:0:
192,192,26351,1,0,0:0:0:0:
448,192,26442,1,0,0:0:0:0:
192,192,26533,1,0,0:0:0:0:
320,192,26624,1,0,0:0:0:0:
448,192,26806,1,0,0:0:0:0:
320,0,26806,128,0,28260:1:0:0:0:
192,192,26988,1,0,0:0:0:0:
64,192,27169,1,0,0:0:0:0:
192,192,27351,1,0,0:0:0:0:
448,192,27533,1,0,0:0:0:0:
64,192,27806,1,0,0:0:0:0:
448,192,28079,1,0,0:0:0:0:
64,192,28260,1,0,0:0:0:0:
192,192,28260,1,0,0:0:0:0:
320,192,28351,1,0,0:0:0:0:
448,192,28442,1,0,0:0:0:0:
192,192,28533,1,0,0:0:0:0:
64,192,28624,1,0,0:0:0:0:
320,192,28624,1,0,0:0:0:0:
448,192,28715,1,0,0:0:0:0:
192,192,28806,1,0,0:0:0:0:
320,192,28897,1,0,0:0:0:0:
192,0,28988,128,0,29169:1:0:0:0:
448,0,28988,128,0,29169:1:0:0:0:
192,0,29351,128,0,29533:1:0:0:0:
448,0,29351,128,0,29533:1:0:0:0:
448,192,29715,1,0,0:0:0:0:
320,0,29715,128,0,31897:1:0:0:0:
192,192,29897,1,0,0:0:0:0:
64,192,30079,1,0,0:0:0:0:
192,192,30260,1,0,0:0:0:0:
448,192,30442,1,0,0:0:0:0:
64,192,30715,1,0,0:0:0:0:
448,192,30988,1,0,0:0:0:0:
64,192,31351,1,0,0:0:0:0:
192,192,31533,1,0,0:0:0:0:
448,192,31715,1,0,0:0:0:0:
192,192,31897,1,0,0:0:0:0:
64,192,32079,1,0,0:0:0:0:
192,192,32169,1,0,0:0:0:0:
320,192,32260,1,0,0:0:0:0:
448,0,32260,128,0,32442:1:0:0:0:
192,192,32351,1,0,0:0:0:0:
448,192,32624,1,0,0:0:0:0:
192,0,32624,128,0,33715:1:0:0:0:
320,192,32806,1,0,0:0:0:0:
64,192,32988,1,0,0:0:0:0:
320,192,33169,1,0,0:0:0:0:
448,192,33351,1,0,0:0:0:0:
64,192,33624,1,0,0:0:0:0:
320,192,33897,1,0,0:0:0:0:
448,0,34079,128,0,34260:1:0:0:0:
64,192,34260,1,0,0:0:0:0:
192,192,34442,1,0,0:0:0:0:
320,0,34442,128,0,34624:1:0:0:0:
448,192,34624,1,0,0:0:0:0:
320,192,34806,1,0,0:0:0:0:
192,0,34806,128,0,34988:1:0:0:0:
64,192,34988,1,0,0:0:0:0:
320,192,35079,1,0,0:0:0:0:
64,192,35169,1,0,0:0:0:0:
192,192,35169,1,0,0:0:0:0:
320,192,35351,1,0,0:0:0:0:
192,0,35351,128,0,36624:1:0:0:0:
448,192,35533,1,0,0:0:0:0:
320,192,35715,1,0,0:0:0:0:
64,192,35897,1,0,0:0:0:0:
320,192,36079,1,0,0:0:0:0:
64,192,36260,1,0,0:0:0:0:
320,192,36533,1,0,0:0:0:0:
448,192,36806,1,0,0:0:0:0:
320,0,36988,128,0,37533:1:0:0:0:
448,192,37169,1,0,0:0:0:0:
192,192,37351,1,0,0:0:0:0:
64,192,37533,1,0,0:0:0:0:
192,0,37715,128,0,37897:1:0:0:0:
448,0,37715,128,0,37897:1:0:0:0:
192,0,38079,128,0,38260:1:0:0:0:
448,0,38079,128,0,38260:1:0:0:0:
448,192,38442,1,0,0:0:0:0:
320,0,38442,128,0,39533:1:0:0:0:
192,192,38624,1,0,0:0:0:0:
64,192,38806,1,0,0:0:0:0:
192,192,38988,1,0,0:0:0:0:
448,192,39169,1,0,0:0:0:0:
64,192,39442,1,0,0:0:0:0:
448,192,39715,1,0,0:0:0:0:
320,192,39806,1,0,0:0:0:0:
64,192,39897,1,0,0:0:0:0:
192,192,39897,1,0,0:0:0:0:
320,192,39988,1,0,0:0:0:0:
448,192,40079,1,0,0:0:0:0:
192,192,40169,1,0,0:0:0:0:
64,192,40260,1,0,0:0:0:0:
320,192,40260,1,0,0:0:0:0:
448,192,40351,1,0,0:0:0:0:
192,192,40442,1,0,0:0:0:0:
320,192,40533,1,0,0:0:0:0:
192,0,40624,128,0,40806:1:0:0:0:
448,0,40624,128,0,40806:1:0:0:0:
192,0,40988,128,0,41169:1:0:0:0:
448,0,40988,128,0,41169:1:0:0:0:
192,192,41351,1,0,0:0:0:0:
448,192,41351,1,0,0:0:0:0:
192,192,42806,1,0,0:0:0:0:
448,192,42806,1,0,0:0:0:0:
64,192,43169,1,0,0:0:0:0:
320,192,43169,1,0,0:0:0:0:
64,192,43533,1,0,0:0:0:0:
192,192,43533,1,0,0:0:0:0:
192,192,43897,1,0,0:0:0:0:
448,192,43897,1,0,0:0:0:0:
64,192,44079,1,0,0:0:0:0:
320,192,44079,1,0,0:0:0:0:
320,192,44442,1,0,0:0:0:0:
448,192,44442,1,0,0:0:0:0:
64,192,44624,1,0,0:0:0:0:
192,192,44624,1,0,0:0:0:0:
448,192,45533,1,0,0:0:0:0:
64,192,46442,1,0,0:0:0:0:
192,192,46442,1,0,0:0:0:0:
192,192,46624,1,0,0:0:0:0:
320,192,46624,1,0,0:0:0:0:
320,192,46806,1,0,0:0:0:0:
448,192,46806,1,0,0:0:0:0:
192,192,46988,1,0,0:0:0:0:
320,192,46988,1,0,0:0:0:0:
64,192,47533,1,0,0:0:0:0:
192,192,47624,1,0,0:0:0:0:
320,192,47715,1,0,0:0:0:0:
64,192,47806,1,0,0:0:0:0:
320,192,47897,1,0,0:0:0:0:
192,192,47988,1,0,0:0:0:0:
448,192,48079,1,0,0:0:0:0:
192,192,48169,1,0,0:0:0:0:
320,192,48260,1,0,0:0:0:0:
192,192,48351,1,0,0:0:0:0:
448,192,48442,1,0,0:0:0:0:
320,192,48533,1,0,0:0:0:0:
64,192,48624,1,0,0:0:0:0:
192,192,48745,1,0,0:0:0:0:
448,192,48866,1,0,0:0:0:0:
64,192,48988,1,0,0:0:0:0:
320,192,49109,1,0,0:0:0:0:
448,192,49230,1,0,0:0:0:0:
64,192,49351,1,0,0:0:0:0:
192,192,49472,1,0,0:0:0:0:
448,192,49594,1,0,0:0:0:0:
192,192,49715,1,0,0:0:0:0:
64,192,49836,1,0,0:0:0:0:
320,192,49957,1,0,0:0:0:0:
448,192,50079,1,0,0:0:0:0:
320,192,50200,1,0,0:0:0:0:
192,192,50321,1,0,0:0:0:0:
448,192,50442,1,0,0:0:0:0:
320,192,50563,1,0,0:0:0:0:
64,192,50685,1,0,0:0:0:0:
320,192,50806,1,0,0:0:0:0:
64,192,50927,1,0,0:0:0:0:
192,192,51048,1,0,0:0:0:0:
320,192,51169,1,0,0:0:0:0:
192,192,51260,1,0,0:0:0:0:
320,192,51351,1,0,0:0:0:0:
448,192,51442,1,0,0:0:0:0:
64,192,51533,1,0,0:0:0:0:
192,192,51715,1,0,0:0:0:0:
320,192,51897,1,0,0:0:0:0:
448,192,52079,1,0,0:0:0:0:
448,192,52442,1,0,0:0:0:0:
320,192,52624,1,0,0:0:0:0:
192,192,52806,1,0,0:0:0:0:
192,192,52988,1,0,0:0:0:0:
448,192,53351,1,0,0:0:0:0:
64,192,53533,1,0,0:0:0:0:
192,192,54260,1,0,0:0:0:0:
320,192,54351,1,0,0:0:0:0:
64,192,54442,1,0,0:0:0:0:
192,192,54503,1,0,0:0:0:0:
320,192,54563,1,0,0:0:0:0:
448,192,54624,1,0,0:0:0:0:
320,192,54685,1,0,0:0:0:0:
192,192,54745,1,0,0:0:0:0:
64,192,54806,1,0,0:0:0:0:
448,192,54897,1,0,0:0:0:0:
192,192,54988,1,0,0:0:0:0:
448,192,55079,1,0,0:0:0:0:
64,192,55169,1,0,0:0:0:0:
320,192,55169,1,0,0:0:0:0:
64,192,55533,1,0,0:0:0:0:
320,192,55533,1,0,0:0:0:0:
64,192,55897,1,0,0:0:0:0:
320,192,55897,1,0,0:0:0:0:
320,192,56260,1,0,0:0:0:0:
448,192,56260,1,0,0:0:0:0:
64,192,56442,1,0,0:0:0:0:
192,192,56442,1,0,0:0:0:0:
448,192,56624,1,0,0:0:0:0:
192,192,56715,1,0,0:0:0:0:
320,192,56806,1,0,0:0:0:0:
192,192,56897,1,0,0:0:0:0:
320,192,56988,1,0,0:0:0:0:
64,192,57079,1,0,0:0:0:0:
448,192,57169,1,0,0:0:0:0:
192,192,57260,1,0,0:0:0:0:
320,192,57351,1,0,0:0:0:0:
64,192,57442,1,0,0:0:0:0:
192,192,57533,1,0,0:0:0:0:
448,192,57624,1,0,0:0:0:0:
320,192,57715,1,0,0:0:0:0:
192,192,57806,1,0,0:0:0:0:
448,192,57897,1,0,0:0:0:0:
192,192,57988,1,0,0:0:0:0:
64,192,58079,1,0,0:0:0:0:
192,192,58139,1,0,0:0:0:0:
320,192,58200,1,0,0:0:0:0:
448,192,58260,1,0,0:0:0:0:
320,192,58321,1,0,0:0:0:0:
192,192,58382,1,0,0:0:0:0:
64,192,58442,1,0,0:0:0:0:
192,192,58503,1,0,0:0:0:0:
448,192,58563,1,0,0:0:0:0:
320,192,58624,1,0,0:0:0:0:
64,192,58806,1,0,0:0:0:0:
320,192,58806,1,0,0:0:0:0:
320,192,59169,1,0,0:0:0:0:
448,192,59169,1,0,0:0:0:0:
64,192,59351,1,0,0:0:0:0:
192,192,59351,1,0,0:0:0:0:
192,192,60079,1,0,0:0:0:0:
320,192,60169,1,0,0:0:0:0:
192,192,60260,1,0,0:0:0:0:
64,192,60321,1,0,0:0:0:0:
320,192,60382,1,0,0:0:0:0:
448,192,60442,1,0,0:0:0:0:
64,192,60503,1,0,0:0:0:0:
192,192,60563,1,0,0:0:0:0:
320,192,60624,1,0,0:0:0:0:
192,192,60715,1,0,0:0:0:0:
448,192,60806,1,0,0:0:0:0:
320,192,60897,1,0,0:0:0:0:
64,192,60988,1,0,0:0:0:0:
192,192,60988,1,0,0:0:0:0:
64,192,61351,1,0,0:0:0:0:
192,192,61351,1,0,0:0:0:0:
64,192,61715,1,0,0:0:0:0:
192,192,61715,1,0,0:0:0:0:
192,192,62079,1,0,0:0:0:0:
448,192,62079,1,0,0:0:0:0:
64,192,62260,1,0,0:0:0:0:
320,192,62260,1,0,0:0:0:0:
192,192,62442,1,0,0:0:0:0:
448,192,62442,1,0,0:0:0:0:
64,192,62533,1,0,0:0:0:0:
320,192,62533,1,0,0:0:0:0:
192,192,62624,1,0,0:0:0:0:
448,192,62624,1,0,0:0:0:0:
320,192,62806,1,0,0:0:0:0:
448,192,62806,1,0,0:0:0:0:
64,192,62897,1,0,0:0:0:0:
192,192,62897,1,0,0:0:0:0:
320,192,62988,1,0,0:0:0:0:
64,192,63079,1,0,0:0:0:0:
448,192,63079,1,0,0:0:0:0:
192,192,63169,1,0,0:0:0:0:
320,192,63260,1,0,0:0:0:0:
64,192,63351,1,0,0:0:0:0:
448,192,63351,1,0,0:0:0:0:
192,192,63442,1,0,0:0:0:0:
320,192,63533,1,0,0:0:0:0:
448,192,63533,1,0,0:0:0:0:
192,192,63624,1,0,0:0:0:0:
64,192,63715,1,0,0:0:0:0:
320,192,63806,1,0,0:0:0:0:
64,192,63897,1,0,0:0:0:0:
448,192,63897,1,0,0:0:0:0:
320,192,63957,1,0,0:0:0:0:
192,192,64018,1,0,0:0:0:0:
448,192,64079,1,0,0:0:0:0:
320,192,64139,1,0,0:0:0:0:
192,192,64200,1,0,0:0:0:0:
64,192,64260,1,0,0:0:0:0:
448,192,64260,1,0,0:0:0:0:
192,192,64321,1,0,0:0:0:0:
320,192,64382,1,0,0:0:0:0:
64,192,64442,1,0,0:0:0:0:
192,192,64503,1,0,0:0:0:0:
320,192,64563,1,0,0:0:0:0:
448,192,64624,1,0,0:0:0:0:
192,0,64624,128,0,66806:1:0:0:0:
320,192,64806,1,0,0:0:0:0:
64,192,64988,1,0,0:0:0:0:
320,192,65169,1,0,0:0:0:0:
448,192,65351,1,0,0:0:0:0:
64,192,65624,1,0,0:0:0:0:
448,192,65897,1,0,0:0:0:0:
64,192,66260,1,0,0:0:0:0:
320,192,66442,1,0,0:0:0:0:
448,192,66624,1,0,0:0:0:0:
320,192,66806,1,0,0:0:0:0:
64,192,66988,1,0,0:0:0:0:
320,192,67079,1,0,0:0:0:0:
64,192,67169,1,0,0:0:0:0:
448,0,67169,128,0,67351:1:0:0:0:
192,192,67260,1,0,0:0:0:0:
448,192,67533,1,0,0:0:0:0:
320,0,67533,128,0,69715:1:0:0:0:
192,192,67715,1,0,0:0:0:0:
64,192,67897,1,0,0:0:0:0:
192,192,68079,1,0,0:0:0:0:
448,192,68260,1,0,0:0:0:0:
64,192,68533,1,0,0:0:0:0:
448,192,68806,1,0,0:0:0:0:
64,192,69169,1,0,0:0:0:0:
192,192,69351,1,0,0:0:0:0:
448,192,69533,1,0,0:0:0:0:
64,192,69715,1,0,0:0:0:0:
192,192,69897,1,0,0:0:0:0:
448,192,69988,1,0,0:0:0:0:
320,192,70079,1,0,0:0:0:0:
64,0,70079,128,0,70260:1:0:0:0:
192,192,70260,1,0,0:0:0:0:
320,192,70442,1,0,0:0:0:0:
448,0,70442,128,0,70624:1:0:0:0:
192,192,70624,1,0,0:0:0:0:
64,192,70806,1,0,0:0:0:0:
192,192,70988,1,0,0:0:0:0:
320,0,70988,128,0,71169:1:0:0:0:
448,192,71169,1,0,0:0:0:0:
64,192,71442,1,0,0:0:0:0:
192,0,71533,128,0,71715:1:0:0:0:
448,192,71715,1,0,0:0:0:0:
64,0,71897,128,0,72988:1:0:0:0:
448,192,72079,1,0,0:0:0:0:
320,192,72260,1,0,0:0:0:0:
192,192,72442,1,0,0:0:0:0:
448,192,72624,1,0,0:0:0:0:
320,192,72806,1,0,0:0:0:0:
192,192,72897,1,0,0:0:0:0:
448,192,72988,1,0,0:0:0:0:
192,192,73079,1,0,0:0:0:0:
320,192,73169,1,0,0:0:0:0:
448,192,73351,1,0,0:0:0:0:
192,0,73351,128,0,74988:1:0:0:0:
320,192,73533,1,0,0:0:0:0:
64,192,73715,1,0,0:0:0:0:
320,192,73897,1,0,0:0:0:0:
448,192,74079,1,0,0:0:0:0:
64,192,74351,1,0,0:0:0:0:
448,192,74624,1,0,0:0:0:0:
64,192,74988,1,0,0:0:0:0:
64,192,75169,1,0,0:0:0:0:
192,192,75260,1,0,0:0:0:0:
320,192,75351,1,0,0:0:0:0:
448,192,75442,1,0,0:0:0:0:
320,192,75533,1,0,0:0:0:0:
64,192,75624,1,0,0:0:0:0:
192,192,75715,1,0,0:0:0:0:
448,192,75806,1,0,0:0:0:0:
320,192,75897,1,0,0:0:0:0:
192,192,75988,1,0,0:0:0:0:
64,192,76079,1,0,0:0:0:0:
192,192,76260,1,0,0:0:0:0:
448,192,76260,1,0,0:0:0:0:
320,0,76260,128,0,76988:1:0:0:0:
64,192,76351,1,0,0:0:0:0:
448,192,76442,1,0,0:0:0:0:
64,192,76533,1,0,0:0:0:0:
448,192,76624,1,0,0:0:0:0:
64,192,76715,1,0,0:0:0:0:
448,192,76806,1,0,0:0:0:0:
192,192,76897,1,0,0:0:0:0:
448,192,76988,1,0,0:0:0:0:
64,192,77079,1,0,0:0:0:0:
320,192,77169,1,0,0:0:0:0:
192,192,77260,1,0,0:0:0:0:
448,192,77351,1,0,0:0:0:0:
192,192,77442,1,0,0:0:0:0:
320,192,77533,1,0,0:0:0:0:
64,192,77624,1,0,0:0:0:0:
320,192,77715,1,0,0:0:0:0:
192,192,77806,1,0,0:0:0:0:
448,192,77897,1,0,0:0:0:0:
64,192,77988,1,0,0:0:0:0:
448,192,78079,1,0,0:0:0:0:
192,192,78169,1,0,0:0:0:0:
320,192,78260,1,0,0:0:0:0:
192,192,78351,1,0,0:0:0:0:
320,192,78442,1,0,0:0:0:0:
64,192,78533,1,0,0:0:0:0:
192,192,78624,1,0,0:0:0:0:
320,192,78806,1,0,0:0:0:0:
448,0,78806,128,0,78988:1:0:0:0:
64,192,78897,1,0,0:0:0:0:
320,192,78988,1,0,0:0:0:0:
448,192,79169,1,0,0:0:0:0:
192,0,79169,128,0,79897:1:0:0:0:
64,192,79260,1,0,0:0:0:0:
448,192,79351,1,0,0:0:0:0:
320,192,79442,1,0,0:0:0:0:
448,192,79533,1,0,0:0:0:0:
64,192,79624,1,0,0:0:0:0:
320,192,79715,1,0,0:0:0:0:
64,192,79806,1,0,0:0:0:0:
448,192,79897,1,0,0:0:0:0:
64,192,79988,1,0,0:0:0:0:
448,192,80079,1,0,0:0:0:0:
192,192,80169,1,0,0:0:0:0:
320,192,80260,1,0,0:0:0:0:
64,192,80351,1,0,0:0:0:0:
320,192,80442,1,0,0:0:0:0:
192,192,80533,1,0,0:0:0:0:
320,192,80624,1,0,0:0:0:0:
448,0,80624,128,0,80806:1:0:0:0:
64,192,80715,1,0,0:0:0:0:
192,192,80806,1,0,0:0:0:0:
192,192,80988,1,0,0:0:0:0:
320,0,80988,128,0,81169:1:0:0:0:
64,192,81079,1,0,0:0:0:0:
448,192,81169,1,0,0:0:0:0:
64,192,81351,1,0,0:0:0:0:
192,0,81351,128,0,81533:1:0:0:0:
448,192,81533,1,0,0:0:0:0:
320,192,81624,1,0,0:0:0:0:
192,192,81715,1,0,0:0:0:0:
64,0,81715,128,0,81897:1:0:0:0:
320,192,81806,1,0,0:0:0:0:
448,192,81897,1,0,0:0:0:0:
448,192,82079,1,0,0:0:0:0:
320,0,82079,128,0,83169:1:0:0:0:
192,192,82260,1,0,0:0:0:0:
64,192,82442,1,0,0:0:0:0:
192,192,82624,1,0,0:0:0:0:
448,192,82806,1,0,0:0:0:0:
64,192,83079,1,0,0:0:0:0:
448,192,83351,1,0,0:0:0:0:
320,192,83533,1,0,0:0:0:0:
192,0,83533,128,0,83897:1:0:0:0:
448,192,83715,1,0,0:0:0:0:
320,192,83897,1,0,0:0:0:0:
192,192,84079,1,0,0:0:0:0:
64,0,84260,128,0,84442:1:0:0:0:
320,0,84260,128,0,84442:1:0:0:0:
64,0,84624,128,0,84806:1:0:0:0:
320,0,84624,128,0,84806:1:0:0:0:
192,192,84988,1,0,0:0:0:0:
448,0,84988,128,0,85715:1:0:0:0:
320,192,85533,1,0,0:0:0:0:
192,192,85624,1,0,0:0:0:0:
64,192,85715,1,0,0:0:0:0:
192,192,85806,1,0,0:0:0:0:
320,192,85897,1,0,0:0:0:0:
448,192,85988,1,0,0:0:0:0:
64,192,86079,1,0,0:0:0:0:
192,192,86169,1,0,0:0:0:0:
320,192,86260,1,0,0:0:0:0:
448,192,86351,1,0,0:0:0:0:
320,192,86442,1,0,0:0:0:0:
64,192,86533,1,0,0:0:0:0:
192,192,86624,1,0,0:0:0:0:
448,192,86715,1,0,0:0:0:0:
320,192,86806,1,0,0:0:0:0:
64,192,86897,1,0,0:0:0:0:
320,192,86988,1,0,0:0:0:0:
448,192,87079,1,0,0:0:0:0:
192,192,87169,1,0,0:0:0:0:
64,192,87260,1,0,0:0:0:0:
320,192,87351,1,0,0:0:0:0:
448,192,87442,1,0,0:0:0:0:
64,192,87533,1,0,0:0:0:0:
192,192,87624,1,0,0:0:0:0:
320,192,87715,1,0,0:0:0:0:
64,192,87897,1,0,0:0:0:0:
448,192,87897,1,0,0:0:0:0:
320,192,88079,1,0,0:0:0:0:
192,192,88260,1,0,0:0:0:0:
64,192,88442,1,0,0:0:0:0:
320,192,88624,1,0,0:0:0:0:
192,192,88897,1,0,0:0:0:0:
320,192,89169,1,0,0:0:0:0:
64,192,89533,1,0,0:0:0:0:
192,192,89715,1,0,0:0:0:0:
320,192,89897,1,0,0:0:0:0:
448,192,90079,1,0,0:0:0:0:
320,192,90260,1,0,0:0:0:0:
192,192,90351,1,0,0:0:0:0:
64,192,90442,1,0,0:0:0:0:
192,192,90533,1,0,0:0:0:0:
320,192,90760,1,0,0:0:0:0:
448,192,90806,1,0,0:0:0:0:
192,192,90988,1,0,0:0:0:0:
64,192,91169,1,0,0:0:0:0:
320,192,91351,1,0,0:0:0:0:
448,192,91533,1,0,0:0:0:0:
192,192,91806,1,0,0:0:0:0:
448,192,92078,1,0,0:0:0:0:
64,192,92442,1,0,0:0:0:0:
192,192,92624,1,0,0:0:0:0:
320,192,92806,1,0,0:0:0:0:
192,192,92988,1,0,0:0:0:0:
448,192,92988,1,0,0:0:0:0:
320,192,93169,1,0,0:0:0:0:
64,192,93260,1,0,0:0:0:0:
192,192,93351,1,0,0:0:0:0:
448,192,93351,1,0,0:0:0:0:
320,192,93533,1,0,0:0:0:0:
448,192,93533,1,0,0:0:0:0:
192,192,93897,1,0,0:0:0:0:
64,192,94078,1,0,0:0:0:0:
320,192,94260,1,0,0:0:0:0:
64,192,94442,1,0,0:0:0:0:
192,192,94715,1,0,0:0:0:0:
448,192,94988,1,0,0:0:0:0:
320,192,95351,1,0,0:0:0:0:
192,192,95533,1,0,0:0:0:0:
64,192,95715,1,0,0:0:0:0:
448,192,95897,1,0,0:0:0:0:
320,192,96078,1,0,0:0:0:0:
192,192,96169,1,0,0:0:0:0:
320,192,96260,1,0,0:0:0:0:
64,192,96351,1,0,0:0:0:0:
192,192,96442,1,0,0:0:0:0:
64,192,96624,1,0,0:0:0:0:
448,192,96624,1,0,0:0:0:0:
320,192,96806,1,0,0:0:0:0:
192,192,96988,1,0,0:0:0:0:
64,192,97169,1,0,0:0:0:0:
320,192,97351,1,0,0:0:0:0:
192,192,97624,1,0,0:0:0:0:
320,192,97897,1,0,0:0:0:0:
64,192,98260,1,0,0:0:0:0:
64,192,98442,1,0,0:0:0:0:
192,192,98624,1,0,0:0:0:0:
320,192,98806,1,0,0:0:0:0:
64,192,98897,1,0,0:0:0:0:
192,192,98988,1,0,0:0:0:0:
320,192,99078,1,0,0:0:0:0:
448,192,99169,1,0,0:0:0:0:
320,192,99260,1,0,0:0:0:0:
192,192,99351,1,0,0:0:0:0:
64,192,99533,1,0,0:0:0:0:
448,192,99533,1,0,0:0:0:0:
320,192,99715,1,0,0:0:0:0:
192,192,99897,1,0,0:0:0:0:
448,192,99897,1,0,0:0:0:0:
64,192,100078,1,0,0:0:0:0:
192,192,100260,1,0,0:0:0:0:
320,192,100260,1,0,0:0:0:0:
64,192,100533,1,0,0:0:0:0:
448,192,100806,1,0,0:0:0:0:
320,192,100988,1,0,0:0:0:0:
192,192,101169,1,0,0:0:0:0:
64,192,101351,1,0,0:0:0:0:
320,192,101351,1,0,0:0:0:0:
448,192,101533,1,0,0:0:0:0:
192,192,101715,1,0,0:0:0:0:
320,192,101715,1,0,0:0:0:0:
64,192,101897,1,0,0:0:0:0:
320,192,101988,1,0,0:0:0:0:
64,192,102078,1,0,0:0:0:0:
192,192,102078,1,0,0:0:0:0:
448,192,102169,1,0,0:0:0:0:
64,192,102397,1,0,0:0:0:0:
448,192,102442,1,0,0:0:0:0:
320,192,102624,1,0,0:0:0:0:
192,192,102806,1,0,0:0:0:0:
448,192,102806,1,0,0:0:0:0:
64,192,102988,1,0,0:0:0:0:
192,192,103169,1,0,0:0:0:0:
320,192,103169,1,0,0:0:0:0:
64,192,103442,1,0,0:0:0:0:
448,192,103715,1,0,0:0:0:0:
320,192,103897,1,0,0:0:0:0:
192,192,104078,1,0,0:0:0:0:
64,192,104260,1,0,0:0:0:0:
320,192,104260,1,0,0:0:0:0:
448,192,104442,1,0,0:0:0:0:
192,192,104624,1,0,0:0:0:0:
320,192,104624,1,0,0:0:0:0:
64,192,104806,1,0,0:0:0:0:
320,192,104897,1,0,0:0:0:0:
64,192,104988,1,0,0:0:0:0:
192,192,104988,1,0,0:0:0:0:
320,192,105169,1,0,0:0:0:0:
448,192,105169,1,0,0:0:0:0:
320,192,105533,1,0,0:0:0:0:
192,192,105715,1,0,0:0:0:0:
448,192,105715,1,0,0:0:0:0:
64,192,105897,1,0,0:0:0:0:
192,192,106078,1,0,0:0:0:0:
320,192,106078,1,0,0:0:0:0:
192,192,106351,1,0,0:0:0:0:
448,192,106351,1,0,0:0:0:0:
320,192,106624,1,0,0:0:0:0:
448,192,106624,1,0,0:0:0:0:
64,192,106806,1,0,0:0:0:0:
448,192,106988,1,0,0:0:0:0:
64,192,107169,1,0,0:0:0:0:
320,192,107169,1,0,0:0:0:0:
192,192,107351,1,0,0:0:0:0:
320,192,107533,1,0,0:0:0:0:
448,192,107533,1,0,0:0:0:0:
192,192,107715,1,0,0:0:0:0:
64,192,107806,1,0,0:0:0:0:
320,192,107897,1,0,0:0:0:0:
448,192,107897,1,0,0:0:0:0:
192,192,107988,1,0,0:0:0:0:
320,192,108078,1,0,0:0:0:0:
64,192,108260,1,0,0:0:0:0:
448,192,108260,1,0,0:0:0:0:
320,192,108442,1,0,0:0:0:0:
192,192,108624,1,0,0:0:0:0:
448,192,108624,1,0,0:0:0:0:
64,192,108806,1,0,0:0:0:0:
192,192,108988,1,0,0:0:0:0:
320,192,108988,1,0,0:0:0:0:
64,192,109260,1,0,0:0:0:0:
448,192,109533,1,0,0:0:0:0:
320,192,109715,1,0,0:0:0:0:
64,192,109897,1,0,0:0:0:0:
64,192,110078,1,0,0:0:0:0:
320,192,110078,1,0,0:0:0:0:
192,192,110260,1,0,0:0:0:0:
320,192,110442,1,0,0:0:0:0:
448,192,110442,1,0,0:0:0:0:
64,192,110533,1,0,0:0:0:0:
192,192,110624,1,0,0:0:0:0:
320,192,110715,1,0,0:0:0:0:
448,192,110806,1,0,0:0:0:0:
320,192,110897,1,0,0:0:0:0:
192,192,110988,1,0,0:0:0:0:
64,192,111169,1,0,0:0:0:0:
448,192,111169,1,0,0:0:0:0:
320,192,111351,1,0,0:0:0:0:
192,192,111533,1,0,0:0:0:0:
448,192,111533,1,0,0:0:0:0:
64,192,111715,1,0,0:0:0:0:
192,192,111897,1,0,0:0:0:0:
320,192,111897,1,0,0:0:0:0:
64,192,112169,1,0,0:0:0:0:
448,192,112442,1,0,0:0:0:0:
320,192,112624,1,0,0:0:0:0:
192,192,112806,1,0,0:0:0:0:
64,192,112988,1,0,0:0:0:0:
320,192,112988,1,0,0:0:0:0:
448,192,113169,1,0,0:0:0:0:
192,192,113351,1,0,0:0:0:0:
320,192,113351,1,0,0:0:0:0:
64,192,113533,1,0,0:0:0:0:
320,192,113624,1,0,0:0:0:0:
64,192,113715,1,0,0:0:0:0:
192,192,113715,1,0,0:0:0:0:
448,192,113806,1,0,0:0:0:0:
64,192,114033,1,0,0:0:0:0:
448,192,114078,1,0,0:0:0:0:
320,192,114260,1,0,0:0:0:0:
192,192,114442,1,0,0:0:0:0:
448,192,114442,1,0,0:0:0:0:
64,192,114624,1,0,0:0:0:0:
192,192,114806,1,0,0:0:0:0:
320,192,114806,1,0,0:0:0:0:
64,192,115078,1,0,0:0:0:0:
448,192,115351,1,0,0:0:0:0:
320,192,115533,1,0,0:0:0:0:
192,192,115715,1,0,0:0:0:0:
64,192,115897,1,0,0:0:0:0:
320,192,115897,1,0,0:0:0:0:
448,192,116078,1,0,0:0:0:0:
192,192,116260,1,0,0:0:0:0:
320,192,116260,1,0,0:0:0:0:
64,192,116442,1,0,0:0:0:0:
320,192,116533,1,0,0:0:0:0:
64,192,116624,1,0,0:0:0:0:
192,192,116624,1,0,0:0:0:0:
320,192,116806,1,0,0:0:0:0:
448,192,116806,1,0,0:0:0:0:
320,192,117169,1,0,0:0:0:0:
192,192,117351,1,0,0:0:0:0:
448,192,117351,1,0,0:0:0:0:
64,192,117533,1,0,0:0:0:0:
192,192,117715,1,0,0:0:0:0:
320,192,117715,1,0,0:0:0:0:
192,192,117988,1,0,0:0:0:0:
448,192,117988,1,0,0:0:0:0:
320,192,118260,1,0,0:0:0:0:
448,192,118260,1,0,0:0:0:0:
64,192,118442,1,0,0:0:0:0:
448,192,118624,1,0,0:0:0:0:
64,192,118806,1,0,0:0:0:0:
320,192,118806,1,0,0:0:0:0:
192,192,118988,1,0,0:0:0:0:
320,192,119169,1,0,0:0:0:0:
448,192,119169,1,0,0:0:0:0:
192,192,119351,1,0,0:0:0:0:
64,192,119442,1,0,0:0:0:0:
320,192,119533,1,0,0:0:0:0:
448,192,119533,1,0,0:0:0:0:
192,192,119624,1,0,0:0:0:0:
320,192,119715,1,0,0:0:0:0:
64,192,119897,1,0,0:0:0:0:
448,192,119897,1,0,0:0:0:0:
320,192,120078,1,0,0:0:0:0:
192,192,120260,1,0,0:0:0:0:
448,192,120260,1,0,0:0:0:0:
64,192,120442,1,0,0:0:0:0:
192,192,120624,1,0,0:0:0:0:
320,192,120624,1,0,0:0:0:0:
64,192,120897,1,0,0:0:0:0:
448,192,121169,1,0,0:0:0:0:
320,192,121351,1,0,0:0:0:0:
64,192,121533,1,0,0:0:0:0:
64,192,121715,1,0,0:0:0:0:
320,192,121715,1,0,0:0:0:0:
192,192,121897,1,0,0:0:0:0:
192,0,122078,128,0,122260:1:0:0:0:
448,0,122078,128,0,122260:1:0:0:0:
192,0,122442,128,0,122624:1:0:0:0:
448,0,122442,128,0,122624:1:0:0:0:
192,192,122805,1,0,0:0:0:0:
448,192,122805,1,0,0:0:0:0:
320,0,122805,128,0,123533:1:0:0:0:
64,192,122896,1,0,0:0:0:0:
448,192,122987,1,0,0:0:0:0:
64,192,123078,1,0,0:0:0:0:
448,192,123169,1,0,0:0:0:0:
64,192,123260,1,0,0:0:0:0:
448,192,123351,1,0,0:0:0:0:
192,192,123442,1,0,0:0:0:0:
448,192,123533,1,0,0:0:0:0:
64,192,123624,1,0,0:0:0:0:
320,192,123714,1,0,0:0:0:0:
192,192,123805,1,0,0:0:0:0:
448,192,123896,1,0,0:0:0:0:
192,192,123987,1,0,0:0:0:0:
320,192,124078,1,0,0:0:0:0:
64,192,124169,1,0,0:0:0:0:
320,192,124260,1,0,0:0:0:0:
192,192,124351,1,0,0:0:0:0:
448,192,124442,1,0,0:0:0:0:
64,192,124533,1,0,0:0:0:0:
448,192,124624,1,0,0:0:0:0:
192,192,124714,1,0,0:0:0:0:
320,192,124805,1,0,0:0:0:0:
192,192,124896,1,0,0:0:0:0:
320,192,124987,1,0,0:0:0:0:
64,192,125078,1,0,0:0:0:0:
192,192,125169,1,0,0:0:0:0:
320,192,125351,1,0,0:0:0:0:
448,0,125351,128,0,125533:1:0:0:0:
64,192,125442,1,0,0:0:0:0:
320,192,125533,1,0,0:0:0:0:
448,192,125714,1,0,0:0:0:0:
192,0,125714,128,0,126442:1:0:0:0:
64,192,125805,1,0,0:0:0:0:
448,192,125896,1,0,0:0:0:0:
320,192,125987,1,0,0:0:0:0:
448,192,126078,1,0,0:0:0:0:
64,192,126169,1,0,0:0:0:0:
320,192,126260,1,0,0:0:0:0:
64,192,126351,1,0,0:0:0:0:
448,192,126442,1,0,0:0:0:0:
64,192,126533,1,0,0:0:0:0:
448,192,126624,1,0,0:0:0:0:
192,192,126714,1,0,0:0:0:0:
320,192,126805,1,0,0:0:0:0:
64,192,126896,1,0,0:0:0:0:
320,192,126987,1,0,0:0:0:0:
192,192,127078,1,0,0:0:0:0:
320,192,127169,1,0,0:0:0:0:
448,0,127169,128,0,127351:1:0:0:0:
64,192,127260,1,0,0:0:0:0:
192,192,127351,1,0,0:0:0:0:
192,192,127533,1,0,0:0:0:0:
320,0,127533,128,0,127714:1:0:0:0:
64,192,127624,1,0,0:0:0:0:
448,192,127714,1,0,0:0:0:0:
64,192,127896,1,0,0:0:0:0:
192,0,127896,128,0,128078:1:0:0:0:
448,192,128078,1,0,0:0:0:0:
320,192,128169,1,0,0:0:0:0:
192,192,128260,1,0,0:0:0:0:
64,0,128260,128,0,128442:1:0:0:0:
320,192,128351,1,0,0:0:0:0:
448,192,128442,1,0,0:0:0:0:
320,192,128624,1,0,0:0:0:0:
448,0,128624,128,0,128987:1:0:0:0:
192,192,128805,1,0,0:0:0:0:
64,192,128987,1,0,0:0:0:0:
192,192,129169,1,0,0:0:0:0:
320,0,129169,128,0,129533:1:0:0:0:
448,192,129351,1,0,0:0:0:0:
64,192,129624,1,0,0:0:0:0:
192,0,129714,128,0,129896:1:0:0:0:
448,192,129896,1,0,0:0:0:0:
320,192,130078,1,0,0:0:0:0:
64,0,130078,128,0,130805:1:0:0:0:
448,192,130260,1,0,0:0:0:0:
192,192,130442,1,0,0:0:0:0:
320,192,130624,1,0,0:0:0:0:
192,192,130805,1,0,0:0:0:0:
448,192,130805,1,0,0:0:0:0:
320,192,130896,1,0,0:0:0:0:
64,192,130987,1,0,0:0:0:0:
320,192,131078,1,0,0:0:0:0:
192,192,131169,1,0,0:0:0:0:
448,192,131169,1,0,0:0:0:0:
320,192,131260,1,0,0:0:0:0:
64,192,131351,1,0,0:0:0:0:
192,192,131533,1,0,0:0:0:0:
448,0,131533,128,0,132260:1:0:0:0:
320,192,131714,1,0,0:0:0:0:
64,192,131896,1,0,0:0:0:0:
320,192,132078,1,0,0:0:0:0:
192,192,132169,1,0,0:0:0:0:
64,192,132260,1,0,0:0:0:0:
192,192,132351,1,0,0:0:0:0:
320,192,132442,1,0,0:0:0:0:
448,192,132533,1,0,0:0:0:0:
64,192,132624,1,0,0:0:0:0:
192,192,132714,1,0,0:0:0:0:
320,192,132805,1,0,0:0:0:0:
448,192,132896,1,0,0:0:0:0:
320,192,132987,1,0,0:0:0:0:
64,192,133078,1,0,0:0:0:0:
192,192,133169,1,0,0:0:0:0:
448,192,133260,1,0,0:0:0:0:
320,192,133351,1,0,0:0:0:0:
64,192,133442,1,0,0:0:0:0:
320,192,133533,1,0,0:0:0:0:
448,192,133624,1,0,0:0:0:0:
192,192,133714,1,0,0:0:0:0:
64,192,133805,1,0,0:0:0:0:
320,192,133896,1,0,0:0:0:0:
448,192,133987,1,0,0:0:0:0:
64,192,134078,1,0,0:0:0:0:
192,192,134169,1,0,0:0:0:0:
320,192,134260,1,0,0:0:0:0:
192,192,134442,1,0,0:0:0:0:
448,192,134442,1,0,0:0:0:0:
320,0,134442,128,0,135169:1:0:0:0:
64,192,134533,1,0,0:0:0:0:
448,192,134624,1,0,0:0:0:0:
64,192,134714,1,0,0:0:0:0:
192,192,134805,1,0,0:0:0:0:
448,192,134805,1,0,0:0:0:0:
64,192,134896,1,0,0:0:0:0:
448,192,134987,1,0,0:0:0:0:
192,192,135078,1,0,0:0:0:0:
64,192,135169,1,0,0:0:0:0:
448,192,135169,1,0,0:0:0:0:
192,192,135260,1,0,0:0:0:0:
320,192,135351,1,0,0:0:0:0:
64,192,135442,1,0,0:0:0:0:
320,192,135533,1,0,0:0:0:0:
448,192,135533,1,0,0:0:0:0:
192,192,135624,1,0,0:0:0:0:
320,192,135714,1,0,0:0:0:0:
64,192,135805,1,0,0:0:0:0:
192,192,135896,1,0,0:0:0:0:
448,192,135896,1,0,0:0:0:0:
320,192,135987,1,0,0:0:0:0:
448,192,136078,1,0,0:0:0:0:
192,192,136169,1,0,0:0:0:0:
64,192,136260,1,0,0:0:0:0:
448,192,136260,1,0,0:0:0:0:
192,192,136351,1,0,0:0:0:0:
320,192,136442,1,0,0:0:0:0:
192,192,136533,1,0,0:0:0:0:
320,192,136624,1,0,0:0:0:0:
448,192,136624,1,0,0:0:0:0:
64,192,136714,1,0,0:0:0:0:
192,192,136805,1,0,0:0:0:0:
192,192,136987,1,0,0:0:0:0:
320,192,136987,1,0,0:0:0:0:
448,0,136987,128,0,137169:1:0:0:0:
64,192,137078,1,0,0:0:0:0:
320,192,137169,1,0,0:0:0:0:
320,192,137351,1,0,0:0:0:0:
448,192,137351,1,0,0:0:0:0:
192,0,137351,128,0,138078:1:0:0:0:
64,192,137442,1,0,0:0:0:0:
448,192,137533,1,0,0:0:0:0:
64,192,137624,1,0,0:0:0:0:
320,192,137714,1,0,0:0:0:0:
448,192,137714,1,0,0:0:0:0:
64,192,137805,1,0,0:0:0:0:
320,192,137896,1,0,0:0:0:0:
64,192,137987,1,0,0:0:0:0:
320,192,138078,1,0,0:0:0:0:
448,192,138078,1,0,0:0:0:0:
64,192,138169,1,0,0:0:0:0:
448,192,138260,1,0,0:0:0:0:
192,192,138351,1,0,0:0:0:0:
64,192,138442,1,0,0:0:0:0:
320,192,138442,1,0,0:0:0:0:
192,192,138533,1,0,0:0:0:0:
320,192,138624,1,0,0:0:0:0:
192,192,138714,1,0,0:0:0:0:
320,192,138805,1,0,0:0:0:0:
448,0,138805,128,0,138987:1:0:0:0:
64,192,138896,1,0,0:0:0:0:
192,192,138987,1,0,0:0:0:0:
192,192,139169,1,0,0:0:0:0:
320,0,139169,128,0,139351:1:0:0:0:
64,192,139260,1,0,0:0:0:0:
448,192,139351,1,0,0:0:0:0:
64,192,139533,1,0,0:0:0:0:
192,0,139533,128,0,139714:1:0:0:0:
448,192,139714,1,0,0:0:0:0:
320,192,139805,1,0,0:0:0:0:
192,192,139896,1,0,0:0:0:0:
64,0,139896,128,0,140078:1:0:0:0:
320,192,139987,1,0,0:0:0:0:
448,192,140078,1,0,0:0:0:0:
64,192,140260,1,0,0:0:0:0:
448,192,140260,1,0,0:0:0:0:
320,0,140260,128,0,141351:1:0:0:0:
192,192,140351,1,0,0:0:0:0:
448,192,140442,1,0,0:0:0:0:
192,192,140533,1,0,0:0:0:0:
64,192,140624,1,0,0:0:0:0:
448,192,140714,1,0,0:0:0:0:
64,192,140805,1,0,0:0:0:0:
448,192,140896,1,0,0:0:0:0:
192,192,140987,1,0,0:0:0:0:
64,192,141078,1,0,0:0:0:0:
192,192,141169,1,0,0:0:0:0:
64,192,141260,1,0,0:0:0:0:
448,192,141351,1,0,0:0:0:0:
192,192,141442,1,0,0:0:0:0:
64,192,141533,1,0,0:0:0:0:
320,192,141624,1,0,0:0:0:0:
448,192,141714,1,0,0:0:0:0:
192,0,141714,128,0,142078:1:0:0:0:
64,192,141805,1,0,0:0:0:0:
320,192,141896,1,0,0:0:0:0:
64,192,141987,1,0,0:0:0:0:
448,192,142078,1,0,0:0:0:0:
192,192,142169,1,0,0:0:0:0:
320,192,142260,1,0,0:0:0:0:
64,192,142351,1,0,0:0:0:0:
192,192,142442,1,0,0:0:0:0:
448,192,142442,1,0,0:0:0:0:
320,192,142533,1,0,0:0:0:0:
64,192,142624,1,0,0:0:0:0:
320,192,142714,1,0,0:0:0:0:
192,192,142805,1,0,0:0:0:0:
448,192,142805,1,0,0:0:0:0:
320,192,142896,1,0,0:0:0:0:
64,192,142987,1,0,0:0:0:0:
192,192,143169,1,0,0:0:0:0:
320,192,143169,1,0,0:0:0:0:
448,0,143169,128,0,143896:1:0:0:0:
64,192,143260,1,0,0:0:0:0:
320,192,143351,1,0,0:0:0:0:
192,192,143442,1,0,0:0:0:0:
64,192,143533,1,0,0:0:0:0:
192,192,143624,1,0,0:0:0:0:
320,192,143714,1,0,0:0:0:0:
192,192,143805,1,0,0:0:0:0:
64,192,143896,1,0,0:0:0:0:
320,192,143896,1,0,0:0:0:0:
192,192,143987,1,0,0:0:0:0:
320,192,144078,1,0,0:0:0:0:
448,192,144169,1,0,0:0:0:0:
64,192,144260,1,0,0:0:0:0:
320,192,144260,1,0,0:0:0:0:
192,192,144351,1,0,0:0:0:0:
320,192,144442,1,0,0:0:0:0:
448,192,144533,1,0,0:0:0:0:
192,192,144624,1,0,0:0:0:0:
320,192,144624,1,0,0:0:0:0:
64,192,144714,1,0,0:0:0:0:
192,192,144805,1,0,0:0:0:0:
448,192,144896,1,0,0:0:0:0:
64,192,144987,1,0,0:0:0:0:
320,192,144987,1,0,0:0:0:0:
192,192,145078,1,0,0:0:0:0:
320,192,145169,1,0,0:0:0:0:
64,192,145260,1,0,0:0:0:0:
192,192,145351,1,0,0:0:0:0:
448,192,145351,1,0,0:0:0:0:
320,192,145442,1,0,0:0:0:0:
64,192,145533,1,0,0:0:0:0:
320,192,145624,1,0,0:0:0:0:
64,192,145714,1,0,0:0:0:0:
448,192,145714,1,0,0:0:0:0:
192,192,145805,1,0,0:0:0:0:
64,192,145896,1,0,0:0:0:0:
320,192,145896,1,0,0:0:0:0:
448,192,145896,1,0,0:0:0:0:
