osu file format v14

[General]
AudioFilename: Rakugakisto.mp3
AudioLeadIn: 2
PreviewTime: 98080
Countdown: 0
SampleSet: None
StackLeniency: 0.7
Mode: 3
LetterboxInBreaks: 0
SpecialStyle: 0
WidescreenStoryboard: 0

[Editor]
DistanceSpacing: 0.8
BeatDivisor: 4
GridSize: 8
TimelineZoom: 2.6

[Metadata]
Title:dakemoto's Collection Pack Vol.1
TitleUnicode:dakemoto's Collection Pack Vol.1
Artist:Various Artist
ArtistUnicode:Various Artist
Creator:dakemoto
Version:Rakugakisto (Challenge)
Source:Stepmania
Tags:
BeatmapID:741049
BeatmapSetID:329410

[Difficulty]
HPDrainRate:7
CircleSize:4
OverallDifficulty:8
ApproachRate:10
SliderMultiplier:1.4
SliderTickRate:1

[Events]
//Background and Video events
0,0,"Rakugakisto bg.jpg",0,0
//Break Periods
//Storyboard Layer 0 (Background)
//Storyboard Layer 1 (Fail)
//Storyboard Layer 2 (Pass)
//Storyboard Layer 3 (Foreground)
//Storyboard Sound Samples

[TimingPoints]
435,301.506,4,2,0,15,1,0

[HitObjects]
64,192,1641,5,0,0:0:0:0:
320,192,1641,1,0,0:0:0:0:
448,192,1641,1,0,0:0:0:0:
320,192,1791,1,0,0:0:0:0:
448,192,1791,1,0,0:0:0:0:
64,192,2394,1,0,0:0:0:0:
192,192,2545,1,0,0:0:0:0:
320,192,2545,1,0,0:0:0:0:
448,192,2696,1,0,0:0:0:0:
64,192,2847,1,0,0:0:0:0:
320,192,2847,1,0,0:0:0:0:
192,192,3299,1,0,0:0:0:0:
64,192,3600,1,0,0:0:0:0:
192,192,3751,1,0,0:0:0:0:
320,192,3751,1,0,0:0:0:0:
448,192,3902,1,0,0:0:0:0:
64,192,4053,1,0,0:0:0:0:
320,192,4053,1,0,0:0:0:0:
64,192,4203,1,0,0:0:0:0:
320,192,4203,1,0,0:0:0:0:
320,192,4806,1,0,0:0:0:0:
448,192,4806,1,0,0:0:0:0:
192,192,4957,1,0,0:0:0:0:
64,192,5108,1,0,0:0:0:0:
320,192,5259,1,0,0:0:0:0:
448,192,5259,1,0,0:0:0:0:
192,192,5409,1,0,0:0:0:0:
64,192,5560,1,0,0:0:0:0:
192,192,5711,1,0,0:0:0:0:
448,192,5711,1,0,0:0:0:0:
320,192,5862,1,0,0:0:0:0:
64,192,6012,1,0,0:0:0:0:
192,192,6163,1,0,0:0:0:0:
320,192,6163,1,0,0:0:0:0:
64,192,6314,1,0,0:0:0:0:
192,192,6465,1,0,0:0:0:0:
448,192,6465,1,0,0:0:0:0:
192,192,6615,1,0,0:0:0:0:
448,192,6615,1,0,0:0:0:0:
64,192,7218,1,0,0:0:0:0:
320,192,7218,1,0,0:0:0:0:
192,192,7369,1,0,0:0:0:0:
320,192,7520,1,0,0:0:0:0:
64,192,7671,1,0,0:0:0:0:
448,192,7671,1,0,0:0:0:0:
64,192,7821,1,0,0:0:0:0:
448,192,7821,1,0,0:0:0:0:
192,192,8424,1,0,0:0:0:0:
448,192,8575,1,0,0:0:0:0:
64,192,8726,1,0,0:0:0:0:
192,192,8877,1,0,0:0:0:0:
320,192,8877,1,0,0:0:0:0:
192,192,9027,1,0,0:0:0:0:
320,192,9027,1,0,0:0:0:0:
192,192,9630,1,0,0:0:0:0:
448,192,9781,1,0,0:0:0:0:
64,192,9932,1,0,0:0:0:0:
320,192,10083,1,0,0:0:0:0:
448,192,10083,1,0,0:0:0:0:
192,192,10158,1,0,0:0:0:0:
320,192,10233,1,0,0:0:0:0:
64,192,10309,1,0,0:0:0:0:
448,192,10384,1,0,0:0:0:0:
192,192,10460,1,0,0:0:0:0:
320,192,10535,1,0,0:0:0:0:
64,192,10610,1,0,0:0:0:0:
448,192,10686,1,0,0:0:0:0:
320,192,10723,1,0,0:0:0:0:
192,192,10761,1,0,0:0:0:0:
64,192,10799,1,0,0:0:0:0:
448,192,10836,1,0,0:0:0:0:
320,192,10874,1,0,0:0:0:0:
192,192,10912,1,0,0:0:0:0:
64,192,10950,1,0,0:0:0:0:
448,192,10987,1,0,0:0:0:0:
320,192,11025,1,0,0:0:0:0:
192,192,11063,1,0,0:0:0:0:
64,192,11100,1,0,0:0:0:0:
448,192,11138,1,0,0:0:0:0:
320,192,11176,1,0,0:0:0:0:
192,192,11213,1,0,0:0:0:0:
64,192,11251,1,0,0:0:0:0:
320,192,11289,1,0,0:0:0:0:
448,192,11289,1,0,0:0:0:0:
192,192,11364,1,0,0:0:0:0:
64,192,11439,1,0,0:0:0:0:
448,192,11439,1,0,0:0:0:0:
192,192,11515,1,0,0:0:0:0:
320,192,11590,1,0,0:0:0:0:
448,192,11590,1,0,0:0:0:0:
64,192,11666,1,0,0:0:0:0:
320,192,11741,1,0,0:0:0:0:
448,192,11741,1,0,0:0:0:0:
64,192,11816,1,0,0:0:0:0:
192,192,11816,1,0,0:0:0:0:
320,192,11892,1,0,0:0:0:0:
448,192,11892,1,0,0:0:0:0:
64,192,11967,1,0,0:0:0:0:
192,192,12042,1,0,0:0:0:0:
448,192,12118,1,0,0:0:0:0:
64,192,12193,1,0,0:0:0:0:
320,192,12193,1,0,0:0:0:0:
448,192,12269,1,0,0:0:0:0:
192,192,12344,1,0,0:0:0:0:
320,192,12344,1,0,0:0:0:0:
64,192,12419,1,0,0:0:0:0:
320,192,12495,1,0,0:0:0:0:
448,192,12495,1,0,0:0:0:0:
64,192,12570,1,0,0:0:0:0:
320,192,12645,1,0,0:0:0:0:
192,192,12721,1,0,0:0:0:0:
64,192,12796,1,0,0:0:0:0:
448,192,12796,1,0,0:0:0:0:
320,192,12872,1,0,0:0:0:0:
64,192,12947,1,0,0:0:0:0:
192,192,13022,1,0,0:0:0:0:
448,192,13022,1,0,0:0:0:0:
64,192,13098,1,0,0:0:0:0:
320,192,13098,1,0,0:0:0:0:
192,192,13173,1,0,0:0:0:0:
448,192,13249,1,0,0:0:0:0:
320,192,13324,1,0,0:0:0:0:
64,192,13399,1,0,0:0:0:0:
192,192,13399,1,0,0:0:0:0:
448,192,13475,1,0,0:0:0:0:
64,192,13550,1,0,0:0:0:0:
192,192,13550,1,0,0:0:0:0:
320,192,13625,1,0,0:0:0:0:
64,192,13701,1,0,0:0:0:0:
448,192,13701,1,0,0:0:0:0:
192,192,13776,1,0,0:0:0:0:
448,192,13852,1,0,0:0:0:0:
192,192,13927,1,0,0:0:0:0:
64,192,14002,1,0,0:0:0:0:
320,192,14002,1,0,0:0:0:0:
448,192,14078,1,0,0:0:0:0:
64,192,14153,1,0,0:0:0:0:
192,192,14153,1,0,0:0:0:0:
320,192,14228,1,0,0:0:0:0:
64,192,14304,1,0,0:0:0:0:
448,192,14304,1,0,0:0:0:0:
192,192,14379,1,0,0:0:0:0:
320,192,14455,1,0,0:0:0:0:
64,192,14530,1,0,0:0:0:0:
192,192,14605,1,0,0:0:0:0:
448,192,14605,1,0,0:0:0:0:
64,192,14681,1,0,0:0:0:0:
192,192,14756,1,0,0:0:0:0:
320,192,14756,1,0,0:0:0:0:
448,192,14831,1,0,0:0:0:0:
64,192,14907,1,0,0:0:0:0:
320,192,14907,1,0,0:0:0:0:
192,192,14982,1,0,0:0:0:0:
320,192,15058,1,0,0:0:0:0:
192,192,15133,1,0,0:0:0:0:
320,192,15208,1,0,0:0:0:0:
448,192,15208,1,0,0:0:0:0:
64,192,15284,1,0,0:0:0:0:
320,192,15359,1,0,0:0:0:0:
64,192,15434,1,0,0:0:0:0:
320,192,15510,1,0,0:0:0:0:
448,192,15510,1,0,0:0:0:0:
64,192,15585,1,0,0:0:0:0:
192,192,15585,1,0,0:0:0:0:
320,192,15661,1,0,0:0:0:0:
448,192,15661,1,0,0:0:0:0:
192,192,15736,1,0,0:0:0:0:
320,192,15811,1,0,0:0:0:0:
448,192,15811,1,0,0:0:0:0:
64,192,15887,1,0,0:0:0:0:
192,192,15887,1,0,0:0:0:0:
320,192,15962,1,0,0:0:0:0:
448,192,15962,1,0,0:0:0:0:
64,192,16037,1,0,0:0:0:0:
192,192,16113,1,0,0:0:0:0:
320,192,16113,1,0,0:0:0:0:
448,192,16113,1,0,0:0:0:0:
64,192,16188,1,0,0:0:0:0:
320,192,16264,1,0,0:0:0:0:
192,192,16339,1,0,0:0:0:0:
64,192,16414,1,0,0:0:0:0:
448,192,16414,1,0,0:0:0:0:
320,192,16490,1,0,0:0:0:0:
64,192,16565,1,0,0:0:0:0:
192,192,16565,1,0,0:0:0:0:
448,192,16565,1,0,0:0:0:0:
320,192,16640,1,0,0:0:0:0:
64,192,16716,1,0,0:0:0:0:
192,192,16716,1,0,0:0:0:0:
448,192,16716,1,0,0:0:0:0:
320,192,16791,1,0,0:0:0:0:
192,192,16867,1,0,0:0:0:0:
64,192,16942,1,0,0:0:0:0:
192,192,17017,1,0,0:0:0:0:
320,192,17017,1,0,0:0:0:0:
64,192,17093,1,0,0:0:0:0:
192,192,17168,1,0,0:0:0:0:
448,192,17168,1,0,0:0:0:0:
64,192,17243,1,0,0:0:0:0:
192,192,17319,1,0,0:0:0:0:
320,192,17319,1,0,0:0:0:0:
448,192,17319,1,0,0:0:0:0:
64,192,17394,1,0,0:0:0:0:
320,192,17470,1,0,0:0:0:0:
192,192,17545,1,0,0:0:0:0:
64,192,17620,1,0,0:0:0:0:
320,192,17620,1,0,0:0:0:0:
448,192,17620,1,0,0:0:0:0:
192,192,17696,1,0,0:0:0:0:
448,192,17771,1,0,0:0:0:0:
64,192,17846,1,0,0:0:0:0:
320,192,17846,1,0,0:0:0:0:
192,192,17922,1,0,0:0:0:0:
448,192,17922,1,0,0:0:0:0:
320,192,17997,1,0,0:0:0:0:
448,192,18073,1,0,0:0:0:0:
192,192,18148,1,0,0:0:0:0:
64,192,18223,1,0,0:0:0:0:
320,192,18223,1,0,0:0:0:0:
448,192,18223,1,0,0:0:0:0:
192,192,18299,1,0,0:0:0:0:
320,192,18374,1,0,0:0:0:0:
192,192,18449,1,0,0:0:0:0:
64,192,18525,1,0,0:0:0:0:
320,192,18525,1,0,0:0:0:0:
448,192,18525,1,0,0:0:0:0:
192,192,18600,1,0,0:0:0:0:
448,192,18676,1,0,0:0:0:0:
320,192,18751,1,0,0:0:0:0:
64,192,18826,1,0,0:0:0:0:
192,192,18826,1,0,0:0:0:0:
320,192,18902,1,0,0:0:0:0:
64,192,18977,1,0,0:0:0:0:
448,192,18977,1,0,0:0:0:0:
192,192,19052,1,0,0:0:0:0:
320,192,19052,1,0,0:0:0:0:
64,192,19128,1,0,0:0:0:0:
448,192,19128,1,0,0:0:0:0:
192,192,19203,1,0,0:0:0:0:
320,192,19279,1,0,0:0:0:0:
448,192,19279,1,0,0:0:0:0:
192,192,19354,1,0,0:0:0:0:
64,192,19429,1,0,0:0:0:0:
448,192,19429,1,0,0:0:0:0:
192,192,19505,1,0,0:0:0:0:
320,192,19580,1,0,0:0:0:0:
448,192,19580,1,0,0:0:0:0:
64,192,19656,1,0,0:0:0:0:
192,192,19731,1,0,0:0:0:0:
448,192,19731,1,0,0:0:0:0:
320,192,19806,1,0,0:0:0:0:
64,192,19882,1,0,0:0:0:0:
320,192,19957,1,0,0:0:0:0:
192,192,20032,1,0,0:0:0:0:
448,192,20032,1,0,0:0:0:0:
64,192,20108,1,0,0:0:0:0:
320,192,20183,1,0,0:0:0:0:
192,192,20259,1,0,0:0:0:0:
64,192,20334,1,0,0:0:0:0:
320,192,20334,1,0,0:0:0:0:
448,192,20334,1,0,0:0:0:0:
64,192,20409,1,0,0:0:0:0:
192,192,20409,1,0,0:0:0:0:
320,192,20485,1,0,0:0:0:0:
448,192,20485,1,0,0:0:0:0:
192,192,20560,1,0,0:0:0:0:
64,192,20635,1,0,0:0:0:0:
448,192,20635,1,0,0:0:0:0:
320,192,20711,1,0,0:0:0:0:
192,192,20786,1,0,0:0:0:0:
64,192,20862,1,0,0:0:0:0:
320,192,20937,1,0,0:0:0:0:
448,192,20937,1,0,0:0:0:0:
64,192,21012,1,0,0:0:0:0:
320,192,21088,1,0,0:0:0:0:
448,192,21088,1,0,0:0:0:0:
64,192,21163,1,0,0:0:0:0:
192,192,21163,1,0,0:0:0:0:
320,192,21238,1,0,0:0:0:0:
448,192,21238,1,0,0:0:0:0:
192,192,21314,1,0,0:0:0:0:
320,192,21389,1,0,0:0:0:0:
448,192,21389,1,0,0:0:0:0:
64,192,21465,1,0,0:0:0:0:
192,192,21540,1,0,0:0:0:0:
448,192,21540,1,0,0:0:0:0:
320,192,21615,1,0,0:0:0:0:
192,192,21691,1,0,0:0:0:0:
64,192,21766,1,0,0:0:0:0:
320,192,21841,1,0,0:0:0:0:
448,192,21841,1,0,0:0:0:0:
192,192,21917,1,0,0:0:0:0:
64,192,21992,1,0,0:0:0:0:
448,192,21992,1,0,0:0:0:0:
192,192,22068,1,0,0:0:0:0:
320,192,22143,1,0,0:0:0:0:
448,192,22143,1,0,0:0:0:0:
192,192,22218,1,0,0:0:0:0:
448,192,22294,1,0,0:0:0:0:
192,192,22369,1,0,0:0:0:0:
64,192,22444,1,0,0:0:0:0:
448,192,22444,1,0,0:0:0:0:
320,192,22520,1,0,0:0:0:0:
64,192,22595,1,0,0:0:0:0:
320,192,22671,1,0,0:0:0:0:
448,192,22671,1,0,0:0:0:0:
64,192,22746,1,0,0:0:0:0:
192,192,22746,1,0,0:0:0:0:
448,192,22821,1,0,0:0:0:0:
64,192,22897,1,0,0:0:0:0:
192,192,22972,1,0,0:0:0:0:
320,192,23047,1,0,0:0:0:0:
448,192,23047,1,0,0:0:0:0:
192,192,23123,1,0,0:0:0:0:
64,192,23198,1,0,0:0:0:0:
320,192,23198,1,0,0:0:0:0:
448,192,23274,1,0,0:0:0:0:
64,192,23349,1,0,0:0:0:0:
320,192,23349,1,0,0:0:0:0:
192,192,23424,1,0,0:0:0:0:
64,192,23500,1,0,0:0:0:0:
320,192,23575,1,0,0:0:0:0:
64,192,23650,1,0,0:0:0:0:
192,192,23650,1,0,0:0:0:0:
448,192,23726,1,0,0:0:0:0:
64,192,23801,1,0,0:0:0:0:
320,192,23801,1,0,0:0:0:0:
192,192,23877,1,0,0:0:0:0:
320,192,23952,1,0,0:0:0:0:
448,192,23952,1,0,0:0:0:0:
64,192,24027,1,0,0:0:0:0:
192,192,24103,1,0,0:0:0:0:
320,192,24103,1,0,0:0:0:0:
64,192,24178,1,0,0:0:0:0:
320,192,24253,1,0,0:0:0:0:
448,192,24253,1,0,0:0:0:0:
192,192,24329,1,0,0:0:0:0:
64,192,24404,1,0,0:0:0:0:
320,192,24404,1,0,0:0:0:0:
448,192,24480,1,0,0:0:0:0:
192,192,24555,1,0,0:0:0:0:
320,192,24555,1,0,0:0:0:0:
448,192,24630,1,0,0:0:0:0:
64,192,24706,1,0,0:0:0:0:
192,192,24781,1,0,0:0:0:0:
320,192,24856,1,0,0:0:0:0:
448,192,24856,1,0,0:0:0:0:
192,192,24932,1,0,0:0:0:0:
320,192,25007,1,0,0:0:0:0:
64,192,25083,1,0,0:0:0:0:
320,192,25158,1,0,0:0:0:0:
448,192,25158,1,0,0:0:0:0:
64,192,25233,1,0,0:0:0:0:
192,192,25233,1,0,0:0:0:0:
320,192,25309,1,0,0:0:0:0:
448,192,25309,1,0,0:0:0:0:
192,192,25384,1,0,0:0:0:0:
320,192,25459,1,0,0:0:0:0:
448,192,25459,1,0,0:0:0:0:
64,192,25535,1,0,0:0:0:0:
192,192,25535,1,0,0:0:0:0:
320,192,25610,1,0,0:0:0:0:
448,192,25610,1,0,0:0:0:0:
64,192,25686,1,0,0:0:0:0:
192,192,25761,1,0,0:0:0:0:
320,192,25761,1,0,0:0:0:0:
448,192,25761,1,0,0:0:0:0:
64,192,25836,1,0,0:0:0:0:
320,192,25912,1,0,0:0:0:0:
448,192,25912,1,0,0:0:0:0:
64,192,25987,1,0,0:0:0:0:
192,192,26063,1,0,0:0:0:0:
448,192,26063,1,0,0:0:0:0:
320,192,26138,1,0,0:0:0:0:
64,192,26213,1,0,0:0:0:0:
192,192,26213,1,0,0:0:0:0:
448,192,26213,1,0,0:0:0:0:
320,192,26289,1,0,0:0:0:0:
64,192,26364,1,0,0:0:0:0:
192,192,26364,1,0,0:0:0:0:
448,192,26364,1,0,0:0:0:0:
320,192,26439,1,0,0:0:0:0:
64,192,26515,1,0,0:0:0:0:
192,192,26590,1,0,0:0:0:0:
320,192,26666,1,0,0:0:0:0:
448,192,26666,1,0,0:0:0:0:
192,192,26741,1,0,0:0:0:0:
320,192,26816,1,0,0:0:0:0:
448,192,26816,1,0,0:0:0:0:
64,192,26892,1,0,0:0:0:0:
192,192,26967,1,0,0:0:0:0:
320,192,26967,1,0,0:0:0:0:
448,192,26967,1,0,0:0:0:0:
64,192,27042,1,0,0:0:0:0:
320,192,27118,1,0,0:0:0:0:
448,192,27193,1,0,0:0:0:0:
64,192,27269,1,0,0:0:0:0:
192,192,27269,1,0,0:0:0:0:
320,192,27344,1,0,0:0:0:0:
64,192,27419,1,0,0:0:0:0:
320,192,27495,1,0,0:0:0:0:
448,192,27495,1,0,0:0:0:0:
64,192,27570,1,0,0:0:0:0:
192,192,27570,1,0,0:0:0:0:
448,192,27645,1,0,0:0:0:0:
64,192,27721,1,0,0:0:0:0:
320,192,27721,1,0,0:0:0:0:
192,192,27796,1,0,0:0:0:0:
320,192,27872,1,0,0:0:0:0:
448,192,27872,1,0,0:0:0:0:
64,192,27947,1,0,0:0:0:0:
192,192,27947,1,0,0:0:0:0:
192,192,28022,1,0,0:0:0:0:
320,192,28022,1,0,0:0:0:0:
320,192,28098,1,0,0:0:0:0:
448,192,28098,1,0,0:0:0:0:
64,192,28173,1,0,0:0:0:0:
192,192,28173,1,0,0:0:0:0:
448,192,28173,1,0,0:0:0:0:
320,192,28248,1,0,0:0:0:0:
192,192,28324,1,0,0:0:0:0:
448,192,28399,1,0,0:0:0:0:
64,192,28475,1,0,0:0:0:0:
320,192,28475,1,0,0:0:0:0:
448,192,28550,1,0,0:0:0:0:
64,192,28625,1,0,0:0:0:0:
192,192,28625,1,0,0:0:0:0:
320,192,28701,1,0,0:0:0:0:
448,192,28701,1,0,0:0:0:0:
64,192,28776,1,0,0:0:0:0:
192,192,28776,1,0,0:0:0:0:
320,192,28851,1,0,0:0:0:0:
192,192,28927,1,0,0:0:0:0:
448,192,28927,1,0,0:0:0:0:
64,192,29002,1,0,0:0:0:0:
192,192,29078,1,0,0:0:0:0:
320,192,29078,1,0,0:0:0:0:
64,192,29153,1,0,0:0:0:0:
192,192,29228,1,0,0:0:0:0:
448,192,29228,1,0,0:0:0:0:
320,192,29304,1,0,0:0:0:0:
64,192,29379,1,0,0:0:0:0:
192,192,29379,1,0,0:0:0:0:
448,192,29379,1,0,0:0:0:0:
320,192,29454,1,0,0:0:0:0:
192,192,29530,1,0,0:0:0:0:
64,192,29605,1,0,0:0:0:0:
192,192,29681,1,0,0:0:0:0:
320,192,29681,1,0,0:0:0:0:
448,192,29681,1,0,0:0:0:0:
64,192,29756,1,0,0:0:0:0:
320,192,29831,1,0,0:0:0:0:
192,192,29907,1,0,0:0:0:0:
64,192,29982,1,0,0:0:0:0:
320,192,29982,1,0,0:0:0:0:
448,192,29982,1,0,0:0:0:0:
192,192,30057,1,0,0:0:0:0:
448,192,30133,1,0,0:0:0:0:
192,192,30208,1,0,0:0:0:0:
64,192,30284,1,0,0:0:0:0:
320,192,30284,1,0,0:0:0:0:
192,192,30359,1,0,0:0:0:0:
320,192,30434,1,0,0:0:0:0:
192,192,30510,1,0,0:0:0:0:
64,192,30585,1,0,0:0:0:0:
320,192,30585,1,0,0:0:0:0:
448,192,30585,1,0,0:0:0:0:
320,192,30736,1,0,0:0:0:0:
448,192,30736,1,0,0:0:0:0:
64,192,31339,1,0,0:0:0:0:
192,192,31490,1,0,0:0:0:0:
320,192,31490,1,0,0:0:0:0:
448,192,31640,1,0,0:0:0:0:
64,192,31791,1,0,0:0:0:0:
320,192,31791,1,0,0:0:0:0:
192,192,32243,1,0,0:0:0:0:
64,192,32545,1,0,0:0:0:0:
192,192,32696,1,0,0:0:0:0:
320,192,32696,1,0,0:0:0:0:
448,192,32846,1,0,0:0:0:0:
64,192,32997,1,0,0:0:0:0:
320,192,32997,1,0,0:0:0:0:
64,192,33148,1,0,0:0:0:0:
320,192,33148,1,0,0:0:0:0:
320,192,33751,1,0,0:0:0:0:
448,192,33751,1,0,0:0:0:0:
192,192,33902,1,0,0:0:0:0:
64,192,34052,1,0,0:0:0:0:
320,192,34203,1,0,0:0:0:0:
448,192,34203,1,0,0:0:0:0:
192,192,34354,1,0,0:0:0:0:
64,192,34505,1,0,0:0:0:0:
192,192,34655,1,0,0:0:0:0:
448,192,34655,1,0,0:0:0:0:
320,192,34806,1,0,0:0:0:0:
64,192,34957,1,0,0:0:0:0:
192,192,35108,1,0,0:0:0:0:
320,192,35108,1,0,0:0:0:0:
64,192,35258,1,0,0:0:0:0:
192,192,35409,1,0,0:0:0:0:
448,192,35409,1,0,0:0:0:0:
192,192,35560,1,0,0:0:0:0:
448,192,35560,1,0,0:0:0:0:
64,192,36163,1,0,0:0:0:0:
320,192,36163,1,0,0:0:0:0:
192,192,36314,1,0,0:0:0:0:
320,192,36464,1,0,0:0:0:0:
64,192,36615,1,0,0:0:0:0:
448,192,36615,1,0,0:0:0:0:
64,192,36766,1,0,0:0:0:0:
448,192,36766,1,0,0:0:0:0:
192,192,37369,1,0,0:0:0:0:
448,192,37520,1,0,0:0:0:0:
64,192,37670,1,0,0:0:0:0:
192,192,37821,1,0,0:0:0:0:
320,192,37821,1,0,0:0:0:0:
192,192,37972,1,0,0:0:0:0:
320,192,37972,1,0,0:0:0:0:
192,192,38575,1,0,0:0:0:0:
448,192,38726,1,0,0:0:0:0:
64,192,38877,1,0,0:0:0:0:
320,192,39027,1,0,0:0:0:0:
448,192,39027,1,0,0:0:0:0:
64,192,39103,1,0,0:0:0:0:
192,192,39103,1,0,0:0:0:0:
320,192,39178,1,0,0:0:0:0:
448,192,39178,1,0,0:0:0:0:
64,192,39253,1,0,0:0:0:0:
192,192,39253,1,0,0:0:0:0:
320,192,39329,1,0,0:0:0:0:
448,192,39329,1,0,0:0:0:0:
64,192,39404,1,0,0:0:0:0:
192,192,39404,1,0,0:0:0:0:
320,192,39480,1,0,0:0:0:0:
448,192,39480,1,0,0:0:0:0:
64,192,39555,1,0,0:0:0:0:
192,192,39555,1,0,0:0:0:0:
320,192,39630,1,0,0:0:0:0:
448,192,39630,1,0,0:0:0:0:
320,192,39781,1,0,0:0:0:0:
448,192,39781,1,0,0:0:0:0:
320,192,39932,1,0,0:0:0:0:
448,192,39932,1,0,0:0:0:0:
320,192,40083,1,0,0:0:0:0:
448,192,40083,1,0,0:0:0:0:
64,192,40233,1,0,0:0:0:0:
320,192,40233,1,0,0:0:0:0:
448,192,40233,1,0,0:0:0:0:
320,192,40384,1,0,0:0:0:0:
448,192,40384,1,0,0:0:0:0:
64,192,40535,1,0,0:0:0:0:
192,192,40535,1,0,0:0:0:0:
192,192,40686,1,0,0:0:0:0:
448,192,40686,1,0,0:0:0:0:
64,192,40836,1,0,0:0:0:0:
320,192,40836,1,0,0:0:0:0:
448,192,40987,1,0,0:0:0:0:
64,192,41138,1,0,0:0:0:0:
192,192,41289,1,0,0:0:0:0:
320,192,41289,1,0,0:0:0:0:
64,192,41439,1,0,0:0:0:0:
320,192,41590,1,0,0:0:0:0:
448,192,41590,1,0,0:0:0:0:
64,192,41741,1,0,0:0:0:0:
192,192,41741,1,0,0:0:0:0:
192,192,41892,1,0,0:0:0:0:
448,192,41892,1,0,0:0:0:0:
64,192,42042,1,0,0:0:0:0:
320,192,42042,1,0,0:0:0:0:
192,192,42193,1,0,0:0:0:0:
320,192,42344,1,0,0:0:0:0:
448,192,42344,1,0,0:0:0:0:
64,192,42495,1,0,0:0:0:0:
192,192,42495,1,0,0:0:0:0:
192,192,42645,1,0,0:0:0:0:
448,192,42645,1,0,0:0:0:0:
192,192,42796,1,0,0:0:0:0:
448,192,42796,1,0,0:0:0:0:
320,192,42947,1,0,0:0:0:0:
64,192,43098,1,0,0:0:0:0:
192,192,43098,1,0,0:0:0:0:
320,192,43248,1,0,0:0:0:0:
448,192,43248,1,0,0:0:0:0:
64,192,43399,1,0,0:0:0:0:
320,192,43550,1,0,0:0:0:0:
64,192,43701,1,0,0:0:0:0:
192,192,43701,1,0,0:0:0:0:
192,192,43851,1,0,0:0:0:0:
320,192,43851,1,0,0:0:0:0:
320,192,44002,1,0,0:0:0:0:
448,192,44002,1,0,0:0:0:0:
192,192,44153,1,0,0:0:0:0:
448,192,44153,1,0,0:0:0:0:
192,192,44304,1,0,0:0:0:0:
320,192,44304,1,0,0:0:0:0:
64,192,44454,1,0,0:0:0:0:
320,192,44454,1,0,0:0:0:0:
192,192,44605,1,0,0:0:0:0:
192,192,44756,1,0,0:0:0:0:
448,192,44756,1,0,0:0:0:0:
64,192,44907,1,0,0:0:0:0:
320,192,44907,1,0,0:0:0:0:
192,192,45057,1,0,0:0:0:0:
320,192,45057,1,0,0:0:0:0:
448,192,45057,1,0,0:0:0:0:
192,192,45208,1,0,0:0:0:0:
448,192,45208,1,0,0:0:0:0:
64,192,45359,1,0,0:0:0:0:
192,192,45510,1,0,0:0:0:0:
320,192,45510,1,0,0:0:0:0:
192,192,45660,1,0,0:0:0:0:
320,192,45660,1,0,0:0:0:0:
64,192,45811,1,0,0:0:0:0:
192,192,45962,1,0,0:0:0:0:
448,192,45962,1,0,0:0:0:0:
64,192,46113,1,0,0:0:0:0:
320,192,46113,1,0,0:0:0:0:
64,192,46263,1,0,0:0:0:0:
320,192,46263,1,0,0:0:0:0:
192,192,46414,1,0,0:0:0:0:
320,192,46565,1,0,0:0:0:0:
448,192,46565,1,0,0:0:0:0:
64,192,46716,1,0,0:0:0:0:
192,192,46716,1,0,0:0:0:0:
448,192,46866,1,0,0:0:0:0:
64,192,47017,1,0,0:0:0:0:
192,192,47168,1,0,0:0:0:0:
320,192,47168,1,0,0:0:0:0:
64,192,47319,1,0,0:0:0:0:
320,192,47319,1,0,0:0:0:0:
192,192,47469,1,0,0:0:0:0:
448,192,47469,1,0,0:0:0:0:
320,192,47620,1,0,0:0:0:0:
448,192,47620,1,0,0:0:0:0:
64,192,47771,1,0,0:0:0:0:
192,192,47771,1,0,0:0:0:0:
448,192,47922,1,0,0:0:0:0:
64,192,48072,1,0,0:0:0:0:
320,192,48072,1,0,0:0:0:0:
192,192,48223,1,0,0:0:0:0:
192,192,48374,1,0,0:0:0:0:
448,192,48374,1,0,0:0:0:0:
64,192,48525,1,0,0:0:0:0:
320,192,48675,1,0,0:0:0:0:
448,192,48675,1,0,0:0:0:0:
64,192,48826,1,0,0:0:0:0:
192,192,48977,1,0,0:0:0:0:
448,192,48977,1,0,0:0:0:0:
192,192,49128,1,0,0:0:0:0:
448,192,49128,1,0,0:0:0:0:
320,192,49278,1,0,0:0:0:0:
64,192,49429,1,0,0:0:0:0:
320,192,49580,1,0,0:0:0:0:
448,192,49580,1,0,0:0:0:0:
64,192,49655,1,0,0:0:0:0:
192,192,49655,1,0,0:0:0:0:
320,192,49731,1,0,0:0:0:0:
448,192,49731,1,0,0:0:0:0:
64,192,49806,1,0,0:0:0:0:
192,192,49806,1,0,0:0:0:0:
64,192,49881,1,0,0:0:0:0:
320,192,49881,1,0,0:0:0:0:
448,192,49881,1,0,0:0:0:0:
320,192,50032,1,0,0:0:0:0:
448,192,50032,1,0,0:0:0:0:
64,192,50183,1,0,0:0:0:0:
448,192,50183,1,0,0:0:0:0:
192,192,50334,1,0,0:0:0:0:
320,192,50334,1,0,0:0:0:0:
192,192,50484,1,0,0:0:0:0:
448,192,50484,1,0,0:0:0:0:
64,192,50635,1,0,0:0:0:0:
320,192,50635,1,0,0:0:0:0:
192,192,50786,1,0,0:0:0:0:
320,192,50937,1,0,0:0:0:0:
448,192,50937,1,0,0:0:0:0:
64,192,51088,1,0,0:0:0:0:
192,192,51238,1,0,0:0:0:0:
448,192,51238,1,0,0:0:0:0:
64,192,51389,1,0,0:0:0:0:
320,192,51389,1,0,0:0:0:0:
192,192,51540,1,0,0:0:0:0:
320,192,51540,1,0,0:0:0:0:
192,192,51691,1,0,0:0:0:0:
320,192,51691,1,0,0:0:0:0:
64,192,51841,1,0,0:0:0:0:
320,192,51992,1,0,0:0:0:0:
448,192,51992,1,0,0:0:0:0:
64,192,52143,1,0,0:0:0:0:
192,192,52143,1,0,0:0:0:0:
320,192,52294,1,0,0:0:0:0:
448,192,52294,1,0,0:0:0:0:
320,192,52444,1,0,0:0:0:0:
448,192,52444,1,0,0:0:0:0:
192,192,52595,1,0,0:0:0:0:
64,192,52746,1,0,0:0:0:0:
320,192,52746,1,0,0:0:0:0:
192,192,52897,1,0,0:0:0:0:
448,192,52897,1,0,0:0:0:0:
320,192,53047,1,0,0:0:0:0:
192,192,53198,1,0,0:0:0:0:
64,192,53349,1,0,0:0:0:0:
320,192,53349,1,0,0:0:0:0:
192,192,53500,1,0,0:0:0:0:
320,192,53500,1,0,0:0:0:0:
192,192,53650,1,0,0:0:0:0:
448,192,53650,1,0,0:0:0:0:
192,192,53801,1,0,0:0:0:0:
320,192,53801,1,0,0:0:0:0:
64,192,53952,1,0,0:0:0:0:
320,192,53952,1,0,0:0:0:0:
64,192,54103,1,0,0:0:0:0:
320,192,54103,1,0,0:0:0:0:
192,192,54253,1,0,0:0:0:0:
64,192,54404,1,0,0:0:0:0:
448,192,54404,1,0,0:0:0:0:
192,192,54555,1,0,0:0:0:0:
64,192,54706,1,0,0:0:0:0:
320,192,54706,1,0,0:0:0:0:
448,192,54706,1,0,0:0:0:0:
64,192,54856,1,0,0:0:0:0:
320,192,54856,1,0,0:0:0:0:
192,192,55007,1,0,0:0:0:0:
448,192,55007,1,0,0:0:0:0:
192,192,55158,1,0,0:0:0:0:
448,192,55158,1,0,0:0:0:0:
64,192,55309,1,0,0:0:0:0:
448,192,55459,1,0,0:0:0:0:
64,192,55610,1,0,0:0:0:0:
192,192,55610,1,0,0:0:0:0:
192,192,55761,1,0,0:0:0:0:
320,192,55761,1,0,0:0:0:0:
320,192,55912,1,0,0:0:0:0:
448,192,55912,1,0,0:0:0:0:
64,192,56062,1,0,0:0:0:0:
192,192,56213,1,0,0:0:0:0:
448,192,56213,1,0,0:0:0:0:
64,192,56364,1,0,0:0:0:0:
320,192,56364,1,0,0:0:0:0:
192,192,56515,1,0,0:0:0:0:
64,192,56665,1,0,0:0:0:0:
448,192,56665,1,0,0:0:0:0:
192,192,56816,1,0,0:0:0:0:
448,192,56967,1,0,0:0:0:0:
64,192,57118,1,0,0:0:0:0:
320,192,57118,1,0,0:0:0:0:
64,192,57268,1,0,0:0:0:0:
320,192,57268,1,0,0:0:0:0:
64,192,57419,1,0,0:0:0:0:
192,192,57419,1,0,0:0:0:0:
64,192,57570,1,0,0:0:0:0:
192,192,57570,1,0,0:0:0:0:
448,192,57721,1,0,0:0:0:0:
192,192,57871,1,0,0:0:0:0:
320,192,58022,1,0,0:0:0:0:
448,192,58022,1,0,0:0:0:0:
320,192,58173,1,0,0:0:0:0:
448,192,58173,1,0,0:0:0:0:
192,192,58324,1,0,0:0:0:0:
320,192,58324,1,0,0:0:0:0:
448,192,58474,1,0,0:0:0:0:
192,192,58625,1,0,0:0:0:0:
320,192,58625,1,0,0:0:0:0:
64,192,58776,1,0,0:0:0:0:
448,192,58776,1,0,0:0:0:0:
320,192,58927,1,0,0:0:0:0:
64,192,59077,1,0,0:0:0:0:
192,192,59077,1,0,0:0:0:0:
320,192,59228,1,0,0:0:0:0:
448,192,59228,1,0,0:0:0:0:
64,192,59304,1,0,0:0:0:0:
192,192,59304,1,0,0:0:0:0:
320,192,59379,1,0,0:0:0:0:
448,192,59379,1,0,0:0:0:0:
64,192,59454,1,0,0:0:0:0:
192,192,59454,1,0,0:0:0:0:
64,192,59530,1,0,0:0:0:0:
320,192,59530,1,0,0:0:0:0:
448,192,59530,1,0,0:0:0:0:
64,192,59680,1,0,0:0:0:0:
320,192,59831,1,0,0:0:0:0:
448,192,59831,1,0,0:0:0:0:
64,192,59982,1,0,0:0:0:0:
192,192,59982,1,0,0:0:0:0:
448,192,59982,1,0,0:0:0:0:
64,192,60133,1,0,0:0:0:0:
320,192,60133,1,0,0:0:0:0:
192,192,60283,1,0,0:0:0:0:
448,192,60283,1,0,0:0:0:0:
64,192,60434,1,0,0:0:0:0:
192,192,60434,1,0,0:0:0:0:
320,192,60434,1,0,0:0:0:0:
64,192,60585,1,0,0:0:0:0:
448,192,60585,1,0,0:0:0:0:
192,192,60736,1,0,0:0:0:0:
64,192,60886,1,0,0:0:0:0:
320,192,60886,1,0,0:0:0:0:
448,192,60886,1,0,0:0:0:0:
192,192,61037,1,0,0:0:0:0:
320,192,61037,1,0,0:0:0:0:
64,192,61188,1,0,0:0:0:0:
448,192,61188,1,0,0:0:0:0:
64,192,61339,1,0,0:0:0:0:
320,192,61339,1,0,0:0:0:0:
448,192,61339,1,0,0:0:0:0:
192,192,61489,1,0,0:0:0:0:
64,192,61640,1,0,0:0:0:0:
320,192,61640,1,0,0:0:0:0:
64,192,61791,1,0,0:0:0:0:
320,192,61791,1,0,0:0:0:0:
64,192,61942,1,0,0:0:0:0:
192,192,61942,1,0,0:0:0:0:
448,192,61942,1,0,0:0:0:0:
320,192,62092,1,0,0:0:0:0:
64,192,62243,1,0,0:0:0:0:
192,192,62243,1,0,0:0:0:0:
448,192,62243,1,0,0:0:0:0:
64,192,62394,1,0,0:0:0:0:
192,192,62394,1,0,0:0:0:0:
320,192,62394,1,0,0:0:0:0:
320,192,62545,1,0,0:0:0:0:
448,192,62545,1,0,0:0:0:0:
64,192,62695,1,0,0:0:0:0:
192,192,62695,1,0,0:0:0:0:
448,192,62695,1,0,0:0:0:0:
320,192,62846,1,0,0:0:0:0:
64,192,62997,1,0,0:0:0:0:
192,192,62997,1,0,0:0:0:0:
448,192,62997,1,0,0:0:0:0:
64,192,63148,1,0,0:0:0:0:
320,192,63148,1,0,0:0:0:0:
64,192,63299,1,0,0:0:0:0:
192,192,63299,1,0,0:0:0:0:
448,192,63299,1,0,0:0:0:0:
192,192,63449,1,0,0:0:0:0:
320,192,63449,1,0,0:0:0:0:
448,192,63449,1,0,0:0:0:0:
64,192,63600,1,0,0:0:0:0:
192,192,63600,1,0,0:0:0:0:
64,192,63751,1,0,0:0:0:0:
320,192,63751,1,0,0:0:0:0:
448,192,63751,1,0,0:0:0:0:
192,192,63902,1,0,0:0:0:0:
64,192,64052,1,0,0:0:0:0:
320,192,64052,1,0,0:0:0:0:
64,192,64203,1,0,0:0:0:0:
320,192,64203,1,0,0:0:0:0:
64,192,64354,1,0,0:0:0:0:
192,192,64354,1,0,0:0:0:0:
448,192,64354,1,0,0:0:0:0:
320,192,64505,1,0,0:0:0:0:
64,192,64655,1,0,0:0:0:0:
192,192,64806,1,0,0:0:0:0:
320,192,64806,1,0,0:0:0:0:
448,192,64806,1,0,0:0:0:0:
192,192,64957,1,0,0:0:0:0:
448,192,64957,1,0,0:0:0:0:
64,192,65108,1,0,0:0:0:0:
320,192,65258,1,0,0:0:0:0:
64,192,65409,1,0,0:0:0:0:
192,192,65409,1,0,0:0:0:0:
64,192,65560,1,0,0:0:0:0:
192,192,65560,1,0,0:0:0:0:
192,192,65711,1,0,0:0:0:0:
448,192,65711,1,0,0:0:0:0:
320,192,65861,1,0,0:0:0:0:
448,192,65861,1,0,0:0:0:0:
64,192,66012,1,0,0:0:0:0:
192,192,66012,1,0,0:0:0:0:
320,192,66163,1,0,0:0:0:0:
448,192,66163,1,0,0:0:0:0:
192,192,66314,1,0,0:0:0:0:
64,192,66464,1,0,0:0:0:0:
320,192,66464,1,0,0:0:0:0:
448,192,66464,1,0,0:0:0:0:
192,192,66615,1,0,0:0:0:0:
320,192,66615,1,0,0:0:0:0:
64,192,66766,1,0,0:0:0:0:
192,192,66766,1,0,0:0:0:0:
448,192,66766,1,0,0:0:0:0:
320,192,66917,1,0,0:0:0:0:
448,192,66917,1,0,0:0:0:0:
64,192,67067,1,0,0:0:0:0:
192,192,67067,1,0,0:0:0:0:
448,192,67218,1,0,0:0:0:0:
64,192,67369,1,0,0:0:0:0:
320,192,67369,1,0,0:0:0:0:
192,192,67520,1,0,0:0:0:0:
64,192,67670,1,0,0:0:0:0:
192,192,67670,1,0,0:0:0:0:
320,192,67670,1,0,0:0:0:0:
64,192,67821,1,0,0:0:0:0:
320,192,67821,1,0,0:0:0:0:
448,192,67821,1,0,0:0:0:0:
192,192,67972,1,0,0:0:0:0:
448,192,67972,1,0,0:0:0:0:
64,192,68123,1,0,0:0:0:0:
320,192,68123,1,0,0:0:0:0:
192,192,68273,1,0,0:0:0:0:
448,192,68273,1,0,0:0:0:0:
192,192,68424,1,0,0:0:0:0:
320,192,68424,1,0,0:0:0:0:
64,192,68575,1,0,0:0:0:0:
448,192,68575,1,0,0:0:0:0:
192,192,68726,1,0,0:0:0:0:
320,192,68876,1,0,0:0:0:0:
448,192,68876,1,0,0:0:0:0:
64,192,68952,1,0,0:0:0:0:
192,192,68952,1,0,0:0:0:0:
320,192,69027,1,0,0:0:0:0:
448,192,69027,1,0,0:0:0:0:
64,192,69102,1,0,0:0:0:0:
192,192,69102,1,0,0:0:0:0:
64,192,69178,1,0,0:0:0:0:
320,192,69178,1,0,0:0:0:0:
448,192,69178,1,0,0:0:0:0:
192,192,69329,1,0,0:0:0:0:
64,192,69479,1,0,0:0:0:0:
320,192,69479,1,0,0:0:0:0:
192,192,69630,1,0,0:0:0:0:
448,192,69630,1,0,0:0:0:0:
64,192,69781,1,0,0:0:0:0:
320,192,69781,1,0,0:0:0:0:
64,192,69932,1,0,0:0:0:0:
320,192,69932,1,0,0:0:0:0:
192,192,70082,1,0,0:0:0:0:
320,192,70233,1,0,0:0:0:0:
448,192,70233,1,0,0:0:0:0:
64,192,70384,1,0,0:0:0:0:
192,192,70535,1,0,0:0:0:0:
448,192,70535,1,0,0:0:0:0:
64,192,70685,1,0,0:0:0:0:
320,192,70685,1,0,0:0:0:0:
320,192,70836,1,0,0:0:0:0:
448,192,70836,1,0,0:0:0:0:
320,192,70987,1,0,0:0:0:0:
448,192,70987,1,0,0:0:0:0:
64,192,71138,1,0,0:0:0:0:
192,192,71288,1,0,0:0:0:0:
448,192,71288,1,0,0:0:0:0:
320,192,71439,1,0,0:0:0:0:
64,192,71590,1,0,0:0:0:0:
192,192,71590,1,0,0:0:0:0:
448,192,71741,1,0,0:0:0:0:
192,192,71891,1,0,0:0:0:0:
320,192,71891,1,0,0:0:0:0:
64,192,72042,1,0,0:0:0:0:
320,192,72193,1,0,0:0:0:0:
448,192,72193,1,0,0:0:0:0:
192,192,72344,1,0,0:0:0:0:
64,192,72494,1,0,0:0:0:0:
448,192,72494,1,0,0:0:0:0:
320,192,72645,1,0,0:0:0:0:
192,192,72796,1,0,0:0:0:0:
448,192,72947,1,0,0:0:0:0:
64,192,73097,1,0,0:0:0:0:
192,192,73097,1,0,0:0:0:0:
320,192,73248,1,0,0:0:0:0:
448,192,73248,1,0,0:0:0:0:
64,192,73399,1,0,0:0:0:0:
320,192,73399,1,0,0:0:0:0:
192,192,73550,1,0,0:0:0:0:
64,192,73700,1,0,0:0:0:0:
448,192,73700,1,0,0:0:0:0:
64,192,73851,1,0,0:0:0:0:
448,192,73851,1,0,0:0:0:0:
64,192,74002,1,0,0:0:0:0:
192,192,74002,1,0,0:0:0:0:
320,192,74002,1,0,0:0:0:0:
192,192,74153,1,0,0:0:0:0:
320,192,74303,1,0,0:0:0:0:
448,192,74303,1,0,0:0:0:0:
64,192,74454,1,0,0:0:0:0:
192,192,74454,1,0,0:0:0:0:
448,192,74605,1,0,0:0:0:0:
64,192,74756,1,0,0:0:0:0:
320,192,74756,1,0,0:0:0:0:
64,192,74906,1,0,0:0:0:0:
192,192,74906,1,0,0:0:0:0:
64,192,75057,1,0,0:0:0:0:
192,192,75057,1,0,0:0:0:0:
192,192,75208,1,0,0:0:0:0:
448,192,75208,1,0,0:0:0:0:
64,192,75359,1,0,0:0:0:0:
320,192,75509,1,0,0:0:0:0:
448,192,75509,1,0,0:0:0:0:
64,192,75660,1,0,0:0:0:0:
192,192,75660,1,0,0:0:0:0:
448,192,75811,1,0,0:0:0:0:
192,192,75962,1,0,0:0:0:0:
320,192,75962,1,0,0:0:0:0:
192,192,76113,1,0,0:0:0:0:
320,192,76113,1,0,0:0:0:0:
64,192,76188,1,0,0:0:0:0:
448,192,76188,1,0,0:0:0:0:
192,192,76263,1,0,0:0:0:0:
320,192,76263,1,0,0:0:0:0:
64,192,76414,1,0,0:0:0:0:
320,192,76414,1,0,0:0:0:0:
448,192,76414,1,0,0:0:0:0:
192,192,76565,1,0,0:0:0:0:
64,192,76716,1,0,0:0:0:0:
192,192,76866,1,0,0:0:0:0:
320,192,76866,1,0,0:0:0:0:
448,192,76866,1,0,0:0:0:0:
64,192,77017,1,0,0:0:0:0:
320,192,77168,1,0,0:0:0:0:
448,192,77168,1,0,0:0:0:0:
64,192,77319,1,0,0:0:0:0:
192,192,77319,1,0,0:0:0:0:
320,192,77319,1,0,0:0:0:0:
64,192,77469,1,0,0:0:0:0:
192,192,77469,1,0,0:0:0:0:
448,192,77469,1,0,0:0:0:0:
64,192,77620,1,0,0:0:0:0:
192,192,77620,1,0,0:0:0:0:
320,192,77620,1,0,0:0:0:0:
448,192,77620,1,0,0:0:0:0:
64,192,77771,1,0,0:0:0:0:
192,192,77771,1,0,0:0:0:0:
320,192,77771,1,0,0:0:0:0:
448,192,77771,1,0,0:0:0:0:
192,192,78223,1,0,0:0:0:0:
320,192,78223,1,0,0:0:0:0:
448,192,78223,1,0,0:0:0:0:
64,192,78298,1,0,0:0:0:0:
320,192,78374,1,0,0:0:0:0:
448,192,78374,1,0,0:0:0:0:
64,192,78449,1,0,0:0:0:0:
192,192,78449,1,0,0:0:0:0:
320,192,78525,1,0,0:0:0:0:
448,192,78525,1,0,0:0:0:0:
64,192,78600,1,0,0:0:0:0:
192,192,78675,1,0,0:0:0:0:
448,192,78675,1,0,0:0:0:0:
64,192,78751,1,0,0:0:0:0:
320,192,78751,1,0,0:0:0:0:
64,192,78826,1,0,0:0:0:0:
192,192,78826,1,0,0:0:0:0:
448,192,78826,1,0,0:0:0:0:
64,192,78977,1,0,0:0:0:0:
192,192,79128,1,0,0:0:0:0:
320,192,79128,1,0,0:0:0:0:
448,192,79128,1,0,0:0:0:0:
64,192,79278,1,0,0:0:0:0:
320,192,79278,1,0,0:0:0:0:
192,192,79354,1,0,0:0:0:0:
64,192,79429,1,0,0:0:0:0:
320,192,79429,1,0,0:0:0:0:
448,192,79429,1,0,0:0:0:0:
192,192,79580,1,0,0:0:0:0:
448,192,79580,1,0,0:0:0:0:
64,192,79731,1,0,0:0:0:0:
192,192,79731,1,0,0:0:0:0:
320,192,79881,1,0,0:0:0:0:
448,192,79881,1,0,0:0:0:0:
64,192,80032,1,0,0:0:0:0:
320,192,80032,1,0,0:0:0:0:
64,192,80183,1,0,0:0:0:0:
192,192,80334,1,0,0:0:0:0:
320,192,80334,1,0,0:0:0:0:
448,192,80334,1,0,0:0:0:0:
64,192,80484,1,0,0:0:0:0:
320,192,80560,1,0,0:0:0:0:
64,192,80635,1,0,0:0:0:0:
192,192,80635,1,0,0:0:0:0:
448,192,80635,1,0,0:0:0:0:
192,192,80786,1,0,0:0:0:0:
64,192,80937,1,0,0:0:0:0:
320,192,80937,1,0,0:0:0:0:
448,192,80937,1,0,0:0:0:0:
192,192,81087,1,0,0:0:0:0:
320,192,81087,1,0,0:0:0:0:
64,192,81238,1,0,0:0:0:0:
192,192,81238,1,0,0:0:0:0:
448,192,81238,1,0,0:0:0:0:
320,192,81389,1,0,0:0:0:0:
64,192,81540,1,0,0:0:0:0:
192,192,81540,1,0,0:0:0:0:
448,192,81540,1,0,0:0:0:0:
192,192,81690,1,0,0:0:0:0:
320,192,81690,1,0,0:0:0:0:
64,192,81766,1,0,0:0:0:0:
320,192,81841,1,0,0:0:0:0:
448,192,81841,1,0,0:0:0:0:
64,192,81992,1,0,0:0:0:0:
192,192,81992,1,0,0:0:0:0:
64,192,82143,1,0,0:0:0:0:
320,192,82143,1,0,0:0:0:0:
448,192,82143,1,0,0:0:0:0:
64,192,82293,1,0,0:0:0:0:
192,192,82293,1,0,0:0:0:0:
64,192,82444,1,0,0:0:0:0:
320,192,82444,1,0,0:0:0:0:
448,192,82444,1,0,0:0:0:0:
192,192,82595,1,0,0:0:0:0:
64,192,82746,1,0,0:0:0:0:
320,192,82746,1,0,0:0:0:0:
448,192,82746,1,0,0:0:0:0:
192,192,82896,1,0,0:0:0:0:
320,192,82896,1,0,0:0:0:0:
448,192,83047,1,0,0:0:0:0:
64,192,83123,1,0,0:0:0:0:
192,192,83198,1,0,0:0:0:0:
320,192,83273,1,0,0:0:0:0:
64,192,83349,1,0,0:0:0:0:
192,192,83349,1,0,0:0:0:0:
448,192,83349,1,0,0:0:0:0:
320,192,83499,1,0,0:0:0:0:
192,192,83575,1,0,0:0:0:0:
64,192,83650,1,0,0:0:0:0:
320,192,83650,1,0,0:0:0:0:
448,192,83650,1,0,0:0:0:0:
64,192,83801,1,0,0:0:0:0:
192,192,83952,1,0,0:0:0:0:
320,192,83952,1,0,0:0:0:0:
448,192,83952,1,0,0:0:0:0:
64,192,84102,1,0,0:0:0:0:
320,192,84102,1,0,0:0:0:0:
192,192,84178,1,0,0:0:0:0:
64,192,84253,1,0,0:0:0:0:
320,192,84253,1,0,0:0:0:0:
448,192,84253,1,0,0:0:0:0:
192,192,84404,1,0,0:0:0:0:
320,192,84404,1,0,0:0:0:0:
64,192,84555,1,0,0:0:0:0:
192,192,84555,1,0,0:0:0:0:
448,192,84555,1,0,0:0:0:0:
192,192,84705,1,0,0:0:0:0:
320,192,84705,1,0,0:0:0:0:
64,192,84856,1,0,0:0:0:0:
320,192,84856,1,0,0:0:0:0:
448,192,84856,1,0,0:0:0:0:
64,192,85007,1,0,0:0:0:0:
192,192,85158,1,0,0:0:0:0:
320,192,85158,1,0,0:0:0:0:
448,192,85158,1,0,0:0:0:0:
64,192,85308,1,0,0:0:0:0:
320,192,85308,1,0,0:0:0:0:
448,192,85384,1,0,0:0:0:0:
64,192,85459,1,0,0:0:0:0:
192,192,85459,1,0,0:0:0:0:
320,192,85610,1,0,0:0:0:0:
64,192,85761,1,0,0:0:0:0:
192,192,85761,1,0,0:0:0:0:
448,192,85761,1,0,0:0:0:0:
64,192,85911,1,0,0:0:0:0:
320,192,85911,1,0,0:0:0:0:
192,192,86062,1,0,0:0:0:0:
320,192,86062,1,0,0:0:0:0:
448,192,86062,1,0,0:0:0:0:
64,192,86213,1,0,0:0:0:0:
192,192,86364,1,0,0:0:0:0:
320,192,86364,1,0,0:0:0:0:
448,192,86364,1,0,0:0:0:0:
64,192,86514,1,0,0:0:0:0:
320,192,86514,1,0,0:0:0:0:
192,192,86590,1,0,0:0:0:0:
64,192,86665,1,0,0:0:0:0:
448,192,86665,1,0,0:0:0:0:
64,192,86816,1,0,0:0:0:0:
192,192,86816,1,0,0:0:0:0:
64,192,86967,1,0,0:0:0:0:
320,192,86967,1,0,0:0:0:0:
448,192,86967,1,0,0:0:0:0:
64,192,87117,1,0,0:0:0:0:
192,192,87117,1,0,0:0:0:0:
64,192,87268,1,0,0:0:0:0:
320,192,87268,1,0,0:0:0:0:
448,192,87268,1,0,0:0:0:0:
192,192,87419,1,0,0:0:0:0:
320,192,87419,1,0,0:0:0:0:
64,192,87570,1,0,0:0:0:0:
192,192,87570,1,0,0:0:0:0:
448,192,87570,1,0,0:0:0:0:
64,192,87720,1,0,0:0:0:0:
320,192,87720,1,0,0:0:0:0:
192,192,87871,1,0,0:0:0:0:
320,192,87871,1,0,0:0:0:0:
448,192,87871,1,0,0:0:0:0:
64,192,88173,1,0,0:0:0:0:
192,192,88173,1,0,0:0:0:0:
320,192,88173,1,0,0:0:0:0:
64,192,88474,1,0,0:0:0:0:
320,192,88474,1,0,0:0:0:0:
448,192,88474,1,0,0:0:0:0:
192,192,88776,1,0,0:0:0:0:
192,192,88927,1,0,0:0:0:0:
64,192,89077,1,0,0:0:0:0:
320,192,89077,1,0,0:0:0:0:
448,192,89077,1,0,0:0:0:0:
192,192,89228,1,0,0:0:0:0:
320,192,89530,1,0,0:0:0:0:
448,192,89530,1,0,0:0:0:0:
64,192,89605,1,0,0:0:0:0:
192,192,89605,1,0,0:0:0:0:
64,192,89680,1,0,0:0:0:0:
320,192,89680,1,0,0:0:0:0:
448,192,89680,1,0,0:0:0:0:
448,192,89831,1,0,0:0:0:0:
64,192,89982,1,0,0:0:0:0:
320,192,90133,1,0,0:0:0:0:
192,192,90283,1,0,0:0:0:0:
320,192,90283,1,0,0:0:0:0:
64,192,90585,1,0,0:0:0:0:
192,192,90585,1,0,0:0:0:0:
192,192,90736,1,0,0:0:0:0:
64,192,90886,1,0,0:0:0:0:
320,192,90886,1,0,0:0:0:0:
448,192,90886,1,0,0:0:0:0:
192,192,91188,1,0,0:0:0:0:
64,192,91489,1,0,0:0:0:0:
320,192,91489,1,0,0:0:0:0:
448,192,91791,1,0,0:0:0:0:
320,192,91942,1,0,0:0:0:0:
192,192,92017,1,0,0:0:0:0:
64,192,92092,1,0,0:0:0:0:
320,192,92092,1,0,0:0:0:0:
448,192,92092,1,0,0:0:0:0:
320,192,92243,1,0,0:0:0:0:
448,192,92243,1,0,0:0:0:0:
64,192,92394,1,0,0:0:0:0:
192,192,92394,1,0,0:0:0:0:
64,192,92695,1,0,0:0:0:0:
320,192,92695,1,0,0:0:0:0:
448,192,92695,1,0,0:0:0:0:
64,192,92846,1,0,0:0:0:0:
320,192,92846,1,0,0:0:0:0:
448,192,92846,1,0,0:0:0:0:
192,192,93298,1,0,0:0:0:0:
320,192,93298,1,0,0:0:0:0:
448,192,93298,1,0,0:0:0:0:
320,192,93600,1,0,0:0:0:0:
448,192,93600,1,0,0:0:0:0:
192,192,93751,1,0,0:0:0:0:
320,192,93751,1,0,0:0:0:0:
64,192,93901,1,0,0:0:0:0:
192,192,93901,1,0,0:0:0:0:
64,192,94052,1,0,0:0:0:0:
192,192,94052,1,0,0:0:0:0:
192,192,94203,1,0,0:0:0:0:
320,192,94203,1,0,0:0:0:0:
448,192,94203,1,0,0:0:0:0:
64,192,94504,1,0,0:0:0:0:
192,192,94504,1,0,0:0:0:0:
448,192,94504,1,0,0:0:0:0:
320,192,94806,1,0,0:0:0:0:
448,192,94806,1,0,0:0:0:0:
320,192,94957,1,0,0:0:0:0:
192,192,94994,1,0,0:0:0:0:
64,192,95107,1,0,0:0:0:0:
192,192,95107,1,0,0:0:0:0:
64,192,95258,1,0,0:0:0:0:
192,192,95258,1,0,0:0:0:0:
192,192,95409,1,0,0:0:0:0:
320,192,95409,1,0,0:0:0:0:
448,192,95409,1,0,0:0:0:0:
64,192,95710,1,0,0:0:0:0:
192,192,95710,1,0,0:0:0:0:
448,192,95710,1,0,0:0:0:0:
448,192,96012,1,0,0:0:0:0:
192,192,96163,1,0,0:0:0:0:
192,192,96313,1,0,0:0:0:0:
448,192,96313,1,0,0:0:0:0:
448,192,96615,1,0,0:0:0:0:
192,192,96766,1,0,0:0:0:0:
448,192,96916,1,0,0:0:0:0:
64,192,97067,1,0,0:0:0:0:
448,192,97218,1,0,0:0:0:0:
320,192,97369,1,0,0:0:0:0:
192,192,97444,1,0,0:0:0:0:
64,192,97482,1,0,0:0:0:0:
448,192,97519,1,0,0:0:0:0:
320,192,97557,1,0,0:0:0:0:
192,192,97595,1,0,0:0:0:0:
64,192,97632,1,0,0:0:0:0:
448,192,97670,1,0,0:0:0:0:
320,192,97708,1,0,0:0:0:0:
192,192,97746,1,0,0:0:0:0:
64,192,97783,1,0,0:0:0:0:
448,192,97821,1,0,0:0:0:0:
320,192,97859,1,0,0:0:0:0:
192,192,97896,1,0,0:0:0:0:
64,192,97934,1,0,0:0:0:0:
448,192,97972,1,0,0:0:0:0:
320,192,98009,1,0,0:0:0:0:
192,192,98047,1,0,0:0:0:0:
64,192,98085,1,0,0:0:0:0:
192,192,98122,1,0,0:0:0:0:
320,192,98122,1,0,0:0:0:0:
448,192,98122,1,0,0:0:0:0:
64,192,98198,1,0,0:0:0:0:
320,192,98273,1,0,0:0:0:0:
192,192,98349,1,0,0:0:0:0:
64,192,98424,1,0,0:0:0:0:
448,192,98424,1,0,0:0:0:0:
192,192,98499,1,0,0:0:0:0:
64,192,98575,1,0,0:0:0:0:
320,192,98575,1,0,0:0:0:0:
448,192,98575,1,0,0:0:0:0:
192,192,98650,1,0,0:0:0:0:
64,192,98725,1,0,0:0:0:0:
320,192,98725,1,0,0:0:0:0:
448,192,98725,1,0,0:0:0:0:
192,192,98801,1,0,0:0:0:0:
320,192,98876,1,0,0:0:0:0:
64,192,98952,1,0,0:0:0:0:
192,192,99027,1,0,0:0:0:0:
448,192,99027,1,0,0:0:0:0:
320,192,99102,1,0,0:0:0:0:
64,192,99178,1,0,0:0:0:0:
192,192,99178,1,0,0:0:0:0:
320,192,99253,1,0,0:0:0:0:
64,192,99328,1,0,0:0:0:0:
192,192,99328,1,0,0:0:0:0:
448,192,99328,1,0,0:0:0:0:
320,192,99404,1,0,0:0:0:0:
448,192,99479,1,0,0:0:0:0:
64,192,99555,1,0,0:0:0:0:
192,192,99630,1,0,0:0:0:0:
320,192,99630,1,0,0:0:0:0:
448,192,99630,1,0,0:0:0:0:
64,192,99705,1,0,0:0:0:0:
320,192,99781,1,0,0:0:0:0:
448,192,99781,1,0,0:0:0:0:
64,192,99856,1,0,0:0:0:0:
192,192,99856,1,0,0:0:0:0:
320,192,99931,1,0,0:0:0:0:
448,192,99931,1,0,0:0:0:0:
64,192,100007,1,0,0:0:0:0:
192,192,100082,1,0,0:0:0:0:
448,192,100158,1,0,0:0:0:0:
192,192,100233,1,0,0:0:0:0:
320,192,100233,1,0,0:0:0:0:
448,192,100308,1,0,0:0:0:0:
64,192,100384,1,0,0:0:0:0:
320,192,100384,1,0,0:0:0:0:
192,192,100459,1,0,0:0:0:0:
64,192,100534,1,0,0:0:0:0:
320,192,100534,1,0,0:0:0:0:
448,192,100534,1,0,0:0:0:0:
192,192,100610,1,0,0:0:0:0:
448,192,100685,1,0,0:0:0:0:
320,192,100761,1,0,0:0:0:0:
64,192,100836,1,0,0:0:0:0:
192,192,100836,1,0,0:0:0:0:
448,192,100911,1,0,0:0:0:0:
64,192,100987,1,0,0:0:0:0:
320,192,100987,1,0,0:0:0:0:
192,192,101062,1,0,0:0:0:0:
64,192,101138,1,0,0:0:0:0:
320,192,101138,1,0,0:0:0:0:
448,192,101138,1,0,0:0:0:0:
192,192,101213,1,0,0:0:0:0:
448,192,101288,1,0,0:0:0:0:
192,192,101364,1,0,0:0:0:0:
320,192,101439,1,0,0:0:0:0:
448,192,101439,1,0,0:0:0:0:
192,192,101514,1,0,0:0:0:0:
64,192,101590,1,0,0:0:0:0:
320,192,101590,1,0,0:0:0:0:
192,192,101665,1,0,0:0:0:0:
64,192,101741,1,0,0:0:0:0:
320,192,101741,1,0,0:0:0:0:
448,192,101741,1,0,0:0:0:0:
192,192,101816,1,0,0:0:0:0:
320,192,101891,1,0,0:0:0:0:
64,192,101967,1,0,0:0:0:0:
192,192,102042,1,0,0:0:0:0:
320,192,102042,1,0,0:0:0:0:
448,192,102042,1,0,0:0:0:0:
64,192,102117,1,0,0:0:0:0:
320,192,102193,1,0,0:0:0:0:
192,192,102268,1,0,0:0:0:0:
64,192,102344,1,0,0:0:0:0:
320,192,102344,1,0,0:0:0:0:
448,192,102344,1,0,0:0:0:0:
64,192,102419,1,0,0:0:0:0:
192,192,102419,1,0,0:0:0:0:
320,192,102494,1,0,0:0:0:0:
448,192,102494,1,0,0:0:0:0:
192,192,102570,1,0,0:0:0:0:
320,192,102645,1,0,0:0:0:0:
448,192,102645,1,0,0:0:0:0:
64,192,102720,1,0,0:0:0:0:
192,192,102720,1,0,0:0:0:0:
320,192,102796,1,0,0:0:0:0:
448,192,102796,1,0,0:0:0:0:
64,192,102871,1,0,0:0:0:0:
192,192,102871,1,0,0:0:0:0:
64,192,102947,1,0,0:0:0:0:
320,192,102947,1,0,0:0:0:0:
448,192,102947,1,0,0:0:0:0:
192,192,103022,1,0,0:0:0:0:
448,192,103097,1,0,0:0:0:0:
320,192,103173,1,0,0:0:0:0:
64,192,103248,1,0,0:0:0:0:
192,192,103248,1,0,0:0:0:0:
320,192,103323,1,0,0:0:0:0:
64,192,103399,1,0,0:0:0:0:
192,192,103399,1,0,0:0:0:0:
448,192,103399,1,0,0:0:0:0:
320,192,103474,1,0,0:0:0:0:
64,192,103550,1,0,0:0:0:0:
192,192,103550,1,0,0:0:0:0:
448,192,103550,1,0,0:0:0:0:
320,192,103625,1,0,0:0:0:0:
64,192,103700,1,0,0:0:0:0:
192,192,103776,1,0,0:0:0:0:
320,192,103851,1,0,0:0:0:0:
448,192,103851,1,0,0:0:0:0:
192,192,103926,1,0,0:0:0:0:
64,192,104002,1,0,0:0:0:0:
320,192,104002,1,0,0:0:0:0:
192,192,104077,1,0,0:0:0:0:
64,192,104153,1,0,0:0:0:0:
320,192,104153,1,0,0:0:0:0:
448,192,104153,1,0,0:0:0:0:
192,192,104228,1,0,0:0:0:0:
448,192,104303,1,0,0:0:0:0:
320,192,104379,1,0,0:0:0:0:
64,192,104454,1,0,0:0:0:0:
192,192,104454,1,0,0:0:0:0:
320,192,104529,1,0,0:0:0:0:
192,192,104605,1,0,0:0:0:0:
448,192,104605,1,0,0:0:0:0:
64,192,104680,1,0,0:0:0:0:
320,192,104680,1,0,0:0:0:0:
192,192,104756,1,0,0:0:0:0:
448,192,104756,1,0,0:0:0:0:
320,192,104831,1,0,0:0:0:0:
64,192,104906,1,0,0:0:0:0:
192,192,104982,1,0,0:0:0:0:
320,192,105057,1,0,0:0:0:0:
448,192,105057,1,0,0:0:0:0:
64,192,105132,1,0,0:0:0:0:
320,192,105208,1,0,0:0:0:0:
192,192,105283,1,0,0:0:0:0:
64,192,105359,1,0,0:0:0:0:
320,192,105359,1,0,0:0:0:0:
448,192,105359,1,0,0:0:0:0:
192,192,105434,1,0,0:0:0:0:
320,192,105509,1,0,0:0:0:0:
64,192,105585,1,0,0:0:0:0:
320,192,105660,1,0,0:0:0:0:
448,192,105660,1,0,0:0:0:0:
192,192,105735,1,0,0:0:0:0:
64,192,105811,1,0,0:0:0:0:
448,192,105811,1,0,0:0:0:0:
192,192,105886,1,0,0:0:0:0:
320,192,105886,1,0,0:0:0:0:
64,192,105962,1,0,0:0:0:0:
320,192,105962,1,0,0:0:0:0:
448,192,105962,1,0,0:0:0:0:
192,192,106037,1,0,0:0:0:0:
64,192,106112,1,0,0:0:0:0:
320,192,106112,1,0,0:0:0:0:
448,192,106188,1,0,0:0:0:0:
64,192,106263,1,0,0:0:0:0:
192,192,106263,1,0,0:0:0:0:
320,192,106263,1,0,0:0:0:0:
448,192,106338,1,0,0:0:0:0:
192,192,106414,1,0,0:0:0:0:
320,192,106414,1,0,0:0:0:0:
64,192,106489,1,0,0:0:0:0:
192,192,106565,1,0,0:0:0:0:
320,192,106565,1,0,0:0:0:0:
448,192,106565,1,0,0:0:0:0:
64,192,106640,1,0,0:0:0:0:
448,192,106715,1,0,0:0:0:0:
192,192,106791,1,0,0:0:0:0:
64,192,106866,1,0,0:0:0:0:
320,192,106866,1,0,0:0:0:0:
448,192,106866,1,0,0:0:0:0:
192,192,106941,1,0,0:0:0:0:
64,192,107017,1,0,0:0:0:0:
320,192,107092,1,0,0:0:0:0:
64,192,107168,1,0,0:0:0:0:
192,192,107168,1,0,0:0:0:0:
448,192,107168,1,0,0:0:0:0:
192,192,107268,1,0,0:0:0:0:
320,192,107268,1,0,0:0:0:0:
64,192,107369,1,0,0:0:0:0:
448,192,107369,1,0,0:0:0:0:
192,192,107469,1,0,0:0:0:0:
320,192,107469,1,0,0:0:0:0:
192,192,107771,1,0,0:0:0:0:
320,192,107771,1,0,0:0:0:0:
448,192,107771,1,0,0:0:0:0:
64,192,107846,1,0,0:0:0:0:
320,192,107921,1,0,0:0:0:0:
192,192,107997,1,0,0:0:0:0:
64,192,108072,1,0,0:0:0:0:
448,192,108072,1,0,0:0:0:0:
192,192,108148,1,0,0:0:0:0:
64,192,108223,1,0,0:0:0:0:
320,192,108223,1,0,0:0:0:0:
448,192,108223,1,0,0:0:0:0:
192,192,108298,1,0,0:0:0:0:
64,192,108374,1,0,0:0:0:0:
320,192,108374,1,0,0:0:0:0:
448,192,108374,1,0,0:0:0:0:
192,192,108449,1,0,0:0:0:0:
320,192,108524,1,0,0:0:0:0:
64,192,108600,1,0,0:0:0:0:
192,192,108675,1,0,0:0:0:0:
448,192,108675,1,0,0:0:0:0:
320,192,108751,1,0,0:0:0:0:
64,192,108826,1,0,0:0:0:0:
192,192,108826,1,0,0:0:0:0:
320,192,108901,1,0,0:0:0:0:
64,192,108977,1,0,0:0:0:0:
192,192,108977,1,0,0:0:0:0:
448,192,108977,1,0,0:0:0:0:
320,192,109052,1,0,0:0:0:0:
448,192,109127,1,0,0:0:0:0:
64,192,109203,1,0,0:0:0:0:
192,192,109278,1,0,0:0:0:0:
320,192,109278,1,0,0:0:0:0:
448,192,109278,1,0,0:0:0:0:
64,192,109354,1,0,0:0:0:0:
320,192,109429,1,0,0:0:0:0:
448,192,109429,1,0,0:0:0:0:
64,192,109504,1,0,0:0:0:0:
192,192,109504,1,0,0:0:0:0:
320,192,109580,1,0,0:0:0:0:
448,192,109580,1,0,0:0:0:0:
64,192,109655,1,0,0:0:0:0:
192,192,109730,1,0,0:0:0:0:
448,192,109806,1,0,0:0:0:0:
192,192,109881,1,0,0:0:0:0:
320,192,109881,1,0,0:0:0:0:
448,192,109957,1,0,0:0:0:0:
64,192,110032,1,0,0:0:0:0:
320,192,110032,1,0,0:0:0:0:
192,192,110107,1,0,0:0:0:0:
64,192,110183,1,0,0:0:0:0:
320,192,110183,1,0,0:0:0:0:
448,192,110183,1,0,0:0:0:0:
192,192,110258,1,0,0:0:0:0:
448,192,110333,1,0,0:0:0:0:
320,192,110409,1,0,0:0:0:0:
64,192,110484,1,0,0:0:0:0:
192,192,110484,1,0,0:0:0:0:
448,192,110560,1,0,0:0:0:0:
64,192,110635,1,0,0:0:0:0:
320,192,110635,1,0,0:0:0:0:
192,192,110710,1,0,0:0:0:0:
64,192,110786,1,0,0:0:0:0:
320,192,110786,1,0,0:0:0:0:
448,192,110786,1,0,0:0:0:0:
192,192,110861,1,0,0:0:0:0:
448,192,110936,1,0,0:0:0:0:
192,192,111012,1,0,0:0:0:0:
320,192,111087,1,0,0:0:0:0:
448,192,111087,1,0,0:0:0:0:
192,192,111163,1,0,0:0:0:0:
64,192,111238,1,0,0:0:0:0:
320,192,111238,1,0,0:0:0:0:
192,192,111313,1,0,0:0:0:0:
64,192,111389,1,0,0:0:0:0:
320,192,111389,1,0,0:0:0:0:
448,192,111389,1,0,0:0:0:0:
192,192,111464,1,0,0:0:0:0:
320,192,111539,1,0,0:0:0:0:
64,192,111615,1,0,0:0:0:0:
192,192,111690,1,0,0:0:0:0:
320,192,111690,1,0,0:0:0:0:
448,192,111690,1,0,0:0:0:0:
64,192,111766,1,0,0:0:0:0:
320,192,111841,1,0,0:0:0:0:
192,192,111916,1,0,0:0:0:0:
64,192,111992,1,0,0:0:0:0:
320,192,111992,1,0,0:0:0:0:
448,192,111992,1,0,0:0:0:0:
64,192,112067,1,0,0:0:0:0:
192,192,112067,1,0,0:0:0:0:
320,192,112142,1,0,0:0:0:0:
448,192,112142,1,0,0:0:0:0:
192,192,112218,1,0,0:0:0:0:
320,192,112293,1,0,0:0:0:0:
448,192,112293,1,0,0:0:0:0:
64,192,112369,1,0,0:0:0:0:
192,192,112369,1,0,0:0:0:0:
320,192,112444,1,0,0:0:0:0:
448,192,112444,1,0,0:0:0:0:
64,192,112519,1,0,0:0:0:0:
192,192,112519,1,0,0:0:0:0:
64,192,112595,1,0,0:0:0:0:
320,192,112595,1,0,0:0:0:0:
448,192,112595,1,0,0:0:0:0:
192,192,112670,1,0,0:0:0:0:
448,192,112745,1,0,0:0:0:0:
320,192,112821,1,0,0:0:0:0:
64,192,112896,1,0,0:0:0:0:
192,192,112896,1,0,0:0:0:0:
320,192,112972,1,0,0:0:0:0:
64,192,113047,1,0,0:0:0:0:
192,192,113047,1,0,0:0:0:0:
448,192,113047,1,0,0:0:0:0:
320,192,113122,1,0,0:0:0:0:
64,192,113198,1,0,0:0:0:0:
192,192,113198,1,0,0:0:0:0:
448,192,113198,1,0,0:0:0:0:
320,192,113273,1,0,0:0:0:0:
64,192,113348,1,0,0:0:0:0:
192,192,113424,1,0,0:0:0:0:
320,192,113499,1,0,0:0:0:0:
448,192,113499,1,0,0:0:0:0:
192,192,113575,1,0,0:0:0:0:
64,192,113650,1,0,0:0:0:0:
320,192,113650,1,0,0:0:0:0:
192,192,113725,1,0,0:0:0:0:
64,192,113801,1,0,0:0:0:0:
320,192,113801,1,0,0:0:0:0:
448,192,113801,1,0,0:0:0:0:
192,192,113876,1,0,0:0:0:0:
448,192,113952,1,0,0:0:0:0:
320,192,114027,1,0,0:0:0:0:
64,192,114102,1,0,0:0:0:0:
192,192,114102,1,0,0:0:0:0:
320,192,114178,1,0,0:0:0:0:
192,192,114253,1,0,0:0:0:0:
448,192,114253,1,0,0:0:0:0:
64,192,114328,1,0,0:0:0:0:
320,192,114328,1,0,0:0:0:0:
192,192,114404,1,0,0:0:0:0:
448,192,114404,1,0,0:0:0:0:
320,192,114479,1,0,0:0:0:0:
64,192,114555,1,0,0:0:0:0:
192,192,114630,1,0,0:0:0:0:
320,192,114705,1,0,0:0:0:0:
448,192,114705,1,0,0:0:0:0:
64,192,114781,1,0,0:0:0:0:
320,192,114856,1,0,0:0:0:0:
192,192,114931,1,0,0:0:0:0:
64,192,115007,1,0,0:0:0:0:
320,192,115007,1,0,0:0:0:0:
448,192,115007,1,0,0:0:0:0:
192,192,115082,1,0,0:0:0:0:
320,192,115158,1,0,0:0:0:0:
64,192,115233,1,0,0:0:0:0:
320,192,115308,1,0,0:0:0:0:
448,192,115308,1,0,0:0:0:0:
192,192,115384,1,0,0:0:0:0:
64,192,115459,1,0,0:0:0:0:
448,192,115459,1,0,0:0:0:0:
192,192,115534,1,0,0:0:0:0:
320,192,115534,1,0,0:0:0:0:
64,192,115610,1,0,0:0:0:0:
320,192,115610,1,0,0:0:0:0:
448,192,115610,1,0,0:0:0:0:
192,192,115685,1,0,0:0:0:0:
64,192,115761,1,0,0:0:0:0:
320,192,115761,1,0,0:0:0:0:
448,192,115836,1,0,0:0:0:0:
64,192,115911,1,0,0:0:0:0:
192,192,115911,1,0,0:0:0:0:
320,192,115911,1,0,0:0:0:0:
448,192,115987,1,0,0:0:0:0:
192,192,116062,1,0,0:0:0:0:
320,192,116062,1,0,0:0:0:0:
64,192,116137,1,0,0:0:0:0:
192,192,116213,1,0,0:0:0:0:
448,192,116213,1,0,0:0:0:0:
320,192,116364,1,0,0:0:0:0:
64,192,116514,1,0,0:0:0:0:
320,192,116665,1,0,0:0:0:0:
64,192,116816,1,0,0:0:0:0:
448,192,116816,1,0,0:0:0:0:
192,192,116891,1,0,0:0:0:0:
320,192,116891,1,0,0:0:0:0:
64,192,116967,1,0,0:0:0:0:
448,192,116967,1,0,0:0:0:0:
192,192,117017,1,0,0:0:0:0:
320,192,117042,1,0,0:0:0:0:
64,192,117117,1,0,0:0:0:0:
320,192,117193,1,0,0:0:0:0:
64,192,117268,1,0,0:0:0:0:
192,192,117343,1,0,0:0:0:0:
64,192,117419,1,0,0:0:0:0:
320,192,117419,1,0,0:0:0:0:
448,192,117419,1,0,0:0:0:0:
192,192,117494,1,0,0:0:0:0:
320,192,117570,1,0,0:0:0:0:
448,192,117570,1,0,0:0:0:0:
64,192,117645,1,0,0:0:0:0:
192,192,117645,1,0,0:0:0:0:
320,192,117720,1,0,0:0:0:0:
448,192,117720,1,0,0:0:0:0:
192,192,117796,1,0,0:0:0:0:
64,192,117871,1,0,0:0:0:0:
320,192,117871,1,0,0:0:0:0:
448,192,117871,1,0,0:0:0:0:
192,192,117946,1,0,0:0:0:0:
64,192,118022,1,0,0:0:0:0:
320,192,118022,1,0,0:0:0:0:
448,192,118022,1,0,0:0:0:0:
192,192,118097,1,0,0:0:0:0:
320,192,118173,1,0,0:0:0:0:
448,192,118173,1,0,0:0:0:0:
64,192,118248,1,0,0:0:0:0:
192,192,118323,1,0,0:0:0:0:
448,192,118323,1,0,0:0:0:0:
64,192,118399,1,0,0:0:0:0:
320,192,118399,1,0,0:0:0:0:
192,192,118474,1,0,0:0:0:0:
448,192,118474,1,0,0:0:0:0:
320,192,118549,1,0,0:0:0:0:
64,192,118625,1,0,0:0:0:0:
192,192,118625,1,0,0:0:0:0:
448,192,118625,1,0,0:0:0:0:
320,192,118700,1,0,0:0:0:0:
64,192,118776,1,0,0:0:0:0:
192,192,118776,1,0,0:0:0:0:
320,192,118851,1,0,0:0:0:0:
448,192,118851,1,0,0:0:0:0:
64,192,118926,1,0,0:0:0:0:
192,192,118926,1,0,0:0:0:0:
320,192,119002,1,0,0:0:0:0:
64,192,119077,1,0,0:0:0:0:
448,192,119077,1,0,0:0:0:0:
192,192,119152,1,0,0:0:0:0:
320,192,119152,1,0,0:0:0:0:
64,192,119228,1,0,0:0:0:0:
320,192,119228,1,0,0:0:0:0:
448,192,119228,1,0,0:0:0:0:
192,192,119303,1,0,0:0:0:0:
320,192,119379,1,0,0:0:0:0:
448,192,119379,1,0,0:0:0:0:
64,192,119454,1,0,0:0:0:0:
192,192,119454,1,0,0:0:0:0:
320,192,119529,1,0,0:0:0:0:
448,192,119529,1,0,0:0:0:0:
192,192,119605,1,0,0:0:0:0:
64,192,119680,1,0,0:0:0:0:
448,192,119680,1,0,0:0:0:0:
192,192,119755,1,0,0:0:0:0:
320,192,119755,1,0,0:0:0:0:
64,192,119831,1,0,0:0:0:0:
192,192,119831,1,0,0:0:0:0:
448,192,119831,1,0,0:0:0:0:
320,192,119906,1,0,0:0:0:0:
192,192,119982,1,0,0:0:0:0:
448,192,119982,1,0,0:0:0:0:
64,192,120057,1,0,0:0:0:0:
320,192,120057,1,0,0:0:0:0:
192,192,120132,1,0,0:0:0:0:
448,192,120132,1,0,0:0:0:0:
320,192,120208,1,0,0:0:0:0:
64,192,120283,1,0,0:0:0:0:
448,192,120283,1,0,0:0:0:0:
192,192,120359,1,0,0:0:0:0:
320,192,120359,1,0,0:0:0:0:
64,192,120434,1,0,0:0:0:0:
192,192,120434,1,0,0:0:0:0:
448,192,120434,1,0,0:0:0:0:
320,192,120509,1,0,0:0:0:0:
64,192,120585,1,0,0:0:0:0:
192,192,120585,1,0,0:0:0:0:
320,192,120660,1,0,0:0:0:0:
448,192,120660,1,0,0:0:0:0:
64,192,120735,1,0,0:0:0:0:
192,192,120735,1,0,0:0:0:0:
320,192,120811,1,0,0:0:0:0:
64,192,120886,1,0,0:0:0:0:
448,192,120886,1,0,0:0:0:0:
192,192,120962,1,0,0:0:0:0:
320,192,120962,1,0,0:0:0:0:
64,192,121037,1,0,0:0:0:0:
192,192,121037,1,0,0:0:0:0:
448,192,121037,1,0,0:0:0:0:
320,192,121112,1,0,0:0:0:0:
192,192,121188,1,0,0:0:0:0:
448,192,121188,1,0,0:0:0:0:
64,192,121263,1,0,0:0:0:0:
192,192,121338,1,0,0:0:0:0:
320,192,121338,1,0,0:0:0:0:
448,192,121338,1,0,0:0:0:0:
64,192,121414,1,0,0:0:0:0:
192,192,121489,1,0,0:0:0:0:
320,192,121489,1,0,0:0:0:0:
448,192,121565,1,0,0:0:0:0:
64,192,121640,1,0,0:0:0:0:
192,192,121640,1,0,0:0:0:0:
320,192,121640,1,0,0:0:0:0:
448,192,121715,1,0,0:0:0:0:
64,192,121791,1,0,0:0:0:0:
320,192,121791,1,0,0:0:0:0:
192,192,121866,1,0,0:0:0:0:
448,192,121866,1,0,0:0:0:0:
64,192,121941,1,0,0:0:0:0:
320,192,121941,1,0,0:0:0:0:
192,192,122017,1,0,0:0:0:0:
448,192,122017,1,0,0:0:0:0:
64,192,122092,1,0,0:0:0:0:
320,192,122092,1,0,0:0:0:0:
192,192,122168,1,0,0:0:0:0:
64,192,122243,1,0,0:0:0:0:
320,192,122243,1,0,0:0:0:0:
448,192,122243,1,0,0:0:0:0:
192,192,122318,1,0,0:0:0:0:
320,192,122394,1,0,0:0:0:0:
448,192,122394,1,0,0:0:0:0:
64,192,122469,1,0,0:0:0:0:
192,192,122469,1,0,0:0:0:0:
320,192,122544,1,0,0:0:0:0:
448,192,122544,1,0,0:0:0:0:
64,192,122620,1,0,0:0:0:0:
192,192,122695,1,0,0:0:0:0:
320,192,122695,1,0,0:0:0:0:
448,192,122695,1,0,0:0:0:0:
64,192,122771,1,0,0:0:0:0:
192,192,122846,1,0,0:0:0:0:
320,192,122846,1,0,0:0:0:0:
448,192,122846,1,0,0:0:0:0:
64,192,122921,1,0,0:0:0:0:
192,192,122997,1,0,0:0:0:0:
448,192,122997,1,0,0:0:0:0:
320,192,123072,1,0,0:0:0:0:
64,192,123147,1,0,0:0:0:0:
448,192,123147,1,0,0:0:0:0:
192,192,123223,1,0,0:0:0:0:
320,192,123223,1,0,0:0:0:0:
64,192,123298,1,0,0:0:0:0:
448,192,123298,1,0,0:0:0:0:
320,192,123374,1,0,0:0:0:0:
64,192,123449,1,0,0:0:0:0:
192,192,123449,1,0,0:0:0:0:
448,192,123449,1,0,0:0:0:0:
320,192,123524,1,0,0:0:0:0:
192,192,123600,1,0,0:0:0:0:
448,192,123600,1,0,0:0:0:0:
64,192,123675,1,0,0:0:0:0:
192,192,123750,1,0,0:0:0:0:
320,192,123750,1,0,0:0:0:0:
448,192,123750,1,0,0:0:0:0:
64,192,123826,1,0,0:0:0:0:
192,192,123901,1,0,0:0:0:0:
448,192,123901,1,0,0:0:0:0:
64,192,123977,1,0,0:0:0:0:
320,192,123977,1,0,0:0:0:0:
64,192,124052,1,0,0:0:0:0:
192,192,124052,1,0,0:0:0:0:
448,192,124052,1,0,0:0:0:0:
320,192,124127,1,0,0:0:0:0:
64,192,124203,1,0,0:0:0:0:
448,192,124203,1,0,0:0:0:0:
192,192,124278,1,0,0:0:0:0:
64,192,124353,1,0,0:0:0:0:
320,192,124353,1,0,0:0:0:0:
448,192,124353,1,0,0:0:0:0:
192,192,124429,1,0,0:0:0:0:
320,192,124504,1,0,0:0:0:0:
448,192,124504,1,0,0:0:0:0:
64,192,124580,1,0,0:0:0:0:
192,192,124580,1,0,0:0:0:0:
192,192,124655,1,0,0:0:0:0:
320,192,124655,1,0,0:0:0:0:
448,192,124655,1,0,0:0:0:0:
64,192,124730,1,0,0:0:0:0:
192,192,124806,1,0,0:0:0:0:
448,192,124806,1,0,0:0:0:0:
64,192,124881,1,0,0:0:0:0:
320,192,124956,1,0,0:0:0:0:
448,192,124956,1,0,0:0:0:0:
64,192,125032,1,0,0:0:0:0:
192,192,125107,1,0,0:0:0:0:
448,192,125107,1,0,0:0:0:0:
64,192,125183,1,0,0:0:0:0:
320,192,125183,1,0,0:0:0:0:
64,192,125258,1,0,0:0:0:0:
192,192,125258,1,0,0:0:0:0:
448,192,125258,1,0,0:0:0:0:
320,192,125333,1,0,0:0:0:0:
64,192,125409,1,0,0:0:0:0:
448,192,125409,1,0,0:0:0:0:
192,192,125484,1,0,0:0:0:0:
64,192,125559,1,0,0:0:0:0:
320,192,125559,1,0,0:0:0:0:
448,192,125559,1,0,0:0:0:0:
192,192,125635,1,0,0:0:0:0:
64,192,125710,1,0,0:0:0:0:
448,192,125710,1,0,0:0:0:0:
320,192,125786,1,0,0:0:0:0:
64,192,125861,1,0,0:0:0:0:
192,192,125861,1,0,0:0:0:0:
448,192,125861,1,0,0:0:0:0:
320,192,125936,1,0,0:0:0:0:
448,192,126012,1,0,0:0:0:0:
192,192,126087,1,0,0:0:0:0:
64,192,126163,1,0,0:0:0:0:
320,192,126163,1,0,0:0:0:0:
448,192,126163,1,0,0:0:0:0:
192,192,126238,1,0,0:0:0:0:
448,192,126313,1,0,0:0:0:0:
64,192,126389,1,0,0:0:0:0:
192,192,126464,1,0,0:0:0:0:
320,192,126464,1,0,0:0:0:0:
448,192,126464,1,0,0:0:0:0:
64,192,126539,1,0,0:0:0:0:
192,192,126615,1,0,0:0:0:0:
448,192,126690,1,0,0:0:0:0:
64,192,126766,1,0,0:0:0:0:
192,192,126766,1,0,0:0:0:0:
320,192,126766,1,0,0:0:0:0:
448,192,126841,1,0,0:0:0:0:
192,192,126916,1,0,0:0:0:0:
320,192,126992,1,0,0:0:0:0:
64,192,127067,1,0,0:0:0:0:
192,192,127067,1,0,0:0:0:0:
448,192,127067,1,0,0:0:0:0:
320,192,127142,1,0,0:0:0:0:
448,192,127218,1,0,0:0:0:0:
192,192,127293,1,0,0:0:0:0:
64,192,127369,1,0,0:0:0:0:
320,192,127369,1,0,0:0:0:0:
448,192,127369,1,0,0:0:0:0:
192,192,127444,1,0,0:0:0:0:
320,192,127519,1,0,0:0:0:0:
448,192,127595,1,0,0:0:0:0:
64,192,127670,1,0,0:0:0:0:
192,192,127670,1,0,0:0:0:0:
320,192,127670,1,0,0:0:0:0:
448,192,127745,1,0,0:0:0:0:
64,192,127821,1,0,0:0:0:0:
192,192,127821,1,0,0:0:0:0:
320,192,127896,1,0,0:0:0:0:
448,192,127896,1,0,0:0:0:0:
64,192,127972,1,0,0:0:0:0:
192,192,127972,1,0,0:0:0:0:
448,192,127972,1,0,0:0:0:0:
320,192,128047,1,0,0:0:0:0:
64,192,128122,1,0,0:0:0:0:
192,192,128198,1,0,0:0:0:0:
64,192,128273,1,0,0:0:0:0:
320,192,128273,1,0,0:0:0:0:
448,192,128273,1,0,0:0:0:0:
192,192,128348,1,0,0:0:0:0:
320,192,128424,1,0,0:0:0:0:
448,192,128424,1,0,0:0:0:0:
64,192,128499,1,0,0:0:0:0:
192,192,128499,1,0,0:0:0:0:
192,192,128575,1,0,0:0:0:0:
320,192,128575,1,0,0:0:0:0:
448,192,128575,1,0,0:0:0:0:
64,192,128650,1,0,0:0:0:0:
192,192,128725,1,0,0:0:0:0:
320,192,128725,1,0,0:0:0:0:
64,192,128801,1,0,0:0:0:0:
192,192,128876,1,0,0:0:0:0:
320,192,128876,1,0,0:0:0:0:
448,192,128876,1,0,0:0:0:0:
64,192,128951,1,0,0:0:0:0:
320,192,129027,1,0,0:0:0:0:
448,192,129027,1,0,0:0:0:0:
64,192,129102,1,0,0:0:0:0:
192,192,129102,1,0,0:0:0:0:
320,192,129178,1,0,0:0:0:0:
448,192,129178,1,0,0:0:0:0:
192,192,129253,1,0,0:0:0:0:
448,192,129253,1,0,0:0:0:0:
64,192,129328,1,0,0:0:0:0:
320,192,129328,1,0,0:0:0:0:
192,192,129404,1,0,0:0:0:0:
448,192,129404,1,0,0:0:0:0:
64,192,129479,1,0,0:0:0:0:
320,192,129479,1,0,0:0:0:0:
448,192,129479,1,0,0:0:0:0:
192,192,129554,1,0,0:0:0:0:
64,192,129630,1,0,0:0:0:0:
448,192,129630,1,0,0:0:0:0:
192,192,129705,1,0,0:0:0:0:
320,192,129705,1,0,0:0:0:0:
64,192,129781,1,0,0:0:0:0:
192,192,129781,1,0,0:0:0:0:
448,192,129781,1,0,0:0:0:0:
320,192,129856,1,0,0:0:0:0:
64,192,129931,1,0,0:0:0:0:
192,192,129931,1,0,0:0:0:0:
320,192,130007,1,0,0:0:0:0:
64,192,130082,1,0,0:0:0:0:
192,192,130082,1,0,0:0:0:0:
448,192,130082,1,0,0:0:0:0:
320,192,130157,1,0,0:0:0:0:
64,192,130233,1,0,0:0:0:0:
448,192,130233,1,0,0:0:0:0:
192,192,130308,1,0,0:0:0:0:
320,192,130308,1,0,0:0:0:0:
64,192,130384,1,0,0:0:0:0:
320,192,130384,1,0,0:0:0:0:
448,192,130384,1,0,0:0:0:0:
192,192,130459,1,0,0:0:0:0:
64,192,130534,1,0,0:0:0:0:
448,192,130534,1,0,0:0:0:0:
320,192,130610,1,0,0:0:0:0:
64,192,130685,1,0,0:0:0:0:
192,192,130685,1,0,0:0:0:0:
448,192,130685,1,0,0:0:0:0:
320,192,130760,1,0,0:0:0:0:
192,192,130836,1,0,0:0:0:0:
448,192,130836,1,0,0:0:0:0:
64,192,130911,1,0,0:0:0:0:
320,192,130911,1,0,0:0:0:0:
192,192,130987,1,0,0:0:0:0:
320,192,130987,1,0,0:0:0:0:
448,192,130987,1,0,0:0:0:0:
64,192,131062,1,0,0:0:0:0:
320,192,131137,1,0,0:0:0:0:
448,192,131137,1,0,0:0:0:0:
192,192,131213,1,0,0:0:0:0:
64,192,131288,1,0,0:0:0:0:
320,192,131288,1,0,0:0:0:0:
448,192,131288,1,0,0:0:0:0:
192,192,131363,1,0,0:0:0:0:
320,192,131439,1,0,0:0:0:0:
448,192,131439,1,0,0:0:0:0:
192,192,131514,1,0,0:0:0:0:
64,192,131590,1,0,0:0:0:0:
320,192,131590,1,0,0:0:0:0:
448,192,131590,1,0,0:0:0:0:
64,192,131665,1,0,0:0:0:0:
192,192,131665,1,0,0:0:0:0:
320,192,131740,1,0,0:0:0:0:
448,192,131740,1,0,0:0:0:0:
64,192,131816,1,0,0:0:0:0:
192,192,131816,1,0,0:0:0:0:
64,192,131891,1,0,0:0:0:0:
320,192,131891,1,0,0:0:0:0:
448,192,131891,1,0,0:0:0:0:
192,192,131966,1,0,0:0:0:0:
448,192,132042,1,0,0:0:0:0:
64,192,132117,1,0,0:0:0:0:
192,192,132193,1,0,0:0:0:0:
448,192,132193,1,0,0:0:0:0:
320,192,132268,1,0,0:0:0:0:
64,192,132343,1,0,0:0:0:0:
192,192,132343,1,0,0:0:0:0:
320,192,132419,1,0,0:0:0:0:
64,192,132494,1,0,0:0:0:0:
192,192,132494,1,0,0:0:0:0:
448,192,132494,1,0,0:0:0:0:
320,192,132570,1,0,0:0:0:0:
448,192,132645,1,0,0:0:0:0:
192,192,132720,1,0,0:0:0:0:
64,192,132796,1,0,0:0:0:0:
448,192,132796,1,0,0:0:0:0:
320,192,132871,1,0,0:0:0:0:
192,192,132946,1,0,0:0:0:0:
448,192,132946,1,0,0:0:0:0:
64,192,133022,1,0,0:0:0:0:
192,192,133097,1,0,0:0:0:0:
320,192,133097,1,0,0:0:0:0:
448,192,133097,1,0,0:0:0:0:
64,192,133173,1,0,0:0:0:0:
320,192,133248,1,0,0:0:0:0:
192,192,133323,1,0,0:0:0:0:
64,192,133399,1,0,0:0:0:0:
320,192,133399,1,0,0:0:0:0:
448,192,133399,1,0,0:0:0:0:
192,192,133474,1,0,0:0:0:0:
320,192,133549,1,0,0:0:0:0:
192,192,133625,1,0,0:0:0:0:
448,192,133625,1,0,0:0:0:0:
64,192,133700,1,0,0:0:0:0:
320,192,133700,1,0,0:0:0:0:
448,192,133700,1,0,0:0:0:0:
192,192,133776,1,0,0:0:0:0:
320,192,133851,1,0,0:0:0:0:
64,192,133926,1,0,0:0:0:0:
192,192,134002,1,0,0:0:0:0:
320,192,134002,1,0,0:0:0:0:
448,192,134002,1,0,0:0:0:0:
64,192,134077,1,0,0:0:0:0:
192,192,134077,1,0,0:0:0:0:
320,192,134152,1,0,0:0:0:0:
448,192,134152,1,0,0:0:0:0:
64,192,134228,1,0,0:0:0:0:
192,192,134228,1,0,0:0:0:0:
64,192,134303,1,0,0:0:0:0:
320,192,134303,1,0,0:0:0:0:
448,192,134303,1,0,0:0:0:0:
192,192,134379,1,0,0:0:0:0:
320,192,134454,1,0,0:0:0:0:
448,192,134454,1,0,0:0:0:0:
64,192,134529,1,0,0:0:0:0:
192,192,134529,1,0,0:0:0:0:
64,192,134605,1,0,0:0:0:0:
320,192,134605,1,0,0:0:0:0:
448,192,134605,1,0,0:0:0:0:
192,192,134680,1,0,0:0:0:0:
64,192,134755,1,0,0:0:0:0:
448,192,134755,1,0,0:0:0:0:
192,192,134831,1,0,0:0:0:0:
320,192,134831,1,0,0:0:0:0:
64,192,134906,1,0,0:0:0:0:
320,192,134906,1,0,0:0:0:0:
448,192,134906,1,0,0:0:0:0:
192,192,134982,1,0,0:0:0:0:
64,192,135057,1,0,0:0:0:0:
320,192,135057,1,0,0:0:0:0:
192,192,135132,1,0,0:0:0:0:
448,192,135132,1,0,0:0:0:0:
64,192,135208,1,0,0:0:0:0:
320,192,135208,1,0,0:0:0:0:
448,192,135208,1,0,0:0:0:0:
192,192,135283,1,0,0:0:0:0:
320,192,135358,1,0,0:0:0:0:
448,192,135358,1,0,0:0:0:0:
64,192,135434,1,0,0:0:0:0:
192,192,135434,1,0,0:0:0:0:
64,192,135509,1,0,0:0:0:0:
320,192,135509,1,0,0:0:0:0:
448,192,135509,1,0,0:0:0:0:
64,192,135585,1,0,0:0:0:0:
192,192,135585,1,0,0:0:0:0:
320,192,135660,1,0,0:0:0:0:
448,192,135660,1,0,0:0:0:0:
64,192,135735,1,0,0:0:0:0:
192,192,135735,1,0,0:0:0:0:
320,192,135811,1,0,0:0:0:0:
448,192,135811,1,0,0:0:0:0:
64,192,135886,1,0,0:0:0:0:
192,192,135886,1,0,0:0:0:0:
320,192,135961,1,0,0:0:0:0:
448,192,135961,1,0,0:0:0:0:
64,192,136037,1,0,0:0:0:0:
192,192,136037,1,0,0:0:0:0:
320,192,136112,1,0,0:0:0:0:
448,192,136112,1,0,0:0:0:0:
64,192,136162,1,0,0:0:0:0:
192,192,136162,1,0,0:0:0:0:
320,192,136213,1,0,0:0:0:0:
448,192,136213,1,0,0:0:0:0:
64,192,136263,1,0,0:0:0:0:
192,192,136263,1,0,0:0:0:0:
320,192,136313,1,0,0:0:0:0:
448,192,136313,1,0,0:0:0:0:
64,192,136363,1,0,0:0:0:0:
192,192,136363,1,0,0:0:0:0:
320,192,136414,1,0,0:0:0:0:
448,192,136414,1,0,0:0:0:0:
64,192,136464,1,0,0:0:0:0:
192,192,136464,1,0,0:0:0:0:
320,192,136514,1,0,0:0:0:0:
448,192,136514,1,0,0:0:0:0:
64,192,136564,1,0,0:0:0:0:
192,192,136564,1,0,0:0:0:0:
320,192,136615,1,0,0:0:0:0:
448,192,136615,1,0,0:0:0:0:
64,192,136665,1,0,0:0:0:0:
192,192,136665,1,0,0:0:0:0:
64,192,136715,1,0,0:0:0:0:
320,192,136715,1,0,0:0:0:0:
448,192,136715,1,0,0:0:0:0:
320,192,136866,1,0,0:0:0:0:
448,192,136866,1,0,0:0:0:0:
64,192,137469,1,0,0:0:0:0:
192,192,137620,1,0,0:0:0:0:
320,192,137620,1,0,0:0:0:0:
448,192,137770,1,0,0:0:0:0:
64,192,137921,1,0,0:0:0:0:
320,192,137921,1,0,0:0:0:0:
192,192,138373,1,0,0:0:0:0:
64,192,138675,1,0,0:0:0:0:
192,192,138826,1,0,0:0:0:0:
320,192,138826,1,0,0:0:0:0:
448,192,138977,1,0,0:0:0:0:
64,192,139127,1,0,0:0:0:0:
320,192,139127,1,0,0:0:0:0:
64,192,139278,1,0,0:0:0:0:
320,192,139278,1,0,0:0:0:0:
320,192,139881,1,0,0:0:0:0:
448,192,139881,1,0,0:0:0:0:
192,192,140032,1,0,0:0:0:0:
64,192,140183,1,0,0:0:0:0:
320,192,140333,1,0,0:0:0:0:
448,192,140333,1,0,0:0:0:0:
192,192,140484,1,0,0:0:0:0:
64,192,140635,1,0,0:0:0:0:
192,192,140786,1,0,0:0:0:0:
448,192,140786,1,0,0:0:0:0:
320,192,140936,1,0,0:0:0:0:
64,192,141087,1,0,0:0:0:0:
192,192,141238,1,0,0:0:0:0:
320,192,141238,1,0,0:0:0:0:
64,192,141389,1,0,0:0:0:0:
192,192,141539,1,0,0:0:0:0:
448,192,141539,1,0,0:0:0:0:
192,192,141690,1,0,0:0:0:0:
448,192,141690,1,0,0:0:0:0:
64,192,142293,1,0,0:0:0:0:
320,192,142293,1,0,0:0:0:0:
192,192,142444,1,0,0:0:0:0:
320,192,142595,1,0,0:0:0:0:
64,192,142745,1,0,0:0:0:0:
448,192,142745,1,0,0:0:0:0:
64,192,142896,1,0,0:0:0:0:
448,192,142896,1,0,0:0:0:0:
192,192,143499,1,0,0:0:0:0:
448,192,143650,1,0,0:0:0:0:
64,192,143801,1,0,0:0:0:0:
192,192,143951,1,0,0:0:0:0:
320,192,143951,1,0,0:0:0:0:
192,192,144102,1,0,0:0:0:0:
320,192,144102,1,0,0:0:0:0:
192,192,144705,1,0,0:0:0:0:
448,192,144856,1,0,0:0:0:0:
64,192,145007,1,0,0:0:0:0:
192,192,145157,1,0,0:0:0:0:
320,192,145157,1,0,0:0:0:0:
448,192,145157,1,0,0:0:0:0:
64,192,145233,1,0,0:0:0:0:
192,192,145233,1,0,0:0:0:0:
320,192,145308,1,0,0:0:0:0:
448,192,145308,1,0,0:0:0:0:
64,192,145384,1,0,0:0:0:0:
192,192,145459,1,0,0:0:0:0:
320,192,145459,1,0,0:0:0:0:
448,192,145459,1,0,0:0:0:0:
64,192,145534,1,0,0:0:0:0:
320,192,145534,1,0,0:0:0:0:
192,192,145610,1,0,0:0:0:0:
448,192,145610,1,0,0:0:0:0:
320,192,145685,1,0,0:0:0:0:
64,192,145760,1,0,0:0:0:0:
192,192,145760,1,0,0:0:0:0:
448,192,145760,1,0,0:0:0:0:
320,192,145836,1,0,0:0:0:0:
448,192,145911,1,0,0:0:0:0:
192,192,145987,1,0,0:0:0:0:
64,192,146062,1,0,0:0:0:0:
320,192,146062,1,0,0:0:0:0:
448,192,146062,1,0,0:0:0:0:
192,192,146137,1,0,0:0:0:0:
320,192,146213,1,0,0:0:0:0:
64,192,146288,1,0,0:0:0:0:
192,192,146363,1,0,0:0:0:0:
320,192,146363,1,0,0:0:0:0:
448,192,146363,1,0,0:0:0:0:
64,192,146439,1,0,0:0:0:0:
320,192,146514,1,0,0:0:0:0:
192,192,146590,1,0,0:0:0:0:
64,192,146665,1,0,0:0:0:0:
320,192,146665,1,0,0:0:0:0:
448,192,146665,1,0,0:0:0:0:
192,192,146740,1,0,0:0:0:0:
448,192,146816,1,0,0:0:0:0:
320,192,146891,1,0,0:0:0:0:
64,192,146966,1,0,0:0:0:0:
192,192,146966,1,0,0:0:0:0:
448,192,146966,1,0,0:0:0:0:
320,192,147042,1,0,0:0:0:0:
448,192,147117,1,0,0:0:0:0:
192,192,147193,1,0,0:0:0:0:
64,192,147268,1,0,0:0:0:0:
320,192,147268,1,0,0:0:0:0:
448,192,147268,1,0,0:0:0:0:
192,192,147343,1,0,0:0:0:0:
320,192,147419,1,0,0:0:0:0:
64,192,147494,1,0,0:0:0:0:
64,192,147720,1,0,0:0:0:0:
192,192,147770,1,0,0:0:0:0:
320,192,147821,1,0,0:0:0:0:
192,192,147871,1,0,0:0:0:0:
64,0,147871,128,0,151640:0:0:0:0:
448,0,147871,128,0,151640:0:0:0:0:
