osu file format v14

[General]
AudioFilename: Max Burning.mp3
AudioLeadIn: 2
PreviewTime: 72533
Countdown: 0
SampleSet: None
StackLeniency: 0.7
Mode: 3
LetterboxInBreaks: 0
SpecialStyle: 0
WidescreenStoryboard: 0

[Editor]
DistanceSpacing: 0.8
BeatDivisor: 4
GridSize: 8
TimelineZoom: 1

[Metadata]
Title:dakemoto's Collection Pack Vol.1
TitleUnicode:dakemoto's Collection Pack Vol.1
Artist:Various Artist
ArtistUnicode:Various Artist
Creator:dakemoto
Version:Max Burning!! (Challenge)
Source:Stepmania
Tags:
BeatmapID:741048
BeatmapSetID:329410

[Difficulty]
HPDrainRate:7
CircleSize:4
OverallDifficulty:8
ApproachRate:10
SliderMultiplier:1.4
SliderTickRate:1

[Events]
//Background and Video events
0,0,"Max Burning 1280720 bg.jpg",0,0
//Break Periods
//Storyboard Layer 0 (Background)
//Storyboard Layer 1 (Fail)
//Storyboard Layer 2 (Pass)
//Storyboard Layer 3 (Foreground)
//Storyboard Sound Samples

[TimingPoints]
1828,315.7895,4,1,0,15,1,0

[HitObjects]
64,192,1828,5,0,0:0:0:0:
320,192,1828,1,0,0:0:0:0:
448,192,1828,1,0,0:0:0:0:
64,192,1985,1,0,0:0:0:0:
192,192,2143,1,0,0:0:0:0:
320,192,2301,1,0,0:0:0:0:
64,192,2459,1,0,0:0:0:0:
64,192,2617,1,0,0:0:0:0:
192,192,2775,1,0,0:0:0:0:
320,192,2933,1,0,0:0:0:0:
448,192,3012,1,0,0:0:0:0:
64,192,3091,1,0,0:0:0:0:
64,192,3249,1,0,0:0:0:0:
192,192,3406,1,0,0:0:0:0:
320,192,3564,1,0,0:0:0:0:
64,192,3722,1,0,0:0:0:0:
64,192,3880,1,0,0:0:0:0:
192,192,4038,1,0,0:0:0:0:
320,192,4196,1,0,0:0:0:0:
448,192,4275,1,0,0:0:0:0:
64,192,4354,1,0,0:0:0:0:
64,192,4512,1,0,0:0:0:0:
192,192,4670,1,0,0:0:0:0:
320,192,4828,1,0,0:0:0:0:
64,192,4985,1,0,0:0:0:0:
64,192,5143,1,0,0:0:0:0:
192,192,5301,1,0,0:0:0:0:
320,192,5459,1,0,0:0:0:0:
448,192,5538,1,0,0:0:0:0:
64,192,5617,1,0,0:0:0:0:
64,192,5775,1,0,0:0:0:0:
192,192,5933,1,0,0:0:0:0:
320,192,6091,1,0,0:0:0:0:
64,192,6249,1,0,0:0:0:0:
64,192,6406,1,0,0:0:0:0:
192,192,6564,1,0,0:0:0:0:
320,192,6722,1,0,0:0:0:0:
448,192,6801,1,0,0:0:0:0:
64,192,6880,1,0,0:0:0:0:
64,192,7038,1,0,0:0:0:0:
192,192,7196,1,0,0:0:0:0:
448,192,7196,1,0,0:0:0:0:
320,192,7354,1,0,0:0:0:0:
64,192,7512,1,0,0:0:0:0:
64,192,7670,1,0,0:0:0:0:
192,192,7828,1,0,0:0:0:0:
448,192,7828,1,0,0:0:0:0:
320,192,7985,1,0,0:0:0:0:
448,192,8064,1,0,0:0:0:0:
64,192,8143,1,0,0:0:0:0:
64,192,8301,1,0,0:0:0:0:
192,192,8459,1,0,0:0:0:0:
448,192,8459,1,0,0:0:0:0:
320,192,8617,1,0,0:0:0:0:
64,192,8775,1,0,0:0:0:0:
64,192,8933,1,0,0:0:0:0:
192,192,9091,1,0,0:0:0:0:
448,192,9091,1,0,0:0:0:0:
320,192,9249,1,0,0:0:0:0:
448,192,9328,1,0,0:0:0:0:
64,192,9406,1,0,0:0:0:0:
64,192,9564,1,0,0:0:0:0:
192,192,9722,1,0,0:0:0:0:
448,192,9722,1,0,0:0:0:0:
320,192,9880,1,0,0:0:0:0:
64,192,10038,1,0,0:0:0:0:
64,192,10196,1,0,0:0:0:0:
192,192,10354,1,0,0:0:0:0:
448,192,10354,1,0,0:0:0:0:
320,192,10512,1,0,0:0:0:0:
448,192,10591,1,0,0:0:0:0:
64,192,10670,1,0,0:0:0:0:
64,192,10828,1,0,0:0:0:0:
192,192,10985,1,0,0:0:0:0:
448,192,10985,1,0,0:0:0:0:
320,192,11143,1,0,0:0:0:0:
64,192,11301,1,0,0:0:0:0:
64,192,11459,1,0,0:0:0:0:
192,192,11617,1,0,0:0:0:0:
448,192,11617,1,0,0:0:0:0:
320,192,11775,1,0,0:0:0:0:
192,192,11854,1,0,0:0:0:0:
64,192,11933,1,0,0:0:0:0:
320,192,11933,1,0,0:0:0:0:
448,192,11933,1,0,0:0:0:0:
64,192,12091,1,0,0:0:0:0:
320,192,12249,1,0,0:0:0:0:
448,192,12249,1,0,0:0:0:0:
192,192,12406,1,0,0:0:0:0:
64,192,12564,1,0,0:0:0:0:
448,192,12564,1,0,0:0:0:0:
320,192,12643,1,0,0:0:0:0:
64,192,12801,1,0,0:0:0:0:
192,192,12880,1,0,0:0:0:0:
448,192,12880,1,0,0:0:0:0:
320,192,12959,1,0,0:0:0:0:
64,192,13038,1,0,0:0:0:0:
192,192,13196,1,0,0:0:0:0:
320,192,13196,1,0,0:0:0:0:
448,192,13354,1,0,0:0:0:0:
64,192,13512,1,0,0:0:0:0:
192,192,13512,1,0,0:0:0:0:
320,192,13670,1,0,0:0:0:0:
64,192,13828,1,0,0:0:0:0:
448,192,13828,1,0,0:0:0:0:
192,192,13985,1,0,0:0:0:0:
448,192,14064,1,0,0:0:0:0:
64,192,14143,1,0,0:0:0:0:
320,192,14143,1,0,0:0:0:0:
448,192,14222,1,0,0:0:0:0:
320,192,14301,1,0,0:0:0:0:
192,192,14380,1,0,0:0:0:0:
64,192,14459,1,0,0:0:0:0:
448,192,14459,1,0,0:0:0:0:
448,192,14617,1,0,0:0:0:0:
64,192,14775,1,0,0:0:0:0:
192,192,14775,1,0,0:0:0:0:
320,192,14933,1,0,0:0:0:0:
192,192,15091,1,0,0:0:0:0:
448,192,15091,1,0,0:0:0:0:
320,192,15170,1,0,0:0:0:0:
64,192,15328,1,0,0:0:0:0:
320,192,15406,1,0,0:0:0:0:
448,192,15406,1,0,0:0:0:0:
64,192,15485,1,0,0:0:0:0:
192,192,15564,1,0,0:0:0:0:
64,192,15722,1,0,0:0:0:0:
320,192,15722,1,0,0:0:0:0:
448,192,15880,1,0,0:0:0:0:
64,192,16038,1,0,0:0:0:0:
192,192,16038,1,0,0:0:0:0:
448,192,16196,1,0,0:0:0:0:
192,192,16354,1,0,0:0:0:0:
320,192,16354,1,0,0:0:0:0:
64,192,16433,1,0,0:0:0:0:
448,192,16591,1,0,0:0:0:0:
64,192,16670,1,0,0:0:0:0:
192,192,16670,1,0,0:0:0:0:
320,192,16749,1,0,0:0:0:0:
448,192,16828,1,0,0:0:0:0:
64,192,16985,1,0,0:0:0:0:
320,192,16985,1,0,0:0:0:0:
64,192,17143,1,0,0:0:0:0:
320,192,17143,1,0,0:0:0:0:
64,192,17301,1,0,0:0:0:0:
192,192,17301,1,0,0:0:0:0:
64,192,17459,1,0,0:0:0:0:
448,192,17459,1,0,0:0:0:0:
64,192,17617,1,0,0:0:0:0:
320,192,17617,1,0,0:0:0:0:
192,192,17696,1,0,0:0:0:0:
64,192,17775,1,0,0:0:0:0:
448,192,17854,1,0,0:0:0:0:
64,192,17933,1,0,0:0:0:0:
192,192,17933,1,0,0:0:0:0:
320,192,18012,1,0,0:0:0:0:
64,192,18091,1,0,0:0:0:0:
448,192,18091,1,0,0:0:0:0:
64,192,18249,1,0,0:0:0:0:
192,192,18249,1,0,0:0:0:0:
64,192,18406,1,0,0:0:0:0:
448,192,18406,1,0,0:0:0:0:
64,192,18564,1,0,0:0:0:0:
192,192,18564,1,0,0:0:0:0:
64,192,18722,1,0,0:0:0:0:
320,192,18722,1,0,0:0:0:0:
64,192,18880,1,0,0:0:0:0:
448,192,18880,1,0,0:0:0:0:
64,192,19038,1,0,0:0:0:0:
448,192,19038,1,0,0:0:0:0:
192,192,19117,1,0,0:0:0:0:
64,192,19196,1,0,0:0:0:0:
448,192,19196,1,0,0:0:0:0:
320,192,19275,1,0,0:0:0:0:
64,192,19354,1,0,0:0:0:0:
192,192,19354,1,0,0:0:0:0:
320,192,19433,1,0,0:0:0:0:
64,192,19512,1,0,0:0:0:0:
448,192,19512,1,0,0:0:0:0:
192,192,19591,1,0,0:0:0:0:
320,192,19670,1,0,0:0:0:0:
448,192,19670,1,0,0:0:0:0:
192,192,19749,1,0,0:0:0:0:
64,192,19828,1,0,0:0:0:0:
320,192,19828,1,0,0:0:0:0:
448,192,19906,1,0,0:0:0:0:
64,192,19985,1,0,0:0:0:0:
192,192,19985,1,0,0:0:0:0:
320,192,20064,1,0,0:0:0:0:
64,192,20143,1,0,0:0:0:0:
448,192,20143,1,0,0:0:0:0:
192,192,20222,1,0,0:0:0:0:
320,192,20222,1,0,0:0:0:0:
448,192,20301,1,0,0:0:0:0:
64,192,20380,1,0,0:0:0:0:
320,192,20380,1,0,0:0:0:0:
192,192,20459,1,0,0:0:0:0:
448,192,20459,1,0,0:0:0:0:
64,192,20538,1,0,0:0:0:0:
320,192,20538,1,0,0:0:0:0:
192,192,20617,1,0,0:0:0:0:
448,192,20617,1,0,0:0:0:0:
320,192,20696,1,0,0:0:0:0:
64,192,20775,1,0,0:0:0:0:
448,192,20775,1,0,0:0:0:0:
192,192,20854,1,0,0:0:0:0:
320,192,20933,1,0,0:0:0:0:
64,192,21012,1,0,0:0:0:0:
448,192,21012,1,0,0:0:0:0:
320,192,21091,1,0,0:0:0:0:
192,192,21170,1,0,0:0:0:0:
64,192,21249,1,0,0:0:0:0:
448,192,21249,1,0,0:0:0:0:
192,192,21328,1,0,0:0:0:0:
320,192,21406,1,0,0:0:0:0:
64,192,21485,1,0,0:0:0:0:
448,192,21485,1,0,0:0:0:0:
320,192,21564,1,0,0:0:0:0:
192,192,21643,1,0,0:0:0:0:
64,192,21722,1,0,0:0:0:0:
448,192,21722,1,0,0:0:0:0:
192,192,21801,1,0,0:0:0:0:
320,192,21880,1,0,0:0:0:0:
448,192,21880,1,0,0:0:0:0:
192,192,21959,1,0,0:0:0:0:
64,192,22038,1,0,0:0:0:0:
320,192,22038,1,0,0:0:0:0:
448,192,22038,1,0,0:0:0:0:
320,192,22196,1,0,0:0:0:0:
448,192,22196,1,0,0:0:0:0:
64,192,22354,1,0,0:0:0:0:
192,192,22354,1,0,0:0:0:0:
192,192,22512,1,0,0:0:0:0:
320,192,22512,1,0,0:0:0:0:
64,192,22670,1,0,0:0:0:0:
448,192,22670,1,0,0:0:0:0:
192,192,22749,1,0,0:0:0:0:
320,192,22749,1,0,0:0:0:0:
320,192,22906,1,0,0:0:0:0:
448,192,22906,1,0,0:0:0:0:
64,192,22985,1,0,0:0:0:0:
192,192,22985,1,0,0:0:0:0:
320,192,23064,1,0,0:0:0:0:
64,192,23143,1,0,0:0:0:0:
448,192,23143,1,0,0:0:0:0:
192,192,23222,1,0,0:0:0:0:
64,192,23301,1,0,0:0:0:0:
320,192,23301,1,0,0:0:0:0:
64,192,23459,1,0,0:0:0:0:
320,192,23459,1,0,0:0:0:0:
64,192,23617,1,0,0:0:0:0:
192,192,23617,1,0,0:0:0:0:
192,192,23775,1,0,0:0:0:0:
448,192,23775,1,0,0:0:0:0:
320,192,23933,1,0,0:0:0:0:
448,192,23933,1,0,0:0:0:0:
320,192,24091,1,0,0:0:0:0:
448,192,24091,1,0,0:0:0:0:
64,192,24170,1,0,0:0:0:0:
192,192,24170,1,0,0:0:0:0:
320,192,24249,1,0,0:0:0:0:
448,192,24249,1,0,0:0:0:0:
64,192,24328,1,0,0:0:0:0:
192,192,24406,1,0,0:0:0:0:
448,192,24406,1,0,0:0:0:0:
320,192,24485,1,0,0:0:0:0:
64,192,24564,1,0,0:0:0:0:
448,192,24564,1,0,0:0:0:0:
64,192,24722,1,0,0:0:0:0:
448,192,24722,1,0,0:0:0:0:
192,192,24880,1,0,0:0:0:0:
320,192,24880,1,0,0:0:0:0:
192,192,25038,1,0,0:0:0:0:
448,192,25038,1,0,0:0:0:0:
320,192,25196,1,0,0:0:0:0:
448,192,25196,1,0,0:0:0:0:
64,192,25275,1,0,0:0:0:0:
192,192,25275,1,0,0:0:0:0:
192,192,25433,1,0,0:0:0:0:
320,192,25433,1,0,0:0:0:0:
64,192,25512,1,0,0:0:0:0:
448,192,25512,1,0,0:0:0:0:
192,192,25591,1,0,0:0:0:0:
320,192,25670,1,0,0:0:0:0:
64,192,25749,1,0,0:0:0:0:
192,192,25828,1,0,0:0:0:0:
448,192,25828,1,0,0:0:0:0:
320,192,25985,1,0,0:0:0:0:
448,192,25985,1,0,0:0:0:0:
64,192,26143,1,0,0:0:0:0:
320,192,26143,1,0,0:0:0:0:
64,192,26301,1,0,0:0:0:0:
192,192,26301,1,0,0:0:0:0:
320,192,26459,1,0,0:0:0:0:
448,192,26459,1,0,0:0:0:0:
64,192,26538,1,0,0:0:0:0:
192,192,26538,1,0,0:0:0:0:
64,192,26696,1,0,0:0:0:0:
320,192,26696,1,0,0:0:0:0:
192,192,26775,1,0,0:0:0:0:
448,192,26775,1,0,0:0:0:0:
320,192,26854,1,0,0:0:0:0:
64,192,26933,1,0,0:0:0:0:
448,192,26933,1,0,0:0:0:0:
320,192,27091,1,0,0:0:0:0:
448,192,27091,1,0,0:0:0:0:
320,192,27249,1,0,0:0:0:0:
448,192,27249,1,0,0:0:0:0:
64,192,27406,1,0,0:0:0:0:
192,192,27406,1,0,0:0:0:0:
448,192,27406,1,0,0:0:0:0:
192,192,27564,1,0,0:0:0:0:
320,192,27564,1,0,0:0:0:0:
64,192,27722,1,0,0:0:0:0:
448,192,27722,1,0,0:0:0:0:
192,192,27801,1,0,0:0:0:0:
320,192,27801,1,0,0:0:0:0:
320,192,27959,1,0,0:0:0:0:
448,192,27959,1,0,0:0:0:0:
64,192,28038,1,0,0:0:0:0:
192,192,28038,1,0,0:0:0:0:
448,192,28038,1,0,0:0:0:0:
320,192,28117,1,0,0:0:0:0:
64,192,28196,1,0,0:0:0:0:
448,192,28196,1,0,0:0:0:0:
192,192,28275,1,0,0:0:0:0:
64,192,28354,1,0,0:0:0:0:
320,192,28354,1,0,0:0:0:0:
64,192,28512,1,0,0:0:0:0:
320,192,28512,1,0,0:0:0:0:
64,192,28670,1,0,0:0:0:0:
192,192,28670,1,0,0:0:0:0:
448,192,28670,1,0,0:0:0:0:
192,192,28828,1,0,0:0:0:0:
448,192,28828,1,0,0:0:0:0:
320,192,28985,1,0,0:0:0:0:
448,192,28985,1,0,0:0:0:0:
320,192,29143,1,0,0:0:0:0:
448,192,29143,1,0,0:0:0:0:
64,192,29222,1,0,0:0:0:0:
192,192,29222,1,0,0:0:0:0:
64,192,29301,1,0,0:0:0:0:
320,192,29301,1,0,0:0:0:0:
448,192,29301,1,0,0:0:0:0:
192,192,29380,1,0,0:0:0:0:
320,192,29459,1,0,0:0:0:0:
448,192,29459,1,0,0:0:0:0:
192,192,29538,1,0,0:0:0:0:
64,192,29617,1,0,0:0:0:0:
448,192,29617,1,0,0:0:0:0:
64,192,29775,1,0,0:0:0:0:
448,192,29775,1,0,0:0:0:0:
64,192,29933,1,0,0:0:0:0:
192,192,29933,1,0,0:0:0:0:
320,192,29933,1,0,0:0:0:0:
192,192,30091,1,0,0:0:0:0:
448,192,30091,1,0,0:0:0:0:
320,192,30249,1,0,0:0:0:0:
448,192,30249,1,0,0:0:0:0:
64,192,30328,1,0,0:0:0:0:
192,192,30328,1,0,0:0:0:0:
192,192,30485,1,0,0:0:0:0:
320,192,30485,1,0,0:0:0:0:
64,192,30564,1,0,0:0:0:0:
320,192,30564,1,0,0:0:0:0:
448,192,30564,1,0,0:0:0:0:
192,192,30643,1,0,0:0:0:0:
320,192,30722,1,0,0:0:0:0:
64,192,30801,1,0,0:0:0:0:
192,192,30880,1,0,0:0:0:0:
448,192,30880,1,0,0:0:0:0:
64,192,31038,1,0,0:0:0:0:
320,192,31038,1,0,0:0:0:0:
448,192,31038,1,0,0:0:0:0:
64,192,31196,1,0,0:0:0:0:
320,192,31196,1,0,0:0:0:0:
64,192,31354,1,0,0:0:0:0:
192,192,31354,1,0,0:0:0:0:
448,192,31354,1,0,0:0:0:0:
64,192,31512,1,0,0:0:0:0:
320,192,31512,1,0,0:0:0:0:
448,192,31512,1,0,0:0:0:0:
64,192,31591,1,0,0:0:0:0:
192,192,31591,1,0,0:0:0:0:
64,192,31749,1,0,0:0:0:0:
320,192,31749,1,0,0:0:0:0:
64,192,31828,1,0,0:0:0:0:
192,192,31828,1,0,0:0:0:0:
448,192,31828,1,0,0:0:0:0:
320,192,31906,1,0,0:0:0:0:
64,192,31985,1,0,0:0:0:0:
448,192,31985,1,0,0:0:0:0:
64,192,32143,1,0,0:0:0:0:
192,192,32143,1,0,0:0:0:0:
448,192,32143,1,0,0:0:0:0:
192,192,32301,1,0,0:0:0:0:
448,192,32301,1,0,0:0:0:0:
64,192,32459,1,0,0:0:0:0:
192,192,32459,1,0,0:0:0:0:
320,192,32459,1,0,0:0:0:0:
192,192,32617,1,0,0:0:0:0:
448,192,32617,1,0,0:0:0:0:
320,192,32775,1,0,0:0:0:0:
448,192,32775,1,0,0:0:0:0:
64,192,32854,1,0,0:0:0:0:
192,192,32854,1,0,0:0:0:0:
192,192,33012,1,0,0:0:0:0:
448,192,33012,1,0,0:0:0:0:
64,192,33091,1,0,0:0:0:0:
320,192,33091,1,0,0:0:0:0:
448,192,33091,1,0,0:0:0:0:
192,192,33170,1,0,0:0:0:0:
320,192,33249,1,0,0:0:0:0:
64,192,33406,1,0,0:0:0:0:
192,192,33406,1,0,0:0:0:0:
192,192,33564,1,0,0:0:0:0:
320,192,33564,1,0,0:0:0:0:
64,192,33722,1,0,0:0:0:0:
320,192,33722,1,0,0:0:0:0:
448,192,33722,1,0,0:0:0:0:
192,192,33880,1,0,0:0:0:0:
448,192,33880,1,0,0:0:0:0:
320,192,34038,1,0,0:0:0:0:
448,192,34038,1,0,0:0:0:0:
64,192,34196,1,0,0:0:0:0:
448,192,34196,1,0,0:0:0:0:
192,192,34275,1,0,0:0:0:0:
320,192,34275,1,0,0:0:0:0:
64,192,34354,1,0,0:0:0:0:
320,192,34354,1,0,0:0:0:0:
448,192,34354,1,0,0:0:0:0:
192,192,34433,1,0,0:0:0:0:
448,192,34512,1,0,0:0:0:0:
320,192,34591,1,0,0:0:0:0:
64,192,34670,1,0,0:0:0:0:
192,192,34670,1,0,0:0:0:0:
64,192,34828,1,0,0:0:0:0:
192,192,34828,1,0,0:0:0:0:
192,192,34985,1,0,0:0:0:0:
320,192,34985,1,0,0:0:0:0:
448,192,34985,1,0,0:0:0:0:
64,192,35143,1,0,0:0:0:0:
320,192,35143,1,0,0:0:0:0:
64,192,35301,1,0,0:0:0:0:
448,192,35301,1,0,0:0:0:0:
192,192,35380,1,0,0:0:0:0:
320,192,35380,1,0,0:0:0:0:
64,192,35538,1,0,0:0:0:0:
320,192,35538,1,0,0:0:0:0:
64,192,35617,1,0,0:0:0:0:
192,192,35617,1,0,0:0:0:0:
448,192,35617,1,0,0:0:0:0:
320,192,35696,1,0,0:0:0:0:
448,192,35775,1,0,0:0:0:0:
64,192,35933,1,0,0:0:0:0:
192,192,35933,1,0,0:0:0:0:
192,192,36091,1,0,0:0:0:0:
320,192,36091,1,0,0:0:0:0:
64,192,36249,1,0,0:0:0:0:
320,192,36249,1,0,0:0:0:0:
448,192,36249,1,0,0:0:0:0:
64,192,36406,1,0,0:0:0:0:
192,192,36406,1,0,0:0:0:0:
320,192,36564,1,0,0:0:0:0:
448,192,36564,1,0,0:0:0:0:
64,192,36722,1,0,0:0:0:0:
192,192,36722,1,0,0:0:0:0:
320,192,36801,1,0,0:0:0:0:
448,192,36801,1,0,0:0:0:0:
64,192,36880,1,0,0:0:0:0:
192,192,36880,1,0,0:0:0:0:
448,192,36880,1,0,0:0:0:0:
320,192,36959,1,0,0:0:0:0:
192,192,37038,1,0,0:0:0:0:
64,192,37117,1,0,0:0:0:0:
320,192,37196,1,0,0:0:0:0:
448,192,37196,1,0,0:0:0:0:
320,192,37354,1,0,0:0:0:0:
448,192,37354,1,0,0:0:0:0:
64,192,37512,1,0,0:0:0:0:
192,192,37512,1,0,0:0:0:0:
192,192,37670,1,0,0:0:0:0:
320,192,37670,1,0,0:0:0:0:
64,192,37828,1,0,0:0:0:0:
448,192,37828,1,0,0:0:0:0:
192,192,37906,1,0,0:0:0:0:
320,192,37906,1,0,0:0:0:0:
320,192,38064,1,0,0:0:0:0:
448,192,38064,1,0,0:0:0:0:
64,192,38143,1,0,0:0:0:0:
192,192,38143,1,0,0:0:0:0:
320,192,38222,1,0,0:0:0:0:
64,192,38301,1,0,0:0:0:0:
448,192,38301,1,0,0:0:0:0:
192,192,38380,1,0,0:0:0:0:
64,192,38459,1,0,0:0:0:0:
320,192,38459,1,0,0:0:0:0:
64,192,38617,1,0,0:0:0:0:
320,192,38617,1,0,0:0:0:0:
64,192,38775,1,0,0:0:0:0:
192,192,38775,1,0,0:0:0:0:
192,192,38933,1,0,0:0:0:0:
448,192,38933,1,0,0:0:0:0:
320,192,39091,1,0,0:0:0:0:
448,192,39091,1,0,0:0:0:0:
320,192,39249,1,0,0:0:0:0:
448,192,39249,1,0,0:0:0:0:
64,192,39328,1,0,0:0:0:0:
192,192,39328,1,0,0:0:0:0:
320,192,39406,1,0,0:0:0:0:
448,192,39406,1,0,0:0:0:0:
64,192,39485,1,0,0:0:0:0:
192,192,39564,1,0,0:0:0:0:
448,192,39564,1,0,0:0:0:0:
320,192,39643,1,0,0:0:0:0:
64,192,39722,1,0,0:0:0:0:
448,192,39722,1,0,0:0:0:0:
64,192,39880,1,0,0:0:0:0:
448,192,39880,1,0,0:0:0:0:
192,192,40038,1,0,0:0:0:0:
320,192,40038,1,0,0:0:0:0:
192,192,40196,1,0,0:0:0:0:
448,192,40196,1,0,0:0:0:0:
320,192,40354,1,0,0:0:0:0:
448,192,40354,1,0,0:0:0:0:
64,192,40433,1,0,0:0:0:0:
192,192,40433,1,0,0:0:0:0:
448,192,40512,1,0,0:0:0:0:
192,192,40591,1,0,0:0:0:0:
320,192,40591,1,0,0:0:0:0:
64,192,40670,1,0,0:0:0:0:
448,192,40670,1,0,0:0:0:0:
192,192,40749,1,0,0:0:0:0:
320,192,40828,1,0,0:0:0:0:
448,192,40828,1,0,0:0:0:0:
64,192,40906,1,0,0:0:0:0:
192,192,40985,1,0,0:0:0:0:
448,192,40985,1,0,0:0:0:0:
64,192,41064,1,0,0:0:0:0:
320,192,41143,1,0,0:0:0:0:
448,192,41143,1,0,0:0:0:0:
192,192,41222,1,0,0:0:0:0:
320,192,41301,1,0,0:0:0:0:
448,192,41301,1,0,0:0:0:0:
64,0,41301,128,0,41459:1:0:0:0:
320,192,41617,1,0,0:0:0:0:
448,192,41617,1,0,0:0:0:0:
192,192,41854,1,0,0:0:0:0:
320,192,41854,1,0,0:0:0:0:
64,192,42091,1,0,0:0:0:0:
192,192,42091,1,0,0:0:0:0:
64,192,42249,1,0,0:0:0:0:
320,192,42249,1,0,0:0:0:0:
448,192,42249,1,0,0:0:0:0:
64,192,42406,1,0,0:0:0:0:
192,192,42485,1,0,0:0:0:0:
320,192,42485,1,0,0:0:0:0:
448,192,42564,1,0,0:0:0:0:
64,192,42722,1,0,0:0:0:0:
192,192,42722,1,0,0:0:0:0:
320,192,42722,1,0,0:0:0:0:
448,192,42880,1,0,0:0:0:0:
448,192,43038,1,0,0:0:0:0:
64,192,43196,1,0,0:0:0:0:
192,192,43196,1,0,0:0:0:0:
320,192,43196,1,0,0:0:0:0:
320,192,43354,1,0,0:0:0:0:
64,192,43433,1,0,0:0:0:0:
448,192,43433,1,0,0:0:0:0:
192,192,43512,1,0,0:0:0:0:
64,192,43670,1,0,0:0:0:0:
192,192,43670,1,0,0:0:0:0:
448,192,43670,1,0,0:0:0:0:
320,192,43828,1,0,0:0:0:0:
64,192,43906,1,0,0:0:0:0:
192,192,43906,1,0,0:0:0:0:
448,192,43985,1,0,0:0:0:0:
64,192,44143,1,0,0:0:0:0:
320,192,44143,1,0,0:0:0:0:
448,192,44143,1,0,0:0:0:0:
64,192,44301,1,0,0:0:0:0:
320,192,44380,1,0,0:0:0:0:
448,192,44380,1,0,0:0:0:0:
192,192,44459,1,0,0:0:0:0:
64,192,44617,1,0,0:0:0:0:
320,192,44617,1,0,0:0:0:0:
448,192,44617,1,0,0:0:0:0:
192,192,44775,1,0,0:0:0:0:
64,192,44933,1,0,0:0:0:0:
192,192,44933,1,0,0:0:0:0:
448,192,44933,1,0,0:0:0:0:
192,192,45091,1,0,0:0:0:0:
320,192,45091,1,0,0:0:0:0:
448,192,45091,1,0,0:0:0:0:
64,192,45249,1,0,0:0:0:0:
448,192,45406,1,0,0:0:0:0:
64,192,45564,1,0,0:0:0:0:
192,192,45564,1,0,0:0:0:0:
448,192,45564,1,0,0:0:0:0:
320,192,45722,1,0,0:0:0:0:
192,192,45801,1,0,0:0:0:0:
448,192,45801,1,0,0:0:0:0:
64,192,45880,1,0,0:0:0:0:
192,192,46038,1,0,0:0:0:0:
320,192,46038,1,0,0:0:0:0:
448,192,46038,1,0,0:0:0:0:
448,192,46196,1,0,0:0:0:0:
192,192,46275,1,0,0:0:0:0:
320,192,46275,1,0,0:0:0:0:
64,192,46354,1,0,0:0:0:0:
64,192,46512,1,0,0:0:0:0:
320,192,46512,1,0,0:0:0:0:
448,192,46512,1,0,0:0:0:0:
192,192,46670,1,0,0:0:0:0:
192,192,46828,1,0,0:0:0:0:
64,192,46985,1,0,0:0:0:0:
320,192,46985,1,0,0:0:0:0:
448,192,46985,1,0,0:0:0:0:
64,192,47143,1,0,0:0:0:0:
192,192,47143,1,0,0:0:0:0:
448,192,47143,1,0,0:0:0:0:
64,192,47222,1,0,0:0:0:0:
192,192,47222,1,0,0:0:0:0:
320,192,47301,1,0,0:0:0:0:
64,192,47459,1,0,0:0:0:0:
320,192,47459,1,0,0:0:0:0:
448,192,47459,1,0,0:0:0:0:
192,192,47617,1,0,0:0:0:0:
320,192,47696,1,0,0:0:0:0:
448,192,47696,1,0,0:0:0:0:
64,192,47775,1,0,0:0:0:0:
64,192,47933,1,0,0:0:0:0:
192,192,47933,1,0,0:0:0:0:
320,192,47933,1,0,0:0:0:0:
64,192,48091,1,0,0:0:0:0:
192,192,48091,1,0,0:0:0:0:
320,192,48091,1,0,0:0:0:0:
448,192,48249,1,0,0:0:0:0:
64,192,48328,1,0,0:0:0:0:
192,192,48328,1,0,0:0:0:0:
320,192,48406,1,0,0:0:0:0:
64,192,48564,1,0,0:0:0:0:
192,192,48564,1,0,0:0:0:0:
448,192,48564,1,0,0:0:0:0:
192,192,48722,1,0,0:0:0:0:
320,192,48801,1,0,0:0:0:0:
448,192,48801,1,0,0:0:0:0:
64,192,48880,1,0,0:0:0:0:
64,192,49038,1,0,0:0:0:0:
320,192,49038,1,0,0:0:0:0:
448,192,49038,1,0,0:0:0:0:
192,192,49196,1,0,0:0:0:0:
320,192,49196,1,0,0:0:0:0:
448,192,49196,1,0,0:0:0:0:
320,192,49354,1,0,0:0:0:0:
64,192,49433,1,0,0:0:0:0:
448,192,49433,1,0,0:0:0:0:
192,192,49512,1,0,0:0:0:0:
64,192,49670,1,0,0:0:0:0:
320,192,49670,1,0,0:0:0:0:
448,192,49670,1,0,0:0:0:0:
64,192,49828,1,0,0:0:0:0:
320,192,49906,1,0,0:0:0:0:
448,192,49906,1,0,0:0:0:0:
64,192,49985,1,0,0:0:0:0:
192,192,50143,1,0,0:0:0:0:
320,192,50143,1,0,0:0:0:0:
448,192,50143,1,0,0:0:0:0:
64,192,50301,1,0,0:0:0:0:
192,192,50459,1,0,0:0:0:0:
320,192,50459,1,0,0:0:0:0:
448,192,50459,1,0,0:0:0:0:
192,192,50617,1,0,0:0:0:0:
320,192,50617,1,0,0:0:0:0:
448,192,50617,1,0,0:0:0:0:
64,192,50775,1,0,0:0:0:0:
192,192,50854,1,0,0:0:0:0:
320,192,50854,1,0,0:0:0:0:
448,192,50933,1,0,0:0:0:0:
64,192,51091,1,0,0:0:0:0:
192,192,51091,1,0,0:0:0:0:
320,192,51091,1,0,0:0:0:0:
192,192,51249,1,0,0:0:0:0:
320,192,51328,1,0,0:0:0:0:
448,192,51328,1,0,0:0:0:0:
64,192,51406,1,0,0:0:0:0:
192,192,51564,1,0,0:0:0:0:
320,192,51564,1,0,0:0:0:0:
448,192,51564,1,0,0:0:0:0:
64,192,51722,1,0,0:0:0:0:
64,192,51880,1,0,0:0:0:0:
320,192,51880,1,0,0:0:0:0:
448,192,51880,1,0,0:0:0:0:
320,192,52038,1,0,0:0:0:0:
448,192,52038,1,0,0:0:0:0:
64,192,52117,1,0,0:0:0:0:
192,192,52117,1,0,0:0:0:0:
320,192,52196,1,0,0:0:0:0:
448,192,52196,1,0,0:0:0:0:
64,192,52275,1,0,0:0:0:0:
192,192,52275,1,0,0:0:0:0:
64,192,52354,1,0,0:0:0:0:
320,192,52354,1,0,0:0:0:0:
448,192,52354,1,0,0:0:0:0:
448,192,52512,1,0,0:0:0:0:
64,192,52670,1,0,0:0:0:0:
192,192,52670,1,0,0:0:0:0:
320,192,52670,1,0,0:0:0:0:
448,192,52828,1,0,0:0:0:0:
192,192,52906,1,0,0:0:0:0:
320,192,52906,1,0,0:0:0:0:
64,192,52985,1,0,0:0:0:0:
64,192,53143,1,0,0:0:0:0:
320,192,53143,1,0,0:0:0:0:
448,192,53143,1,0,0:0:0:0:
64,192,53301,1,0,0:0:0:0:
320,192,53301,1,0,0:0:0:0:
448,192,53301,1,0,0:0:0:0:
192,192,53459,1,0,0:0:0:0:
64,192,53617,1,0,0:0:0:0:
192,192,53617,1,0,0:0:0:0:
320,192,53617,1,0,0:0:0:0:
320,192,53775,1,0,0:0:0:0:
64,192,53854,1,0,0:0:0:0:
448,192,53854,1,0,0:0:0:0:
192,192,53933,1,0,0:0:0:0:
192,192,54091,1,0,0:0:0:0:
320,192,54091,1,0,0:0:0:0:
448,192,54091,1,0,0:0:0:0:
448,192,54249,1,0,0:0:0:0:
64,192,54328,1,0,0:0:0:0:
320,192,54328,1,0,0:0:0:0:
192,192,54406,1,0,0:0:0:0:
64,192,54564,1,0,0:0:0:0:
320,192,54564,1,0,0:0:0:0:
448,192,54564,1,0,0:0:0:0:
192,192,54722,1,0,0:0:0:0:
320,192,54801,1,0,0:0:0:0:
448,192,54801,1,0,0:0:0:0:
64,192,54880,1,0,0:0:0:0:
64,192,55038,1,0,0:0:0:0:
320,192,55038,1,0,0:0:0:0:
448,192,55038,1,0,0:0:0:0:
192,192,55196,1,0,0:0:0:0:
64,192,55275,1,0,0:0:0:0:
320,192,55275,1,0,0:0:0:0:
448,192,55354,1,0,0:0:0:0:
64,192,55512,1,0,0:0:0:0:
192,192,55512,1,0,0:0:0:0:
448,192,55512,1,0,0:0:0:0:
448,192,55670,1,0,0:0:0:0:
64,192,55749,1,0,0:0:0:0:
320,192,55749,1,0,0:0:0:0:
448,192,55828,1,0,0:0:0:0:
64,192,55985,1,0,0:0:0:0:
192,192,55985,1,0,0:0:0:0:
320,192,55985,1,0,0:0:0:0:
448,192,56143,1,0,0:0:0:0:
64,192,56222,1,0,0:0:0:0:
192,192,56222,1,0,0:0:0:0:
448,192,56301,1,0,0:0:0:0:
64,192,56459,1,0,0:0:0:0:
192,192,56459,1,0,0:0:0:0:
320,192,56459,1,0,0:0:0:0:
320,192,56617,1,0,0:0:0:0:
64,192,56696,1,0,0:0:0:0:
448,192,56696,1,0,0:0:0:0:
192,192,56775,1,0,0:0:0:0:
64,192,56933,1,0,0:0:0:0:
320,192,56933,1,0,0:0:0:0:
448,192,56933,1,0,0:0:0:0:
64,192,57091,1,0,0:0:0:0:
320,192,57091,1,0,0:0:0:0:
448,192,57091,1,0,0:0:0:0:
64,192,57249,1,0,0:0:0:0:
320,192,57249,1,0,0:0:0:0:
448,192,57249,1,0,0:0:0:0:
192,192,57406,1,0,0:0:0:0:
320,192,57406,1,0,0:0:0:0:
448,192,57406,1,0,0:0:0:0:
320,192,57564,1,0,0:0:0:0:
64,192,57643,1,0,0:0:0:0:
448,192,57643,1,0,0:0:0:0:
192,192,57722,1,0,0:0:0:0:
64,192,57880,1,0,0:0:0:0:
320,192,57880,1,0,0:0:0:0:
448,192,57880,1,0,0:0:0:0:
192,192,58038,1,0,0:0:0:0:
64,192,58196,1,0,0:0:0:0:
192,192,58196,1,0,0:0:0:0:
448,192,58196,1,0,0:0:0:0:
192,192,58354,1,0,0:0:0:0:
320,192,58354,1,0,0:0:0:0:
448,192,58354,1,0,0:0:0:0:
64,192,58512,1,0,0:0:0:0:
192,192,58591,1,0,0:0:0:0:
448,192,58591,1,0,0:0:0:0:
320,192,58670,1,0,0:0:0:0:
64,192,58828,1,0,0:0:0:0:
320,192,58828,1,0,0:0:0:0:
448,192,58828,1,0,0:0:0:0:
64,192,58985,1,0,0:0:0:0:
192,192,58985,1,0,0:0:0:0:
448,192,58985,1,0,0:0:0:0:
320,192,59143,1,0,0:0:0:0:
64,192,59301,1,0,0:0:0:0:
192,192,59301,1,0,0:0:0:0:
448,192,59301,1,0,0:0:0:0:
64,192,59459,1,0,0:0:0:0:
192,192,59538,1,0,0:0:0:0:
320,192,59538,1,0,0:0:0:0:
448,192,59617,1,0,0:0:0:0:
64,192,59775,1,0,0:0:0:0:
192,192,59775,1,0,0:0:0:0:
320,192,59775,1,0,0:0:0:0:
448,192,59933,1,0,0:0:0:0:
64,192,60012,1,0,0:0:0:0:
320,192,60012,1,0,0:0:0:0:
448,192,60091,1,0,0:0:0:0:
64,192,60249,1,0,0:0:0:0:
192,192,60249,1,0,0:0:0:0:
448,192,60249,1,0,0:0:0:0:
192,192,60406,1,0,0:0:0:0:
320,192,60485,1,0,0:0:0:0:
448,192,60485,1,0,0:0:0:0:
64,192,60564,1,0,0:0:0:0:
64,192,60722,1,0,0:0:0:0:
320,192,60722,1,0,0:0:0:0:
448,192,60722,1,0,0:0:0:0:
192,192,60880,1,0,0:0:0:0:
192,192,61038,1,0,0:0:0:0:
320,192,61038,1,0,0:0:0:0:
448,192,61038,1,0,0:0:0:0:
64,192,61196,1,0,0:0:0:0:
64,192,61354,1,0,0:0:0:0:
320,192,61354,1,0,0:0:0:0:
448,192,61354,1,0,0:0:0:0:
64,192,61512,1,0,0:0:0:0:
320,192,61512,1,0,0:0:0:0:
448,192,61512,1,0,0:0:0:0:
64,192,61670,1,0,0:0:0:0:
192,192,61670,1,0,0:0:0:0:
320,192,61749,1,0,0:0:0:0:
448,192,61749,1,0,0:0:0:0:
192,192,61828,1,0,0:0:0:0:
64,192,61906,1,0,0:0:0:0:
320,0,61985,128,0,62380:1:0:0:0:
448,0,61985,128,0,62380:1:0:0:0:
192,192,62459,1,0,0:0:0:0:
448,192,62459,1,0,0:0:0:0:
64,0,62459,128,0,67512:1:0:0:0:
448,192,62617,1,0,0:0:0:0:
192,192,62775,1,0,0:0:0:0:
320,192,62933,1,0,0:0:0:0:
448,192,63091,1,0,0:0:0:0:
192,192,63249,1,0,0:0:0:0:
320,192,63328,1,0,0:0:0:0:
192,192,63485,1,0,0:0:0:0:
448,192,63564,1,0,0:0:0:0:
192,192,63722,1,0,0:0:0:0:
448,192,63801,1,0,0:0:0:0:
320,192,63880,1,0,0:0:0:0:
192,192,64038,1,0,0:0:0:0:
448,192,64196,1,0,0:0:0:0:
320,192,64275,1,0,0:0:0:0:
192,192,64354,1,0,0:0:0:0:
448,192,64512,1,0,0:0:0:0:
192,192,64670,1,0,0:0:0:0:
320,192,64828,1,0,0:0:0:0:
448,192,64985,1,0,0:0:0:0:
448,192,65143,1,0,0:0:0:0:
192,192,65301,1,0,0:0:0:0:
320,192,65459,1,0,0:0:0:0:
448,192,65617,1,0,0:0:0:0:
192,192,65775,1,0,0:0:0:0:
448,192,65854,1,0,0:0:0:0:
320,192,66012,1,0,0:0:0:0:
448,192,66091,1,0,0:0:0:0:
192,192,66249,1,0,0:0:0:0:
448,192,66328,1,0,0:0:0:0:
320,192,66406,1,0,0:0:0:0:
192,192,66564,1,0,0:0:0:0:
448,192,66722,1,0,0:0:0:0:
320,192,66801,1,0,0:0:0:0:
192,192,66880,1,0,0:0:0:0:
320,192,67038,1,0,0:0:0:0:
448,192,67117,1,0,0:0:0:0:
192,192,67196,1,0,0:0:0:0:
448,192,67354,1,0,0:0:0:0:
448,192,67512,1,0,0:0:0:0:
192,192,67591,1,0,0:0:0:0:
320,192,67670,1,0,0:0:0:0:
64,192,67749,1,0,0:0:0:0:
448,192,67828,1,0,0:0:0:0:
192,192,67906,1,0,0:0:0:0:
320,192,67985,1,0,0:0:0:0:
64,192,68064,1,0,0:0:0:0:
448,192,68143,1,0,0:0:0:0:
192,192,68222,1,0,0:0:0:0:
320,192,68301,1,0,0:0:0:0:
64,192,68380,1,0,0:0:0:0:
320,192,68459,1,0,0:0:0:0:
448,192,68459,1,0,0:0:0:0:
64,192,68538,1,0,0:0:0:0:
192,192,68538,1,0,0:0:0:0:
320,192,68617,1,0,0:0:0:0:
448,192,68617,1,0,0:0:0:0:
64,192,68696,1,0,0:0:0:0:
192,192,68696,1,0,0:0:0:0:
448,192,68775,1,0,0:0:0:0:
192,192,68854,1,0,0:0:0:0:
320,192,68933,1,0,0:0:0:0:
64,192,69012,1,0,0:0:0:0:
448,192,69091,1,0,0:0:0:0:
192,192,69170,1,0,0:0:0:0:
320,192,69249,1,0,0:0:0:0:
64,192,69328,1,0,0:0:0:0:
448,192,69406,1,0,0:0:0:0:
192,192,69485,1,0,0:0:0:0:
320,192,69564,1,0,0:0:0:0:
448,192,69564,1,0,0:0:0:0:
64,192,69643,1,0,0:0:0:0:
192,192,69643,1,0,0:0:0:0:
320,192,69722,1,0,0:0:0:0:
448,192,69722,1,0,0:0:0:0:
64,192,69801,1,0,0:0:0:0:
192,192,69801,1,0,0:0:0:0:
320,192,69880,1,0,0:0:0:0:
448,192,69880,1,0,0:0:0:0:
64,192,69959,1,0,0:0:0:0:
192,192,69959,1,0,0:0:0:0:
320,192,70038,1,0,0:0:0:0:
448,192,70038,1,0,0:0:0:0:
64,192,70117,1,0,0:0:0:0:
192,192,70117,1,0,0:0:0:0:
320,192,70196,1,0,0:0:0:0:
448,192,70196,1,0,0:0:0:0:
64,192,70275,1,0,0:0:0:0:
192,192,70275,1,0,0:0:0:0:
320,192,70354,1,0,0:0:0:0:
448,192,70354,1,0,0:0:0:0:
64,192,70433,1,0,0:0:0:0:
192,192,70433,1,0,0:0:0:0:
320,192,70512,1,0,0:0:0:0:
448,192,70512,1,0,0:0:0:0:
64,192,70591,1,0,0:0:0:0:
192,192,70591,1,0,0:0:0:0:
320,192,70670,1,0,0:0:0:0:
448,192,70670,1,0,0:0:0:0:
64,192,70749,1,0,0:0:0:0:
192,192,70749,1,0,0:0:0:0:
320,192,70828,1,0,0:0:0:0:
448,192,70828,1,0,0:0:0:0:
64,192,70906,1,0,0:0:0:0:
192,192,70906,1,0,0:0:0:0:
320,192,70985,1,0,0:0:0:0:
448,192,70985,1,0,0:0:0:0:
64,192,71064,1,0,0:0:0:0:
192,192,71064,1,0,0:0:0:0:
320,192,71143,1,0,0:0:0:0:
448,192,71143,1,0,0:0:0:0:
64,192,71222,1,0,0:0:0:0:
192,192,71222,1,0,0:0:0:0:
448,0,71301,128,0,72485:1:0:0:0:
64,192,72564,1,0,0:0:0:0:
192,192,72564,1,0,0:0:0:0:
320,192,72564,1,0,0:0:0:0:
64,192,72722,1,0,0:0:0:0:
192,192,72722,1,0,0:0:0:0:
320,192,72880,1,0,0:0:0:0:
448,192,72880,1,0,0:0:0:0:
64,192,73038,1,0,0:0:0:0:
320,192,73038,1,0,0:0:0:0:
192,192,73196,1,0,0:0:0:0:
448,192,73196,1,0,0:0:0:0:
64,192,73354,1,0,0:0:0:0:
192,192,73433,1,0,0:0:0:0:
320,192,73433,1,0,0:0:0:0:
64,192,73512,1,0,0:0:0:0:
448,192,73512,1,0,0:0:0:0:
320,192,73591,1,0,0:0:0:0:
192,192,73670,1,0,0:0:0:0:
448,192,73670,1,0,0:0:0:0:
320,192,73828,1,0,0:0:0:0:
448,192,73828,1,0,0:0:0:0:
64,192,73906,1,0,0:0:0:0:
192,192,73906,1,0,0:0:0:0:
320,192,73985,1,0,0:0:0:0:
448,192,73985,1,0,0:0:0:0:
64,192,74143,1,0,0:0:0:0:
320,192,74143,1,0,0:0:0:0:
192,192,74301,1,0,0:0:0:0:
448,192,74301,1,0,0:0:0:0:
64,192,74380,1,0,0:0:0:0:
320,192,74459,1,0,0:0:0:0:
448,192,74459,1,0,0:0:0:0:
64,192,74617,1,0,0:0:0:0:
192,192,74617,1,0,0:0:0:0:
448,192,74696,1,0,0:0:0:0:
192,192,74775,1,0,0:0:0:0:
320,192,74775,1,0,0:0:0:0:
192,192,74933,1,0,0:0:0:0:
448,192,74933,1,0,0:0:0:0:
448,192,75012,1,0,0:0:0:0:
64,192,75091,1,0,0:0:0:0:
320,192,75091,1,0,0:0:0:0:
64,192,75249,1,0,0:0:0:0:
320,192,75249,1,0,0:0:0:0:
192,192,75406,1,0,0:0:0:0:
320,192,75406,1,0,0:0:0:0:
192,192,75564,1,0,0:0:0:0:
448,192,75564,1,0,0:0:0:0:
320,192,75722,1,0,0:0:0:0:
448,192,75722,1,0,0:0:0:0:
64,192,75880,1,0,0:0:0:0:
192,192,75959,1,0,0:0:0:0:
320,192,75959,1,0,0:0:0:0:
64,192,76038,1,0,0:0:0:0:
448,192,76038,1,0,0:0:0:0:
192,192,76117,1,0,0:0:0:0:
320,192,76196,1,0,0:0:0:0:
448,192,76196,1,0,0:0:0:0:
192,192,76354,1,0,0:0:0:0:
448,192,76354,1,0,0:0:0:0:
64,192,76433,1,0,0:0:0:0:
320,192,76433,1,0,0:0:0:0:
192,192,76512,1,0,0:0:0:0:
448,192,76512,1,0,0:0:0:0:
64,192,76670,1,0,0:0:0:0:
320,192,76670,1,0,0:0:0:0:
64,192,76828,1,0,0:0:0:0:
192,192,76828,1,0,0:0:0:0:
320,192,76985,1,0,0:0:0:0:
448,192,76985,1,0,0:0:0:0:
64,192,77143,1,0,0:0:0:0:
192,192,77143,1,0,0:0:0:0:
192,192,77301,1,0,0:0:0:0:
448,192,77301,1,0,0:0:0:0:
64,192,77459,1,0,0:0:0:0:
448,192,77459,1,0,0:0:0:0:
320,192,77617,1,0,0:0:0:0:
448,192,77617,1,0,0:0:0:0:
320,192,77775,1,0,0:0:0:0:
448,192,77775,1,0,0:0:0:0:
64,192,77933,1,0,0:0:0:0:
192,192,77933,1,0,0:0:0:0:
192,192,78091,1,0,0:0:0:0:
320,192,78091,1,0,0:0:0:0:
64,192,78249,1,0,0:0:0:0:
448,192,78249,1,0,0:0:0:0:
192,192,78406,1,0,0:0:0:0:
320,192,78485,1,0,0:0:0:0:
448,192,78485,1,0,0:0:0:0:
64,192,78564,1,0,0:0:0:0:
192,192,78564,1,0,0:0:0:0:
320,192,78643,1,0,0:0:0:0:
64,192,78722,1,0,0:0:0:0:
448,192,78722,1,0,0:0:0:0:
64,192,78880,1,0,0:0:0:0:
320,192,78880,1,0,0:0:0:0:
192,192,78959,1,0,0:0:0:0:
448,192,78959,1,0,0:0:0:0:
64,192,79038,1,0,0:0:0:0:
320,192,79038,1,0,0:0:0:0:
192,192,79196,1,0,0:0:0:0:
448,192,79196,1,0,0:0:0:0:
320,192,79354,1,0,0:0:0:0:
448,192,79354,1,0,0:0:0:0:
64,192,79512,1,0,0:0:0:0:
192,192,79512,1,0,0:0:0:0:
64,192,79670,1,0,0:0:0:0:
192,192,79670,1,0,0:0:0:0:
192,192,79828,1,0,0:0:0:0:
448,192,79828,1,0,0:0:0:0:
320,192,79985,1,0,0:0:0:0:
448,192,79985,1,0,0:0:0:0:
320,192,80064,1,0,0:0:0:0:
64,192,80143,1,0,0:0:0:0:
448,192,80143,1,0,0:0:0:0:
64,192,80301,1,0,0:0:0:0:
448,192,80301,1,0,0:0:0:0:
192,192,80459,1,0,0:0:0:0:
320,192,80459,1,0,0:0:0:0:
192,192,80617,1,0,0:0:0:0:
448,192,80617,1,0,0:0:0:0:
320,192,80775,1,0,0:0:0:0:
448,192,80775,1,0,0:0:0:0:
64,192,80933,1,0,0:0:0:0:
320,192,80933,1,0,0:0:0:0:
448,192,81012,1,0,0:0:0:0:
64,192,81091,1,0,0:0:0:0:
192,192,81091,1,0,0:0:0:0:
192,192,81249,1,0,0:0:0:0:
448,192,81249,1,0,0:0:0:0:
320,192,81328,1,0,0:0:0:0:
64,192,81406,1,0,0:0:0:0:
192,192,81406,1,0,0:0:0:0:
448,192,81406,1,0,0:0:0:0:
64,192,81564,1,0,0:0:0:0:
320,192,81564,1,0,0:0:0:0:
448,192,81564,1,0,0:0:0:0:
64,192,81722,1,0,0:0:0:0:
192,192,81722,1,0,0:0:0:0:
320,192,81722,1,0,0:0:0:0:
192,192,81880,1,0,0:0:0:0:
448,192,81880,1,0,0:0:0:0:
320,192,81959,1,0,0:0:0:0:
64,192,82038,1,0,0:0:0:0:
192,192,82038,1,0,0:0:0:0:
448,192,82038,1,0,0:0:0:0:
64,192,82196,1,0,0:0:0:0:
192,192,82196,1,0,0:0:0:0:
320,192,82275,1,0,0:0:0:0:
448,192,82275,1,0,0:0:0:0:
64,192,82354,1,0,0:0:0:0:
192,192,82354,1,0,0:0:0:0:
320,192,82433,1,0,0:0:0:0:
448,192,82433,1,0,0:0:0:0:
64,192,82512,1,0,0:0:0:0:
192,192,82512,1,0,0:0:0:0:
320,192,82591,1,0,0:0:0:0:
448,192,82591,1,0,0:0:0:0:
64,192,82670,1,0,0:0:0:0:
192,192,82670,1,0,0:0:0:0:
448,192,82670,1,0,0:0:0:0:
192,192,82828,1,0,0:0:0:0:
448,192,82828,1,0,0:0:0:0:
64,192,82985,1,0,0:0:0:0:
320,192,82985,1,0,0:0:0:0:
192,192,83143,1,0,0:0:0:0:
320,192,83143,1,0,0:0:0:0:
192,192,83301,1,0,0:0:0:0:
448,192,83301,1,0,0:0:0:0:
320,192,83459,1,0,0:0:0:0:
64,192,83538,1,0,0:0:0:0:
192,192,83538,1,0,0:0:0:0:
320,192,83617,1,0,0:0:0:0:
448,192,83617,1,0,0:0:0:0:
64,192,83696,1,0,0:0:0:0:
192,192,83775,1,0,0:0:0:0:
448,192,83775,1,0,0:0:0:0:
192,192,83933,1,0,0:0:0:0:
320,192,83933,1,0,0:0:0:0:
64,192,84012,1,0,0:0:0:0:
448,192,84012,1,0,0:0:0:0:
192,192,84091,1,0,0:0:0:0:
320,192,84091,1,0,0:0:0:0:
320,192,84249,1,0,0:0:0:0:
448,192,84249,1,0,0:0:0:0:
64,192,84406,1,0,0:0:0:0:
320,192,84406,1,0,0:0:0:0:
192,192,84485,1,0,0:0:0:0:
64,192,84564,1,0,0:0:0:0:
448,192,84564,1,0,0:0:0:0:
192,192,84722,1,0,0:0:0:0:
320,192,84722,1,0,0:0:0:0:
448,192,84801,1,0,0:0:0:0:
64,192,84880,1,0,0:0:0:0:
192,192,84880,1,0,0:0:0:0:
64,192,85038,1,0,0:0:0:0:
448,192,85038,1,0,0:0:0:0:
448,192,85117,1,0,0:0:0:0:
192,192,85196,1,0,0:0:0:0:
320,192,85196,1,0,0:0:0:0:
192,192,85354,1,0,0:0:0:0:
320,192,85354,1,0,0:0:0:0:
64,192,85512,1,0,0:0:0:0:
320,192,85512,1,0,0:0:0:0:
64,192,85670,1,0,0:0:0:0:
192,192,85670,1,0,0:0:0:0:
192,192,85828,1,0,0:0:0:0:
448,192,85828,1,0,0:0:0:0:
320,192,85985,1,0,0:0:0:0:
192,192,86064,1,0,0:0:0:0:
448,192,86064,1,0,0:0:0:0:
64,192,86143,1,0,0:0:0:0:
320,192,86143,1,0,0:0:0:0:
192,192,86222,1,0,0:0:0:0:
320,192,86301,1,0,0:0:0:0:
448,192,86301,1,0,0:0:0:0:
192,192,86459,1,0,0:0:0:0:
448,192,86459,1,0,0:0:0:0:
64,192,86538,1,0,0:0:0:0:
320,192,86538,1,0,0:0:0:0:
192,192,86617,1,0,0:0:0:0:
448,192,86617,1,0,0:0:0:0:
64,192,86775,1,0,0:0:0:0:
320,192,86775,1,0,0:0:0:0:
64,192,86933,1,0,0:0:0:0:
192,192,86933,1,0,0:0:0:0:
320,192,87091,1,0,0:0:0:0:
448,192,87091,1,0,0:0:0:0:
64,192,87249,1,0,0:0:0:0:
192,192,87249,1,0,0:0:0:0:
320,192,87328,1,0,0:0:0:0:
64,192,87406,1,0,0:0:0:0:
448,192,87406,1,0,0:0:0:0:
64,192,87564,1,0,0:0:0:0:
320,192,87564,1,0,0:0:0:0:
192,192,87643,1,0,0:0:0:0:
64,192,87722,1,0,0:0:0:0:
320,192,87722,1,0,0:0:0:0:
448,192,87722,1,0,0:0:0:0:
320,192,87880,1,0,0:0:0:0:
448,192,87880,1,0,0:0:0:0:
64,192,88038,1,0,0:0:0:0:
192,192,88038,1,0,0:0:0:0:
192,192,88196,1,0,0:0:0:0:
448,192,88196,1,0,0:0:0:0:
320,192,88354,1,0,0:0:0:0:
448,192,88354,1,0,0:0:0:0:
64,192,88512,1,0,0:0:0:0:
192,192,88591,1,0,0:0:0:0:
448,192,88591,1,0,0:0:0:0:
64,192,88670,1,0,0:0:0:0:
320,192,88670,1,0,0:0:0:0:
192,192,88749,1,0,0:0:0:0:
320,192,88828,1,0,0:0:0:0:
448,192,88828,1,0,0:0:0:0:
64,192,88985,1,0,0:0:0:0:
192,192,88985,1,0,0:0:0:0:
448,192,88985,1,0,0:0:0:0:
64,192,89064,1,0,0:0:0:0:
320,192,89064,1,0,0:0:0:0:
192,192,89143,1,0,0:0:0:0:
448,192,89143,1,0,0:0:0:0:
64,192,89301,1,0,0:0:0:0:
320,192,89301,1,0,0:0:0:0:
320,192,89459,1,0,0:0:0:0:
448,192,89459,1,0,0:0:0:0:
64,192,89617,1,0,0:0:0:0:
192,192,89617,1,0,0:0:0:0:
64,192,89775,1,0,0:0:0:0:
192,192,89775,1,0,0:0:0:0:
192,192,89933,1,0,0:0:0:0:
448,192,89933,1,0,0:0:0:0:
320,192,90091,1,0,0:0:0:0:
448,192,90091,1,0,0:0:0:0:
320,192,90170,1,0,0:0:0:0:
64,192,90249,1,0,0:0:0:0:
192,192,90249,1,0,0:0:0:0:
448,192,90249,1,0,0:0:0:0:
320,192,90328,1,0,0:0:0:0:
64,192,90406,1,0,0:0:0:0:
448,192,90406,1,0,0:0:0:0:
192,192,90485,1,0,0:0:0:0:
64,192,90564,1,0,0:0:0:0:
320,192,90564,1,0,0:0:0:0:
448,192,90643,1,0,0:0:0:0:
64,192,90722,1,0,0:0:0:0:
192,192,90722,1,0,0:0:0:0:
320,192,90801,1,0,0:0:0:0:
64,192,90880,1,0,0:0:0:0:
192,192,90880,1,0,0:0:0:0:
448,192,90880,1,0,0:0:0:0:
320,192,90959,1,0,0:0:0:0:
64,192,91038,1,0,0:0:0:0:
192,192,91038,1,0,0:0:0:0:
448,192,91117,1,0,0:0:0:0:
64,192,91196,1,0,0:0:0:0:
320,192,91196,1,0,0:0:0:0:
192,192,91275,1,0,0:0:0:0:
64,192,91354,1,0,0:0:0:0:
448,192,91354,1,0,0:0:0:0:
320,192,91433,1,0,0:0:0:0:
64,192,91512,1,0,0:0:0:0:
192,192,91512,1,0,0:0:0:0:
448,192,91512,1,0,0:0:0:0:
320,192,91591,1,0,0:0:0:0:
64,192,91670,1,0,0:0:0:0:
448,192,91670,1,0,0:0:0:0:
192,192,91749,1,0,0:0:0:0:
64,192,91828,1,0,0:0:0:0:
320,192,91828,1,0,0:0:0:0:
448,192,91828,1,0,0:0:0:0:
192,192,91906,1,0,0:0:0:0:
320,192,91985,1,0,0:0:0:0:
448,192,91985,1,0,0:0:0:0:
192,192,92064,1,0,0:0:0:0:
64,192,92143,1,0,0:0:0:0:
320,192,92143,1,0,0:0:0:0:
448,192,92143,1,0,0:0:0:0:
64,192,92222,1,0,0:0:0:0:
192,192,92222,1,0,0:0:0:0:
320,192,92301,1,0,0:0:0:0:
448,192,92301,1,0,0:0:0:0:
64,192,92380,1,0,0:0:0:0:
192,192,92380,1,0,0:0:0:0:
448,0,92459,128,0,92696:1:0:0:0:
64,192,92775,1,0,0:0:0:0:
192,192,92775,1,0,0:0:0:0:
320,192,92775,1,0,0:0:0:0:
448,192,92775,1,0,0:0:0:0:
64,192,92933,1,0,0:0:0:0:
192,192,92933,1,0,0:0:0:0:
64,192,93091,1,0,0:0:0:0:
320,192,93091,1,0,0:0:0:0:
448,192,93091,1,0,0:0:0:0:
192,192,93249,1,0,0:0:0:0:
320,192,93249,1,0,0:0:0:0:
64,192,93406,1,0,0:0:0:0:
320,192,93406,1,0,0:0:0:0:
448,192,93406,1,0,0:0:0:0:
320,192,93564,1,0,0:0:0:0:
448,192,93564,1,0,0:0:0:0:
64,192,93643,1,0,0:0:0:0:
192,192,93643,1,0,0:0:0:0:
64,192,93722,1,0,0:0:0:0:
320,192,93722,1,0,0:0:0:0:
448,192,93722,1,0,0:0:0:0:
192,192,93801,1,0,0:0:0:0:
320,192,93801,1,0,0:0:0:0:
64,192,93880,1,0,0:0:0:0:
448,192,93880,1,0,0:0:0:0:
64,192,94038,1,0,0:0:0:0:
320,192,94038,1,0,0:0:0:0:
448,192,94038,1,0,0:0:0:0:
64,192,94117,1,0,0:0:0:0:
192,192,94117,1,0,0:0:0:0:
320,192,94196,1,0,0:0:0:0:
448,192,94196,1,0,0:0:0:0:
64,192,94354,1,0,0:0:0:0:
192,192,94354,1,0,0:0:0:0:
448,192,94354,1,0,0:0:0:0:
64,192,94512,1,0,0:0:0:0:
192,192,94512,1,0,0:0:0:0:
320,192,94591,1,0,0:0:0:0:
64,192,94670,1,0,0:0:0:0:
192,192,94670,1,0,0:0:0:0:
448,192,94670,1,0,0:0:0:0:
192,192,94828,1,0,0:0:0:0:
320,192,94828,1,0,0:0:0:0:
64,192,94906,1,0,0:0:0:0:
192,192,94985,1,0,0:0:0:0:
320,192,94985,1,0,0:0:0:0:
448,192,94985,1,0,0:0:0:0:
192,192,95143,1,0,0:0:0:0:
448,192,95143,1,0,0:0:0:0:
448,192,95222,1,0,0:0:0:0:
64,192,95301,1,0,0:0:0:0:
192,192,95301,1,0,0:0:0:0:
320,192,95301,1,0,0:0:0:0:
64,192,95459,1,0,0:0:0:0:
320,192,95459,1,0,0:0:0:0:
64,192,95617,1,0,0:0:0:0:
192,192,95617,1,0,0:0:0:0:
448,192,95617,1,0,0:0:0:0:
192,192,95775,1,0,0:0:0:0:
448,192,95775,1,0,0:0:0:0:
64,192,95933,1,0,0:0:0:0:
320,192,95933,1,0,0:0:0:0:
448,192,95933,1,0,0:0:0:0:
64,192,96091,1,0,0:0:0:0:
448,192,96091,1,0,0:0:0:0:
192,192,96170,1,0,0:0:0:0:
320,192,96170,1,0,0:0:0:0:
64,192,96249,1,0,0:0:0:0:
320,192,96249,1,0,0:0:0:0:
448,192,96249,1,0,0:0:0:0:
64,192,96328,1,0,0:0:0:0:
192,192,96328,1,0,0:0:0:0:
320,192,96406,1,0,0:0:0:0:
448,192,96406,1,0,0:0:0:0:
64,192,96564,1,0,0:0:0:0:
192,192,96564,1,0,0:0:0:0:
448,192,96564,1,0,0:0:0:0:
64,192,96643,1,0,0:0:0:0:
320,192,96643,1,0,0:0:0:0:
192,192,96722,1,0,0:0:0:0:
448,192,96722,1,0,0:0:0:0:
64,192,96880,1,0,0:0:0:0:
320,192,96880,1,0,0:0:0:0:
448,192,96880,1,0,0:0:0:0:
64,192,97038,1,0,0:0:0:0:
320,192,97038,1,0,0:0:0:0:
64,192,97117,1,0,0:0:0:0:
192,192,97196,1,0,0:0:0:0:
320,192,97196,1,0,0:0:0:0:
448,192,97196,1,0,0:0:0:0:
64,192,97354,1,0,0:0:0:0:
192,192,97354,1,0,0:0:0:0:
320,192,97433,1,0,0:0:0:0:
64,192,97512,1,0,0:0:0:0:
192,192,97512,1,0,0:0:0:0:
448,192,97512,1,0,0:0:0:0:
320,192,97670,1,0,0:0:0:0:
448,192,97670,1,0,0:0:0:0:
64,192,97828,1,0,0:0:0:0:
192,192,97828,1,0,0:0:0:0:
320,192,97828,1,0,0:0:0:0:
448,192,97828,1,0,0:0:0:0:
320,192,97985,1,0,0:0:0:0:
448,192,97985,1,0,0:0:0:0:
64,192,98143,1,0,0:0:0:0:
192,192,98143,1,0,0:0:0:0:
448,192,98143,1,0,0:0:0:0:
192,192,98301,1,0,0:0:0:0:
320,192,98301,1,0,0:0:0:0:
64,192,98459,1,0,0:0:0:0:
320,192,98459,1,0,0:0:0:0:
448,192,98459,1,0,0:0:0:0:
64,192,98617,1,0,0:0:0:0:
192,192,98617,1,0,0:0:0:0:
320,192,98696,1,0,0:0:0:0:
448,192,98696,1,0,0:0:0:0:
64,192,98775,1,0,0:0:0:0:
192,192,98775,1,0,0:0:0:0:
448,192,98775,1,0,0:0:0:0:
192,192,98854,1,0,0:0:0:0:
320,192,98854,1,0,0:0:0:0:
64,192,98933,1,0,0:0:0:0:
448,192,98933,1,0,0:0:0:0:
64,192,99091,1,0,0:0:0:0:
192,192,99091,1,0,0:0:0:0:
320,192,99091,1,0,0:0:0:0:
448,192,99091,1,0,0:0:0:0:
64,192,99170,1,0,0:0:0:0:
192,192,99170,1,0,0:0:0:0:
320,192,99249,1,0,0:0:0:0:
448,192,99249,1,0,0:0:0:0:
64,192,99406,1,0,0:0:0:0:
192,192,99406,1,0,0:0:0:0:
448,192,99406,1,0,0:0:0:0:
320,192,99564,1,0,0:0:0:0:
448,192,99564,1,0,0:0:0:0:
64,192,99722,1,0,0:0:0:0:
192,192,99722,1,0,0:0:0:0:
320,192,99722,1,0,0:0:0:0:
64,192,99880,1,0,0:0:0:0:
320,192,99880,1,0,0:0:0:0:
64,192,99959,1,0,0:0:0:0:
192,192,100038,1,0,0:0:0:0:
320,192,100038,1,0,0:0:0:0:
448,192,100038,1,0,0:0:0:0:
192,192,100196,1,0,0:0:0:0:
448,192,100196,1,0,0:0:0:0:
320,192,100275,1,0,0:0:0:0:
64,192,100354,1,0,0:0:0:0:
192,192,100354,1,0,0:0:0:0:
320,192,100354,1,0,0:0:0:0:
448,192,100354,1,0,0:0:0:0:
64,192,100512,1,0,0:0:0:0:
320,192,100512,1,0,0:0:0:0:
448,192,100512,1,0,0:0:0:0:
64,192,100670,1,0,0:0:0:0:
192,192,100670,1,0,0:0:0:0:
320,192,100670,1,0,0:0:0:0:
64,192,100828,1,0,0:0:0:0:
192,192,100828,1,0,0:0:0:0:
448,192,100828,1,0,0:0:0:0:
64,192,100985,1,0,0:0:0:0:
192,192,100985,1,0,0:0:0:0:
320,192,100985,1,0,0:0:0:0:
448,192,100985,1,0,0:0:0:0:
64,192,101143,1,0,0:0:0:0:
192,192,101143,1,0,0:0:0:0:
320,192,101143,1,0,0:0:0:0:
448,192,101222,1,0,0:0:0:0:
64,192,101301,1,0,0:0:0:0:
192,192,101301,1,0,0:0:0:0:
320,192,101301,1,0,0:0:0:0:
64,192,101459,1,0,0:0:0:0:
192,192,101459,1,0,0:0:0:0:
448,192,101459,1,0,0:0:0:0:
320,192,101538,1,0,0:0:0:0:
64,192,101617,1,0,0:0:0:0:
192,192,101617,1,0,0:0:0:0:
320,192,101617,1,0,0:0:0:0:
448,192,101617,1,0,0:0:0:0:
64,192,101775,1,0,0:0:0:0:
320,192,101775,1,0,0:0:0:0:
448,192,101775,1,0,0:0:0:0:
64,192,101933,1,0,0:0:0:0:
192,192,101933,1,0,0:0:0:0:
320,192,101933,1,0,0:0:0:0:
64,192,102091,1,0,0:0:0:0:
192,192,102091,1,0,0:0:0:0:
448,192,102091,1,0,0:0:0:0:
320,192,102170,1,0,0:0:0:0:
64,192,102249,1,0,0:0:0:0:
192,192,102249,1,0,0:0:0:0:
448,192,102249,1,0,0:0:0:0:
64,192,102406,1,0,0:0:0:0:
192,192,102406,1,0,0:0:0:0:
448,192,102406,1,0,0:0:0:0:
64,192,102564,1,0,0:0:0:0:
192,192,102564,1,0,0:0:0:0:
320,192,102643,1,0,0:0:0:0:
448,192,102643,1,0,0:0:0:0:
64,192,102722,1,0,0:0:0:0:
192,192,102722,1,0,0:0:0:0:
320,192,102801,1,0,0:0:0:0:
448,192,102801,1,0,0:0:0:0:
64,192,102880,1,0,0:0:0:0:
192,192,102880,1,0,0:0:0:0:
448,192,102880,1,0,0:0:0:0:
320,192,103038,1,0,0:0:0:0:
448,192,103038,1,0,0:0:0:0:
320,192,103117,1,0,0:0:0:0:
448,192,103117,1,0,0:0:0:0:
64,192,103196,1,0,0:0:0:0:
192,192,103196,1,0,0:0:0:0:
448,192,103196,1,0,0:0:0:0:
192,192,103354,1,0,0:0:0:0:
320,192,103354,1,0,0:0:0:0:
64,192,103512,1,0,0:0:0:0:
320,192,103512,1,0,0:0:0:0:
448,192,103512,1,0,0:0:0:0:
64,192,103670,1,0,0:0:0:0:
192,192,103670,1,0,0:0:0:0:
64,192,103749,1,0,0:0:0:0:
192,192,103749,1,0,0:0:0:0:
64,192,103828,1,0,0:0:0:0:
320,192,103828,1,0,0:0:0:0:
448,192,103828,1,0,0:0:0:0:
192,192,103985,1,0,0:0:0:0:
320,192,103985,1,0,0:0:0:0:
64,192,104143,1,0,0:0:0:0:
320,192,104143,1,0,0:0:0:0:
448,192,104143,1,0,0:0:0:0:
192,192,104222,1,0,0:0:0:0:
320,192,104222,1,0,0:0:0:0:
64,192,104301,1,0,0:0:0:0:
448,192,104301,1,0,0:0:0:0:
64,192,104459,1,0,0:0:0:0:
192,192,104459,1,0,0:0:0:0:
320,192,104459,1,0,0:0:0:0:
192,192,104617,1,0,0:0:0:0:
448,192,104617,1,0,0:0:0:0:
192,192,104696,1,0,0:0:0:0:
448,192,104696,1,0,0:0:0:0:
64,192,104775,1,0,0:0:0:0:
320,192,104775,1,0,0:0:0:0:
448,192,104775,1,0,0:0:0:0:
64,192,104933,1,0,0:0:0:0:
192,192,104933,1,0,0:0:0:0:
320,192,105012,1,0,0:0:0:0:
64,192,105091,1,0,0:0:0:0:
192,192,105091,1,0,0:0:0:0:
448,192,105091,1,0,0:0:0:0:
320,192,105170,1,0,0:0:0:0:
448,192,105170,1,0,0:0:0:0:
64,192,105249,1,0,0:0:0:0:
192,192,105249,1,0,0:0:0:0:
320,192,105328,1,0,0:0:0:0:
448,192,105328,1,0,0:0:0:0:
64,192,105406,1,0,0:0:0:0:
192,192,105406,1,0,0:0:0:0:
448,192,105406,1,0,0:0:0:0:
448,192,105564,1,0,0:0:0:0:
64,192,105643,1,0,0:0:0:0:
192,192,105643,1,0,0:0:0:0:
320,192,105643,1,0,0:0:0:0:
320,192,105801,1,0,0:0:0:0:
64,192,105880,1,0,0:0:0:0:
192,192,105880,1,0,0:0:0:0:
448,192,105880,1,0,0:0:0:0:
192,192,106038,1,0,0:0:0:0:
64,192,106117,1,0,0:0:0:0:
320,192,106117,1,0,0:0:0:0:
448,192,106117,1,0,0:0:0:0:
64,192,106275,1,0,0:0:0:0:
192,192,106354,1,0,0:0:0:0:
320,192,106354,1,0,0:0:0:0:
448,192,106354,1,0,0:0:0:0:
192,192,106512,1,0,0:0:0:0:
64,192,106591,1,0,0:0:0:0:
320,192,106591,1,0,0:0:0:0:
448,192,106591,1,0,0:0:0:0:
320,192,106749,1,0,0:0:0:0:
64,192,106828,1,0,0:0:0:0:
192,192,106828,1,0,0:0:0:0:
448,192,106828,1,0,0:0:0:0:
448,192,106985,1,0,0:0:0:0:
64,192,107064,1,0,0:0:0:0:
192,192,107064,1,0,0:0:0:0:
320,192,107064,1,0,0:0:0:0:
320,192,107222,1,0,0:0:0:0:
64,192,107301,1,0,0:0:0:0:
192,192,107301,1,0,0:0:0:0:
448,192,107301,1,0,0:0:0:0:
192,192,107459,1,0,0:0:0:0:
64,192,107538,1,0,0:0:0:0:
320,192,107538,1,0,0:0:0:0:
448,192,107538,1,0,0:0:0:0:
64,192,107617,1,0,0:0:0:0:
192,192,107617,1,0,0:0:0:0:
320,192,107696,1,0,0:0:0:0:
448,192,107696,1,0,0:0:0:0:
64,192,107775,1,0,0:0:0:0:
192,192,107775,1,0,0:0:0:0:
320,192,107854,1,0,0:0:0:0:
448,192,107854,1,0,0:0:0:0:
64,192,107933,1,0,0:0:0:0:
192,192,107933,1,0,0:0:0:0:
320,192,107933,1,0,0:0:0:0:
448,192,107933,1,0,0:0:0:0:
64,192,108091,1,0,0:0:0:0:
192,192,108091,1,0,0:0:0:0:
448,192,108091,1,0,0:0:0:0:
64,192,108249,1,0,0:0:0:0:
192,192,108249,1,0,0:0:0:0:
320,192,108249,1,0,0:0:0:0:
192,192,108406,1,0,0:0:0:0:
320,192,108406,1,0,0:0:0:0:
448,192,108406,1,0,0:0:0:0:
64,192,108564,1,0,0:0:0:0:
320,192,108564,1,0,0:0:0:0:
448,192,108564,1,0,0:0:0:0:
64,192,108722,1,0,0:0:0:0:
192,192,108722,1,0,0:0:0:0:
320,192,108801,1,0,0:0:0:0:
448,192,108801,1,0,0:0:0:0:
64,192,108880,1,0,0:0:0:0:
192,192,108880,1,0,0:0:0:0:
448,192,108880,1,0,0:0:0:0:
192,192,108959,1,0,0:0:0:0:
320,192,108959,1,0,0:0:0:0:
64,192,109038,1,0,0:0:0:0:
448,192,109038,1,0,0:0:0:0:
64,192,109196,1,0,0:0:0:0:
192,192,109196,1,0,0:0:0:0:
320,192,109196,1,0,0:0:0:0:
448,192,109196,1,0,0:0:0:0:
192,192,109275,1,0,0:0:0:0:
320,192,109275,1,0,0:0:0:0:
64,192,109354,1,0,0:0:0:0:
448,192,109354,1,0,0:0:0:0:
64,192,109512,1,0,0:0:0:0:
192,192,109512,1,0,0:0:0:0:
320,192,109512,1,0,0:0:0:0:
320,192,109670,1,0,0:0:0:0:
448,192,109670,1,0,0:0:0:0:
64,192,109828,1,0,0:0:0:0:
192,192,109828,1,0,0:0:0:0:
448,192,109828,1,0,0:0:0:0:
320,192,109906,1,0,0:0:0:0:
448,192,109906,1,0,0:0:0:0:
64,192,109985,1,0,0:0:0:0:
192,192,109985,1,0,0:0:0:0:
320,192,110064,1,0,0:0:0:0:
448,192,110064,1,0,0:0:0:0:
64,192,110143,1,0,0:0:0:0:
192,192,110143,1,0,0:0:0:0:
320,192,110222,1,0,0:0:0:0:
448,192,110222,1,0,0:0:0:0:
64,192,110301,1,0,0:0:0:0:
192,192,110301,1,0,0:0:0:0:
320,192,110380,1,0,0:0:0:0:
448,192,110380,1,0,0:0:0:0:
64,192,110459,1,0,0:0:0:0:
192,192,110459,1,0,0:0:0:0:
448,192,110459,1,0,0:0:0:0:
448,192,110696,1,0,0:0:0:0:
64,192,110775,1,0,0:0:0:0:
192,192,110775,1,0,0:0:0:0:
320,192,110775,1,0,0:0:0:0:
192,192,111012,1,0,0:0:0:0:
320,192,111012,1,0,0:0:0:0:
448,192,111012,1,0,0:0:0:0:
64,192,111249,1,0,0:0:0:0:
192,192,111249,1,0,0:0:0:0:
320,192,111249,1,0,0:0:0:0:
448,192,111406,1,0,0:0:0:0:
64,192,111485,1,0,0:0:0:0:
192,192,111485,1,0,0:0:0:0:
320,192,111564,1,0,0:0:0:0:
64,192,111722,1,0,0:0:0:0:
192,192,111722,1,0,0:0:0:0:
448,192,111722,1,0,0:0:0:0:
192,192,111959,1,0,0:0:0:0:
320,192,111959,1,0,0:0:0:0:
448,192,111959,1,0,0:0:0:0:
64,192,112196,1,0,0:0:0:0:
192,192,112196,1,0,0:0:0:0:
448,192,112196,1,0,0:0:0:0:
320,192,112354,1,0,0:0:0:0:
192,192,112512,1,0,0:0:0:0:
320,192,112512,1,0,0:0:0:0:
448,192,112512,1,0,0:0:0:0:
64,192,112749,1,0,0:0:0:0:
192,192,112749,1,0,0:0:0:0:
320,192,112749,1,0,0:0:0:0:
448,192,112906,1,0,0:0:0:0:
192,192,112985,1,0,0:0:0:0:
320,192,112985,1,0,0:0:0:0:
64,192,113143,1,0,0:0:0:0:
192,192,113222,1,0,0:0:0:0:
448,192,113222,1,0,0:0:0:0:
320,192,113380,1,0,0:0:0:0:
64,192,113459,1,0,0:0:0:0:
192,192,113459,1,0,0:0:0:0:
448,192,113459,1,0,0:0:0:0:
320,192,113538,1,0,0:0:0:0:
192,192,113617,1,0,0:0:0:0:
64,192,113696,1,0,0:0:0:0:
320,192,113696,1,0,0:0:0:0:
448,192,113696,1,0,0:0:0:0:
192,192,113775,1,0,0:0:0:0:
320,192,113854,1,0,0:0:0:0:
64,192,113933,1,0,0:0:0:0:
192,192,113933,1,0,0:0:0:0:
448,192,113933,1,0,0:0:0:0:
320,192,114012,1,0,0:0:0:0:
64,192,114091,1,0,0:0:0:0:
192,192,114091,1,0,0:0:0:0:
448,192,114091,1,0,0:0:0:0:
64,192,114170,1,0,0:0:0:0:
192,192,114249,1,0,0:0:0:0:
320,192,114249,1,0,0:0:0:0:
448,192,114249,1,0,0:0:0:0:
192,192,114406,1,0,0:0:0:0:
64,0,114406,128,0,115670:1:0:0:0:
448,0,114406,128,0,115670:1:0:0:0:
