osu file format v14

[General]
AudioFilename: Kakuzetsu Thanatos.mp3
AudioLeadIn: 2
PreviewTime: 68249
Countdown: 0
SampleSet: Normal
StackLeniency: 0.7
Mode: 3
LetterboxInBreaks: 0
SpecialStyle: 0
WidescreenStoryboard: 0

[Editor]
DistanceSpacing: 0.8
BeatDivisor: 4
GridSize: 8
TimelineZoom: 3.199999

[Metadata]
Title:dakemoto's Collection Pack Vol.1
TitleUnicode:dakemoto's Collection Pack Vol.1
Artist:Various Artist
ArtistUnicode:Various Artist
Creator:dakemoto
Version:Kakuzetsu Thanatos (Hard)
Source:Stepmania
Tags:
BeatmapID:741047
BeatmapSetID:329410

[Difficulty]
HPDrainRate:7
CircleSize:4
OverallDifficulty:8
ApproachRate:10
SliderMultiplier:1.4
SliderTickRate:1

[Events]
//Background and Video events
0,0,"Kakuzetsu Thanatos bg.jpg",0,0
//Break Periods
//Storyboard Layer 0 (Background)
//Storyboard Layer 1 (Fail)
//Storyboard Layer 2 (Pass)
//Storyboard Layer 3 (Foreground)
//Storyboard Sound Samples

[TimingPoints]
149,300,4,1,0,15,1,0
184065,292.683,4,1,0,15,1,0
188747,285.714,4,1,0,15,1,0
193605,279.07,4,1,0,15,1,0
202256,272.727,4,1,0,15,1,0
206619,285.714,4,1,0,15,1,0
207762,315.789,4,1,0,15,1,0
209025,342.857,4,1,0,15,1,0
209711,375,4,1,0,15,1,0
210461,400,4,1,0,15,1,0

[HitObjects]
64,192,1049,5,0,0:0:0:0:
192,192,1049,1,0,0:0:0:0:
192,192,1199,1,0,0:0:0:0:
320,192,1199,1,0,0:0:0:0:
64,192,1349,1,0,0:0:0:0:
320,192,1349,1,0,0:0:0:0:
448,192,1349,1,0,0:0:0:0:
192,192,1499,1,0,0:0:0:0:
320,192,1649,1,0,0:0:0:0:
448,192,1799,1,0,0:0:0:0:
64,192,1949,1,0,0:0:0:0:
320,192,1949,1,0,0:0:0:0:
192,192,2174,1,0,0:0:0:0:
448,192,2174,1,0,0:0:0:0:
192,192,2399,1,0,0:0:0:0:
320,192,2399,1,0,0:0:0:0:
64,192,2549,1,0,0:0:0:0:
192,192,2549,1,0,0:0:0:0:
448,192,2549,1,0,0:0:0:0:
320,192,2699,1,0,0:0:0:0:
64,192,2849,1,0,0:0:0:0:
192,192,2999,1,0,0:0:0:0:
64,192,3149,1,0,0:0:0:0:
448,192,3149,1,0,0:0:0:0:
192,192,3374,1,0,0:0:0:0:
320,192,3374,1,0,0:0:0:0:
192,192,3599,1,0,0:0:0:0:
448,192,3599,1,0,0:0:0:0:
64,192,3749,1,0,0:0:0:0:
320,192,3749,1,0,0:0:0:0:
448,192,3749,1,0,0:0:0:0:
192,192,3899,1,0,0:0:0:0:
320,192,4049,1,0,0:0:0:0:
448,192,4199,1,0,0:0:0:0:
64,192,4349,1,0,0:0:0:0:
320,192,4349,1,0,0:0:0:0:
320,192,4574,1,0,0:0:0:0:
448,192,4574,1,0,0:0:0:0:
192,192,4799,1,0,0:0:0:0:
448,192,4799,1,0,0:0:0:0:
64,192,4949,1,0,0:0:0:0:
192,192,4949,1,0,0:0:0:0:
192,192,5174,1,0,0:0:0:0:
448,192,5174,1,0,0:0:0:0:
320,192,5399,1,0,0:0:0:0:
448,192,5399,1,0,0:0:0:0:
192,192,5549,1,0,0:0:0:0:
320,192,5549,1,0,0:0:0:0:
64,192,5849,1,0,0:0:0:0:
448,192,5849,1,0,0:0:0:0:
192,192,6149,1,0,0:0:0:0:
320,192,6149,1,0,0:0:0:0:
448,192,6149,1,0,0:0:0:0:
64,192,6299,1,0,0:0:0:0:
320,192,6449,1,0,0:0:0:0:
448,192,6599,1,0,0:0:0:0:
64,192,7349,1,0,0:0:0:0:
192,192,7349,1,0,0:0:0:0:
448,192,7349,1,0,0:0:0:0:
320,192,7499,1,0,0:0:0:0:
192,192,7649,1,0,0:0:0:0:
64,192,7799,1,0,0:0:0:0:
64,192,8549,1,0,0:0:0:0:
192,192,8549,1,0,0:0:0:0:
320,192,8549,1,0,0:0:0:0:
192,192,8999,1,0,0:0:0:0:
320,192,8999,1,0,0:0:0:0:
320,192,9449,1,0,0:0:0:0:
448,192,9449,1,0,0:0:0:0:
64,192,9749,1,0,0:0:0:0:
192,192,9749,1,0,0:0:0:0:
320,192,9749,1,0,0:0:0:0:
320,192,9974,1,0,0:0:0:0:
448,192,9974,1,0,0:0:0:0:
64,192,10199,1,0,0:0:0:0:
192,192,10199,1,0,0:0:0:0:
192,0,10349,128,0,10499:1:0:0:0:
448,0,10349,128,0,10499:1:0:0:0:
320,0,10649,128,0,10799:1:0:0:0:
448,0,10649,128,0,10799:1:0:0:0:
64,0,10799,128,0,10874:1:0:0:0:
192,0,10799,128,0,10874:1:0:0:0:
64,192,10949,1,0,0:0:0:0:
320,0,10949,128,0,11099:1:0:0:0:
448,0,10949,128,0,11099:1:0:0:0:
192,192,11099,1,0,0:0:0:0:
64,0,11099,128,0,11249:1:0:0:0:
192,192,11249,1,0,0:0:0:0:
320,192,11249,1,0,0:0:0:0:
448,192,11249,1,0,0:0:0:0:
64,192,11324,1,0,0:0:0:0:
320,192,11399,1,0,0:0:0:0:
448,192,11399,1,0,0:0:0:0:
64,192,11474,1,0,0:0:0:0:
192,192,11474,1,0,0:0:0:0:
320,0,11549,128,0,11699:1:0:0:0:
448,0,11549,128,0,11699:1:0:0:0:
64,192,11699,1,0,0:0:0:0:
192,0,11699,128,0,11849:1:0:0:0:
64,192,11849,1,0,0:0:0:0:
320,192,11849,1,0,0:0:0:0:
448,192,11849,1,0,0:0:0:0:
192,192,11924,1,0,0:0:0:0:
64,192,11999,1,0,0:0:0:0:
320,192,11999,1,0,0:0:0:0:
192,192,12074,1,0,0:0:0:0:
448,192,12074,1,0,0:0:0:0:
64,0,12149,128,0,12299:1:0:0:0:
320,0,12149,128,0,12299:1:0:0:0:
192,192,12299,1,0,0:0:0:0:
448,0,12299,128,0,12449:1:0:0:0:
64,192,12449,1,0,0:0:0:0:
192,192,12449,1,0,0:0:0:0:
320,192,12449,1,0,0:0:0:0:
448,192,12524,1,0,0:0:0:0:
64,192,12599,1,0,0:0:0:0:
320,192,12599,1,0,0:0:0:0:
192,192,12674,1,0,0:0:0:0:
448,192,12674,1,0,0:0:0:0:
64,0,12749,128,0,12899:1:0:0:0:
320,0,12749,128,0,12899:1:0:0:0:
448,192,12899,1,0,0:0:0:0:
192,0,12899,128,0,13049:1:0:0:0:
64,192,13049,1,0,0:0:0:0:
320,0,13049,128,0,13199:1:0:0:0:
448,0,13049,128,0,13199:1:0:0:0:
64,192,13199,1,0,0:0:0:0:
192,192,13199,1,0,0:0:0:0:
320,192,13274,1,0,0:0:0:0:
448,192,13274,1,0,0:0:0:0:
64,0,13349,128,0,13499:1:0:0:0:
192,0,13349,128,0,13499:1:0:0:0:
320,192,13499,1,0,0:0:0:0:
448,0,13499,128,0,13649:1:0:0:0:
64,192,13649,1,0,0:0:0:0:
192,192,13649,1,0,0:0:0:0:
320,192,13649,1,0,0:0:0:0:
448,192,13724,1,0,0:0:0:0:
192,192,13799,1,0,0:0:0:0:
320,192,13799,1,0,0:0:0:0:
64,192,13874,1,0,0:0:0:0:
448,192,13874,1,0,0:0:0:0:
192,0,13949,128,0,14099:1:0:0:0:
320,0,13949,128,0,14099:1:0:0:0:
448,192,14099,1,0,0:0:0:0:
64,0,14099,128,0,14249:1:0:0:0:
192,192,14249,1,0,0:0:0:0:
320,192,14249,1,0,0:0:0:0:
448,192,14249,1,0,0:0:0:0:
64,192,14324,1,0,0:0:0:0:
192,192,14399,1,0,0:0:0:0:
448,192,14399,1,0,0:0:0:0:
64,192,14474,1,0,0:0:0:0:
320,192,14474,1,0,0:0:0:0:
192,0,14549,128,0,14699:1:0:0:0:
448,0,14549,128,0,14699:1:0:0:0:
320,192,14699,1,0,0:0:0:0:
64,0,14699,128,0,14849:1:0:0:0:
192,192,14849,1,0,0:0:0:0:
320,192,14849,1,0,0:0:0:0:
448,192,14849,1,0,0:0:0:0:
64,192,14924,1,0,0:0:0:0:
320,192,14999,1,0,0:0:0:0:
448,192,14999,1,0,0:0:0:0:
64,192,15074,1,0,0:0:0:0:
192,192,15074,1,0,0:0:0:0:
320,192,15149,1,0,0:0:0:0:
448,192,15149,1,0,0:0:0:0:
64,192,15199,1,0,0:0:0:0:
192,192,15199,1,0,0:0:0:0:
320,192,15249,1,0,0:0:0:0:
448,192,15249,1,0,0:0:0:0:
64,192,15349,1,0,0:0:0:0:
192,192,15349,1,0,0:0:0:0:
64,192,15449,1,0,0:0:0:0:
320,192,15449,1,0,0:0:0:0:
448,192,15449,1,0,0:0:0:0:
192,192,15549,1,0,0:0:0:0:
448,192,15549,1,0,0:0:0:0:
64,192,15649,1,0,0:0:0:0:
192,192,15649,1,0,0:0:0:0:
64,192,15749,1,0,0:0:0:0:
320,0,15749,128,0,15899:1:0:0:0:
448,0,15749,128,0,15899:1:0:0:0:
192,192,15899,1,0,0:0:0:0:
64,0,15899,128,0,16049:1:0:0:0:
192,192,16049,1,0,0:0:0:0:
320,192,16049,1,0,0:0:0:0:
448,192,16049,1,0,0:0:0:0:
64,192,16124,1,0,0:0:0:0:
320,192,16199,1,0,0:0:0:0:
448,192,16199,1,0,0:0:0:0:
64,192,16274,1,0,0:0:0:0:
192,192,16274,1,0,0:0:0:0:
320,0,16349,128,0,16499:1:0:0:0:
448,0,16349,128,0,16499:1:0:0:0:
64,192,16499,1,0,0:0:0:0:
192,0,16499,128,0,16649:1:0:0:0:
64,192,16649,1,0,0:0:0:0:
320,192,16649,1,0,0:0:0:0:
448,192,16649,1,0,0:0:0:0:
192,192,16724,1,0,0:0:0:0:
64,192,16799,1,0,0:0:0:0:
320,192,16799,1,0,0:0:0:0:
192,192,16874,1,0,0:0:0:0:
448,192,16874,1,0,0:0:0:0:
64,0,16949,128,0,17099:1:0:0:0:
320,0,16949,128,0,17099:1:0:0:0:
192,192,17099,1,0,0:0:0:0:
448,0,17099,128,0,17249:1:0:0:0:
64,192,17249,1,0,0:0:0:0:
192,192,17249,1,0,0:0:0:0:
320,192,17249,1,0,0:0:0:0:
448,192,17324,1,0,0:0:0:0:
64,192,17399,1,0,0:0:0:0:
320,192,17399,1,0,0:0:0:0:
192,192,17474,1,0,0:0:0:0:
448,192,17474,1,0,0:0:0:0:
64,0,17549,128,0,17699:1:0:0:0:
320,0,17549,128,0,17699:1:0:0:0:
448,192,17699,1,0,0:0:0:0:
192,0,17699,128,0,17849:1:0:0:0:
64,192,17849,1,0,0:0:0:0:
320,0,17849,128,0,17999:1:0:0:0:
448,0,17849,128,0,17999:1:0:0:0:
64,192,17999,1,0,0:0:0:0:
192,192,17999,1,0,0:0:0:0:
320,192,18074,1,0,0:0:0:0:
448,192,18074,1,0,0:0:0:0:
64,192,18149,1,0,0:0:0:0:
192,0,18149,128,0,18249:1:0:0:0:
448,0,18149,128,0,18249:1:0:0:0:
192,0,18349,128,0,18449:1:0:0:0:
320,0,18349,128,0,18449:1:0:0:0:
64,0,18549,128,0,18649:1:0:0:0:
192,0,18549,128,0,18649:1:0:0:0:
64,192,18749,1,0,0:0:0:0:
320,0,18749,128,0,18849:1:0:0:0:
448,0,18749,128,0,18849:1:0:0:0:
192,192,18799,1,0,0:0:0:0:
64,192,18849,1,0,0:0:0:0:
320,192,18899,1,0,0:0:0:0:
64,0,18949,128,0,19049:1:0:0:0:
192,0,18949,128,0,19049:1:0:0:0:
448,192,19049,1,0,0:0:0:0:
64,192,19149,1,0,0:0:0:0:
192,0,19149,128,0,19249:1:0:0:0:
320,0,19149,128,0,19249:1:0:0:0:
448,192,19249,1,0,0:0:0:0:
320,192,19349,1,0,0:0:0:0:
64,0,19349,128,0,19449:1:0:0:0:
448,0,19349,128,0,19449:1:0:0:0:
192,192,19399,1,0,0:0:0:0:
320,192,19449,1,0,0:0:0:0:
64,0,19549,128,0,19649:1:0:0:0:
192,0,19549,128,0,19649:1:0:0:0:
448,192,19649,1,0,0:0:0:0:
64,192,19749,1,0,0:0:0:0:
192,0,19749,128,0,19849:1:0:0:0:
320,0,19749,128,0,19849:1:0:0:0:
448,192,19849,1,0,0:0:0:0:
320,192,19949,1,0,0:0:0:0:
64,0,19949,128,0,20474:1:0:0:0:
448,0,19949,128,0,20474:1:0:0:0:
192,0,20249,128,0,20474:1:0:0:0:
320,0,20399,128,0,20549:1:0:0:0:
64,192,20549,1,0,0:0:0:0:
192,192,20549,1,0,0:0:0:0:
448,192,20549,1,0,0:0:0:0:
192,192,20699,1,0,0:0:0:0:
448,192,20699,1,0,0:0:0:0:
320,192,20774,1,0,0:0:0:0:
64,192,20849,1,0,0:0:0:0:
192,192,20849,1,0,0:0:0:0:
448,192,20849,1,0,0:0:0:0:
320,192,20924,1,0,0:0:0:0:
64,192,20999,1,0,0:0:0:0:
448,192,20999,1,0,0:0:0:0:
192,192,21074,1,0,0:0:0:0:
320,192,21149,1,0,0:0:0:0:
448,192,21149,1,0,0:0:0:0:
64,192,21224,1,0,0:0:0:0:
320,192,21299,1,0,0:0:0:0:
192,192,21374,1,0,0:0:0:0:
64,192,21449,1,0,0:0:0:0:
320,192,21449,1,0,0:0:0:0:
448,192,21449,1,0,0:0:0:0:
192,192,21524,1,0,0:0:0:0:
64,192,21599,1,0,0:0:0:0:
320,192,21599,1,0,0:0:0:0:
192,192,21674,1,0,0:0:0:0:
64,192,21749,1,0,0:0:0:0:
448,192,21749,1,0,0:0:0:0:
320,192,21899,1,0,0:0:0:0:
448,192,21899,1,0,0:0:0:0:
192,192,21974,1,0,0:0:0:0:
64,192,22049,1,0,0:0:0:0:
320,192,22049,1,0,0:0:0:0:
448,192,22049,1,0,0:0:0:0:
192,192,22124,1,0,0:0:0:0:
64,192,22199,1,0,0:0:0:0:
320,192,22199,1,0,0:0:0:0:
448,192,22274,1,0,0:0:0:0:
64,192,22349,1,0,0:0:0:0:
192,192,22349,1,0,0:0:0:0:
320,192,22424,1,0,0:0:0:0:
448,192,22499,1,0,0:0:0:0:
192,192,22574,1,0,0:0:0:0:
64,192,22649,1,0,0:0:0:0:
320,192,22649,1,0,0:0:0:0:
448,192,22649,1,0,0:0:0:0:
192,192,22724,1,0,0:0:0:0:
320,192,22799,1,0,0:0:0:0:
448,192,22799,1,0,0:0:0:0:
192,192,22874,1,0,0:0:0:0:
64,192,22949,1,0,0:0:0:0:
448,192,22949,1,0,0:0:0:0:
192,192,23099,1,0,0:0:0:0:
320,192,23099,1,0,0:0:0:0:
64,192,23174,1,0,0:0:0:0:
192,192,23249,1,0,0:0:0:0:
320,192,23249,1,0,0:0:0:0:
448,192,23249,1,0,0:0:0:0:
64,192,23324,1,0,0:0:0:0:
320,192,23399,1,0,0:0:0:0:
448,192,23399,1,0,0:0:0:0:
192,192,23474,1,0,0:0:0:0:
64,192,23549,1,0,0:0:0:0:
320,192,23549,1,0,0:0:0:0:
448,192,23624,1,0,0:0:0:0:
192,192,23699,1,0,0:0:0:0:
320,192,23774,1,0,0:0:0:0:
64,192,23849,1,0,0:0:0:0:
192,192,23849,1,0,0:0:0:0:
448,192,23849,1,0,0:0:0:0:
320,192,23924,1,0,0:0:0:0:
64,192,23999,1,0,0:0:0:0:
192,192,23999,1,0,0:0:0:0:
448,192,24074,1,0,0:0:0:0:
64,192,24149,1,0,0:0:0:0:
320,192,24149,1,0,0:0:0:0:
64,192,24299,1,0,0:0:0:0:
192,192,24299,1,0,0:0:0:0:
320,192,24374,1,0,0:0:0:0:
64,192,24449,1,0,0:0:0:0:
192,192,24449,1,0,0:0:0:0:
448,192,24449,1,0,0:0:0:0:
320,192,24524,1,0,0:0:0:0:
64,192,24599,1,0,0:0:0:0:
192,192,24599,1,0,0:0:0:0:
448,192,24674,1,0,0:0:0:0:
64,192,24749,1,0,0:0:0:0:
320,192,24749,1,0,0:0:0:0:
192,192,24824,1,0,0:0:0:0:
448,192,24899,1,0,0:0:0:0:
320,192,24974,1,0,0:0:0:0:
64,192,25049,1,0,0:0:0:0:
192,192,25049,1,0,0:0:0:0:
448,192,25049,1,0,0:0:0:0:
320,192,25124,1,0,0:0:0:0:
64,192,25199,1,0,0:0:0:0:
192,192,25199,1,0,0:0:0:0:
448,192,25274,1,0,0:0:0:0:
192,192,25349,1,0,0:0:0:0:
320,192,25349,1,0,0:0:0:0:
64,192,25499,1,0,0:0:0:0:
192,192,25499,1,0,0:0:0:0:
320,192,25574,1,0,0:0:0:0:
64,192,25649,1,0,0:0:0:0:
192,192,25649,1,0,0:0:0:0:
448,192,25649,1,0,0:0:0:0:
320,192,25724,1,0,0:0:0:0:
64,192,25799,1,0,0:0:0:0:
448,192,25799,1,0,0:0:0:0:
192,192,25874,1,0,0:0:0:0:
320,192,25949,1,0,0:0:0:0:
448,192,25949,1,0,0:0:0:0:
64,192,26024,1,0,0:0:0:0:
192,192,26099,1,0,0:0:0:0:
448,192,26099,1,0,0:0:0:0:
320,192,26174,1,0,0:0:0:0:
64,192,26249,1,0,0:0:0:0:
192,192,26249,1,0,0:0:0:0:
448,192,26249,1,0,0:0:0:0:
320,192,26324,1,0,0:0:0:0:
64,192,26399,1,0,0:0:0:0:
192,192,26399,1,0,0:0:0:0:
448,192,26474,1,0,0:0:0:0:
64,192,26549,1,0,0:0:0:0:
320,192,26549,1,0,0:0:0:0:
320,192,26699,1,0,0:0:0:0:
448,192,26699,1,0,0:0:0:0:
192,192,26774,1,0,0:0:0:0:
64,192,26849,1,0,0:0:0:0:
320,192,26849,1,0,0:0:0:0:
448,192,26849,1,0,0:0:0:0:
192,192,26924,1,0,0:0:0:0:
64,192,26999,1,0,0:0:0:0:
448,192,26999,1,0,0:0:0:0:
320,192,27074,1,0,0:0:0:0:
64,192,27149,1,0,0:0:0:0:
192,192,27149,1,0,0:0:0:0:
320,192,27224,1,0,0:0:0:0:
448,192,27299,1,0,0:0:0:0:
192,192,27374,1,0,0:0:0:0:
64,192,27449,1,0,0:0:0:0:
320,192,27449,1,0,0:0:0:0:
448,192,27449,1,0,0:0:0:0:
192,192,27524,1,0,0:0:0:0:
320,192,27599,1,0,0:0:0:0:
448,192,27599,1,0,0:0:0:0:
64,192,27674,1,0,0:0:0:0:
192,192,27749,1,0,0:0:0:0:
448,192,27749,1,0,0:0:0:0:
320,192,27899,1,0,0:0:0:0:
448,192,27899,1,0,0:0:0:0:
192,192,27974,1,0,0:0:0:0:
64,192,28049,1,0,0:0:0:0:
320,192,28049,1,0,0:0:0:0:
448,192,28049,1,0,0:0:0:0:
192,192,28124,1,0,0:0:0:0:
64,192,28199,1,0,0:0:0:0:
448,192,28199,1,0,0:0:0:0:
320,192,28274,1,0,0:0:0:0:
64,192,28349,1,0,0:0:0:0:
192,192,28349,1,0,0:0:0:0:
448,192,28424,1,0,0:0:0:0:
64,192,28499,1,0,0:0:0:0:
320,192,28499,1,0,0:0:0:0:
192,192,28574,1,0,0:0:0:0:
64,192,28649,1,0,0:0:0:0:
320,192,28649,1,0,0:0:0:0:
448,192,28649,1,0,0:0:0:0:
192,192,28724,1,0,0:0:0:0:
320,192,28799,1,0,0:0:0:0:
448,192,28799,1,0,0:0:0:0:
192,192,28874,1,0,0:0:0:0:
64,192,28949,1,0,0:0:0:0:
320,192,28949,1,0,0:0:0:0:
192,192,29024,1,0,0:0:0:0:
64,192,29099,1,0,0:0:0:0:
320,192,29099,1,0,0:0:0:0:
192,192,29174,1,0,0:0:0:0:
64,192,29249,1,0,0:0:0:0:
320,192,29249,1,0,0:0:0:0:
448,192,29249,1,0,0:0:0:0:
192,192,29324,1,0,0:0:0:0:
64,192,29399,1,0,0:0:0:0:
320,192,29399,1,0,0:0:0:0:
192,192,29474,1,0,0:0:0:0:
320,192,29549,1,0,0:0:0:0:
448,192,29549,1,0,0:0:0:0:
192,192,29624,1,0,0:0:0:0:
320,192,29699,1,0,0:0:0:0:
192,192,29774,1,0,0:0:0:0:
64,192,29849,1,0,0:0:0:0:
320,192,29849,1,0,0:0:0:0:
448,192,29849,1,0,0:0:0:0:
192,192,29924,1,0,0:0:0:0:
64,192,29999,1,0,0:0:0:0:
320,192,29999,1,0,0:0:0:0:
192,192,30074,1,0,0:0:0:0:
64,192,30149,1,0,0:0:0:0:
320,0,30149,128,0,30299:1:0:0:0:
448,0,30149,128,0,30299:1:0:0:0:
192,192,30299,1,0,0:0:0:0:
64,0,30299,128,0,30449:1:0:0:0:
192,192,30449,1,0,0:0:0:0:
320,192,30449,1,0,0:0:0:0:
448,192,30449,1,0,0:0:0:0:
64,192,30524,1,0,0:0:0:0:
320,192,30599,1,0,0:0:0:0:
448,192,30599,1,0,0:0:0:0:
64,192,30674,1,0,0:0:0:0:
192,192,30674,1,0,0:0:0:0:
320,0,30749,128,0,30899:1:0:0:0:
448,0,30749,128,0,30899:1:0:0:0:
64,192,30899,1,0,0:0:0:0:
192,0,30899,128,0,31049:1:0:0:0:
64,192,31049,1,0,0:0:0:0:
320,192,31049,1,0,0:0:0:0:
448,192,31049,1,0,0:0:0:0:
192,192,31124,1,0,0:0:0:0:
64,192,31199,1,0,0:0:0:0:
320,192,31199,1,0,0:0:0:0:
192,192,31274,1,0,0:0:0:0:
448,192,31274,1,0,0:0:0:0:
64,0,31349,128,0,31499:1:0:0:0:
320,0,31349,128,0,31499:1:0:0:0:
192,192,31499,1,0,0:0:0:0:
448,0,31499,128,0,31649:1:0:0:0:
64,192,31649,1,0,0:0:0:0:
192,192,31649,1,0,0:0:0:0:
320,192,31649,1,0,0:0:0:0:
448,192,31724,1,0,0:0:0:0:
64,192,31799,1,0,0:0:0:0:
320,192,31799,1,0,0:0:0:0:
192,192,31874,1,0,0:0:0:0:
448,192,31874,1,0,0:0:0:0:
64,0,31949,128,0,32099:1:0:0:0:
320,0,31949,128,0,32099:1:0:0:0:
448,192,32099,1,0,0:0:0:0:
192,0,32099,128,0,32249:1:0:0:0:
64,192,32249,1,0,0:0:0:0:
320,0,32249,128,0,32399:1:0:0:0:
448,0,32249,128,0,32399:1:0:0:0:
64,192,32399,1,0,0:0:0:0:
192,192,32399,1,0,0:0:0:0:
320,192,32474,1,0,0:0:0:0:
448,192,32474,1,0,0:0:0:0:
64,0,32549,128,0,32699:1:0:0:0:
192,0,32549,128,0,32699:1:0:0:0:
320,192,32699,1,0,0:0:0:0:
448,0,32699,128,0,32849:1:0:0:0:
64,192,32849,1,0,0:0:0:0:
192,192,32849,1,0,0:0:0:0:
320,192,32849,1,0,0:0:0:0:
448,192,32924,1,0,0:0:0:0:
192,192,32999,1,0,0:0:0:0:
320,192,32999,1,0,0:0:0:0:
64,192,33074,1,0,0:0:0:0:
448,192,33074,1,0,0:0:0:0:
192,0,33149,128,0,33299:1:0:0:0:
320,0,33149,128,0,33299:1:0:0:0:
448,192,33299,1,0,0:0:0:0:
64,0,33299,128,0,33449:1:0:0:0:
192,192,33449,1,0,0:0:0:0:
320,192,33449,1,0,0:0:0:0:
448,192,33449,1,0,0:0:0:0:
64,192,33524,1,0,0:0:0:0:
192,192,33599,1,0,0:0:0:0:
448,192,33599,1,0,0:0:0:0:
64,192,33674,1,0,0:0:0:0:
320,192,33674,1,0,0:0:0:0:
192,0,33749,128,0,33899:1:0:0:0:
448,0,33749,128,0,33899:1:0:0:0:
320,192,33899,1,0,0:0:0:0:
64,0,33899,128,0,34049:1:0:0:0:
192,192,34049,1,0,0:0:0:0:
320,192,34049,1,0,0:0:0:0:
448,192,34049,1,0,0:0:0:0:
64,192,34124,1,0,0:0:0:0:
320,192,34199,1,0,0:0:0:0:
448,192,34199,1,0,0:0:0:0:
64,192,34274,1,0,0:0:0:0:
192,192,34274,1,0,0:0:0:0:
320,192,34349,1,0,0:0:0:0:
448,192,34349,1,0,0:0:0:0:
64,192,34399,1,0,0:0:0:0:
192,192,34399,1,0,0:0:0:0:
320,192,34449,1,0,0:0:0:0:
448,192,34449,1,0,0:0:0:0:
64,192,34549,1,0,0:0:0:0:
192,192,34549,1,0,0:0:0:0:
64,192,34649,1,0,0:0:0:0:
320,192,34649,1,0,0:0:0:0:
448,192,34649,1,0,0:0:0:0:
192,192,34749,1,0,0:0:0:0:
448,192,34749,1,0,0:0:0:0:
64,192,34849,1,0,0:0:0:0:
192,192,34849,1,0,0:0:0:0:
64,192,34949,1,0,0:0:0:0:
320,0,34949,128,0,35099:1:0:0:0:
448,0,34949,128,0,35099:1:0:0:0:
192,192,35099,1,0,0:0:0:0:
64,0,35099,128,0,35249:1:0:0:0:
192,192,35249,1,0,0:0:0:0:
320,192,35249,1,0,0:0:0:0:
448,192,35249,1,0,0:0:0:0:
64,192,35324,1,0,0:0:0:0:
320,192,35399,1,0,0:0:0:0:
448,192,35399,1,0,0:0:0:0:
64,192,35474,1,0,0:0:0:0:
192,192,35474,1,0,0:0:0:0:
320,0,35549,128,0,35699:1:0:0:0:
448,0,35549,128,0,35699:1:0:0:0:
64,192,35699,1,0,0:0:0:0:
192,0,35699,128,0,35849:1:0:0:0:
64,192,35849,1,0,0:0:0:0:
320,192,35849,1,0,0:0:0:0:
448,192,35849,1,0,0:0:0:0:
192,192,35924,1,0,0:0:0:0:
64,192,35999,1,0,0:0:0:0:
320,192,35999,1,0,0:0:0:0:
192,192,36074,1,0,0:0:0:0:
448,192,36074,1,0,0:0:0:0:
64,0,36149,128,0,36299:1:0:0:0:
320,0,36149,128,0,36299:1:0:0:0:
192,192,36299,1,0,0:0:0:0:
448,0,36299,128,0,36449:1:0:0:0:
64,192,36449,1,0,0:0:0:0:
192,192,36449,1,0,0:0:0:0:
320,192,36449,1,0,0:0:0:0:
448,192,36524,1,0,0:0:0:0:
64,192,36599,1,0,0:0:0:0:
320,192,36599,1,0,0:0:0:0:
192,192,36674,1,0,0:0:0:0:
448,192,36674,1,0,0:0:0:0:
64,0,36749,128,0,36899:1:0:0:0:
320,0,36749,128,0,36899:1:0:0:0:
448,192,36899,1,0,0:0:0:0:
192,0,36899,128,0,37049:1:0:0:0:
64,192,37049,1,0,0:0:0:0:
320,0,37049,128,0,37199:1:0:0:0:
448,0,37049,128,0,37199:1:0:0:0:
64,192,37199,1,0,0:0:0:0:
192,192,37199,1,0,0:0:0:0:
320,192,37274,1,0,0:0:0:0:
448,192,37274,1,0,0:0:0:0:
64,192,37349,1,0,0:0:0:0:
192,0,37349,128,0,37449:1:0:0:0:
448,0,37349,128,0,37449:1:0:0:0:
192,0,37549,128,0,37649:1:0:0:0:
320,0,37549,128,0,37649:1:0:0:0:
64,0,37749,128,0,37849:1:0:0:0:
192,0,37749,128,0,37849:1:0:0:0:
64,192,37949,1,0,0:0:0:0:
320,0,37949,128,0,38049:1:0:0:0:
448,0,37949,128,0,38049:1:0:0:0:
192,192,37999,1,0,0:0:0:0:
64,192,38049,1,0,0:0:0:0:
320,192,38099,1,0,0:0:0:0:
64,0,38149,128,0,38249:1:0:0:0:
192,0,38149,128,0,38249:1:0:0:0:
448,192,38249,1,0,0:0:0:0:
64,192,38349,1,0,0:0:0:0:
192,0,38349,128,0,38449:1:0:0:0:
320,0,38349,128,0,38449:1:0:0:0:
448,192,38449,1,0,0:0:0:0:
320,192,38549,1,0,0:0:0:0:
64,0,38549,128,0,38649:1:0:0:0:
448,0,38549,128,0,38649:1:0:0:0:
192,192,38599,1,0,0:0:0:0:
320,192,38649,1,0,0:0:0:0:
64,0,38749,128,0,38849:1:0:0:0:
192,0,38749,128,0,38849:1:0:0:0:
448,192,38849,1,0,0:0:0:0:
64,192,38949,1,0,0:0:0:0:
192,0,38949,128,0,39049:1:0:0:0:
320,0,38949,128,0,39049:1:0:0:0:
448,192,39049,1,0,0:0:0:0:
320,192,39149,1,0,0:0:0:0:
64,0,39149,128,0,39674:1:0:0:0:
448,0,39149,128,0,39674:1:0:0:0:
192,0,39449,128,0,39674:1:0:0:0:
320,0,39599,128,0,39749:1:0:0:0:
64,192,39749,1,0,0:0:0:0:
192,192,39749,1,0,0:0:0:0:
448,192,39749,1,0,0:0:0:0:
192,192,39899,1,0,0:0:0:0:
448,192,39899,1,0,0:0:0:0:
64,192,40049,1,0,0:0:0:0:
320,0,40049,128,0,40199:1:0:0:0:
448,0,40049,128,0,40199:1:0:0:0:
64,192,40199,1,0,0:0:0:0:
192,192,40199,1,0,0:0:0:0:
192,192,40349,1,0,0:0:0:0:
448,192,40349,1,0,0:0:0:0:
320,192,40499,1,0,0:0:0:0:
448,192,40649,1,0,0:0:0:0:
64,0,40649,128,0,40799:1:0:0:0:
192,0,40649,128,0,40799:1:0:0:0:
320,192,40799,1,0,0:0:0:0:
448,192,40799,1,0,0:0:0:0:
192,192,40949,1,0,0:0:0:0:
448,192,40949,1,0,0:0:0:0:
64,192,41099,1,0,0:0:0:0:
320,192,41099,1,0,0:0:0:0:
64,192,41249,1,0,0:0:0:0:
192,0,41249,128,0,41399:1:0:0:0:
448,0,41249,128,0,41399:1:0:0:0:
64,192,41399,1,0,0:0:0:0:
320,192,41399,1,0,0:0:0:0:
192,192,41549,1,0,0:0:0:0:
320,192,41549,1,0,0:0:0:0:
448,192,41699,1,0,0:0:0:0:
320,192,41849,1,0,0:0:0:0:
64,0,41849,128,0,41999:1:0:0:0:
192,0,41849,128,0,41999:1:0:0:0:
320,192,41999,1,0,0:0:0:0:
448,192,41999,1,0,0:0:0:0:
192,192,42149,1,0,0:0:0:0:
448,192,42149,1,0,0:0:0:0:
64,192,42299,1,0,0:0:0:0:
320,192,42299,1,0,0:0:0:0:
192,192,42449,1,0,0:0:0:0:
64,0,42449,128,0,42599:1:0:0:0:
448,0,42449,128,0,42599:1:0:0:0:
192,192,42599,1,0,0:0:0:0:
320,192,42599,1,0,0:0:0:0:
192,192,42749,1,0,0:0:0:0:
448,192,42749,1,0,0:0:0:0:
64,192,42899,1,0,0:0:0:0:
448,192,43049,1,0,0:0:0:0:
192,0,43049,128,0,43199:1:0:0:0:
320,0,43049,128,0,43199:1:0:0:0:
64,192,43199,1,0,0:0:0:0:
448,192,43199,1,0,0:0:0:0:
192,192,43349,1,0,0:0:0:0:
448,192,43349,1,0,0:0:0:0:
64,192,43499,1,0,0:0:0:0:
320,192,43499,1,0,0:0:0:0:
192,192,43649,1,0,0:0:0:0:
320,0,43649,128,0,43799:1:0:0:0:
448,0,43649,128,0,43799:1:0:0:0:
64,192,43799,1,0,0:0:0:0:
192,192,43799,1,0,0:0:0:0:
192,192,43949,1,0,0:0:0:0:
448,192,43949,1,0,0:0:0:0:
320,192,44099,1,0,0:0:0:0:
64,192,44249,1,0,0:0:0:0:
192,0,44249,128,0,44399:1:0:0:0:
448,0,44249,128,0,44399:1:0:0:0:
64,192,44399,1,0,0:0:0:0:
320,192,44399,1,0,0:0:0:0:
64,192,44549,1,0,0:0:0:0:
192,192,44549,1,0,0:0:0:0:
448,192,44549,1,0,0:0:0:0:
192,192,44699,1,0,0:0:0:0:
320,192,44699,1,0,0:0:0:0:
448,192,44849,1,0,0:0:0:0:
64,0,44849,128,0,44999:1:0:0:0:
192,0,44849,128,0,44999:1:0:0:0:
320,192,44999,1,0,0:0:0:0:
448,192,44999,1,0,0:0:0:0:
192,192,45149,1,0,0:0:0:0:
448,192,45149,1,0,0:0:0:0:
320,192,45299,1,0,0:0:0:0:
192,192,45449,1,0,0:0:0:0:
64,0,45449,128,0,45599:1:0:0:0:
448,0,45449,128,0,45599:1:0:0:0:
192,192,45599,1,0,0:0:0:0:
320,192,45599,1,0,0:0:0:0:
320,192,45749,1,0,0:0:0:0:
448,192,45749,1,0,0:0:0:0:
320,192,45899,1,0,0:0:0:0:
448,192,45899,1,0,0:0:0:0:
448,192,46049,1,0,0:0:0:0:
64,0,46049,128,0,46199:1:0:0:0:
192,0,46049,128,0,46199:1:0:0:0:
320,192,46199,1,0,0:0:0:0:
64,192,46349,1,0,0:0:0:0:
448,192,46349,1,0,0:0:0:0:
192,192,46499,1,0,0:0:0:0:
64,192,46649,1,0,0:0:0:0:
320,0,46649,128,0,46799:1:0:0:0:
448,0,46649,128,0,46799:1:0:0:0:
64,192,46799,1,0,0:0:0:0:
192,192,46799,1,0,0:0:0:0:
64,192,46949,1,0,0:0:0:0:
448,192,46949,1,0,0:0:0:0:
320,192,47024,1,0,0:0:0:0:
192,192,47099,1,0,0:0:0:0:
448,192,47099,1,0,0:0:0:0:
64,192,47174,1,0,0:0:0:0:
192,192,47249,1,0,0:0:0:0:
320,192,47249,1,0,0:0:0:0:
448,192,47249,1,0,0:0:0:0:
64,192,47324,1,0,0:0:0:0:
192,192,47399,1,0,0:0:0:0:
320,192,47399,1,0,0:0:0:0:
448,192,47474,1,0,0:0:0:0:
64,192,47549,1,0,0:0:0:0:
192,192,47549,1,0,0:0:0:0:
320,192,47624,1,0,0:0:0:0:
192,192,47699,1,0,0:0:0:0:
448,192,47699,1,0,0:0:0:0:
64,192,47774,1,0,0:0:0:0:
192,192,47849,1,0,0:0:0:0:
320,192,47849,1,0,0:0:0:0:
448,192,47849,1,0,0:0:0:0:
64,192,47924,1,0,0:0:0:0:
192,192,47999,1,0,0:0:0:0:
320,192,47999,1,0,0:0:0:0:
448,192,48074,1,0,0:0:0:0:
64,192,48149,1,0,0:0:0:0:
192,192,48149,1,0,0:0:0:0:
448,192,48224,1,0,0:0:0:0:
64,192,48299,1,0,0:0:0:0:
320,192,48299,1,0,0:0:0:0:
192,192,48374,1,0,0:0:0:0:
64,192,48449,1,0,0:0:0:0:
320,192,48449,1,0,0:0:0:0:
448,192,48449,1,0,0:0:0:0:
192,192,48524,1,0,0:0:0:0:
64,192,48599,1,0,0:0:0:0:
448,192,48599,1,0,0:0:0:0:
320,192,48674,1,0,0:0:0:0:
64,0,48749,128,0,48824:1:0:0:0:
192,0,48749,128,0,48824:1:0:0:0:
448,0,49049,128,0,49199:1:0:0:0:
192,0,49199,128,0,49349:1:0:0:0:
64,192,49349,1,0,0:0:0:0:
320,192,49349,1,0,0:0:0:0:
448,0,49349,128,0,49649:1:0:0:0:
64,192,49799,1,0,0:0:0:0:
320,192,49949,1,0,0:0:0:0:
448,192,49949,1,0,0:0:0:0:
192,192,50249,1,0,0:0:0:0:
320,192,50249,1,0,0:0:0:0:
64,192,50549,1,0,0:0:0:0:
448,192,50549,1,0,0:0:0:0:
192,192,50699,1,0,0:0:0:0:
320,192,50849,1,0,0:0:0:0:
448,192,50849,1,0,0:0:0:0:
64,192,50999,1,0,0:0:0:0:
192,192,51149,1,0,0:0:0:0:
448,192,51149,1,0,0:0:0:0:
320,192,51449,1,0,0:0:0:0:
448,192,51449,1,0,0:0:0:0:
192,192,51599,1,0,0:0:0:0:
64,192,51749,1,0,0:0:0:0:
448,192,51749,1,0,0:0:0:0:
320,192,51899,1,0,0:0:0:0:
64,192,51974,1,0,0:0:0:0:
192,192,52049,1,0,0:0:0:0:
448,192,52049,1,0,0:0:0:0:
64,192,52199,1,0,0:0:0:0:
192,192,52199,1,0,0:0:0:0:
320,192,52349,1,0,0:0:0:0:
448,192,52499,1,0,0:0:0:0:
64,192,52649,1,0,0:0:0:0:
192,192,52649,1,0,0:0:0:0:
320,192,52799,1,0,0:0:0:0:
64,192,52949,1,0,0:0:0:0:
448,192,52949,1,0,0:0:0:0:
192,192,53099,1,0,0:0:0:0:
320,192,53249,1,0,0:0:0:0:
448,192,53249,1,0,0:0:0:0:
192,192,53399,1,0,0:0:0:0:
64,192,53549,1,0,0:0:0:0:
448,192,53699,1,0,0:0:0:0:
192,192,54149,1,0,0:0:0:0:
64,0,54149,128,0,54449:1:0:0:0:
448,192,54599,1,0,0:0:0:0:
64,192,54749,1,0,0:0:0:0:
320,192,54749,1,0,0:0:0:0:
192,192,55049,1,0,0:0:0:0:
320,192,55349,1,0,0:0:0:0:
448,192,55349,1,0,0:0:0:0:
64,192,55499,1,0,0:0:0:0:
192,192,55649,1,0,0:0:0:0:
320,192,55649,1,0,0:0:0:0:
448,192,55799,1,0,0:0:0:0:
64,192,55949,1,0,0:0:0:0:
320,192,55949,1,0,0:0:0:0:
192,192,56249,1,0,0:0:0:0:
448,192,56249,1,0,0:0:0:0:
320,192,56399,1,0,0:0:0:0:
64,192,56549,1,0,0:0:0:0:
192,192,56549,1,0,0:0:0:0:
448,192,56699,1,0,0:0:0:0:
320,192,56774,1,0,0:0:0:0:
64,192,56849,1,0,0:0:0:0:
192,192,56849,1,0,0:0:0:0:
192,192,56999,1,0,0:0:0:0:
320,192,56999,1,0,0:0:0:0:
448,192,57149,1,0,0:0:0:0:
320,192,57299,1,0,0:0:0:0:
64,192,57449,1,0,0:0:0:0:
448,192,57449,1,0,0:0:0:0:
192,192,57599,1,0,0:0:0:0:
320,192,57749,1,0,0:0:0:0:
448,192,57749,1,0,0:0:0:0:
192,192,57899,1,0,0:0:0:0:
64,192,58049,1,0,0:0:0:0:
448,192,58199,1,0,0:0:0:0:
192,192,58349,1,0,0:0:0:0:
320,192,58349,1,0,0:0:0:0:
64,192,58499,1,0,0:0:0:0:
448,192,58649,1,0,0:0:0:0:
64,192,58949,1,0,0:0:0:0:
192,192,58949,1,0,0:0:0:0:
448,192,58949,1,0,0:0:0:0:
320,192,59099,1,0,0:0:0:0:
192,192,59174,1,0,0:0:0:0:
448,192,59249,1,0,0:0:0:0:
64,192,59399,1,0,0:0:0:0:
192,192,59549,1,0,0:0:0:0:
448,192,59549,1,0,0:0:0:0:
320,192,59624,1,0,0:0:0:0:
448,192,59699,1,0,0:0:0:0:
192,192,59774,1,0,0:0:0:0:
320,192,59849,1,0,0:0:0:0:
64,192,59924,1,0,0:0:0:0:
320,192,59999,1,0,0:0:0:0:
192,192,60074,1,0,0:0:0:0:
64,192,60149,1,0,0:0:0:0:
448,192,60149,1,0,0:0:0:0:
320,192,60299,1,0,0:0:0:0:
448,192,60449,1,0,0:0:0:0:
192,192,60599,1,0,0:0:0:0:
320,192,60749,1,0,0:0:0:0:
448,192,60899,1,0,0:0:0:0:
64,192,61049,1,0,0:0:0:0:
320,192,61124,1,0,0:0:0:0:
448,192,61199,1,0,0:0:0:0:
64,192,61349,1,0,0:0:0:0:
320,192,61349,1,0,0:0:0:0:
192,192,61499,1,0,0:0:0:0:
448,192,61574,1,0,0:0:0:0:
64,192,61649,1,0,0:0:0:0:
448,192,61799,1,0,0:0:0:0:
192,192,61949,1,0,0:0:0:0:
448,192,61949,1,0,0:0:0:0:
64,192,62024,1,0,0:0:0:0:
320,192,62099,1,0,0:0:0:0:
192,192,62174,1,0,0:0:0:0:
448,192,62249,1,0,0:0:0:0:
192,192,62324,1,0,0:0:0:0:
320,192,62399,1,0,0:0:0:0:
64,192,62474,1,0,0:0:0:0:
192,192,62549,1,0,0:0:0:0:
448,192,62549,1,0,0:0:0:0:
320,192,62699,1,0,0:0:0:0:
448,192,62849,1,0,0:0:0:0:
64,192,62999,1,0,0:0:0:0:
320,192,63149,1,0,0:0:0:0:
448,192,63299,1,0,0:0:0:0:
64,192,63449,1,0,0:0:0:0:
192,192,63524,1,0,0:0:0:0:
320,192,63599,1,0,0:0:0:0:
64,192,63749,1,0,0:0:0:0:
192,192,63749,1,0,0:0:0:0:
448,192,63749,1,0,0:0:0:0:
320,192,63824,1,0,0:0:0:0:
64,192,63899,1,0,0:0:0:0:
192,192,63899,1,0,0:0:0:0:
448,192,63899,1,0,0:0:0:0:
320,192,63974,1,0,0:0:0:0:
64,192,64049,1,0,0:0:0:0:
192,192,64124,1,0,0:0:0:0:
320,192,64199,1,0,0:0:0:0:
448,192,64274,1,0,0:0:0:0:
64,192,64349,1,0,0:0:0:0:
192,192,64424,1,0,0:0:0:0:
448,192,64499,1,0,0:0:0:0:
320,192,64574,1,0,0:0:0:0:
64,192,64649,1,0,0:0:0:0:
448,192,64724,1,0,0:0:0:0:
64,192,64799,1,0,0:0:0:0:
320,192,64799,1,0,0:0:0:0:
192,192,64874,1,0,0:0:0:0:
64,192,64949,1,0,0:0:0:0:
320,192,64949,1,0,0:0:0:0:
448,192,64949,1,0,0:0:0:0:
192,192,65024,1,0,0:0:0:0:
64,192,65099,1,0,0:0:0:0:
320,192,65099,1,0,0:0:0:0:
448,192,65099,1,0,0:0:0:0:
192,192,65174,1,0,0:0:0:0:
320,192,65249,1,0,0:0:0:0:
64,192,65324,1,0,0:0:0:0:
192,192,65399,1,0,0:0:0:0:
448,192,65474,1,0,0:0:0:0:
320,192,65549,1,0,0:0:0:0:
192,192,65624,1,0,0:0:0:0:
448,192,65699,1,0,0:0:0:0:
64,192,65774,1,0,0:0:0:0:
192,192,65849,1,0,0:0:0:0:
320,192,65924,1,0,0:0:0:0:
64,192,65999,1,0,0:0:0:0:
448,192,65999,1,0,0:0:0:0:
192,192,66074,1,0,0:0:0:0:
64,192,66149,1,0,0:0:0:0:
320,192,66149,1,0,0:0:0:0:
448,192,66149,1,0,0:0:0:0:
192,192,66224,1,0,0:0:0:0:
64,192,66299,1,0,0:0:0:0:
320,192,66299,1,0,0:0:0:0:
448,192,66299,1,0,0:0:0:0:
192,192,66374,1,0,0:0:0:0:
320,192,66449,1,0,0:0:0:0:
192,192,66524,1,0,0:0:0:0:
320,192,66599,1,0,0:0:0:0:
192,192,66674,1,0,0:0:0:0:
64,192,66749,1,0,0:0:0:0:
320,192,66749,1,0,0:0:0:0:
448,192,66749,1,0,0:0:0:0:
192,192,66824,1,0,0:0:0:0:
64,192,66899,1,0,0:0:0:0:
320,192,66899,1,0,0:0:0:0:
448,192,66899,1,0,0:0:0:0:
192,192,66974,1,0,0:0:0:0:
320,192,67049,1,0,0:0:0:0:
192,192,67124,1,0,0:0:0:0:
320,192,67199,1,0,0:0:0:0:
192,192,67274,1,0,0:0:0:0:
320,192,67349,1,0,0:0:0:0:
64,0,67349,128,0,68474:1:0:0:0:
448,0,67349,128,0,68474:1:0:0:0:
192,0,68249,128,0,68474:1:0:0:0:
320,0,68399,128,0,68549:1:0:0:0:
64,192,68549,1,0,0:0:0:0:
192,192,68549,1,0,0:0:0:0:
448,192,68549,1,0,0:0:0:0:
64,192,68624,1,0,0:0:0:0:
192,192,68624,1,0,0:0:0:0:
320,192,68699,1,0,0:0:0:0:
448,192,68699,1,0,0:0:0:0:
64,192,68774,1,0,0:0:0:0:
192,192,68774,1,0,0:0:0:0:
320,192,68849,1,0,0:0:0:0:
448,192,68849,1,0,0:0:0:0:
64,192,68924,1,0,0:0:0:0:
192,192,68999,1,0,0:0:0:0:
448,192,68999,1,0,0:0:0:0:
64,192,69074,1,0,0:0:0:0:
320,192,69074,1,0,0:0:0:0:
192,192,69149,1,0,0:0:0:0:
448,192,69149,1,0,0:0:0:0:
64,192,69224,1,0,0:0:0:0:
320,192,69224,1,0,0:0:0:0:
192,192,69299,1,0,0:0:0:0:
448,192,69299,1,0,0:0:0:0:
64,192,69374,1,0,0:0:0:0:
320,192,69374,1,0,0:0:0:0:
192,192,69449,1,0,0:0:0:0:
448,192,69449,1,0,0:0:0:0:
320,192,69524,1,0,0:0:0:0:
64,192,69599,1,0,0:0:0:0:
192,192,69599,1,0,0:0:0:0:
320,192,69674,1,0,0:0:0:0:
448,192,69674,1,0,0:0:0:0:
64,192,69749,1,0,0:0:0:0:
192,192,69749,1,0,0:0:0:0:
320,192,69824,1,0,0:0:0:0:
448,192,69824,1,0,0:0:0:0:
64,192,69899,1,0,0:0:0:0:
192,192,69899,1,0,0:0:0:0:
320,192,69974,1,0,0:0:0:0:
448,192,69974,1,0,0:0:0:0:
64,192,70049,1,0,0:0:0:0:
192,192,70049,1,0,0:0:0:0:
320,192,70124,1,0,0:0:0:0:
64,192,70199,1,0,0:0:0:0:
448,192,70199,1,0,0:0:0:0:
192,192,70274,1,0,0:0:0:0:
320,192,70274,1,0,0:0:0:0:
64,192,70349,1,0,0:0:0:0:
448,192,70349,1,0,0:0:0:0:
192,192,70424,1,0,0:0:0:0:
320,192,70424,1,0,0:0:0:0:
64,192,70499,1,0,0:0:0:0:
448,192,70499,1,0,0:0:0:0:
192,192,70574,1,0,0:0:0:0:
320,192,70574,1,0,0:0:0:0:
64,192,70649,1,0,0:0:0:0:
448,192,70649,1,0,0:0:0:0:
192,192,70724,1,0,0:0:0:0:
320,192,70799,1,0,0:0:0:0:
448,192,70799,1,0,0:0:0:0:
64,192,70874,1,0,0:0:0:0:
192,192,70874,1,0,0:0:0:0:
320,192,70949,1,0,0:0:0:0:
448,192,70949,1,0,0:0:0:0:
64,192,71024,1,0,0:0:0:0:
192,192,71024,1,0,0:0:0:0:
320,192,71099,1,0,0:0:0:0:
448,192,71099,1,0,0:0:0:0:
64,192,71174,1,0,0:0:0:0:
192,192,71174,1,0,0:0:0:0:
320,192,71249,1,0,0:0:0:0:
448,192,71249,1,0,0:0:0:0:
64,192,71324,1,0,0:0:0:0:
192,192,71399,1,0,0:0:0:0:
448,192,71399,1,0,0:0:0:0:
64,192,71474,1,0,0:0:0:0:
320,192,71474,1,0,0:0:0:0:
192,192,71549,1,0,0:0:0:0:
448,192,71549,1,0,0:0:0:0:
64,192,71624,1,0,0:0:0:0:
320,192,71624,1,0,0:0:0:0:
192,192,71699,1,0,0:0:0:0:
448,192,71699,1,0,0:0:0:0:
64,192,71774,1,0,0:0:0:0:
320,192,71774,1,0,0:0:0:0:
192,192,71849,1,0,0:0:0:0:
448,192,71849,1,0,0:0:0:0:
320,192,71924,1,0,0:0:0:0:
64,192,71999,1,0,0:0:0:0:
448,192,71999,1,0,0:0:0:0:
192,192,72074,1,0,0:0:0:0:
320,192,72074,1,0,0:0:0:0:
64,192,72149,1,0,0:0:0:0:
448,192,72149,1,0,0:0:0:0:
192,192,72224,1,0,0:0:0:0:
320,192,72224,1,0,0:0:0:0:
64,192,72299,1,0,0:0:0:0:
448,192,72299,1,0,0:0:0:0:
192,192,72374,1,0,0:0:0:0:
320,192,72374,1,0,0:0:0:0:
64,192,72449,1,0,0:0:0:0:
448,192,72449,1,0,0:0:0:0:
192,192,72524,1,0,0:0:0:0:
320,192,72599,1,0,0:0:0:0:
448,192,72599,1,0,0:0:0:0:
64,192,72674,1,0,0:0:0:0:
192,192,72674,1,0,0:0:0:0:
320,192,72749,1,0,0:0:0:0:
448,192,72749,1,0,0:0:0:0:
64,192,72799,1,0,0:0:0:0:
192,192,72799,1,0,0:0:0:0:
320,192,72849,1,0,0:0:0:0:
448,192,72849,1,0,0:0:0:0:
320,192,72949,1,0,0:0:0:0:
448,192,72949,1,0,0:0:0:0:
64,192,73049,1,0,0:0:0:0:
192,192,73049,1,0,0:0:0:0:
320,192,73149,1,0,0:0:0:0:
448,192,73149,1,0,0:0:0:0:
64,192,73249,1,0,0:0:0:0:
192,192,73249,1,0,0:0:0:0:
64,192,73349,1,0,0:0:0:0:
320,192,73349,1,0,0:0:0:0:
448,192,73349,1,0,0:0:0:0:
320,192,73424,1,0,0:0:0:0:
448,192,73424,1,0,0:0:0:0:
64,192,73499,1,0,0:0:0:0:
192,192,73499,1,0,0:0:0:0:
320,192,73574,1,0,0:0:0:0:
448,192,73574,1,0,0:0:0:0:
64,192,73649,1,0,0:0:0:0:
192,192,73649,1,0,0:0:0:0:
320,192,73724,1,0,0:0:0:0:
64,192,73799,1,0,0:0:0:0:
448,192,73799,1,0,0:0:0:0:
192,192,73874,1,0,0:0:0:0:
320,192,73874,1,0,0:0:0:0:
64,192,73949,1,0,0:0:0:0:
448,192,73949,1,0,0:0:0:0:
192,192,74024,1,0,0:0:0:0:
320,192,74024,1,0,0:0:0:0:
64,192,74099,1,0,0:0:0:0:
448,192,74099,1,0,0:0:0:0:
192,192,74174,1,0,0:0:0:0:
320,192,74174,1,0,0:0:0:0:
64,192,74249,1,0,0:0:0:0:
448,192,74249,1,0,0:0:0:0:
320,192,74324,1,0,0:0:0:0:
192,192,74399,1,0,0:0:0:0:
448,192,74399,1,0,0:0:0:0:
64,192,74474,1,0,0:0:0:0:
320,192,74474,1,0,0:0:0:0:
192,192,74549,1,0,0:0:0:0:
448,192,74549,1,0,0:0:0:0:
64,192,74624,1,0,0:0:0:0:
320,192,74624,1,0,0:0:0:0:
192,192,74699,1,0,0:0:0:0:
448,192,74699,1,0,0:0:0:0:
64,192,74774,1,0,0:0:0:0:
320,192,74774,1,0,0:0:0:0:
192,192,74849,1,0,0:0:0:0:
448,192,74849,1,0,0:0:0:0:
64,192,74924,1,0,0:0:0:0:
192,192,74999,1,0,0:0:0:0:
320,192,74999,1,0,0:0:0:0:
64,192,75074,1,0,0:0:0:0:
448,192,75074,1,0,0:0:0:0:
192,192,75149,1,0,0:0:0:0:
320,192,75149,1,0,0:0:0:0:
64,192,75224,1,0,0:0:0:0:
448,192,75224,1,0,0:0:0:0:
192,192,75299,1,0,0:0:0:0:
320,192,75299,1,0,0:0:0:0:
64,192,75374,1,0,0:0:0:0:
448,192,75374,1,0,0:0:0:0:
192,192,75449,1,0,0:0:0:0:
320,192,75449,1,0,0:0:0:0:
448,192,75524,1,0,0:0:0:0:
64,192,75599,1,0,0:0:0:0:
192,192,75599,1,0,0:0:0:0:
320,192,75674,1,0,0:0:0:0:
448,192,75674,1,0,0:0:0:0:
64,192,75749,1,0,0:0:0:0:
192,192,75749,1,0,0:0:0:0:
320,192,75824,1,0,0:0:0:0:
448,192,75824,1,0,0:0:0:0:
64,192,75899,1,0,0:0:0:0:
192,192,75899,1,0,0:0:0:0:
320,192,75974,1,0,0:0:0:0:
448,192,75974,1,0,0:0:0:0:
64,192,76049,1,0,0:0:0:0:
192,192,76049,1,0,0:0:0:0:
320,192,76124,1,0,0:0:0:0:
64,192,76199,1,0,0:0:0:0:
448,192,76199,1,0,0:0:0:0:
192,192,76274,1,0,0:0:0:0:
320,192,76274,1,0,0:0:0:0:
64,192,76349,1,0,0:0:0:0:
448,192,76349,1,0,0:0:0:0:
192,192,76424,1,0,0:0:0:0:
320,192,76424,1,0,0:0:0:0:
64,192,76499,1,0,0:0:0:0:
448,192,76499,1,0,0:0:0:0:
192,192,76574,1,0,0:0:0:0:
320,192,76574,1,0,0:0:0:0:
64,192,76649,1,0,0:0:0:0:
448,192,76649,1,0,0:0:0:0:
320,192,76724,1,0,0:0:0:0:
64,192,76799,1,0,0:0:0:0:
192,192,76799,1,0,0:0:0:0:
320,192,76874,1,0,0:0:0:0:
448,192,76874,1,0,0:0:0:0:
64,192,76949,1,0,0:0:0:0:
192,192,76949,1,0,0:0:0:0:
448,192,77024,1,0,0:0:0:0:
192,192,77099,1,0,0:0:0:0:
320,192,77174,1,0,0:0:0:0:
448,192,77174,1,0,0:0:0:0:
64,192,77249,1,0,0:0:0:0:
320,192,77324,1,0,0:0:0:0:
64,192,77399,1,0,0:0:0:0:
192,192,77417,1,0,0:0:0:0:
320,192,77436,1,0,0:0:0:0:
448,192,77455,1,0,0:0:0:0:
64,192,77474,1,0,0:0:0:0:
192,192,77492,1,0,0:0:0:0:
320,192,77511,1,0,0:0:0:0:
448,192,77530,1,0,0:0:0:0:
64,192,77549,1,0,0:0:0:0:
320,192,77624,1,0,0:0:0:0:
64,192,77699,1,0,0:0:0:0:
192,192,77699,1,0,0:0:0:0:
320,192,77774,1,0,0:0:0:0:
448,192,77774,1,0,0:0:0:0:
64,192,77849,1,0,0:0:0:0:
192,192,77849,1,0,0:0:0:0:
320,192,77924,1,0,0:0:0:0:
448,192,77999,1,0,0:0:0:0:
320,192,78017,1,0,0:0:0:0:
192,192,78036,1,0,0:0:0:0:
64,192,78055,1,0,0:0:0:0:
448,192,78074,1,0,0:0:0:0:
320,192,78092,1,0,0:0:0:0:
192,192,78111,1,0,0:0:0:0:
64,192,78130,1,0,0:0:0:0:
320,192,78149,1,0,0:0:0:0:
448,192,78149,1,0,0:0:0:0:
64,192,78224,1,0,0:0:0:0:
192,192,78224,1,0,0:0:0:0:
320,192,78299,1,0,0:0:0:0:
448,192,78299,1,0,0:0:0:0:
64,192,78374,1,0,0:0:0:0:
192,192,78374,1,0,0:0:0:0:
320,192,78449,1,0,0:0:0:0:
448,192,78449,1,0,0:0:0:0:
64,192,78524,1,0,0:0:0:0:
192,192,78599,1,0,0:0:0:0:
448,192,78599,1,0,0:0:0:0:
64,192,78674,1,0,0:0:0:0:
320,192,78674,1,0,0:0:0:0:
192,192,78749,1,0,0:0:0:0:
448,192,78749,1,0,0:0:0:0:
64,192,78824,1,0,0:0:0:0:
320,192,78824,1,0,0:0:0:0:
192,192,78899,1,0,0:0:0:0:
448,192,78899,1,0,0:0:0:0:
64,192,78974,1,0,0:0:0:0:
320,192,78974,1,0,0:0:0:0:
192,192,79049,1,0,0:0:0:0:
448,192,79049,1,0,0:0:0:0:
320,192,79124,1,0,0:0:0:0:
64,192,79199,1,0,0:0:0:0:
192,192,79199,1,0,0:0:0:0:
320,192,79274,1,0,0:0:0:0:
448,192,79274,1,0,0:0:0:0:
64,192,79349,1,0,0:0:0:0:
192,192,79349,1,0,0:0:0:0:
320,192,79424,1,0,0:0:0:0:
448,192,79424,1,0,0:0:0:0:
64,192,79499,1,0,0:0:0:0:
192,192,79499,1,0,0:0:0:0:
320,192,79574,1,0,0:0:0:0:
448,192,79574,1,0,0:0:0:0:
64,192,79649,1,0,0:0:0:0:
192,192,79649,1,0,0:0:0:0:
320,192,79724,1,0,0:0:0:0:
64,192,79799,1,0,0:0:0:0:
448,192,79799,1,0,0:0:0:0:
192,192,79874,1,0,0:0:0:0:
320,192,79874,1,0,0:0:0:0:
64,192,79949,1,0,0:0:0:0:
448,192,79949,1,0,0:0:0:0:
192,192,80024,1,0,0:0:0:0:
320,192,80024,1,0,0:0:0:0:
64,192,80099,1,0,0:0:0:0:
448,192,80099,1,0,0:0:0:0:
192,192,80174,1,0,0:0:0:0:
320,192,80174,1,0,0:0:0:0:
64,192,80249,1,0,0:0:0:0:
448,192,80249,1,0,0:0:0:0:
320,192,80324,1,0,0:0:0:0:
192,192,80399,1,0,0:0:0:0:
448,192,80399,1,0,0:0:0:0:
64,192,80474,1,0,0:0:0:0:
320,192,80474,1,0,0:0:0:0:
192,192,80549,1,0,0:0:0:0:
448,192,80549,1,0,0:0:0:0:
64,192,80624,1,0,0:0:0:0:
320,192,80624,1,0,0:0:0:0:
192,192,80699,1,0,0:0:0:0:
448,192,80699,1,0,0:0:0:0:
64,192,80774,1,0,0:0:0:0:
320,192,80774,1,0,0:0:0:0:
192,192,80849,1,0,0:0:0:0:
448,192,80849,1,0,0:0:0:0:
320,192,80924,1,0,0:0:0:0:
64,192,80999,1,0,0:0:0:0:
192,192,80999,1,0,0:0:0:0:
320,192,81074,1,0,0:0:0:0:
448,192,81074,1,0,0:0:0:0:
64,192,81149,1,0,0:0:0:0:
192,192,81149,1,0,0:0:0:0:
320,192,81224,1,0,0:0:0:0:
448,192,81224,1,0,0:0:0:0:
64,192,81299,1,0,0:0:0:0:
192,192,81299,1,0,0:0:0:0:
320,192,81374,1,0,0:0:0:0:
448,192,81374,1,0,0:0:0:0:
64,192,81449,1,0,0:0:0:0:
192,192,81449,1,0,0:0:0:0:
320,192,81524,1,0,0:0:0:0:
64,192,81599,1,0,0:0:0:0:
448,192,81599,1,0,0:0:0:0:
192,192,81674,1,0,0:0:0:0:
320,192,81674,1,0,0:0:0:0:
64,192,81749,1,0,0:0:0:0:
448,192,81749,1,0,0:0:0:0:
192,192,81824,1,0,0:0:0:0:
320,192,81824,1,0,0:0:0:0:
64,192,81899,1,0,0:0:0:0:
448,192,81899,1,0,0:0:0:0:
192,192,81974,1,0,0:0:0:0:
320,192,81974,1,0,0:0:0:0:
64,192,82049,1,0,0:0:0:0:
448,192,82049,1,0,0:0:0:0:
192,192,82124,1,0,0:0:0:0:
320,192,82199,1,0,0:0:0:0:
448,192,82199,1,0,0:0:0:0:
64,192,82274,1,0,0:0:0:0:
192,192,82274,1,0,0:0:0:0:
320,192,82349,1,0,0:0:0:0:
448,192,82349,1,0,0:0:0:0:
64,192,82399,1,0,0:0:0:0:
192,192,82399,1,0,0:0:0:0:
320,192,82449,1,0,0:0:0:0:
448,192,82449,1,0,0:0:0:0:
320,192,82549,1,0,0:0:0:0:
448,192,82549,1,0,0:0:0:0:
64,192,82649,1,0,0:0:0:0:
192,192,82649,1,0,0:0:0:0:
320,192,82749,1,0,0:0:0:0:
448,192,82749,1,0,0:0:0:0:
64,192,82849,1,0,0:0:0:0:
192,192,82849,1,0,0:0:0:0:
64,192,82949,1,0,0:0:0:0:
320,192,82949,1,0,0:0:0:0:
448,192,82949,1,0,0:0:0:0:
320,192,83024,1,0,0:0:0:0:
448,192,83024,1,0,0:0:0:0:
64,192,83099,1,0,0:0:0:0:
192,192,83099,1,0,0:0:0:0:
320,192,83174,1,0,0:0:0:0:
448,192,83174,1,0,0:0:0:0:
64,192,83249,1,0,0:0:0:0:
192,192,83249,1,0,0:0:0:0:
320,192,83324,1,0,0:0:0:0:
64,192,83399,1,0,0:0:0:0:
448,192,83399,1,0,0:0:0:0:
192,192,83474,1,0,0:0:0:0:
320,192,83474,1,0,0:0:0:0:
64,192,83549,1,0,0:0:0:0:
448,192,83549,1,0,0:0:0:0:
192,192,83624,1,0,0:0:0:0:
320,192,83624,1,0,0:0:0:0:
64,192,83699,1,0,0:0:0:0:
448,192,83699,1,0,0:0:0:0:
192,192,83774,1,0,0:0:0:0:
320,192,83774,1,0,0:0:0:0:
64,192,83849,1,0,0:0:0:0:
448,192,83849,1,0,0:0:0:0:
320,192,83924,1,0,0:0:0:0:
192,192,83999,1,0,0:0:0:0:
448,192,83999,1,0,0:0:0:0:
64,192,84074,1,0,0:0:0:0:
320,192,84074,1,0,0:0:0:0:
192,192,84149,1,0,0:0:0:0:
448,192,84149,1,0,0:0:0:0:
64,192,84224,1,0,0:0:0:0:
320,192,84224,1,0,0:0:0:0:
192,192,84299,1,0,0:0:0:0:
448,192,84299,1,0,0:0:0:0:
64,192,84374,1,0,0:0:0:0:
320,192,84374,1,0,0:0:0:0:
192,192,84449,1,0,0:0:0:0:
448,192,84449,1,0,0:0:0:0:
320,192,84524,1,0,0:0:0:0:
64,192,84599,1,0,0:0:0:0:
192,192,84599,1,0,0:0:0:0:
320,192,84674,1,0,0:0:0:0:
448,192,84674,1,0,0:0:0:0:
64,192,84749,1,0,0:0:0:0:
192,192,84749,1,0,0:0:0:0:
320,192,84824,1,0,0:0:0:0:
448,192,84824,1,0,0:0:0:0:
64,192,84899,1,0,0:0:0:0:
192,192,84899,1,0,0:0:0:0:
320,192,84974,1,0,0:0:0:0:
448,192,84974,1,0,0:0:0:0:
64,192,85049,1,0,0:0:0:0:
192,192,85049,1,0,0:0:0:0:
320,192,85124,1,0,0:0:0:0:
64,192,85199,1,0,0:0:0:0:
448,192,85199,1,0,0:0:0:0:
192,192,85274,1,0,0:0:0:0:
320,192,85274,1,0,0:0:0:0:
64,192,85349,1,0,0:0:0:0:
448,192,85349,1,0,0:0:0:0:
192,192,85424,1,0,0:0:0:0:
320,192,85424,1,0,0:0:0:0:
64,192,85499,1,0,0:0:0:0:
448,192,85499,1,0,0:0:0:0:
192,192,85574,1,0,0:0:0:0:
320,192,85574,1,0,0:0:0:0:
64,192,85649,1,0,0:0:0:0:
448,192,85649,1,0,0:0:0:0:
320,192,85724,1,0,0:0:0:0:
192,192,85799,1,0,0:0:0:0:
448,192,85799,1,0,0:0:0:0:
64,192,85874,1,0,0:0:0:0:
320,192,85874,1,0,0:0:0:0:
192,192,85949,1,0,0:0:0:0:
448,192,85949,1,0,0:0:0:0:
64,192,86024,1,0,0:0:0:0:
320,192,86024,1,0,0:0:0:0:
192,192,86099,1,0,0:0:0:0:
448,192,86099,1,0,0:0:0:0:
64,192,86174,1,0,0:0:0:0:
320,192,86174,1,0,0:0:0:0:
192,192,86249,1,0,0:0:0:0:
448,192,86249,1,0,0:0:0:0:
320,192,86324,1,0,0:0:0:0:
64,192,86399,1,0,0:0:0:0:
192,192,86399,1,0,0:0:0:0:
320,192,86474,1,0,0:0:0:0:
448,192,86474,1,0,0:0:0:0:
64,192,86549,1,0,0:0:0:0:
192,192,86549,1,0,0:0:0:0:
448,192,86624,1,0,0:0:0:0:
192,192,86699,1,0,0:0:0:0:
320,192,86774,1,0,0:0:0:0:
448,192,86774,1,0,0:0:0:0:
64,192,86849,1,0,0:0:0:0:
320,192,86924,1,0,0:0:0:0:
64,192,86999,1,0,0:0:0:0:
192,192,87017,1,0,0:0:0:0:
320,192,87036,1,0,0:0:0:0:
448,192,87055,1,0,0:0:0:0:
64,192,87074,1,0,0:0:0:0:
192,192,87092,1,0,0:0:0:0:
320,192,87111,1,0,0:0:0:0:
448,192,87130,1,0,0:0:0:0:
64,192,87149,1,0,0:0:0:0:
320,192,87224,1,0,0:0:0:0:
64,192,87299,1,0,0:0:0:0:
192,192,87299,1,0,0:0:0:0:
320,192,87374,1,0,0:0:0:0:
448,192,87374,1,0,0:0:0:0:
64,192,87449,1,0,0:0:0:0:
192,192,87449,1,0,0:0:0:0:
320,192,87524,1,0,0:0:0:0:
64,192,87599,1,0,0:0:0:0:
448,192,87599,1,0,0:0:0:0:
320,192,87617,1,0,0:0:0:0:
192,192,87636,1,0,0:0:0:0:
64,192,87655,1,0,0:0:0:0:
448,192,87674,1,0,0:0:0:0:
320,192,87692,1,0,0:0:0:0:
192,192,87711,1,0,0:0:0:0:
64,192,87730,1,0,0:0:0:0:
320,192,87749,1,0,0:0:0:0:
448,192,87749,1,0,0:0:0:0:
192,192,87899,1,0,0:0:0:0:
448,192,87899,1,0,0:0:0:0:
64,192,87974,1,0,0:0:0:0:
320,192,87974,1,0,0:0:0:0:
192,192,88049,1,0,0:0:0:0:
448,192,88049,1,0,0:0:0:0:
64,192,88124,1,0,0:0:0:0:
320,192,88124,1,0,0:0:0:0:
192,0,88199,128,0,88274:1:0:0:0:
448,0,88199,128,0,88274:1:0:0:0:
64,192,88349,1,0,0:0:0:0:
192,192,88349,1,0,0:0:0:0:
320,192,88424,1,0,0:0:0:0:
448,192,88424,1,0,0:0:0:0:
64,192,88499,1,0,0:0:0:0:
192,192,88499,1,0,0:0:0:0:
320,192,88649,1,0,0:0:0:0:
448,192,88649,1,0,0:0:0:0:
64,192,88724,1,0,0:0:0:0:
192,192,88724,1,0,0:0:0:0:
320,192,88799,1,0,0:0:0:0:
448,192,88799,1,0,0:0:0:0:
64,192,88874,1,0,0:0:0:0:
192,192,88874,1,0,0:0:0:0:
320,0,88949,128,0,89024:1:0:0:0:
448,0,88949,128,0,89024:1:0:0:0:
64,192,89099,1,0,0:0:0:0:
448,192,89099,1,0,0:0:0:0:
192,192,89174,1,0,0:0:0:0:
320,192,89174,1,0,0:0:0:0:
64,192,89249,1,0,0:0:0:0:
448,192,89249,1,0,0:0:0:0:
192,192,89324,1,0,0:0:0:0:
320,192,89324,1,0,0:0:0:0:
64,192,89399,1,0,0:0:0:0:
448,192,89399,1,0,0:0:0:0:
192,192,89474,1,0,0:0:0:0:
320,192,89474,1,0,0:0:0:0:
64,0,89549,128,0,89699:1:0:0:0:
448,0,89549,128,0,89699:1:0:0:0:
192,192,89849,1,0,0:0:0:0:
448,192,89849,1,0,0:0:0:0:
64,192,89924,1,0,0:0:0:0:
320,192,89924,1,0,0:0:0:0:
192,192,89999,1,0,0:0:0:0:
448,192,89999,1,0,0:0:0:0:
64,192,90074,1,0,0:0:0:0:
320,192,90074,1,0,0:0:0:0:
192,192,90149,1,0,0:0:0:0:
448,192,90149,1,0,0:0:0:0:
64,192,90299,1,0,0:0:0:0:
320,192,90299,1,0,0:0:0:0:
192,192,90374,1,0,0:0:0:0:
448,192,90374,1,0,0:0:0:0:
64,192,90449,1,0,0:0:0:0:
320,192,90449,1,0,0:0:0:0:
192,192,90524,1,0,0:0:0:0:
448,192,90524,1,0,0:0:0:0:
64,0,90599,128,0,90674:1:0:0:0:
320,0,90599,128,0,90674:1:0:0:0:
192,192,90749,1,0,0:0:0:0:
320,192,90749,1,0,0:0:0:0:
64,192,90899,1,0,0:0:0:0:
448,192,90899,1,0,0:0:0:0:
192,192,90974,1,0,0:0:0:0:
320,192,90974,1,0,0:0:0:0:
64,192,91049,1,0,0:0:0:0:
448,192,91049,1,0,0:0:0:0:
192,192,91124,1,0,0:0:0:0:
320,192,91124,1,0,0:0:0:0:
64,192,91199,1,0,0:0:0:0:
448,192,91199,1,0,0:0:0:0:
192,192,91274,1,0,0:0:0:0:
320,192,91274,1,0,0:0:0:0:
64,0,91349,128,0,91799:1:0:0:0:
448,0,91349,128,0,91799:1:0:0:0:
320,192,91949,1,0,0:0:0:0:
448,192,91949,1,0,0:0:0:0:
64,192,91999,1,0,0:0:0:0:
192,192,91999,1,0,0:0:0:0:
320,192,92049,1,0,0:0:0:0:
448,192,92049,1,0,0:0:0:0:
64,192,92149,1,0,0:0:0:0:
192,192,92149,1,0,0:0:0:0:
192,192,92249,1,0,0:0:0:0:
448,192,92249,1,0,0:0:0:0:
64,192,92349,1,0,0:0:0:0:
320,192,92349,1,0,0:0:0:0:
64,192,92449,1,0,0:0:0:0:
192,192,92449,1,0,0:0:0:0:
192,192,92549,1,0,0:0:0:0:
320,192,92549,1,0,0:0:0:0:
448,192,92549,1,0,0:0:0:0:
64,192,92699,1,0,0:0:0:0:
448,192,92699,1,0,0:0:0:0:
192,192,92774,1,0,0:0:0:0:
320,192,92774,1,0,0:0:0:0:
64,192,92849,1,0,0:0:0:0:
448,192,92849,1,0,0:0:0:0:
192,192,92924,1,0,0:0:0:0:
320,192,92924,1,0,0:0:0:0:
64,0,92999,128,0,93074:1:0:0:0:
448,0,92999,128,0,93074:1:0:0:0:
192,192,93149,1,0,0:0:0:0:
320,192,93149,1,0,0:0:0:0:
64,192,93299,1,0,0:0:0:0:
320,192,93299,1,0,0:0:0:0:
192,192,93374,1,0,0:0:0:0:
448,192,93374,1,0,0:0:0:0:
64,192,93449,1,0,0:0:0:0:
320,192,93449,1,0,0:0:0:0:
192,192,93524,1,0,0:0:0:0:
448,192,93524,1,0,0:0:0:0:
64,0,93599,128,0,93674:1:0:0:0:
320,0,93599,128,0,93674:1:0:0:0:
192,192,93749,1,0,0:0:0:0:
448,192,93749,1,0,0:0:0:0:
320,192,93899,1,0,0:0:0:0:
448,192,93899,1,0,0:0:0:0:
64,192,93974,1,0,0:0:0:0:
192,192,93974,1,0,0:0:0:0:
320,192,94049,1,0,0:0:0:0:
448,192,94049,1,0,0:0:0:0:
64,192,94124,1,0,0:0:0:0:
192,192,94124,1,0,0:0:0:0:
320,192,94199,1,0,0:0:0:0:
448,192,94199,1,0,0:0:0:0:
64,192,94274,1,0,0:0:0:0:
192,192,94274,1,0,0:0:0:0:
320,0,94349,128,0,94499:1:0:0:0:
448,0,94349,128,0,94499:1:0:0:0:
192,192,94649,1,0,0:0:0:0:
448,192,94649,1,0,0:0:0:0:
64,192,94724,1,0,0:0:0:0:
320,192,94724,1,0,0:0:0:0:
192,192,94799,1,0,0:0:0:0:
448,192,94799,1,0,0:0:0:0:
320,192,94874,1,0,0:0:0:0:
448,192,94949,1,0,0:0:0:0:
64,0,94949,128,0,95049:1:0:0:0:
192,0,94949,128,0,95049:1:0:0:0:
320,0,95149,128,0,95249:1:0:0:0:
448,0,95149,128,0,95249:1:0:0:0:
64,0,95349,128,0,95449:1:0:0:0:
192,0,95349,128,0,95449:1:0:0:0:
64,192,95549,1,0,0:0:0:0:
320,0,95549,128,0,95649:1:0:0:0:
448,0,95549,128,0,95649:1:0:0:0:
192,192,95599,1,0,0:0:0:0:
64,192,95649,1,0,0:0:0:0:
192,0,95749,128,0,95849:1:0:0:0:
320,0,95749,128,0,95849:1:0:0:0:
64,192,95849,1,0,0:0:0:0:
448,192,95849,1,0,0:0:0:0:
64,0,95949,128,0,96049:1:0:0:0:
192,0,95949,128,0,96049:1:0:0:0:
320,192,96049,1,0,0:0:0:0:
448,192,96049,1,0,0:0:0:0:
64,192,96149,1,0,0:0:0:0:
320,192,96149,1,0,0:0:0:0:
448,192,96149,1,0,0:0:0:0:
192,192,96199,1,0,0:0:0:0:
320,192,96249,1,0,0:0:0:0:
448,192,96299,1,0,0:0:0:0:
64,192,96349,1,0,0:0:0:0:
192,192,96399,1,0,0:0:0:0:
320,192,96449,1,0,0:0:0:0:
448,192,96499,1,0,0:0:0:0:
64,192,96549,1,0,0:0:0:0:
192,192,96599,1,0,0:0:0:0:
320,192,96649,1,0,0:0:0:0:
448,192,96699,1,0,0:0:0:0:
64,192,96749,1,0,0:0:0:0:
192,192,96799,1,0,0:0:0:0:
320,192,96849,1,0,0:0:0:0:
448,192,96899,1,0,0:0:0:0:
64,192,96949,1,0,0:0:0:0:
192,192,96999,1,0,0:0:0:0:
320,192,97049,1,0,0:0:0:0:
448,192,97099,1,0,0:0:0:0:
64,192,97149,1,0,0:0:0:0:
192,192,97199,1,0,0:0:0:0:
320,192,97249,1,0,0:0:0:0:
448,192,97299,1,0,0:0:0:0:
320,192,97349,1,0,0:0:0:0:
64,0,97349,128,0,97499:1:0:0:0:
192,0,97349,128,0,97499:1:0:0:0:
64,192,97649,1,0,0:0:0:0:
320,192,97649,1,0,0:0:0:0:
448,192,97649,1,0,0:0:0:0:
192,192,97724,1,0,0:0:0:0:
320,192,97799,1,0,0:0:0:0:
448,192,97799,1,0,0:0:0:0:
64,192,97874,1,0,0:0:0:0:
320,192,97949,1,0,0:0:0:0:
448,192,97949,1,0,0:0:0:0:
64,192,98024,1,0,0:0:0:0:
192,192,98024,1,0,0:0:0:0:
320,192,98099,1,0,0:0:0:0:
448,192,98099,1,0,0:0:0:0:
64,192,98174,1,0,0:0:0:0:
192,192,98174,1,0,0:0:0:0:
320,192,98249,1,0,0:0:0:0:
448,192,98249,1,0,0:0:0:0:
64,192,98324,1,0,0:0:0:0:
192,192,98324,1,0,0:0:0:0:
320,192,98399,1,0,0:0:0:0:
448,192,98399,1,0,0:0:0:0:
192,192,98474,1,0,0:0:0:0:
64,192,98549,1,0,0:0:0:0:
448,192,98549,1,0,0:0:0:0:
192,192,98624,1,0,0:0:0:0:
320,192,98624,1,0,0:0:0:0:
64,192,98699,1,0,0:0:0:0:
448,192,98699,1,0,0:0:0:0:
192,192,98774,1,0,0:0:0:0:
320,192,98774,1,0,0:0:0:0:
64,192,98849,1,0,0:0:0:0:
448,192,98849,1,0,0:0:0:0:
192,192,98924,1,0,0:0:0:0:
320,192,98924,1,0,0:0:0:0:
64,192,98999,1,0,0:0:0:0:
448,192,98999,1,0,0:0:0:0:
192,192,99074,1,0,0:0:0:0:
320,192,99149,1,0,0:0:0:0:
448,192,99149,1,0,0:0:0:0:
64,192,99224,1,0,0:0:0:0:
192,192,99224,1,0,0:0:0:0:
320,192,99299,1,0,0:0:0:0:
448,192,99299,1,0,0:0:0:0:
64,192,99374,1,0,0:0:0:0:
192,192,99374,1,0,0:0:0:0:
320,192,99449,1,0,0:0:0:0:
448,192,99449,1,0,0:0:0:0:
64,192,99524,1,0,0:0:0:0:
192,192,99524,1,0,0:0:0:0:
320,192,99599,1,0,0:0:0:0:
448,192,99599,1,0,0:0:0:0:
192,192,99674,1,0,0:0:0:0:
64,192,99749,1,0,0:0:0:0:
448,192,99749,1,0,0:0:0:0:
192,192,99824,1,0,0:0:0:0:
320,192,99824,1,0,0:0:0:0:
64,192,99899,1,0,0:0:0:0:
448,192,99899,1,0,0:0:0:0:
192,192,99974,1,0,0:0:0:0:
320,192,99974,1,0,0:0:0:0:
64,192,100049,1,0,0:0:0:0:
448,192,100049,1,0,0:0:0:0:
192,192,100124,1,0,0:0:0:0:
320,192,100124,1,0,0:0:0:0:
64,192,100199,1,0,0:0:0:0:
448,192,100199,1,0,0:0:0:0:
192,192,100274,1,0,0:0:0:0:
64,192,100349,1,0,0:0:0:0:
320,192,100349,1,0,0:0:0:0:
192,192,100424,1,0,0:0:0:0:
448,192,100424,1,0,0:0:0:0:
64,192,100499,1,0,0:0:0:0:
320,192,100499,1,0,0:0:0:0:
192,192,100574,1,0,0:0:0:0:
448,192,100574,1,0,0:0:0:0:
64,192,100649,1,0,0:0:0:0:
320,192,100649,1,0,0:0:0:0:
192,192,100724,1,0,0:0:0:0:
448,192,100724,1,0,0:0:0:0:
64,192,100799,1,0,0:0:0:0:
320,192,100799,1,0,0:0:0:0:
448,192,100874,1,0,0:0:0:0:
192,192,100949,1,0,0:0:0:0:
320,192,100949,1,0,0:0:0:0:
64,192,101024,1,0,0:0:0:0:
448,192,101024,1,0,0:0:0:0:
192,192,101099,1,0,0:0:0:0:
320,192,101099,1,0,0:0:0:0:
64,192,101174,1,0,0:0:0:0:
448,192,101174,1,0,0:0:0:0:
192,192,101249,1,0,0:0:0:0:
320,192,101249,1,0,0:0:0:0:
64,192,101324,1,0,0:0:0:0:
448,192,101324,1,0,0:0:0:0:
192,192,101399,1,0,0:0:0:0:
320,192,101399,1,0,0:0:0:0:
64,192,101474,1,0,0:0:0:0:
320,192,101549,1,0,0:0:0:0:
448,192,101549,1,0,0:0:0:0:
64,192,101599,1,0,0:0:0:0:
192,192,101599,1,0,0:0:0:0:
320,192,101649,1,0,0:0:0:0:
448,192,101649,1,0,0:0:0:0:
320,192,101749,1,0,0:0:0:0:
448,192,101749,1,0,0:0:0:0:
64,192,101849,1,0,0:0:0:0:
192,192,101849,1,0,0:0:0:0:
320,192,101949,1,0,0:0:0:0:
448,192,101949,1,0,0:0:0:0:
64,192,102049,1,0,0:0:0:0:
192,192,102049,1,0,0:0:0:0:
64,192,102149,1,0,0:0:0:0:
320,192,102149,1,0,0:0:0:0:
448,192,102149,1,0,0:0:0:0:
192,192,102224,1,0,0:0:0:0:
64,192,102299,1,0,0:0:0:0:
320,192,102299,1,0,0:0:0:0:
192,192,102374,1,0,0:0:0:0:
448,192,102374,1,0,0:0:0:0:
64,192,102449,1,0,0:0:0:0:
320,192,102449,1,0,0:0:0:0:
192,192,102524,1,0,0:0:0:0:
448,192,102524,1,0,0:0:0:0:
64,192,102599,1,0,0:0:0:0:
320,192,102599,1,0,0:0:0:0:
192,192,102674,1,0,0:0:0:0:
320,192,102749,1,0,0:0:0:0:
448,192,102749,1,0,0:0:0:0:
64,192,102824,1,0,0:0:0:0:
192,192,102824,1,0,0:0:0:0:
320,192,102899,1,0,0:0:0:0:
448,192,102899,1,0,0:0:0:0:
64,192,102974,1,0,0:0:0:0:
192,192,102974,1,0,0:0:0:0:
320,192,103049,1,0,0:0:0:0:
448,192,103049,1,0,0:0:0:0:
64,192,103124,1,0,0:0:0:0:
192,192,103124,1,0,0:0:0:0:
320,192,103199,1,0,0:0:0:0:
448,192,103199,1,0,0:0:0:0:
192,192,103274,1,0,0:0:0:0:
64,192,103349,1,0,0:0:0:0:
448,192,103349,1,0,0:0:0:0:
192,192,103424,1,0,0:0:0:0:
320,192,103424,1,0,0:0:0:0:
64,192,103499,1,0,0:0:0:0:
448,192,103499,1,0,0:0:0:0:
192,192,103574,1,0,0:0:0:0:
320,192,103574,1,0,0:0:0:0:
64,192,103649,1,0,0:0:0:0:
448,192,103649,1,0,0:0:0:0:
192,192,103724,1,0,0:0:0:0:
320,192,103724,1,0,0:0:0:0:
64,192,103799,1,0,0:0:0:0:
448,192,103799,1,0,0:0:0:0:
320,192,103874,1,0,0:0:0:0:
64,192,103949,1,0,0:0:0:0:
192,192,103949,1,0,0:0:0:0:
320,192,104024,1,0,0:0:0:0:
448,192,104024,1,0,0:0:0:0:
64,192,104099,1,0,0:0:0:0:
192,192,104099,1,0,0:0:0:0:
320,192,104174,1,0,0:0:0:0:
448,192,104174,1,0,0:0:0:0:
64,192,104249,1,0,0:0:0:0:
192,192,104249,1,0,0:0:0:0:
320,192,104324,1,0,0:0:0:0:
448,192,104324,1,0,0:0:0:0:
64,192,104399,1,0,0:0:0:0:
192,192,104399,1,0,0:0:0:0:
320,192,104474,1,0,0:0:0:0:
192,192,104549,1,0,0:0:0:0:
64,0,104549,128,0,104649:1:0:0:0:
448,0,104549,128,0,104649:1:0:0:0:
64,0,104749,128,0,104849:1:0:0:0:
448,0,104749,128,0,104849:1:0:0:0:
64,0,104949,128,0,105049:1:0:0:0:
448,0,104949,128,0,105049:1:0:0:0:
320,192,105149,1,0,0:0:0:0:
64,0,105149,128,0,105249:1:0:0:0:
448,0,105149,128,0,105249:1:0:0:0:
192,192,105199,1,0,0:0:0:0:
320,192,105249,1,0,0:0:0:0:
64,0,105349,128,0,105449:1:0:0:0:
192,0,105349,128,0,105449:1:0:0:0:
320,192,105449,1,0,0:0:0:0:
448,192,105449,1,0,0:0:0:0:
320,0,105549,128,0,105649:1:0:0:0:
448,0,105549,128,0,105649:1:0:0:0:
64,192,105649,1,0,0:0:0:0:
192,192,105649,1,0,0:0:0:0:
64,192,105749,1,0,0:0:0:0:
320,0,105749,128,0,105849:1:0:0:0:
448,0,105749,128,0,105849:1:0:0:0:
192,192,105799,1,0,0:0:0:0:
64,192,105849,1,0,0:0:0:0:
64,0,105949,128,0,106049:1:0:0:0:
192,0,105949,128,0,106049:1:0:0:0:
320,192,106049,1,0,0:0:0:0:
448,192,106049,1,0,0:0:0:0:
192,0,106149,128,0,106249:1:0:0:0:
448,0,106149,128,0,106249:1:0:0:0:
64,192,106249,1,0,0:0:0:0:
320,192,106249,1,0,0:0:0:0:
448,192,106349,1,0,0:0:0:0:
64,0,106349,128,0,106799:1:0:0:0:
192,0,106349,128,0,106799:1:0:0:0:
64,192,106949,1,0,0:0:0:0:
320,0,106949,128,0,107099:1:0:0:0:
448,0,106949,128,0,107099:1:0:0:0:
192,192,107099,1,0,0:0:0:0:
64,0,107099,128,0,107249:1:0:0:0:
192,192,107249,1,0,0:0:0:0:
320,192,107249,1,0,0:0:0:0:
448,192,107249,1,0,0:0:0:0:
64,192,107324,1,0,0:0:0:0:
320,192,107399,1,0,0:0:0:0:
448,192,107399,1,0,0:0:0:0:
64,192,107474,1,0,0:0:0:0:
192,192,107474,1,0,0:0:0:0:
320,0,107549,128,0,107699:1:0:0:0:
448,0,107549,128,0,107699:1:0:0:0:
64,192,107699,1,0,0:0:0:0:
192,0,107699,128,0,107849:1:0:0:0:
64,192,107849,1,0,0:0:0:0:
320,192,107849,1,0,0:0:0:0:
448,192,107849,1,0,0:0:0:0:
192,192,107924,1,0,0:0:0:0:
64,192,107999,1,0,0:0:0:0:
320,192,107999,1,0,0:0:0:0:
192,192,108074,1,0,0:0:0:0:
448,192,108074,1,0,0:0:0:0:
64,0,108149,128,0,108299:1:0:0:0:
320,0,108149,128,0,108299:1:0:0:0:
192,192,108299,1,0,0:0:0:0:
448,0,108299,128,0,108449:1:0:0:0:
64,192,108449,1,0,0:0:0:0:
192,192,108449,1,0,0:0:0:0:
320,192,108449,1,0,0:0:0:0:
448,192,108524,1,0,0:0:0:0:
64,192,108599,1,0,0:0:0:0:
320,192,108599,1,0,0:0:0:0:
192,192,108674,1,0,0:0:0:0:
448,192,108674,1,0,0:0:0:0:
64,0,108749,128,0,108899:1:0:0:0:
320,0,108749,128,0,108899:1:0:0:0:
448,192,108899,1,0,0:0:0:0:
192,0,108899,128,0,109049:1:0:0:0:
64,192,109049,1,0,0:0:0:0:
320,0,109049,128,0,109199:1:0:0:0:
448,0,109049,128,0,109199:1:0:0:0:
64,192,109199,1,0,0:0:0:0:
192,192,109199,1,0,0:0:0:0:
320,192,109274,1,0,0:0:0:0:
448,192,109274,1,0,0:0:0:0:
64,0,109349,128,0,109499:1:0:0:0:
192,0,109349,128,0,109499:1:0:0:0:
320,192,109499,1,0,0:0:0:0:
448,0,109499,128,0,109649:1:0:0:0:
64,192,109649,1,0,0:0:0:0:
192,192,109649,1,0,0:0:0:0:
320,192,109649,1,0,0:0:0:0:
448,192,109724,1,0,0:0:0:0:
192,192,109799,1,0,0:0:0:0:
320,192,109799,1,0,0:0:0:0:
64,192,109874,1,0,0:0:0:0:
448,192,109874,1,0,0:0:0:0:
192,0,109949,128,0,110099:1:0:0:0:
320,0,109949,128,0,110099:1:0:0:0:
448,192,110099,1,0,0:0:0:0:
64,0,110099,128,0,110249:1:0:0:0:
192,192,110249,1,0,0:0:0:0:
320,192,110249,1,0,0:0:0:0:
448,192,110249,1,0,0:0:0:0:
64,192,110324,1,0,0:0:0:0:
192,192,110399,1,0,0:0:0:0:
448,192,110399,1,0,0:0:0:0:
64,192,110474,1,0,0:0:0:0:
320,192,110474,1,0,0:0:0:0:
192,0,110549,128,0,110699:1:0:0:0:
448,0,110549,128,0,110699:1:0:0:0:
320,192,110699,1,0,0:0:0:0:
64,0,110699,128,0,110849:1:0:0:0:
192,192,110849,1,0,0:0:0:0:
320,192,110849,1,0,0:0:0:0:
448,192,110849,1,0,0:0:0:0:
64,192,110924,1,0,0:0:0:0:
320,192,110999,1,0,0:0:0:0:
448,192,110999,1,0,0:0:0:0:
64,192,111074,1,0,0:0:0:0:
192,192,111074,1,0,0:0:0:0:
320,192,111149,1,0,0:0:0:0:
448,192,111149,1,0,0:0:0:0:
64,192,111199,1,0,0:0:0:0:
192,192,111199,1,0,0:0:0:0:
320,192,111249,1,0,0:0:0:0:
448,192,111249,1,0,0:0:0:0:
64,192,111349,1,0,0:0:0:0:
192,192,111349,1,0,0:0:0:0:
64,192,111449,1,0,0:0:0:0:
320,192,111449,1,0,0:0:0:0:
448,192,111449,1,0,0:0:0:0:
192,192,111549,1,0,0:0:0:0:
448,192,111549,1,0,0:0:0:0:
64,192,111649,1,0,0:0:0:0:
192,192,111649,1,0,0:0:0:0:
64,192,111749,1,0,0:0:0:0:
320,0,111749,128,0,111899:1:0:0:0:
448,0,111749,128,0,111899:1:0:0:0:
192,192,111899,1,0,0:0:0:0:
64,0,111899,128,0,112049:1:0:0:0:
192,192,112049,1,0,0:0:0:0:
320,192,112049,1,0,0:0:0:0:
448,192,112049,1,0,0:0:0:0:
64,192,112124,1,0,0:0:0:0:
320,192,112199,1,0,0:0:0:0:
448,192,112199,1,0,0:0:0:0:
64,192,112274,1,0,0:0:0:0:
192,192,112274,1,0,0:0:0:0:
320,0,112349,128,0,112499:1:0:0:0:
448,0,112349,128,0,112499:1:0:0:0:
64,192,112499,1,0,0:0:0:0:
192,0,112499,128,0,112649:1:0:0:0:
64,192,112649,1,0,0:0:0:0:
320,192,112649,1,0,0:0:0:0:
448,192,112649,1,0,0:0:0:0:
192,192,112724,1,0,0:0:0:0:
64,192,112799,1,0,0:0:0:0:
320,192,112799,1,0,0:0:0:0:
192,192,112874,1,0,0:0:0:0:
448,192,112874,1,0,0:0:0:0:
64,0,112949,128,0,113099:1:0:0:0:
320,0,112949,128,0,113099:1:0:0:0:
192,192,113099,1,0,0:0:0:0:
448,0,113099,128,0,113249:1:0:0:0:
64,192,113249,1,0,0:0:0:0:
192,192,113249,1,0,0:0:0:0:
320,192,113249,1,0,0:0:0:0:
448,192,113324,1,0,0:0:0:0:
64,192,113399,1,0,0:0:0:0:
320,192,113399,1,0,0:0:0:0:
192,192,113474,1,0,0:0:0:0:
448,192,113474,1,0,0:0:0:0:
64,0,113549,128,0,113699:1:0:0:0:
320,0,113549,128,0,113699:1:0:0:0:
448,192,113699,1,0,0:0:0:0:
192,0,113699,128,0,113849:1:0:0:0:
64,192,113849,1,0,0:0:0:0:
320,0,113849,128,0,113999:1:0:0:0:
448,0,113849,128,0,113999:1:0:0:0:
64,192,113999,1,0,0:0:0:0:
192,192,113999,1,0,0:0:0:0:
320,192,114074,1,0,0:0:0:0:
448,192,114074,1,0,0:0:0:0:
64,192,114149,1,0,0:0:0:0:
192,0,114149,128,0,114249:1:0:0:0:
448,0,114149,128,0,114249:1:0:0:0:
192,0,114349,128,0,114449:1:0:0:0:
320,0,114349,128,0,114449:1:0:0:0:
64,0,114549,128,0,114649:1:0:0:0:
192,0,114549,128,0,114649:1:0:0:0:
64,192,114749,1,0,0:0:0:0:
320,0,114749,128,0,114849:1:0:0:0:
448,0,114749,128,0,114849:1:0:0:0:
192,192,114799,1,0,0:0:0:0:
64,192,114849,1,0,0:0:0:0:
320,192,114899,1,0,0:0:0:0:
64,0,114949,128,0,115049:1:0:0:0:
192,0,114949,128,0,115049:1:0:0:0:
448,192,115049,1,0,0:0:0:0:
64,192,115149,1,0,0:0:0:0:
192,0,115149,128,0,115249:1:0:0:0:
320,0,115149,128,0,115249:1:0:0:0:
448,192,115249,1,0,0:0:0:0:
320,192,115349,1,0,0:0:0:0:
64,0,115349,128,0,115449:1:0:0:0:
448,0,115349,128,0,115449:1:0:0:0:
192,192,115399,1,0,0:0:0:0:
320,192,115449,1,0,0:0:0:0:
64,0,115549,128,0,115649:1:0:0:0:
192,0,115549,128,0,115649:1:0:0:0:
448,192,115649,1,0,0:0:0:0:
64,192,115749,1,0,0:0:0:0:
192,0,115749,128,0,115849:1:0:0:0:
320,0,115749,128,0,115849:1:0:0:0:
448,192,115849,1,0,0:0:0:0:
320,192,115949,1,0,0:0:0:0:
64,0,115949,128,0,116474:1:0:0:0:
448,0,115949,128,0,116474:1:0:0:0:
192,0,116249,128,0,116474:1:0:0:0:
320,0,116399,128,0,116549:1:0:0:0:
64,192,116549,1,0,0:0:0:0:
192,192,116549,1,0,0:0:0:0:
448,192,116549,1,0,0:0:0:0:
192,192,116699,1,0,0:0:0:0:
448,192,116699,1,0,0:0:0:0:
64,192,116849,1,0,0:0:0:0:
320,0,116849,128,0,116999:1:0:0:0:
448,0,116849,128,0,116999:1:0:0:0:
64,192,116999,1,0,0:0:0:0:
192,192,116999,1,0,0:0:0:0:
192,192,117149,1,0,0:0:0:0:
448,192,117149,1,0,0:0:0:0:
320,192,117299,1,0,0:0:0:0:
448,192,117449,1,0,0:0:0:0:
64,0,117449,128,0,117599:1:0:0:0:
192,0,117449,128,0,117599:1:0:0:0:
320,192,117599,1,0,0:0:0:0:
448,192,117599,1,0,0:0:0:0:
192,192,117749,1,0,0:0:0:0:
448,192,117749,1,0,0:0:0:0:
64,192,117899,1,0,0:0:0:0:
320,192,117899,1,0,0:0:0:0:
64,192,118049,1,0,0:0:0:0:
192,0,118049,128,0,118199:1:0:0:0:
448,0,118049,128,0,118199:1:0:0:0:
64,192,118199,1,0,0:0:0:0:
320,192,118199,1,0,0:0:0:0:
192,192,118349,1,0,0:0:0:0:
320,192,118349,1,0,0:0:0:0:
448,192,118499,1,0,0:0:0:0:
320,192,118649,1,0,0:0:0:0:
64,0,118649,128,0,118799:1:0:0:0:
192,0,118649,128,0,118799:1:0:0:0:
320,192,118799,1,0,0:0:0:0:
448,192,118799,1,0,0:0:0:0:
192,192,118949,1,0,0:0:0:0:
448,192,118949,1,0,0:0:0:0:
64,192,119099,1,0,0:0:0:0:
320,192,119099,1,0,0:0:0:0:
192,192,119249,1,0,0:0:0:0:
64,0,119249,128,0,119399:1:0:0:0:
448,0,119249,128,0,119399:1:0:0:0:
192,192,119399,1,0,0:0:0:0:
320,192,119399,1,0,0:0:0:0:
192,192,119549,1,0,0:0:0:0:
448,192,119549,1,0,0:0:0:0:
64,192,119699,1,0,0:0:0:0:
448,192,119849,1,0,0:0:0:0:
192,0,119849,128,0,119999:1:0:0:0:
320,0,119849,128,0,119999:1:0:0:0:
64,192,119999,1,0,0:0:0:0:
448,192,119999,1,0,0:0:0:0:
192,192,120149,1,0,0:0:0:0:
448,192,120149,1,0,0:0:0:0:
64,192,120299,1,0,0:0:0:0:
320,192,120299,1,0,0:0:0:0:
192,192,120449,1,0,0:0:0:0:
320,0,120449,128,0,120599:1:0:0:0:
448,0,120449,128,0,120599:1:0:0:0:
64,192,120599,1,0,0:0:0:0:
192,192,120599,1,0,0:0:0:0:
192,192,120749,1,0,0:0:0:0:
448,192,120749,1,0,0:0:0:0:
320,192,120899,1,0,0:0:0:0:
64,192,121049,1,0,0:0:0:0:
192,0,121049,128,0,121199:1:0:0:0:
448,0,121049,128,0,121199:1:0:0:0:
64,192,121199,1,0,0:0:0:0:
320,192,121199,1,0,0:0:0:0:
64,192,121349,1,0,0:0:0:0:
192,192,121349,1,0,0:0:0:0:
448,192,121349,1,0,0:0:0:0:
192,192,121499,1,0,0:0:0:0:
320,192,121499,1,0,0:0:0:0:
448,192,121649,1,0,0:0:0:0:
64,0,121649,128,0,121799:1:0:0:0:
192,0,121649,128,0,121799:1:0:0:0:
320,192,121799,1,0,0:0:0:0:
448,192,121799,1,0,0:0:0:0:
192,192,121949,1,0,0:0:0:0:
448,192,121949,1,0,0:0:0:0:
320,192,122099,1,0,0:0:0:0:
192,192,122249,1,0,0:0:0:0:
64,0,122249,128,0,122399:1:0:0:0:
448,0,122249,128,0,122399:1:0:0:0:
192,192,122399,1,0,0:0:0:0:
320,192,122399,1,0,0:0:0:0:
320,192,122549,1,0,0:0:0:0:
448,192,122549,1,0,0:0:0:0:
320,192,122699,1,0,0:0:0:0:
448,192,122699,1,0,0:0:0:0:
448,192,122849,1,0,0:0:0:0:
64,0,122849,128,0,122999:1:0:0:0:
192,0,122849,128,0,122999:1:0:0:0:
320,192,122999,1,0,0:0:0:0:
64,192,123149,1,0,0:0:0:0:
448,192,123149,1,0,0:0:0:0:
192,192,123299,1,0,0:0:0:0:
64,192,123449,1,0,0:0:0:0:
320,0,123449,128,0,123599:1:0:0:0:
448,0,123449,128,0,123599:1:0:0:0:
64,192,123599,1,0,0:0:0:0:
192,192,123599,1,0,0:0:0:0:
64,192,123749,1,0,0:0:0:0:
448,192,123749,1,0,0:0:0:0:
320,192,123824,1,0,0:0:0:0:
192,192,123899,1,0,0:0:0:0:
448,192,123899,1,0,0:0:0:0:
64,192,123974,1,0,0:0:0:0:
192,192,124049,1,0,0:0:0:0:
320,192,124049,1,0,0:0:0:0:
448,192,124049,1,0,0:0:0:0:
64,192,124124,1,0,0:0:0:0:
192,192,124199,1,0,0:0:0:0:
320,192,124199,1,0,0:0:0:0:
448,192,124274,1,0,0:0:0:0:
64,192,124349,1,0,0:0:0:0:
192,192,124349,1,0,0:0:0:0:
320,192,124424,1,0,0:0:0:0:
192,192,124499,1,0,0:0:0:0:
448,192,124499,1,0,0:0:0:0:
64,192,124574,1,0,0:0:0:0:
192,192,124649,1,0,0:0:0:0:
320,192,124649,1,0,0:0:0:0:
448,192,124649,1,0,0:0:0:0:
64,192,124724,1,0,0:0:0:0:
192,192,124799,1,0,0:0:0:0:
320,192,124799,1,0,0:0:0:0:
448,192,124874,1,0,0:0:0:0:
64,192,124949,1,0,0:0:0:0:
192,192,124949,1,0,0:0:0:0:
448,192,125024,1,0,0:0:0:0:
64,192,125099,1,0,0:0:0:0:
320,192,125099,1,0,0:0:0:0:
192,192,125174,1,0,0:0:0:0:
64,192,125249,1,0,0:0:0:0:
320,192,125249,1,0,0:0:0:0:
448,192,125249,1,0,0:0:0:0:
192,192,125324,1,0,0:0:0:0:
64,192,125399,1,0,0:0:0:0:
448,192,125399,1,0,0:0:0:0:
320,192,125474,1,0,0:0:0:0:
64,0,125549,128,0,125624:1:0:0:0:
192,0,125549,128,0,125624:1:0:0:0:
448,0,125849,128,0,125999:1:0:0:0:
192,0,125999,128,0,126149:1:0:0:0:
64,192,126149,1,0,0:0:0:0:
320,192,126149,1,0,0:0:0:0:
448,0,126149,128,0,126449:1:0:0:0:
64,192,126599,1,0,0:0:0:0:
320,192,126749,1,0,0:0:0:0:
448,192,126749,1,0,0:0:0:0:
192,192,127049,1,0,0:0:0:0:
320,192,127049,1,0,0:0:0:0:
64,192,127349,1,0,0:0:0:0:
448,192,127349,1,0,0:0:0:0:
192,192,127499,1,0,0:0:0:0:
320,192,127649,1,0,0:0:0:0:
448,192,127649,1,0,0:0:0:0:
64,192,127799,1,0,0:0:0:0:
192,192,127949,1,0,0:0:0:0:
448,192,127949,1,0,0:0:0:0:
320,192,128249,1,0,0:0:0:0:
448,192,128249,1,0,0:0:0:0:
192,192,128399,1,0,0:0:0:0:
64,192,128549,1,0,0:0:0:0:
448,192,128549,1,0,0:0:0:0:
320,192,128699,1,0,0:0:0:0:
64,192,128774,1,0,0:0:0:0:
192,192,128849,1,0,0:0:0:0:
448,192,128849,1,0,0:0:0:0:
64,192,128999,1,0,0:0:0:0:
192,192,128999,1,0,0:0:0:0:
320,192,129149,1,0,0:0:0:0:
448,192,129299,1,0,0:0:0:0:
64,192,129449,1,0,0:0:0:0:
192,192,129449,1,0,0:0:0:0:
320,192,129599,1,0,0:0:0:0:
64,192,129749,1,0,0:0:0:0:
448,192,129749,1,0,0:0:0:0:
192,192,129899,1,0,0:0:0:0:
320,192,130049,1,0,0:0:0:0:
448,192,130049,1,0,0:0:0:0:
192,192,130199,1,0,0:0:0:0:
64,192,130349,1,0,0:0:0:0:
448,192,130499,1,0,0:0:0:0:
192,192,130949,1,0,0:0:0:0:
64,0,130949,128,0,131249:1:0:0:0:
448,192,131399,1,0,0:0:0:0:
64,192,131549,1,0,0:0:0:0:
320,192,131549,1,0,0:0:0:0:
192,192,131849,1,0,0:0:0:0:
320,192,132149,1,0,0:0:0:0:
448,192,132149,1,0,0:0:0:0:
64,192,132299,1,0,0:0:0:0:
192,192,132449,1,0,0:0:0:0:
320,192,132449,1,0,0:0:0:0:
448,192,132599,1,0,0:0:0:0:
64,192,132749,1,0,0:0:0:0:
320,192,132749,1,0,0:0:0:0:
192,192,133049,1,0,0:0:0:0:
448,192,133049,1,0,0:0:0:0:
320,192,133199,1,0,0:0:0:0:
64,192,133349,1,0,0:0:0:0:
192,192,133349,1,0,0:0:0:0:
448,192,133499,1,0,0:0:0:0:
320,192,133574,1,0,0:0:0:0:
64,192,133649,1,0,0:0:0:0:
192,192,133649,1,0,0:0:0:0:
192,192,133799,1,0,0:0:0:0:
320,192,133799,1,0,0:0:0:0:
448,192,133949,1,0,0:0:0:0:
320,192,134099,1,0,0:0:0:0:
64,192,134249,1,0,0:0:0:0:
448,192,134249,1,0,0:0:0:0:
192,192,134399,1,0,0:0:0:0:
320,192,134549,1,0,0:0:0:0:
448,192,134549,1,0,0:0:0:0:
192,192,134699,1,0,0:0:0:0:
64,192,134849,1,0,0:0:0:0:
448,192,134999,1,0,0:0:0:0:
192,192,135149,1,0,0:0:0:0:
320,192,135149,1,0,0:0:0:0:
64,192,135299,1,0,0:0:0:0:
448,192,135449,1,0,0:0:0:0:
64,192,135749,1,0,0:0:0:0:
192,192,135749,1,0,0:0:0:0:
448,192,135749,1,0,0:0:0:0:
320,192,135899,1,0,0:0:0:0:
192,192,135974,1,0,0:0:0:0:
448,192,136049,1,0,0:0:0:0:
64,192,136199,1,0,0:0:0:0:
192,192,136349,1,0,0:0:0:0:
448,192,136349,1,0,0:0:0:0:
320,192,136424,1,0,0:0:0:0:
448,192,136499,1,0,0:0:0:0:
192,192,136574,1,0,0:0:0:0:
320,192,136649,1,0,0:0:0:0:
64,192,136724,1,0,0:0:0:0:
320,192,136799,1,0,0:0:0:0:
192,192,136874,1,0,0:0:0:0:
64,192,136949,1,0,0:0:0:0:
448,192,136949,1,0,0:0:0:0:
320,192,137099,1,0,0:0:0:0:
448,192,137249,1,0,0:0:0:0:
192,192,137399,1,0,0:0:0:0:
320,192,137549,1,0,0:0:0:0:
448,192,137699,1,0,0:0:0:0:
64,192,137849,1,0,0:0:0:0:
320,192,137924,1,0,0:0:0:0:
448,192,137999,1,0,0:0:0:0:
64,192,138149,1,0,0:0:0:0:
320,192,138149,1,0,0:0:0:0:
192,192,138299,1,0,0:0:0:0:
448,192,138374,1,0,0:0:0:0:
64,192,138449,1,0,0:0:0:0:
448,192,138599,1,0,0:0:0:0:
192,192,138749,1,0,0:0:0:0:
448,192,138749,1,0,0:0:0:0:
64,192,138824,1,0,0:0:0:0:
320,192,138899,1,0,0:0:0:0:
192,192,138974,1,0,0:0:0:0:
448,192,139049,1,0,0:0:0:0:
192,192,139124,1,0,0:0:0:0:
320,192,139199,1,0,0:0:0:0:
64,192,139274,1,0,0:0:0:0:
192,192,139349,1,0,0:0:0:0:
448,192,139349,1,0,0:0:0:0:
320,192,139499,1,0,0:0:0:0:
448,192,139649,1,0,0:0:0:0:
64,192,139799,1,0,0:0:0:0:
320,192,139949,1,0,0:0:0:0:
448,192,140099,1,0,0:0:0:0:
64,192,140249,1,0,0:0:0:0:
192,192,140324,1,0,0:0:0:0:
320,192,140399,1,0,0:0:0:0:
64,192,140549,1,0,0:0:0:0:
192,192,140549,1,0,0:0:0:0:
448,192,140549,1,0,0:0:0:0:
320,192,140624,1,0,0:0:0:0:
64,192,140699,1,0,0:0:0:0:
192,192,140699,1,0,0:0:0:0:
448,192,140699,1,0,0:0:0:0:
320,192,140774,1,0,0:0:0:0:
64,192,140849,1,0,0:0:0:0:
192,192,140924,1,0,0:0:0:0:
320,192,140999,1,0,0:0:0:0:
448,192,141074,1,0,0:0:0:0:
64,192,141149,1,0,0:0:0:0:
192,192,141224,1,0,0:0:0:0:
448,192,141299,1,0,0:0:0:0:
320,192,141374,1,0,0:0:0:0:
64,192,141449,1,0,0:0:0:0:
448,192,141524,1,0,0:0:0:0:
64,192,141599,1,0,0:0:0:0:
320,192,141599,1,0,0:0:0:0:
192,192,141674,1,0,0:0:0:0:
64,192,141749,1,0,0:0:0:0:
320,192,141749,1,0,0:0:0:0:
448,192,141749,1,0,0:0:0:0:
192,192,141824,1,0,0:0:0:0:
64,192,141899,1,0,0:0:0:0:
320,192,141899,1,0,0:0:0:0:
448,192,141899,1,0,0:0:0:0:
192,192,141974,1,0,0:0:0:0:
320,192,142049,1,0,0:0:0:0:
64,192,142124,1,0,0:0:0:0:
192,192,142199,1,0,0:0:0:0:
448,192,142274,1,0,0:0:0:0:
320,192,142349,1,0,0:0:0:0:
192,192,142424,1,0,0:0:0:0:
448,192,142499,1,0,0:0:0:0:
64,192,142574,1,0,0:0:0:0:
192,192,142649,1,0,0:0:0:0:
320,192,142724,1,0,0:0:0:0:
64,192,142799,1,0,0:0:0:0:
448,192,142799,1,0,0:0:0:0:
192,192,142874,1,0,0:0:0:0:
64,192,142949,1,0,0:0:0:0:
320,192,142949,1,0,0:0:0:0:
448,192,142949,1,0,0:0:0:0:
192,192,143024,1,0,0:0:0:0:
64,192,143099,1,0,0:0:0:0:
320,192,143099,1,0,0:0:0:0:
448,192,143099,1,0,0:0:0:0:
192,192,143174,1,0,0:0:0:0:
320,192,143249,1,0,0:0:0:0:
192,192,143324,1,0,0:0:0:0:
320,192,143399,1,0,0:0:0:0:
192,192,143474,1,0,0:0:0:0:
64,192,143549,1,0,0:0:0:0:
320,192,143549,1,0,0:0:0:0:
448,192,143549,1,0,0:0:0:0:
192,192,143624,1,0,0:0:0:0:
64,192,143699,1,0,0:0:0:0:
320,192,143699,1,0,0:0:0:0:
448,192,143699,1,0,0:0:0:0:
192,192,143774,1,0,0:0:0:0:
320,192,143849,1,0,0:0:0:0:
192,192,143924,1,0,0:0:0:0:
320,192,143999,1,0,0:0:0:0:
448,192,143999,1,0,0:0:0:0:
192,192,144074,1,0,0:0:0:0:
320,192,144149,1,0,0:0:0:0:
64,0,144149,128,0,145274:1:0:0:0:
448,0,144149,128,0,145274:1:0:0:0:
192,0,145049,128,0,145274:1:0:0:0:
320,0,145199,128,0,145349:1:0:0:0:
192,192,145349,1,0,0:0:0:0:
448,192,145349,1,0,0:0:0:0:
64,0,145349,128,0,146549:1:0:0:0:
192,0,146549,128,0,147749:1:0:0:0:
448,0,147749,128,0,150149:1:0:0:0:
64,0,150149,128,0,151349:1:0:0:0:
192,0,151349,128,0,152549:1:0:0:0:
320,0,152549,128,0,154949:1:0:0:0:
64,192,154949,1,0,0:0:0:0:
192,192,154949,1,0,0:0:0:0:
448,0,154949,128,0,156149:1:0:0:0:
320,0,156149,128,0,157349:1:0:0:0:
64,0,157349,128,0,159674:1:0:0:0:
64,192,159749,1,0,0:0:0:0:
320,192,159749,1,0,0:0:0:0:
448,192,159749,1,0,0:0:0:0:
192,192,159824,1,0,0:0:0:0:
320,192,159899,1,0,0:0:0:0:
192,192,159974,1,0,0:0:0:0:
320,192,160049,1,0,0:0:0:0:
192,192,160124,1,0,0:0:0:0:
320,192,160199,1,0,0:0:0:0:
192,192,160274,1,0,0:0:0:0:
320,192,160349,1,0,0:0:0:0:
192,192,160424,1,0,0:0:0:0:
320,192,160499,1,0,0:0:0:0:
192,192,160574,1,0,0:0:0:0:
320,192,160649,1,0,0:0:0:0:
192,192,160724,1,0,0:0:0:0:
64,192,160799,1,0,0:0:0:0:
320,192,160799,1,0,0:0:0:0:
448,192,160799,1,0,0:0:0:0:
192,192,160874,1,0,0:0:0:0:
64,192,160949,1,0,0:0:0:0:
320,192,160949,1,0,0:0:0:0:
448,192,160949,1,0,0:0:0:0:
192,192,161024,1,0,0:0:0:0:
320,192,161099,1,0,0:0:0:0:
192,192,161174,1,0,0:0:0:0:
320,192,161249,1,0,0:0:0:0:
192,192,161324,1,0,0:0:0:0:
320,192,161399,1,0,0:0:0:0:
192,192,161474,1,0,0:0:0:0:
320,192,161549,1,0,0:0:0:0:
192,192,161624,1,0,0:0:0:0:
320,192,161699,1,0,0:0:0:0:
192,192,161774,1,0,0:0:0:0:
320,192,161849,1,0,0:0:0:0:
192,192,161924,1,0,0:0:0:0:
64,192,161999,1,0,0:0:0:0:
320,192,161999,1,0,0:0:0:0:
448,192,161999,1,0,0:0:0:0:
192,192,162074,1,0,0:0:0:0:
64,192,162149,1,0,0:0:0:0:
320,192,162149,1,0,0:0:0:0:
448,192,162149,1,0,0:0:0:0:
192,192,162224,1,0,0:0:0:0:
320,192,162299,1,0,0:0:0:0:
192,192,162374,1,0,0:0:0:0:
320,192,162449,1,0,0:0:0:0:
192,192,162524,1,0,0:0:0:0:
320,192,162599,1,0,0:0:0:0:
192,192,162674,1,0,0:0:0:0:
64,192,162749,1,0,0:0:0:0:
320,192,162749,1,0,0:0:0:0:
448,192,162749,1,0,0:0:0:0:
192,192,162824,1,0,0:0:0:0:
320,192,162899,1,0,0:0:0:0:
192,192,162974,1,0,0:0:0:0:
320,192,163049,1,0,0:0:0:0:
192,192,163124,1,0,0:0:0:0:
320,192,163199,1,0,0:0:0:0:
192,192,163274,1,0,0:0:0:0:
64,192,163349,1,0,0:0:0:0:
320,192,163349,1,0,0:0:0:0:
448,192,163349,1,0,0:0:0:0:
192,192,163424,1,0,0:0:0:0:
320,192,163499,1,0,0:0:0:0:
192,192,163574,1,0,0:0:0:0:
64,192,163649,1,0,0:0:0:0:
320,192,163649,1,0,0:0:0:0:
448,192,163649,1,0,0:0:0:0:
192,192,163724,1,0,0:0:0:0:
320,192,163799,1,0,0:0:0:0:
192,192,163874,1,0,0:0:0:0:
64,192,163949,1,0,0:0:0:0:
320,192,163949,1,0,0:0:0:0:
448,192,163949,1,0,0:0:0:0:
192,192,164024,1,0,0:0:0:0:
320,192,164099,1,0,0:0:0:0:
192,192,164174,1,0,0:0:0:0:
64,192,164249,1,0,0:0:0:0:
320,192,164249,1,0,0:0:0:0:
448,192,164249,1,0,0:0:0:0:
192,192,164324,1,0,0:0:0:0:
320,192,164399,1,0,0:0:0:0:
192,192,164474,1,0,0:0:0:0:
64,192,164549,1,0,0:0:0:0:
448,192,164549,1,0,0:0:0:0:
64,192,164849,1,0,0:0:0:0:
192,192,164849,1,0,0:0:0:0:
448,192,164849,1,0,0:0:0:0:
64,192,164924,1,0,0:0:0:0:
192,192,164924,1,0,0:0:0:0:
320,192,164999,1,0,0:0:0:0:
448,192,164999,1,0,0:0:0:0:
64,192,165074,1,0,0:0:0:0:
192,192,165074,1,0,0:0:0:0:
320,192,165149,1,0,0:0:0:0:
448,192,165149,1,0,0:0:0:0:
64,192,165224,1,0,0:0:0:0:
192,192,165299,1,0,0:0:0:0:
448,192,165299,1,0,0:0:0:0:
64,192,165374,1,0,0:0:0:0:
320,192,165374,1,0,0:0:0:0:
192,192,165449,1,0,0:0:0:0:
448,192,165449,1,0,0:0:0:0:
64,192,165524,1,0,0:0:0:0:
320,192,165524,1,0,0:0:0:0:
192,192,165599,1,0,0:0:0:0:
448,192,165599,1,0,0:0:0:0:
64,192,165674,1,0,0:0:0:0:
320,192,165674,1,0,0:0:0:0:
192,192,165749,1,0,0:0:0:0:
448,192,165749,1,0,0:0:0:0:
320,192,165824,1,0,0:0:0:0:
64,192,165899,1,0,0:0:0:0:
192,192,165899,1,0,0:0:0:0:
320,192,165974,1,0,0:0:0:0:
448,192,165974,1,0,0:0:0:0:
64,192,166049,1,0,0:0:0:0:
192,192,166049,1,0,0:0:0:0:
320,192,166124,1,0,0:0:0:0:
448,192,166124,1,0,0:0:0:0:
64,192,166199,1,0,0:0:0:0:
192,192,166199,1,0,0:0:0:0:
320,192,166274,1,0,0:0:0:0:
448,192,166274,1,0,0:0:0:0:
64,192,166349,1,0,0:0:0:0:
192,192,166349,1,0,0:0:0:0:
320,192,166424,1,0,0:0:0:0:
64,192,166499,1,0,0:0:0:0:
448,192,166499,1,0,0:0:0:0:
192,192,166574,1,0,0:0:0:0:
320,192,166574,1,0,0:0:0:0:
64,192,166649,1,0,0:0:0:0:
448,192,166649,1,0,0:0:0:0:
192,192,166724,1,0,0:0:0:0:
320,192,166724,1,0,0:0:0:0:
64,192,166799,1,0,0:0:0:0:
448,192,166799,1,0,0:0:0:0:
192,192,166874,1,0,0:0:0:0:
320,192,166874,1,0,0:0:0:0:
64,192,166949,1,0,0:0:0:0:
448,192,166949,1,0,0:0:0:0:
192,192,167024,1,0,0:0:0:0:
320,192,167099,1,0,0:0:0:0:
448,192,167099,1,0,0:0:0:0:
64,192,167174,1,0,0:0:0:0:
192,192,167174,1,0,0:0:0:0:
320,192,167249,1,0,0:0:0:0:
448,192,167249,1,0,0:0:0:0:
64,192,167324,1,0,0:0:0:0:
192,192,167324,1,0,0:0:0:0:
320,192,167399,1,0,0:0:0:0:
448,192,167399,1,0,0:0:0:0:
64,192,167474,1,0,0:0:0:0:
192,192,167474,1,0,0:0:0:0:
320,192,167549,1,0,0:0:0:0:
448,192,167549,1,0,0:0:0:0:
64,192,167624,1,0,0:0:0:0:
192,192,167699,1,0,0:0:0:0:
448,192,167699,1,0,0:0:0:0:
64,192,167774,1,0,0:0:0:0:
320,192,167774,1,0,0:0:0:0:
192,192,167849,1,0,0:0:0:0:
448,192,167849,1,0,0:0:0:0:
64,192,167924,1,0,0:0:0:0:
320,192,167924,1,0,0:0:0:0:
192,192,167999,1,0,0:0:0:0:
448,192,167999,1,0,0:0:0:0:
64,192,168074,1,0,0:0:0:0:
320,192,168074,1,0,0:0:0:0:
192,192,168149,1,0,0:0:0:0:
448,192,168149,1,0,0:0:0:0:
320,192,168224,1,0,0:0:0:0:
64,192,168299,1,0,0:0:0:0:
448,192,168299,1,0,0:0:0:0:
192,192,168374,1,0,0:0:0:0:
320,192,168374,1,0,0:0:0:0:
64,192,168449,1,0,0:0:0:0:
448,192,168449,1,0,0:0:0:0:
192,192,168524,1,0,0:0:0:0:
320,192,168524,1,0,0:0:0:0:
64,192,168599,1,0,0:0:0:0:
448,192,168599,1,0,0:0:0:0:
192,192,168674,1,0,0:0:0:0:
320,192,168674,1,0,0:0:0:0:
64,192,168749,1,0,0:0:0:0:
448,192,168749,1,0,0:0:0:0:
192,192,168824,1,0,0:0:0:0:
320,192,168899,1,0,0:0:0:0:
448,192,168899,1,0,0:0:0:0:
64,192,168974,1,0,0:0:0:0:
192,192,168974,1,0,0:0:0:0:
320,192,169049,1,0,0:0:0:0:
448,192,169049,1,0,0:0:0:0:
64,192,169099,1,0,0:0:0:0:
192,192,169099,1,0,0:0:0:0:
320,192,169149,1,0,0:0:0:0:
448,192,169149,1,0,0:0:0:0:
320,192,169249,1,0,0:0:0:0:
448,192,169249,1,0,0:0:0:0:
64,192,169349,1,0,0:0:0:0:
192,192,169349,1,0,0:0:0:0:
320,192,169449,1,0,0:0:0:0:
448,192,169449,1,0,0:0:0:0:
64,192,169549,1,0,0:0:0:0:
192,192,169549,1,0,0:0:0:0:
64,192,169649,1,0,0:0:0:0:
320,192,169649,1,0,0:0:0:0:
448,192,169649,1,0,0:0:0:0:
320,192,169724,1,0,0:0:0:0:
448,192,169724,1,0,0:0:0:0:
64,192,169799,1,0,0:0:0:0:
192,192,169799,1,0,0:0:0:0:
320,192,169874,1,0,0:0:0:0:
448,192,169874,1,0,0:0:0:0:
64,192,169949,1,0,0:0:0:0:
192,192,169949,1,0,0:0:0:0:
320,192,170024,1,0,0:0:0:0:
64,192,170099,1,0,0:0:0:0:
448,192,170099,1,0,0:0:0:0:
192,192,170174,1,0,0:0:0:0:
320,192,170174,1,0,0:0:0:0:
64,192,170249,1,0,0:0:0:0:
448,192,170249,1,0,0:0:0:0:
192,192,170324,1,0,0:0:0:0:
320,192,170324,1,0,0:0:0:0:
64,192,170399,1,0,0:0:0:0:
448,192,170399,1,0,0:0:0:0:
192,192,170474,1,0,0:0:0:0:
320,192,170474,1,0,0:0:0:0:
64,192,170549,1,0,0:0:0:0:
448,192,170549,1,0,0:0:0:0:
320,192,170624,1,0,0:0:0:0:
192,192,170699,1,0,0:0:0:0:
448,192,170699,1,0,0:0:0:0:
64,192,170774,1,0,0:0:0:0:
320,192,170774,1,0,0:0:0:0:
192,192,170849,1,0,0:0:0:0:
448,192,170849,1,0,0:0:0:0:
64,192,170924,1,0,0:0:0:0:
320,192,170924,1,0,0:0:0:0:
192,192,170999,1,0,0:0:0:0:
448,192,170999,1,0,0:0:0:0:
64,192,171074,1,0,0:0:0:0:
320,192,171074,1,0,0:0:0:0:
192,192,171149,1,0,0:0:0:0:
448,192,171149,1,0,0:0:0:0:
64,192,171224,1,0,0:0:0:0:
192,192,171299,1,0,0:0:0:0:
320,192,171299,1,0,0:0:0:0:
64,192,171374,1,0,0:0:0:0:
448,192,171374,1,0,0:0:0:0:
192,192,171449,1,0,0:0:0:0:
320,192,171449,1,0,0:0:0:0:
64,192,171524,1,0,0:0:0:0:
448,192,171524,1,0,0:0:0:0:
192,192,171599,1,0,0:0:0:0:
320,192,171599,1,0,0:0:0:0:
64,192,171674,1,0,0:0:0:0:
448,192,171674,1,0,0:0:0:0:
192,192,171749,1,0,0:0:0:0:
320,192,171749,1,0,0:0:0:0:
448,192,171824,1,0,0:0:0:0:
64,192,171899,1,0,0:0:0:0:
192,192,171899,1,0,0:0:0:0:
320,192,171974,1,0,0:0:0:0:
448,192,171974,1,0,0:0:0:0:
64,192,172049,1,0,0:0:0:0:
192,192,172049,1,0,0:0:0:0:
320,192,172124,1,0,0:0:0:0:
448,192,172124,1,0,0:0:0:0:
64,192,172199,1,0,0:0:0:0:
192,192,172199,1,0,0:0:0:0:
320,192,172274,1,0,0:0:0:0:
448,192,172274,1,0,0:0:0:0:
64,192,172349,1,0,0:0:0:0:
192,192,172349,1,0,0:0:0:0:
320,192,172424,1,0,0:0:0:0:
64,192,172499,1,0,0:0:0:0:
448,192,172499,1,0,0:0:0:0:
192,192,172574,1,0,0:0:0:0:
320,192,172574,1,0,0:0:0:0:
64,192,172649,1,0,0:0:0:0:
448,192,172649,1,0,0:0:0:0:
192,192,172724,1,0,0:0:0:0:
320,192,172724,1,0,0:0:0:0:
64,192,172799,1,0,0:0:0:0:
448,192,172799,1,0,0:0:0:0:
192,192,172874,1,0,0:0:0:0:
320,192,172874,1,0,0:0:0:0:
64,192,172949,1,0,0:0:0:0:
448,192,172949,1,0,0:0:0:0:
320,192,173024,1,0,0:0:0:0:
64,192,173099,1,0,0:0:0:0:
192,192,173099,1,0,0:0:0:0:
320,192,173174,1,0,0:0:0:0:
448,192,173174,1,0,0:0:0:0:
64,192,173249,1,0,0:0:0:0:
192,192,173249,1,0,0:0:0:0:
448,192,173324,1,0,0:0:0:0:
192,192,173399,1,0,0:0:0:0:
320,192,173474,1,0,0:0:0:0:
448,192,173474,1,0,0:0:0:0:
64,192,173549,1,0,0:0:0:0:
320,192,173624,1,0,0:0:0:0:
64,192,173699,1,0,0:0:0:0:
192,192,173717,1,0,0:0:0:0:
320,192,173736,1,0,0:0:0:0:
448,192,173755,1,0,0:0:0:0:
64,192,173774,1,0,0:0:0:0:
192,192,173792,1,0,0:0:0:0:
320,192,173811,1,0,0:0:0:0:
448,192,173830,1,0,0:0:0:0:
64,192,173849,1,0,0:0:0:0:
320,192,173924,1,0,0:0:0:0:
64,192,173999,1,0,0:0:0:0:
192,192,173999,1,0,0:0:0:0:
320,192,174074,1,0,0:0:0:0:
448,192,174074,1,0,0:0:0:0:
64,192,174149,1,0,0:0:0:0:
192,192,174149,1,0,0:0:0:0:
320,192,174224,1,0,0:0:0:0:
448,192,174299,1,0,0:0:0:0:
320,192,174317,1,0,0:0:0:0:
192,192,174336,1,0,0:0:0:0:
64,192,174355,1,0,0:0:0:0:
448,192,174374,1,0,0:0:0:0:
320,192,174392,1,0,0:0:0:0:
192,192,174411,1,0,0:0:0:0:
64,192,174430,1,0,0:0:0:0:
320,192,174449,1,0,0:0:0:0:
448,192,174449,1,0,0:0:0:0:
64,192,174524,1,0,0:0:0:0:
192,192,174524,1,0,0:0:0:0:
320,192,174599,1,0,0:0:0:0:
448,192,174599,1,0,0:0:0:0:
64,192,174674,1,0,0:0:0:0:
192,192,174674,1,0,0:0:0:0:
320,192,174749,1,0,0:0:0:0:
448,192,174749,1,0,0:0:0:0:
64,192,174824,1,0,0:0:0:0:
192,192,174899,1,0,0:0:0:0:
448,192,174899,1,0,0:0:0:0:
64,192,174974,1,0,0:0:0:0:
320,192,174974,1,0,0:0:0:0:
192,192,175049,1,0,0:0:0:0:
448,192,175049,1,0,0:0:0:0:
64,192,175124,1,0,0:0:0:0:
320,192,175124,1,0,0:0:0:0:
192,192,175199,1,0,0:0:0:0:
448,192,175199,1,0,0:0:0:0:
64,192,175274,1,0,0:0:0:0:
320,192,175274,1,0,0:0:0:0:
192,192,175349,1,0,0:0:0:0:
448,192,175349,1,0,0:0:0:0:
320,192,175424,1,0,0:0:0:0:
64,192,175499,1,0,0:0:0:0:
192,192,175499,1,0,0:0:0:0:
320,192,175574,1,0,0:0:0:0:
448,192,175574,1,0,0:0:0:0:
64,192,175649,1,0,0:0:0:0:
192,192,175649,1,0,0:0:0:0:
320,192,175724,1,0,0:0:0:0:
448,192,175724,1,0,0:0:0:0:
64,192,175799,1,0,0:0:0:0:
192,192,175799,1,0,0:0:0:0:
320,192,175874,1,0,0:0:0:0:
448,192,175874,1,0,0:0:0:0:
64,192,175949,1,0,0:0:0:0:
192,192,175949,1,0,0:0:0:0:
320,192,176024,1,0,0:0:0:0:
64,192,176099,1,0,0:0:0:0:
448,192,176099,1,0,0:0:0:0:
192,192,176174,1,0,0:0:0:0:
320,192,176174,1,0,0:0:0:0:
64,192,176249,1,0,0:0:0:0:
448,192,176249,1,0,0:0:0:0:
192,192,176324,1,0,0:0:0:0:
320,192,176324,1,0,0:0:0:0:
64,192,176399,1,0,0:0:0:0:
448,192,176399,1,0,0:0:0:0:
192,192,176474,1,0,0:0:0:0:
320,192,176474,1,0,0:0:0:0:
64,192,176549,1,0,0:0:0:0:
448,192,176549,1,0,0:0:0:0:
320,192,176624,1,0,0:0:0:0:
192,192,176699,1,0,0:0:0:0:
448,192,176699,1,0,0:0:0:0:
64,192,176774,1,0,0:0:0:0:
320,192,176774,1,0,0:0:0:0:
192,192,176849,1,0,0:0:0:0:
448,192,176849,1,0,0:0:0:0:
64,192,176924,1,0,0:0:0:0:
320,192,176924,1,0,0:0:0:0:
192,192,176999,1,0,0:0:0:0:
448,192,176999,1,0,0:0:0:0:
64,192,177074,1,0,0:0:0:0:
320,192,177074,1,0,0:0:0:0:
192,192,177149,1,0,0:0:0:0:
448,192,177149,1,0,0:0:0:0:
320,192,177224,1,0,0:0:0:0:
64,192,177299,1,0,0:0:0:0:
192,192,177299,1,0,0:0:0:0:
320,192,177374,1,0,0:0:0:0:
448,192,177374,1,0,0:0:0:0:
64,192,177449,1,0,0:0:0:0:
192,192,177449,1,0,0:0:0:0:
320,192,177524,1,0,0:0:0:0:
448,192,177524,1,0,0:0:0:0:
64,192,177599,1,0,0:0:0:0:
192,192,177599,1,0,0:0:0:0:
320,192,177674,1,0,0:0:0:0:
448,192,177674,1,0,0:0:0:0:
64,192,177749,1,0,0:0:0:0:
192,192,177749,1,0,0:0:0:0:
320,192,177824,1,0,0:0:0:0:
64,192,177899,1,0,0:0:0:0:
448,192,177899,1,0,0:0:0:0:
192,192,177974,1,0,0:0:0:0:
320,192,177974,1,0,0:0:0:0:
64,192,178049,1,0,0:0:0:0:
448,192,178049,1,0,0:0:0:0:
192,192,178124,1,0,0:0:0:0:
320,192,178124,1,0,0:0:0:0:
64,192,178199,1,0,0:0:0:0:
448,192,178199,1,0,0:0:0:0:
192,192,178274,1,0,0:0:0:0:
320,192,178274,1,0,0:0:0:0:
64,192,178349,1,0,0:0:0:0:
448,192,178349,1,0,0:0:0:0:
192,192,178424,1,0,0:0:0:0:
320,192,178499,1,0,0:0:0:0:
448,192,178499,1,0,0:0:0:0:
64,192,178574,1,0,0:0:0:0:
192,192,178574,1,0,0:0:0:0:
320,192,178649,1,0,0:0:0:0:
448,192,178649,1,0,0:0:0:0:
64,192,178699,1,0,0:0:0:0:
192,192,178699,1,0,0:0:0:0:
320,192,178749,1,0,0:0:0:0:
448,192,178749,1,0,0:0:0:0:
320,192,178849,1,0,0:0:0:0:
448,192,178849,1,0,0:0:0:0:
64,192,178949,1,0,0:0:0:0:
192,192,178949,1,0,0:0:0:0:
320,192,179049,1,0,0:0:0:0:
448,192,179049,1,0,0:0:0:0:
64,192,179149,1,0,0:0:0:0:
192,192,179149,1,0,0:0:0:0:
64,192,179249,1,0,0:0:0:0:
320,192,179249,1,0,0:0:0:0:
448,192,179249,1,0,0:0:0:0:
320,192,179324,1,0,0:0:0:0:
448,192,179324,1,0,0:0:0:0:
64,192,179399,1,0,0:0:0:0:
192,192,179399,1,0,0:0:0:0:
320,192,179474,1,0,0:0:0:0:
448,192,179474,1,0,0:0:0:0:
64,192,179549,1,0,0:0:0:0:
192,192,179549,1,0,0:0:0:0:
320,192,179624,1,0,0:0:0:0:
64,192,179699,1,0,0:0:0:0:
448,192,179699,1,0,0:0:0:0:
192,192,179774,1,0,0:0:0:0:
320,192,179774,1,0,0:0:0:0:
64,192,179849,1,0,0:0:0:0:
448,192,179849,1,0,0:0:0:0:
192,192,179924,1,0,0:0:0:0:
320,192,179924,1,0,0:0:0:0:
64,192,179999,1,0,0:0:0:0:
448,192,179999,1,0,0:0:0:0:
192,192,180074,1,0,0:0:0:0:
320,192,180074,1,0,0:0:0:0:
64,192,180149,1,0,0:0:0:0:
448,192,180149,1,0,0:0:0:0:
320,192,180224,1,0,0:0:0:0:
192,192,180299,1,0,0:0:0:0:
448,192,180299,1,0,0:0:0:0:
64,192,180374,1,0,0:0:0:0:
320,192,180374,1,0,0:0:0:0:
192,192,180449,1,0,0:0:0:0:
448,192,180449,1,0,0:0:0:0:
64,192,180524,1,0,0:0:0:0:
320,192,180524,1,0,0:0:0:0:
192,192,180599,1,0,0:0:0:0:
448,192,180599,1,0,0:0:0:0:
64,192,180674,1,0,0:0:0:0:
320,192,180674,1,0,0:0:0:0:
192,192,180749,1,0,0:0:0:0:
448,192,180749,1,0,0:0:0:0:
320,192,180824,1,0,0:0:0:0:
64,192,180899,1,0,0:0:0:0:
192,192,180899,1,0,0:0:0:0:
320,192,180974,1,0,0:0:0:0:
448,192,180974,1,0,0:0:0:0:
64,192,181049,1,0,0:0:0:0:
192,192,181049,1,0,0:0:0:0:
320,192,181124,1,0,0:0:0:0:
448,192,181124,1,0,0:0:0:0:
64,192,181199,1,0,0:0:0:0:
192,192,181199,1,0,0:0:0:0:
320,192,181274,1,0,0:0:0:0:
448,192,181274,1,0,0:0:0:0:
64,192,181349,1,0,0:0:0:0:
192,192,181349,1,0,0:0:0:0:
320,192,181424,1,0,0:0:0:0:
64,192,181499,1,0,0:0:0:0:
448,192,181499,1,0,0:0:0:0:
192,192,181574,1,0,0:0:0:0:
320,192,181574,1,0,0:0:0:0:
64,192,181649,1,0,0:0:0:0:
448,192,181649,1,0,0:0:0:0:
192,192,181724,1,0,0:0:0:0:
320,192,181724,1,0,0:0:0:0:
64,192,181799,1,0,0:0:0:0:
448,192,181799,1,0,0:0:0:0:
192,192,181874,1,0,0:0:0:0:
320,192,181874,1,0,0:0:0:0:
64,192,181949,1,0,0:0:0:0:
448,192,181949,1,0,0:0:0:0:
320,192,182024,1,0,0:0:0:0:
192,192,182099,1,0,0:0:0:0:
448,192,182099,1,0,0:0:0:0:
64,192,182174,1,0,0:0:0:0:
320,192,182174,1,0,0:0:0:0:
192,192,182249,1,0,0:0:0:0:
448,192,182249,1,0,0:0:0:0:
64,192,182324,1,0,0:0:0:0:
320,192,182324,1,0,0:0:0:0:
192,192,182399,1,0,0:0:0:0:
448,192,182399,1,0,0:0:0:0:
64,192,182474,1,0,0:0:0:0:
320,192,182474,1,0,0:0:0:0:
192,192,182549,1,0,0:0:0:0:
448,192,182549,1,0,0:0:0:0:
320,192,182624,1,0,0:0:0:0:
64,192,182699,1,0,0:0:0:0:
192,192,182699,1,0,0:0:0:0:
320,192,182774,1,0,0:0:0:0:
448,192,182774,1,0,0:0:0:0:
64,192,182849,1,0,0:0:0:0:
192,192,182849,1,0,0:0:0:0:
448,192,182924,1,0,0:0:0:0:
192,192,182999,1,0,0:0:0:0:
320,192,183074,1,0,0:0:0:0:
448,192,183074,1,0,0:0:0:0:
64,192,183149,1,0,0:0:0:0:
320,192,183224,1,0,0:0:0:0:
64,192,183299,1,0,0:0:0:0:
192,192,183317,1,0,0:0:0:0:
320,192,183336,1,0,0:0:0:0:
448,192,183355,1,0,0:0:0:0:
64,192,183374,1,0,0:0:0:0:
192,192,183392,1,0,0:0:0:0:
320,192,183411,1,0,0:0:0:0:
448,192,183430,1,0,0:0:0:0:
64,192,183449,1,0,0:0:0:0:
320,192,183524,1,0,0:0:0:0:
64,192,183599,1,0,0:0:0:0:
192,192,183599,1,0,0:0:0:0:
320,192,183674,1,0,0:0:0:0:
448,192,183674,1,0,0:0:0:0:
64,192,183749,1,0,0:0:0:0:
192,192,183749,1,0,0:0:0:0:
320,192,183824,1,0,0:0:0:0:
64,192,183899,1,0,0:0:0:0:
448,192,183899,1,0,0:0:0:0:
320,192,183917,1,0,0:0:0:0:
192,192,183936,1,0,0:0:0:0:
64,192,183955,1,0,0:0:0:0:
448,192,183974,1,0,0:0:0:0:
320,192,183992,1,0,0:0:0:0:
192,192,184011,1,0,0:0:0:0:
64,192,184030,1,0,0:0:0:0:
320,0,184049,128,0,184211:1:0:0:0:
448,0,184049,128,0,184211:1:0:0:0:
192,192,184211,1,0,0:0:0:0:
64,0,184211,128,0,184357:1:0:0:0:
192,192,184357,1,0,0:0:0:0:
320,192,184357,1,0,0:0:0:0:
448,192,184357,1,0,0:0:0:0:
64,192,184430,1,0,0:0:0:0:
320,192,184504,1,0,0:0:0:0:
448,192,184504,1,0,0:0:0:0:
64,192,184577,1,0,0:0:0:0:
192,192,184577,1,0,0:0:0:0:
320,0,184650,128,0,184796:1:0:0:0:
448,0,184650,128,0,184796:1:0:0:0:
64,192,184796,1,0,0:0:0:0:
192,0,184796,128,0,184943:1:0:0:0:
64,192,184943,1,0,0:0:0:0:
320,192,184943,1,0,0:0:0:0:
448,192,184943,1,0,0:0:0:0:
192,192,185016,1,0,0:0:0:0:
64,192,185089,1,0,0:0:0:0:
320,192,185089,1,0,0:0:0:0:
192,192,185162,1,0,0:0:0:0:
448,192,185162,1,0,0:0:0:0:
64,0,185235,128,0,185382:1:0:0:0:
320,0,185235,128,0,185382:1:0:0:0:
192,192,185382,1,0,0:0:0:0:
448,0,185382,128,0,185528:1:0:0:0:
64,192,185528,1,0,0:0:0:0:
192,192,185528,1,0,0:0:0:0:
320,192,185528,1,0,0:0:0:0:
448,192,185601,1,0,0:0:0:0:
64,192,185674,1,0,0:0:0:0:
320,192,185674,1,0,0:0:0:0:
192,192,185747,1,0,0:0:0:0:
448,192,185747,1,0,0:0:0:0:
64,0,185821,128,0,185967:1:0:0:0:
320,0,185821,128,0,185967:1:0:0:0:
448,192,185967,1,0,0:0:0:0:
192,0,185967,128,0,186113:1:0:0:0:
64,192,186113,1,0,0:0:0:0:
320,0,186113,128,0,186260:1:0:0:0:
448,0,186113,128,0,186260:1:0:0:0:
64,192,186260,1,0,0:0:0:0:
192,192,186260,1,0,0:0:0:0:
320,192,186333,1,0,0:0:0:0:
448,192,186333,1,0,0:0:0:0:
64,0,186406,128,0,186552:1:0:0:0:
192,0,186406,128,0,186552:1:0:0:0:
320,192,186552,1,0,0:0:0:0:
448,0,186552,128,0,186699:1:0:0:0:
64,192,186699,1,0,0:0:0:0:
192,192,186699,1,0,0:0:0:0:
320,192,186699,1,0,0:0:0:0:
448,192,186772,1,0,0:0:0:0:
192,192,186845,1,0,0:0:0:0:
320,192,186845,1,0,0:0:0:0:
64,192,186918,1,0,0:0:0:0:
448,192,186918,1,0,0:0:0:0:
192,0,186991,128,0,187138:1:0:0:0:
320,0,186991,128,0,187138:1:0:0:0:
448,192,187138,1,0,0:0:0:0:
64,0,187138,128,0,187284:1:0:0:0:
192,192,187284,1,0,0:0:0:0:
320,192,187284,1,0,0:0:0:0:
448,192,187284,1,0,0:0:0:0:
64,192,187357,1,0,0:0:0:0:
192,192,187430,1,0,0:0:0:0:
448,192,187430,1,0,0:0:0:0:
64,192,187504,1,0,0:0:0:0:
320,192,187504,1,0,0:0:0:0:
192,0,187577,128,0,187723:1:0:0:0:
448,0,187577,128,0,187723:1:0:0:0:
320,192,187723,1,0,0:0:0:0:
64,0,187723,128,0,187869:1:0:0:0:
192,192,187869,1,0,0:0:0:0:
320,192,187869,1,0,0:0:0:0:
448,192,187869,1,0,0:0:0:0:
64,192,187943,1,0,0:0:0:0:
320,192,188016,1,0,0:0:0:0:
448,192,188016,1,0,0:0:0:0:
64,192,188089,1,0,0:0:0:0:
192,192,188089,1,0,0:0:0:0:
320,192,188162,1,0,0:0:0:0:
448,192,188162,1,0,0:0:0:0:
64,192,188217,1,0,0:0:0:0:
192,192,188217,1,0,0:0:0:0:
320,192,188260,1,0,0:0:0:0:
448,192,188260,1,0,0:0:0:0:
64,192,188363,1,0,0:0:0:0:
192,192,188363,1,0,0:0:0:0:
320,192,188455,1,0,0:0:0:0:
448,192,188455,1,0,0:0:0:0:
64,192,188510,1,0,0:0:0:0:
192,192,188510,1,0,0:0:0:0:
320,192,188552,1,0,0:0:0:0:
448,192,188552,1,0,0:0:0:0:
64,192,188601,1,0,0:0:0:0:
192,192,188601,1,0,0:0:0:0:
320,192,188656,1,0,0:0:0:0:
448,192,188656,1,0,0:0:0:0:
64,192,188699,1,0,0:0:0:0:
192,192,188699,1,0,0:0:0:0:
320,0,188747,128,0,188913:1:0:0:0:
448,0,188747,128,0,188913:1:0:0:0:
192,192,188913,1,0,0:0:0:0:
64,0,188913,128,0,189056:1:0:0:0:
192,192,189056,1,0,0:0:0:0:
320,192,189056,1,0,0:0:0:0:
448,192,189056,1,0,0:0:0:0:
64,192,189127,1,0,0:0:0:0:
320,192,189199,1,0,0:0:0:0:
448,192,189199,1,0,0:0:0:0:
64,192,189270,1,0,0:0:0:0:
192,192,189270,1,0,0:0:0:0:
320,0,189342,128,0,189485:1:0:0:0:
448,0,189342,128,0,189485:1:0:0:0:
64,192,189485,1,0,0:0:0:0:
192,0,189485,128,0,189627:1:0:0:0:
64,192,189627,1,0,0:0:0:0:
320,192,189627,1,0,0:0:0:0:
448,192,189627,1,0,0:0:0:0:
192,192,189699,1,0,0:0:0:0:
64,192,189770,1,0,0:0:0:0:
320,192,189770,1,0,0:0:0:0:
192,192,189842,1,0,0:0:0:0:
448,192,189842,1,0,0:0:0:0:
64,0,189913,128,0,190056:1:0:0:0:
320,0,189913,128,0,190056:1:0:0:0:
192,192,190056,1,0,0:0:0:0:
448,0,190056,128,0,190199:1:0:0:0:
64,192,190199,1,0,0:0:0:0:
192,192,190199,1,0,0:0:0:0:
320,192,190199,1,0,0:0:0:0:
448,192,190270,1,0,0:0:0:0:
64,192,190342,1,0,0:0:0:0:
320,192,190342,1,0,0:0:0:0:
192,192,190413,1,0,0:0:0:0:
448,192,190413,1,0,0:0:0:0:
64,0,190485,128,0,190627:1:0:0:0:
320,0,190485,128,0,190627:1:0:0:0:
448,192,190627,1,0,0:0:0:0:
192,0,190627,128,0,190770:1:0:0:0:
64,192,190770,1,0,0:0:0:0:
320,0,190770,128,0,190913:1:0:0:0:
448,0,190770,128,0,190913:1:0:0:0:
64,192,190913,1,0,0:0:0:0:
192,192,190913,1,0,0:0:0:0:
320,192,190985,1,0,0:0:0:0:
448,192,190985,1,0,0:0:0:0:
64,192,191056,1,0,0:0:0:0:
192,0,191056,128,0,191157:1:0:0:0:
448,0,191056,128,0,191157:1:0:0:0:
192,0,191246,128,0,191342:1:0:0:0:
320,0,191246,128,0,191342:1:0:0:0:
64,0,191443,128,0,191532:1:0:0:0:
192,0,191443,128,0,191532:1:0:0:0:
64,192,191627,1,0,0:0:0:0:
320,0,191627,128,0,191729:1:0:0:0:
448,0,191627,128,0,191729:1:0:0:0:
192,192,191675,1,0,0:0:0:0:
64,192,191729,1,0,0:0:0:0:
320,192,191770,1,0,0:0:0:0:
64,0,191818,128,0,191913:1:0:0:0:
192,0,191818,128,0,191913:1:0:0:0:
448,192,191913,1,0,0:0:0:0:
64,192,192014,1,0,0:0:0:0:
192,0,192014,128,0,192104:1:0:0:0:
320,0,192014,128,0,192104:1:0:0:0:
448,192,192104,1,0,0:0:0:0:
64,192,192199,1,0,0:0:0:0:
192,192,192246,1,0,0:0:0:0:
320,192,192300,1,0,0:0:0:0:
448,192,192342,1,0,0:0:0:0:
320,192,192389,1,0,0:0:0:0:
192,192,192413,1,0,0:0:0:0:
64,192,192461,1,0,0:0:0:0:
448,192,192485,1,0,0:0:0:0:
320,192,192532,1,0,0:0:0:0:
192,192,192586,1,0,0:0:0:0:
64,192,192627,1,0,0:0:0:0:
192,192,192675,1,0,0:0:0:0:
320,192,192699,1,0,0:0:0:0:
448,192,192746,1,0,0:0:0:0:
64,192,192770,1,0,0:0:0:0:
192,192,192818,1,0,0:0:0:0:
320,192,192871,1,0,0:0:0:0:
448,192,192913,1,0,0:0:0:0:
320,192,192961,1,0,0:0:0:0:
192,192,192985,1,0,0:0:0:0:
64,192,193032,1,0,0:0:0:0:
448,192,193056,1,0,0:0:0:0:
320,192,193127,1,0,0:0:0:0:
64,192,193199,1,0,0:0:0:0:
192,192,193246,1,0,0:0:0:0:
320,192,193270,1,0,0:0:0:0:
448,192,193318,1,0,0:0:0:0:
320,192,193342,1,0,0:0:0:0:
64,0,193342,128,0,193485:1:0:0:0:
192,0,193342,128,0,193485:1:0:0:0:
64,192,193628,1,0,0:0:0:0:
320,192,193628,1,0,0:0:0:0:
448,192,193628,1,0,0:0:0:0:
192,192,193744,1,0,0:0:0:0:
320,192,193814,1,0,0:0:0:0:
448,192,193814,1,0,0:0:0:0:
64,192,193884,1,0,0:0:0:0:
320,192,193953,1,0,0:0:0:0:
448,192,193953,1,0,0:0:0:0:
64,192,194023,1,0,0:0:0:0:
192,192,194023,1,0,0:0:0:0:
320,192,194093,1,0,0:0:0:0:
448,192,194093,1,0,0:0:0:0:
64,192,194163,1,0,0:0:0:0:
192,192,194163,1,0,0:0:0:0:
320,192,194232,1,0,0:0:0:0:
448,192,194232,1,0,0:0:0:0:
64,192,194302,1,0,0:0:0:0:
192,192,194302,1,0,0:0:0:0:
320,192,194372,1,0,0:0:0:0:
448,192,194372,1,0,0:0:0:0:
192,192,194442,1,0,0:0:0:0:
64,192,194511,1,0,0:0:0:0:
448,192,194511,1,0,0:0:0:0:
192,192,194581,1,0,0:0:0:0:
320,192,194581,1,0,0:0:0:0:
64,192,194651,1,0,0:0:0:0:
448,192,194651,1,0,0:0:0:0:
192,192,194721,1,0,0:0:0:0:
320,192,194721,1,0,0:0:0:0:
64,192,194791,1,0,0:0:0:0:
448,192,194791,1,0,0:0:0:0:
192,192,194860,1,0,0:0:0:0:
320,192,194860,1,0,0:0:0:0:
64,192,194930,1,0,0:0:0:0:
448,192,194930,1,0,0:0:0:0:
192,192,195000,1,0,0:0:0:0:
320,192,195070,1,0,0:0:0:0:
448,192,195070,1,0,0:0:0:0:
64,192,195139,1,0,0:0:0:0:
192,192,195139,1,0,0:0:0:0:
320,192,195209,1,0,0:0:0:0:
448,192,195209,1,0,0:0:0:0:
64,192,195279,1,0,0:0:0:0:
192,192,195279,1,0,0:0:0:0:
320,192,195349,1,0,0:0:0:0:
448,192,195349,1,0,0:0:0:0:
64,192,195418,1,0,0:0:0:0:
192,192,195418,1,0,0:0:0:0:
320,192,195488,1,0,0:0:0:0:
448,192,195488,1,0,0:0:0:0:
192,192,195558,1,0,0:0:0:0:
64,192,195628,1,0,0:0:0:0:
448,192,195628,1,0,0:0:0:0:
192,192,195698,1,0,0:0:0:0:
320,192,195698,1,0,0:0:0:0:
64,192,195767,1,0,0:0:0:0:
448,192,195767,1,0,0:0:0:0:
192,192,195837,1,0,0:0:0:0:
320,192,195837,1,0,0:0:0:0:
64,192,195907,1,0,0:0:0:0:
448,192,195907,1,0,0:0:0:0:
192,192,195977,1,0,0:0:0:0:
320,192,195977,1,0,0:0:0:0:
64,192,196046,1,0,0:0:0:0:
448,192,196046,1,0,0:0:0:0:
192,192,196116,1,0,0:0:0:0:
64,192,196186,1,0,0:0:0:0:
320,192,196186,1,0,0:0:0:0:
192,192,196256,1,0,0:0:0:0:
448,192,196256,1,0,0:0:0:0:
64,192,196325,1,0,0:0:0:0:
320,192,196325,1,0,0:0:0:0:
192,192,196395,1,0,0:0:0:0:
448,192,196395,1,0,0:0:0:0:
64,192,196465,1,0,0:0:0:0:
320,192,196465,1,0,0:0:0:0:
192,192,196535,1,0,0:0:0:0:
448,192,196535,1,0,0:0:0:0:
64,192,196605,1,0,0:0:0:0:
320,192,196605,1,0,0:0:0:0:
448,192,196674,1,0,0:0:0:0:
192,192,196744,1,0,0:0:0:0:
320,192,196744,1,0,0:0:0:0:
64,192,196814,1,0,0:0:0:0:
448,192,196814,1,0,0:0:0:0:
192,192,196884,1,0,0:0:0:0:
320,192,196884,1,0,0:0:0:0:
64,192,196953,1,0,0:0:0:0:
448,192,196953,1,0,0:0:0:0:
192,192,197023,1,0,0:0:0:0:
320,192,197023,1,0,0:0:0:0:
64,192,197093,1,0,0:0:0:0:
448,192,197093,1,0,0:0:0:0:
192,192,197163,1,0,0:0:0:0:
320,192,197163,1,0,0:0:0:0:
64,192,197232,1,0,0:0:0:0:
320,192,197302,1,0,0:0:0:0:
448,192,197302,1,0,0:0:0:0:
64,192,197337,1,0,0:0:0:0:
192,192,197337,1,0,0:0:0:0:
320,192,197389,1,0,0:0:0:0:
448,192,197389,1,0,0:0:0:0:
320,192,197477,1,0,0:0:0:0:
448,192,197477,1,0,0:0:0:0:
64,192,197581,1,0,0:0:0:0:
192,192,197581,1,0,0:0:0:0:
320,192,197668,1,0,0:0:0:0:
448,192,197668,1,0,0:0:0:0:
64,192,197756,1,0,0:0:0:0:
192,192,197756,1,0,0:0:0:0:
64,192,197860,1,0,0:0:0:0:
320,192,197860,1,0,0:0:0:0:
448,192,197860,1,0,0:0:0:0:
192,192,197930,1,0,0:0:0:0:
64,192,198000,1,0,0:0:0:0:
320,192,198000,1,0,0:0:0:0:
192,192,198070,1,0,0:0:0:0:
448,192,198070,1,0,0:0:0:0:
64,192,198139,1,0,0:0:0:0:
320,192,198139,1,0,0:0:0:0:
192,192,198209,1,0,0:0:0:0:
448,192,198209,1,0,0:0:0:0:
64,192,198279,1,0,0:0:0:0:
320,192,198279,1,0,0:0:0:0:
192,192,198349,1,0,0:0:0:0:
320,192,198418,1,0,0:0:0:0:
448,192,198418,1,0,0:0:0:0:
64,192,198488,1,0,0:0:0:0:
192,192,198488,1,0,0:0:0:0:
320,192,198558,1,0,0:0:0:0:
448,192,198558,1,0,0:0:0:0:
64,192,198628,1,0,0:0:0:0:
192,192,198628,1,0,0:0:0:0:
320,192,198698,1,0,0:0:0:0:
448,192,198698,1,0,0:0:0:0:
64,192,198767,1,0,0:0:0:0:
192,192,198767,1,0,0:0:0:0:
320,192,198837,1,0,0:0:0:0:
448,192,198837,1,0,0:0:0:0:
192,192,198907,1,0,0:0:0:0:
64,192,198977,1,0,0:0:0:0:
448,192,198977,1,0,0:0:0:0:
192,192,199046,1,0,0:0:0:0:
320,192,199046,1,0,0:0:0:0:
64,192,199116,1,0,0:0:0:0:
448,192,199116,1,0,0:0:0:0:
192,192,199186,1,0,0:0:0:0:
320,192,199186,1,0,0:0:0:0:
64,192,199256,1,0,0:0:0:0:
448,192,199256,1,0,0:0:0:0:
192,192,199325,1,0,0:0:0:0:
320,192,199325,1,0,0:0:0:0:
64,192,199395,1,0,0:0:0:0:
448,192,199395,1,0,0:0:0:0:
320,192,199465,1,0,0:0:0:0:
64,192,199535,1,0,0:0:0:0:
192,192,199535,1,0,0:0:0:0:
320,192,199605,1,0,0:0:0:0:
448,192,199605,1,0,0:0:0:0:
64,192,199674,1,0,0:0:0:0:
192,192,199674,1,0,0:0:0:0:
320,192,199744,1,0,0:0:0:0:
448,192,199744,1,0,0:0:0:0:
64,192,199814,1,0,0:0:0:0:
192,192,199814,1,0,0:0:0:0:
320,192,199884,1,0,0:0:0:0:
448,192,199884,1,0,0:0:0:0:
64,192,199953,1,0,0:0:0:0:
192,192,199953,1,0,0:0:0:0:
320,192,200023,1,0,0:0:0:0:
192,192,200093,1,0,0:0:0:0:
64,0,200093,128,0,200180:1:0:0:0:
448,0,200093,128,0,200180:1:0:0:0:
64,0,200267,128,0,200372:1:0:0:0:
448,0,200267,128,0,200372:1:0:0:0:
64,0,200459,128,0,200546:1:0:0:0:
448,0,200459,128,0,200546:1:0:0:0:
320,192,200651,1,0,0:0:0:0:
64,0,200651,128,0,200738:1:0:0:0:
448,0,200651,128,0,200738:1:0:0:0:
192,192,200686,1,0,0:0:0:0:
320,192,200738,1,0,0:0:0:0:
64,0,200825,128,0,200930:1:0:0:0:
192,0,200825,128,0,200930:1:0:0:0:
320,192,200930,1,0,0:0:0:0:
448,192,200930,1,0,0:0:0:0:
320,0,201017,128,0,201105:1:0:0:0:
448,0,201017,128,0,201105:1:0:0:0:
64,192,201105,1,0,0:0:0:0:
192,192,201105,1,0,0:0:0:0:
64,192,201209,1,0,0:0:0:0:
320,0,201209,128,0,201296:1:0:0:0:
448,0,201209,128,0,201296:1:0:0:0:
192,192,201244,1,0,0:0:0:0:
64,192,201296,1,0,0:0:0:0:
64,0,201384,128,0,201488:1:0:0:0:
192,0,201384,128,0,201488:1:0:0:0:
320,192,201488,1,0,0:0:0:0:
448,192,201488,1,0,0:0:0:0:
192,0,201575,128,0,201663:1:0:0:0:
448,0,201575,128,0,201663:1:0:0:0:
64,192,201663,1,0,0:0:0:0:
320,192,201663,1,0,0:0:0:0:
448,192,201767,1,0,0:0:0:0:
64,0,201767,128,0,202186:1:0:0:0:
192,0,201767,128,0,202186:1:0:0:0:
64,192,202324,1,0,0:0:0:0:
320,192,202324,1,0,0:0:0:0:
448,192,202324,1,0,0:0:0:0:
64,192,202596,1,0,0:0:0:0:
192,192,202596,1,0,0:0:0:0:
192,192,202733,1,0,0:0:0:0:
320,192,202733,1,0,0:0:0:0:
448,192,202733,1,0,0:0:0:0:
64,192,202869,1,0,0:0:0:0:
320,192,202869,1,0,0:0:0:0:
64,192,203005,1,0,0:0:0:0:
192,192,203005,1,0,0:0:0:0:
448,192,203005,1,0,0:0:0:0:
192,192,203142,1,0,0:0:0:0:
320,192,203142,1,0,0:0:0:0:
64,192,203278,1,0,0:0:0:0:
320,192,203278,1,0,0:0:0:0:
448,192,203278,1,0,0:0:0:0:
64,192,203415,1,0,0:0:0:0:
192,192,203415,1,0,0:0:0:0:
192,192,203551,1,0,0:0:0:0:
320,192,203551,1,0,0:0:0:0:
448,192,203551,1,0,0:0:0:0:
64,192,203687,1,0,0:0:0:0:
320,192,203687,1,0,0:0:0:0:
64,192,203824,1,0,0:0:0:0:
192,192,203824,1,0,0:0:0:0:
448,192,203824,1,0,0:0:0:0:
192,192,203960,1,0,0:0:0:0:
320,192,203960,1,0,0:0:0:0:
192,192,204096,1,0,0:0:0:0:
320,192,204096,1,0,0:0:0:0:
448,192,204096,1,0,0:0:0:0:
64,192,204233,1,0,0:0:0:0:
192,192,204233,1,0,0:0:0:0:
64,192,204369,1,0,0:0:0:0:
320,192,204369,1,0,0:0:0:0:
448,192,204369,1,0,0:0:0:0:
192,192,204505,1,0,0:0:0:0:
320,192,204505,1,0,0:0:0:0:
64,192,204642,1,0,0:0:0:0:
320,192,204642,1,0,0:0:0:0:
448,192,204642,1,0,0:0:0:0:
64,192,204778,1,0,0:0:0:0:
192,192,204778,1,0,0:0:0:0:
64,192,204915,1,0,0:0:0:0:
320,192,204915,1,0,0:0:0:0:
448,192,204915,1,0,0:0:0:0:
192,192,205051,1,0,0:0:0:0:
320,192,205051,1,0,0:0:0:0:
192,192,205187,1,0,0:0:0:0:
320,192,205187,1,0,0:0:0:0:
448,192,205187,1,0,0:0:0:0:
64,192,205324,1,0,0:0:0:0:
448,192,205324,1,0,0:0:0:0:
64,192,205460,1,0,0:0:0:0:
192,192,205460,1,0,0:0:0:0:
320,192,205460,1,0,0:0:0:0:
320,192,205596,1,0,0:0:0:0:
448,192,205596,1,0,0:0:0:0:
64,192,205733,1,0,0:0:0:0:
192,192,205733,1,0,0:0:0:0:
448,192,205733,1,0,0:0:0:0:
192,192,205869,1,0,0:0:0:0:
320,192,205869,1,0,0:0:0:0:
64,192,206005,1,0,0:0:0:0:
320,192,206005,1,0,0:0:0:0:
448,192,206005,1,0,0:0:0:0:
64,192,206142,1,0,0:0:0:0:
192,192,206142,1,0,0:0:0:0:
320,192,206278,1,0,0:0:0:0:
448,192,206278,1,0,0:0:0:0:
64,192,206324,1,0,0:0:0:0:
192,192,206324,1,0,0:0:0:0:
320,192,206369,1,0,0:0:0:0:
448,192,206369,1,0,0:0:0:0:
320,192,206460,1,0,0:0:0:0:
448,192,206460,1,0,0:0:0:0:
64,192,206551,1,0,0:0:0:0:
192,192,206551,1,0,0:0:0:0:
320,192,206642,1,0,0:0:0:0:
448,192,206642,1,0,0:0:0:0:
64,192,206726,1,0,0:0:0:0:
192,192,206726,1,0,0:0:0:0:
64,192,206815,1,0,0:0:0:0:
320,192,206815,1,0,0:0:0:0:
448,192,206815,1,0,0:0:0:0:
64,192,207011,1,0,0:0:0:0:
192,192,207011,1,0,0:0:0:0:
192,192,207154,1,0,0:0:0:0:
320,192,207154,1,0,0:0:0:0:
448,192,207154,1,0,0:0:0:0:
64,192,207297,1,0,0:0:0:0:
320,192,207297,1,0,0:0:0:0:
64,192,207440,1,0,0:0:0:0:
192,192,207440,1,0,0:0:0:0:
448,192,207440,1,0,0:0:0:0:
192,192,207583,1,0,0:0:0:0:
320,192,207583,1,0,0:0:0:0:
192,192,207726,1,0,0:0:0:0:
320,192,207726,1,0,0:0:0:0:
448,192,207726,1,0,0:0:0:0:
64,192,207867,1,0,0:0:0:0:
448,192,207867,1,0,0:0:0:0:
64,192,208018,1,0,0:0:0:0:
192,192,208018,1,0,0:0:0:0:
320,192,208018,1,0,0:0:0:0:
320,192,208314,1,0,0:0:0:0:
448,192,208314,1,0,0:0:0:0:
64,192,208472,1,0,0:0:0:0:
192,192,208472,1,0,0:0:0:0:
448,192,208472,1,0,0:0:0:0:
192,192,208630,1,0,0:0:0:0:
320,192,208630,1,0,0:0:0:0:
64,192,208788,1,0,0:0:0:0:
320,192,208788,1,0,0:0:0:0:
448,192,208788,1,0,0:0:0:0:
64,192,208946,1,0,0:0:0:0:
192,192,208946,1,0,0:0:0:0:
192,192,209110,1,0,0:0:0:0:
320,192,209110,1,0,0:0:0:0:
448,192,209110,1,0,0:0:0:0:
64,192,209260,1,0,0:0:0:0:
320,192,209260,1,0,0:0:0:0:
192,192,209410,1,0,0:0:0:0:
64,0,209410,128,0,209582:1:0:0:0:
448,0,209410,128,0,209582:1:0:0:0:
64,0,209689,128,0,209804:1:0:0:0:
448,0,209689,128,0,209804:1:0:0:0:
64,0,209921,128,0,210039:1:0:0:0:
448,0,209921,128,0,210039:1:0:0:0:
320,192,210156,1,0,0:0:0:0:
64,0,210156,128,0,210336:1:0:0:0:
448,0,210156,128,0,210336:1:0:0:0:
192,192,210273,1,0,0:0:0:0:
320,192,210336,1,0,0:0:0:0:
64,0,210461,128,0,210586:1:0:0:0:
192,0,210461,128,0,210586:1:0:0:0:
320,192,210586,1,0,0:0:0:0:
448,192,210586,1,0,0:0:0:0:
320,0,210711,128,0,210836:1:0:0:0:
448,0,210711,128,0,210836:1:0:0:0:
64,192,210836,1,0,0:0:0:0:
192,192,210836,1,0,0:0:0:0:
64,192,210961,1,0,0:0:0:0:
320,0,210961,128,0,211127:1:0:0:0:
448,0,210961,128,0,211127:1:0:0:0:
192,192,211061,1,0,0:0:0:0:
64,192,211127,1,0,0:0:0:0:
64,0,211261,128,0,211394:1:0:0:0:
192,0,211261,128,0,211394:1:0:0:0:
320,192,211394,1,0,0:0:0:0:
448,192,211394,1,0,0:0:0:0:
192,0,211527,128,0,211661:1:0:0:0:
448,0,211527,128,0,211661:1:0:0:0:
64,192,211661,1,0,0:0:0:0:
320,192,211661,1,0,0:0:0:0:
448,192,211794,1,0,0:0:0:0:
64,0,211794,128,0,215394:1:0:0:0:
192,0,211794,128,0,215394:1:0:0:0:
320,192,211994,1,0,0:0:0:0:
448,0,212094,128,0,215394:1:0:0:0:
