osu file format v14

[General]
AudioFilename: Hibikase.mp3
AudioLeadIn: 2
PreviewTime: 60220
Countdown: 0
SampleSet: Soft
StackLeniency: 0.7
Mode: 3
LetterboxInBreaks: 0
SpecialStyle: 0
WidescreenStoryboard: 0

[Editor]
DistanceSpacing: 0.8
BeatDivisor: 4
GridSize: 8
TimelineZoom: 1

[Metadata]
Title:dakemoto's Collection Pack Vol.1
TitleUnicode:dakemoto's Collection Pack Vol.1
Artist:Various Artist
ArtistUnicode:Various Artist
Creator:dakemoto
Version:Hibikase (Hard)
Source:Stepmania
Tags:
BeatmapID:741046
BeatmapSetID:329410

[Difficulty]
HPDrainRate:7
CircleSize:4
OverallDifficulty:8
ApproachRate:10
SliderMultiplier:1.4
SliderTickRate:1

[Events]
//Background and Video events
0,0,"Hibikase bg.jpg",0,0
//Break Periods
//Storyboard Layer 0 (Background)
//Storyboard Layer 1 (Fail)
//Storyboard Layer 2 (Pass)
//Storyboard Layer 3 (Foreground)
//Storyboard Sound Samples

[TimingPoints]
5188,428.5714,4,2,0,15,1,0

[HitObjects]
448,192,5188,5,0,0:0:0:0:
448,192,5830,1,0,0:0:0:0:
448,192,6045,1,0,0:0:0:0:
448,192,6687,1,0,0:0:0:0:
448,192,7116,1,0,0:0:0:0:
448,192,7545,1,0,0:0:0:0:
448,192,7759,1,0,0:0:0:0:
448,192,8616,1,0,0:0:0:0:
448,192,9259,1,0,0:0:0:0:
448,192,9473,1,0,0:0:0:0:
448,192,10116,1,0,0:0:0:0:
448,192,10545,1,0,0:0:0:0:
448,192,10973,1,0,0:0:0:0:
448,192,11187,1,0,0:0:0:0:
64,192,11616,1,0,0:0:0:0:
192,192,11616,1,0,0:0:0:0:
448,192,12045,1,0,0:0:0:0:
64,192,12259,1,0,0:0:0:0:
320,192,12473,1,0,0:0:0:0:
192,192,12687,1,0,0:0:0:0:
448,192,12687,1,0,0:0:0:0:
448,192,12902,1,0,0:0:0:0:
64,192,13116,1,0,0:0:0:0:
320,192,13330,1,0,0:0:0:0:
192,192,13545,1,0,0:0:0:0:
448,192,13545,1,0,0:0:0:0:
320,192,13759,1,0,0:0:0:0:
64,192,13973,1,0,0:0:0:0:
448,192,13973,1,0,0:0:0:0:
320,192,14187,1,0,0:0:0:0:
192,192,14402,1,0,0:0:0:0:
448,192,14402,1,0,0:0:0:0:
448,192,14616,1,0,0:0:0:0:
64,192,14830,1,0,0:0:0:0:
320,192,15045,1,0,0:0:0:0:
192,192,15259,1,0,0:0:0:0:
448,192,15473,1,0,0:0:0:0:
192,192,15687,1,0,0:0:0:0:
320,192,15902,1,0,0:0:0:0:
64,192,16116,1,0,0:0:0:0:
448,192,16116,1,0,0:0:0:0:
448,192,16330,1,0,0:0:0:0:
192,192,16545,1,0,0:0:0:0:
320,192,16759,1,0,0:0:0:0:
64,192,16973,1,0,0:0:0:0:
448,192,16973,1,0,0:0:0:0:
320,0,17402,128,0,17509:1:0:0:0:
320,0,17830,128,0,17884:1:0:0:0:
64,0,18045,128,0,18366:1:0:0:0:
448,192,18473,1,0,0:0:0:0:
320,0,18473,128,0,18795:1:0:0:0:
192,192,18902,1,0,0:0:0:0:
448,192,18902,1,0,0:0:0:0:
64,0,18902,128,0,19223:1:0:0:0:
320,192,19116,1,0,0:0:0:0:
64,192,19330,1,0,0:0:0:0:
192,192,19330,1,0,0:0:0:0:
320,192,19545,1,0,0:0:0:0:
448,192,19545,1,0,0:0:0:0:
64,192,19759,1,0,0:0:0:0:
192,192,19759,1,0,0:0:0:0:
448,192,19866,1,0,0:0:0:0:
192,192,19973,1,0,0:0:0:0:
320,192,20080,1,0,0:0:0:0:
192,192,20134,1,0,0:0:0:0:
64,192,20187,1,0,0:0:0:0:
448,192,20187,1,0,0:0:0:0:
192,192,20402,1,0,0:0:0:0:
192,192,20509,1,0,0:0:0:0:
320,192,20616,1,0,0:0:0:0:
448,192,20616,1,0,0:0:0:0:
64,192,20759,1,0,0:0:0:0:
192,192,20830,1,0,0:0:0:0:
320,192,20902,1,0,0:0:0:0:
448,192,20973,1,0,0:0:0:0:
64,192,21045,1,0,0:0:0:0:
320,192,21045,1,0,0:0:0:0:
192,192,21152,1,0,0:0:0:0:
448,192,21259,1,0,0:0:0:0:
448,192,21366,1,0,0:0:0:0:
64,192,21473,1,0,0:0:0:0:
192,192,21473,1,0,0:0:0:0:
192,192,21687,1,0,0:0:0:0:
448,192,21795,1,0,0:0:0:0:
64,192,21902,1,0,0:0:0:0:
320,192,21902,1,0,0:0:0:0:
448,192,22116,1,0,0:0:0:0:
64,0,22116,128,0,22223:1:0:0:0:
192,192,22330,1,0,0:0:0:0:
320,192,22330,1,0,0:0:0:0:
448,192,22545,1,0,0:0:0:0:
64,192,22759,1,0,0:0:0:0:
320,192,22759,1,0,0:0:0:0:
192,192,22973,1,0,0:0:0:0:
448,192,22973,1,0,0:0:0:0:
64,192,23187,1,0,0:0:0:0:
320,192,23187,1,0,0:0:0:0:
64,192,23402,1,0,0:0:0:0:
192,192,23509,1,0,0:0:0:0:
64,192,23562,1,0,0:0:0:0:
320,192,23616,1,0,0:0:0:0:
448,192,23616,1,0,0:0:0:0:
64,192,23723,1,0,0:0:0:0:
320,192,23830,1,0,0:0:0:0:
192,192,23937,1,0,0:0:0:0:
64,192,24045,1,0,0:0:0:0:
448,0,24045,128,0,24366:1:0:0:0:
320,192,24473,1,0,0:0:0:0:
64,0,24473,128,0,24795:1:0:0:0:
192,192,24902,1,0,0:0:0:0:
192,192,25009,1,0,0:0:0:0:
448,192,25116,1,0,0:0:0:0:
64,192,25223,1,0,0:0:0:0:
192,192,25330,1,0,0:0:0:0:
448,0,25330,128,0,25545:1:0:0:0:
320,192,25545,1,0,0:0:0:0:
64,192,25759,1,0,0:0:0:0:
192,192,25759,1,0,0:0:0:0:
448,192,25973,1,0,0:0:0:0:
64,192,26187,1,0,0:0:0:0:
320,192,26187,1,0,0:0:0:0:
192,192,26402,1,0,0:0:0:0:
448,192,26402,1,0,0:0:0:0:
64,192,26616,1,0,0:0:0:0:
192,192,26616,1,0,0:0:0:0:
320,192,26723,1,0,0:0:0:0:
192,192,26830,1,0,0:0:0:0:
448,192,26937,1,0,0:0:0:0:
320,192,26991,1,0,0:0:0:0:
64,192,27045,1,0,0:0:0:0:
192,192,27045,1,0,0:0:0:0:
320,192,27259,1,0,0:0:0:0:
448,0,27259,128,0,27366:1:0:0:0:
192,192,27473,1,0,0:0:0:0:
320,192,27473,1,0,0:0:0:0:
64,192,27616,1,0,0:0:0:0:
192,192,27687,1,0,0:0:0:0:
320,192,27759,1,0,0:0:0:0:
448,192,27830,1,0,0:0:0:0:
64,192,27902,1,0,0:0:0:0:
320,192,27902,1,0,0:0:0:0:
192,192,28009,1,0,0:0:0:0:
320,192,28116,1,0,0:0:0:0:
192,192,28223,1,0,0:0:0:0:
64,192,28330,1,0,0:0:0:0:
448,192,28330,1,0,0:0:0:0:
64,192,28545,1,0,0:0:0:0:
320,192,28759,1,0,0:0:0:0:
448,192,28759,1,0,0:0:0:0:
192,192,28973,1,0,0:0:0:0:
320,192,29080,1,0,0:0:0:0:
192,192,29187,1,0,0:0:0:0:
64,0,29187,128,0,29402:1:0:0:0:
448,192,29402,1,0,0:0:0:0:
192,192,29509,1,0,0:0:0:0:
64,192,29616,1,0,0:0:0:0:
320,192,29616,1,0,0:0:0:0:
64,192,29830,1,0,0:0:0:0:
448,192,29937,1,0,0:0:0:0:
192,192,30045,1,0,0:0:0:0:
320,192,30045,1,0,0:0:0:0:
64,192,30152,1,0,0:0:0:0:
192,192,30205,1,0,0:0:0:0:
320,192,30259,1,0,0:0:0:0:
448,192,30312,1,0,0:0:0:0:
192,192,30366,1,0,0:0:0:0:
320,192,30420,1,0,0:0:0:0:
64,192,30473,1,0,0:0:0:0:
448,192,30473,1,0,0:0:0:0:
320,192,30580,1,0,0:0:0:0:
192,192,30634,1,0,0:0:0:0:
448,192,30687,1,0,0:0:0:0:
320,192,30741,1,0,0:0:0:0:
192,192,30795,1,0,0:0:0:0:
64,192,30848,1,0,0:0:0:0:
320,192,30902,1,0,0:0:0:0:
448,192,30902,1,0,0:0:0:0:
192,192,31116,1,0,0:0:0:0:
448,192,31116,1,0,0:0:0:0:
320,192,31223,1,0,0:0:0:0:
64,192,31330,1,0,0:0:0:0:
448,192,31330,1,0,0:0:0:0:
64,192,31545,1,0,0:0:0:0:
448,192,31545,1,0,0:0:0:0:
192,192,31759,1,0,0:0:0:0:
320,192,31759,1,0,0:0:0:0:
64,192,31973,1,0,0:0:0:0:
448,192,31973,1,0,0:0:0:0:
320,192,32080,1,0,0:0:0:0:
192,0,32080,128,0,32134:1:0:0:0:
192,0,32402,128,0,32562:1:0:0:0:
64,192,32616,1,0,0:0:0:0:
320,192,32616,1,0,0:0:0:0:
448,192,32616,1,0,0:0:0:0:
64,192,32830,1,0,0:0:0:0:
192,192,32830,1,0,0:0:0:0:
192,192,32937,1,0,0:0:0:0:
64,192,33045,1,0,0:0:0:0:
320,192,33045,1,0,0:0:0:0:
448,192,33045,1,0,0:0:0:0:
192,192,33259,1,0,0:0:0:0:
448,192,33259,1,0,0:0:0:0:
320,192,33473,1,0,0:0:0:0:
448,192,33473,1,0,0:0:0:0:
320,192,33580,1,0,0:0:0:0:
448,192,33580,1,0,0:0:0:0:
64,192,33687,1,0,0:0:0:0:
192,192,33795,1,0,0:0:0:0:
448,192,33795,1,0,0:0:0:0:
64,192,33902,1,0,0:0:0:0:
320,192,33902,1,0,0:0:0:0:
192,192,34116,1,0,0:0:0:0:
448,192,34116,1,0,0:0:0:0:
320,192,34223,1,0,0:0:0:0:
64,192,34330,1,0,0:0:0:0:
448,192,34330,1,0,0:0:0:0:
192,192,34545,1,0,0:0:0:0:
320,192,34545,1,0,0:0:0:0:
320,192,34652,1,0,0:0:0:0:
64,192,34759,1,0,0:0:0:0:
192,192,34759,1,0,0:0:0:0:
448,192,34759,1,0,0:0:0:0:
192,192,34973,1,0,0:0:0:0:
320,192,34973,1,0,0:0:0:0:
192,192,35187,1,0,0:0:0:0:
448,192,35187,1,0,0:0:0:0:
192,192,35295,1,0,0:0:0:0:
448,192,35295,1,0,0:0:0:0:
320,192,35402,1,0,0:0:0:0:
64,192,35509,1,0,0:0:0:0:
448,192,35509,1,0,0:0:0:0:
192,192,35616,1,0,0:0:0:0:
320,192,35616,1,0,0:0:0:0:
64,192,35830,1,0,0:0:0:0:
192,192,35830,1,0,0:0:0:0:
320,192,35937,1,0,0:0:0:0:
64,192,36045,1,0,0:0:0:0:
448,192,36045,1,0,0:0:0:0:
192,192,36259,1,0,0:0:0:0:
448,192,36259,1,0,0:0:0:0:
192,192,36366,1,0,0:0:0:0:
64,192,36473,1,0,0:0:0:0:
320,192,36473,1,0,0:0:0:0:
448,192,36473,1,0,0:0:0:0:
192,192,36687,1,0,0:0:0:0:
320,192,36687,1,0,0:0:0:0:
64,192,36902,1,0,0:0:0:0:
448,192,36902,1,0,0:0:0:0:
64,192,37009,1,0,0:0:0:0:
448,192,37009,1,0,0:0:0:0:
192,192,37116,1,0,0:0:0:0:
320,192,37223,1,0,0:0:0:0:
448,192,37223,1,0,0:0:0:0:
64,192,37330,1,0,0:0:0:0:
192,192,37330,1,0,0:0:0:0:
64,192,37545,1,0,0:0:0:0:
448,192,37545,1,0,0:0:0:0:
192,192,37652,1,0,0:0:0:0:
320,192,37759,1,0,0:0:0:0:
448,192,37759,1,0,0:0:0:0:
192,192,37973,1,0,0:0:0:0:
448,192,37973,1,0,0:0:0:0:
448,192,38080,1,0,0:0:0:0:
64,192,38187,1,0,0:0:0:0:
192,192,38187,1,0,0:0:0:0:
320,192,38187,1,0,0:0:0:0:
192,192,38402,1,0,0:0:0:0:
448,192,38402,1,0,0:0:0:0:
320,192,38616,1,0,0:0:0:0:
448,192,38616,1,0,0:0:0:0:
320,192,38723,1,0,0:0:0:0:
448,192,38723,1,0,0:0:0:0:
64,192,38830,1,0,0:0:0:0:
320,192,38937,1,0,0:0:0:0:
448,192,38937,1,0,0:0:0:0:
64,192,39045,1,0,0:0:0:0:
192,192,39045,1,0,0:0:0:0:
192,192,39259,1,0,0:0:0:0:
320,192,39259,1,0,0:0:0:0:
448,192,39366,1,0,0:0:0:0:
64,192,39473,1,0,0:0:0:0:
320,192,39473,1,0,0:0:0:0:
192,192,39687,1,0,0:0:0:0:
448,192,39687,1,0,0:0:0:0:
192,192,39795,1,0,0:0:0:0:
64,192,39902,1,0,0:0:0:0:
320,192,39902,1,0,0:0:0:0:
448,192,39902,1,0,0:0:0:0:
64,192,40116,1,0,0:0:0:0:
192,192,40116,1,0,0:0:0:0:
192,192,40330,1,0,0:0:0:0:
448,192,40330,1,0,0:0:0:0:
192,192,40437,1,0,0:0:0:0:
448,192,40437,1,0,0:0:0:0:
64,192,40545,1,0,0:0:0:0:
320,192,40652,1,0,0:0:0:0:
448,192,40652,1,0,0:0:0:0:
64,192,40759,1,0,0:0:0:0:
192,192,40759,1,0,0:0:0:0:
320,192,40973,1,0,0:0:0:0:
448,192,40973,1,0,0:0:0:0:
192,192,41080,1,0,0:0:0:0:
64,192,41187,1,0,0:0:0:0:
448,192,41187,1,0,0:0:0:0:
64,192,41402,1,0,0:0:0:0:
320,192,41402,1,0,0:0:0:0:
320,192,41509,1,0,0:0:0:0:
64,192,41616,1,0,0:0:0:0:
192,192,41616,1,0,0:0:0:0:
448,192,41616,1,0,0:0:0:0:
192,192,41830,1,0,0:0:0:0:
320,192,41830,1,0,0:0:0:0:
64,192,42045,1,0,0:0:0:0:
320,192,42045,1,0,0:0:0:0:
64,192,42152,1,0,0:0:0:0:
320,192,42152,1,0,0:0:0:0:
64,192,42259,1,0,0:0:0:0:
192,192,42259,1,0,0:0:0:0:
320,192,42366,1,0,0:0:0:0:
448,192,42366,1,0,0:0:0:0:
64,192,42473,1,0,0:0:0:0:
192,192,42473,1,0,0:0:0:0:
448,192,42473,1,0,0:0:0:0:
64,192,42687,1,0,0:0:0:0:
192,192,42687,1,0,0:0:0:0:
448,192,42795,1,0,0:0:0:0:
64,192,42902,1,0,0:0:0:0:
320,192,42902,1,0,0:0:0:0:
192,192,43116,1,0,0:0:0:0:
448,192,43116,1,0,0:0:0:0:
192,192,43223,1,0,0:0:0:0:
64,192,43330,1,0,0:0:0:0:
320,192,43330,1,0,0:0:0:0:
448,192,43330,1,0,0:0:0:0:
192,192,43545,1,0,0:0:0:0:
320,192,43545,1,0,0:0:0:0:
64,192,43759,1,0,0:0:0:0:
192,192,43759,1,0,0:0:0:0:
64,192,43866,1,0,0:0:0:0:
192,192,43866,1,0,0:0:0:0:
448,192,43973,1,0,0:0:0:0:
64,192,44080,1,0,0:0:0:0:
192,192,44187,1,0,0:0:0:0:
320,192,44187,1,0,0:0:0:0:
320,192,44402,1,0,0:0:0:0:
448,192,44402,1,0,0:0:0:0:
192,192,44509,1,0,0:0:0:0:
64,192,44616,1,0,0:0:0:0:
320,192,44616,1,0,0:0:0:0:
448,192,44616,1,0,0:0:0:0:
64,192,44830,1,0,0:0:0:0:
192,192,44937,1,0,0:0:0:0:
448,192,44937,1,0,0:0:0:0:
64,192,45045,1,0,0:0:0:0:
320,192,45045,1,0,0:0:0:0:
192,192,45152,1,0,0:0:0:0:
64,192,45259,1,0,0:0:0:0:
448,192,45259,1,0,0:0:0:0:
320,192,45366,1,0,0:0:0:0:
192,192,45473,1,0,0:0:0:0:
448,192,45473,1,0,0:0:0:0:
320,192,45580,1,0,0:0:0:0:
64,192,45687,1,0,0:0:0:0:
448,192,45687,1,0,0:0:0:0:
192,192,45795,1,0,0:0:0:0:
320,192,45902,1,0,0:0:0:0:
448,192,45902,1,0,0:0:0:0:
64,0,45902,128,0,46223:1:0:0:0:
192,192,46116,1,0,0:0:0:0:
320,192,46223,1,0,0:0:0:0:
64,192,46330,1,0,0:0:0:0:
192,192,46330,1,0,0:0:0:0:
448,192,46330,1,0,0:0:0:0:
320,192,46545,1,0,0:0:0:0:
64,192,46759,1,0,0:0:0:0:
192,192,46759,1,0,0:0:0:0:
448,192,46973,1,0,0:0:0:0:
64,192,47187,1,0,0:0:0:0:
320,192,47187,1,0,0:0:0:0:
448,192,47187,1,0,0:0:0:0:
192,192,47295,1,0,0:0:0:0:
320,192,47402,1,0,0:0:0:0:
64,192,47616,1,0,0:0:0:0:
192,192,47616,1,0,0:0:0:0:
448,192,47616,1,0,0:0:0:0:
320,192,47830,1,0,0:0:0:0:
448,192,47830,1,0,0:0:0:0:
192,192,47937,1,0,0:0:0:0:
64,192,48045,1,0,0:0:0:0:
448,192,48045,1,0,0:0:0:0:
192,192,48259,1,0,0:0:0:0:
320,192,48259,1,0,0:0:0:0:
192,192,48473,1,0,0:0:0:0:
320,192,48473,1,0,0:0:0:0:
448,192,48473,1,0,0:0:0:0:
64,192,48687,1,0,0:0:0:0:
64,192,48902,1,0,0:0:0:0:
192,192,48902,1,0,0:0:0:0:
448,192,48902,1,0,0:0:0:0:
320,192,49009,1,0,0:0:0:0:
448,192,49116,1,0,0:0:0:0:
64,192,49330,1,0,0:0:0:0:
192,192,49330,1,0,0:0:0:0:
320,192,49330,1,0,0:0:0:0:
448,192,49545,1,0,0:0:0:0:
192,192,49652,1,0,0:0:0:0:
64,192,49759,1,0,0:0:0:0:
320,192,49759,1,0,0:0:0:0:
448,192,49759,1,0,0:0:0:0:
320,192,49973,1,0,0:0:0:0:
192,192,50080,1,0,0:0:0:0:
64,192,50187,1,0,0:0:0:0:
320,192,50187,1,0,0:0:0:0:
448,192,50187,1,0,0:0:0:0:
192,192,50402,1,0,0:0:0:0:
320,192,50402,1,0,0:0:0:0:
64,192,50616,1,0,0:0:0:0:
448,192,50616,1,0,0:0:0:0:
192,192,50723,1,0,0:0:0:0:
320,192,50830,1,0,0:0:0:0:
448,192,50830,1,0,0:0:0:0:
64,192,51045,1,0,0:0:0:0:
192,192,51045,1,0,0:0:0:0:
448,192,51045,1,0,0:0:0:0:
192,192,51259,1,0,0:0:0:0:
320,192,51259,1,0,0:0:0:0:
192,192,51366,1,0,0:0:0:0:
64,192,51473,1,0,0:0:0:0:
320,192,51473,1,0,0:0:0:0:
448,192,51473,1,0,0:0:0:0:
320,192,51687,1,0,0:0:0:0:
192,192,51795,1,0,0:0:0:0:
64,192,51902,1,0,0:0:0:0:
320,192,51902,1,0,0:0:0:0:
448,192,51902,1,0,0:0:0:0:
192,192,52116,1,0,0:0:0:0:
320,192,52116,1,0,0:0:0:0:
64,192,52330,1,0,0:0:0:0:
448,192,52330,1,0,0:0:0:0:
448,192,52437,1,0,0:0:0:0:
192,192,52545,1,0,0:0:0:0:
320,192,52545,1,0,0:0:0:0:
64,192,52759,1,0,0:0:0:0:
192,192,52759,1,0,0:0:0:0:
448,192,52759,1,0,0:0:0:0:
192,192,52973,1,0,0:0:0:0:
320,192,52973,1,0,0:0:0:0:
192,192,53080,1,0,0:0:0:0:
64,192,53187,1,0,0:0:0:0:
320,192,53187,1,0,0:0:0:0:
448,192,53187,1,0,0:0:0:0:
192,192,53402,1,0,0:0:0:0:
64,192,53616,1,0,0:0:0:0:
192,192,53616,1,0,0:0:0:0:
320,192,53616,1,0,0:0:0:0:
320,192,53830,1,0,0:0:0:0:
448,192,53830,1,0,0:0:0:0:
64,192,54045,1,0,0:0:0:0:
320,192,54045,1,0,0:0:0:0:
448,192,54045,1,0,0:0:0:0:
192,192,54152,1,0,0:0:0:0:
320,192,54259,1,0,0:0:0:0:
64,192,54473,1,0,0:0:0:0:
192,192,54473,1,0,0:0:0:0:
320,192,54473,1,0,0:0:0:0:
192,192,54687,1,0,0:0:0:0:
448,192,54687,1,0,0:0:0:0:
320,192,54795,1,0,0:0:0:0:
64,192,54902,1,0,0:0:0:0:
192,192,54902,1,0,0:0:0:0:
320,192,55116,1,0,0:0:0:0:
448,192,55116,1,0,0:0:0:0:
64,192,55330,1,0,0:0:0:0:
192,192,55330,1,0,0:0:0:0:
320,192,55330,1,0,0:0:0:0:
64,192,55545,1,0,0:0:0:0:
448,192,55545,1,0,0:0:0:0:
64,192,55759,1,0,0:0:0:0:
192,192,55759,1,0,0:0:0:0:
320,192,55759,1,0,0:0:0:0:
448,192,55866,1,0,0:0:0:0:
192,192,55973,1,0,0:0:0:0:
64,192,56187,1,0,0:0:0:0:
320,192,56187,1,0,0:0:0:0:
448,192,56187,1,0,0:0:0:0:
192,192,56402,1,0,0:0:0:0:
320,192,56402,1,0,0:0:0:0:
320,192,56509,1,0,0:0:0:0:
64,192,56616,1,0,0:0:0:0:
192,192,56616,1,0,0:0:0:0:
448,192,56616,1,0,0:0:0:0:
192,192,56830,1,0,0:0:0:0:
320,192,56937,1,0,0:0:0:0:
64,192,57045,1,0,0:0:0:0:
192,192,57045,1,0,0:0:0:0:
448,192,57045,1,0,0:0:0:0:
192,192,57259,1,0,0:0:0:0:
320,192,57259,1,0,0:0:0:0:
320,192,57473,1,0,0:0:0:0:
448,192,57473,1,0,0:0:0:0:
192,192,57580,1,0,0:0:0:0:
64,192,57687,1,0,0:0:0:0:
320,192,57687,1,0,0:0:0:0:
64,192,57902,1,0,0:0:0:0:
192,192,57902,1,0,0:0:0:0:
448,192,57902,1,0,0:0:0:0:
192,192,58116,1,0,0:0:0:0:
320,192,58116,1,0,0:0:0:0:
192,192,58223,1,0,0:0:0:0:
64,192,58330,1,0,0:0:0:0:
320,192,58330,1,0,0:0:0:0:
448,192,58330,1,0,0:0:0:0:
192,192,58437,1,0,0:0:0:0:
64,192,58545,1,0,0:0:0:0:
320,192,58545,1,0,0:0:0:0:
448,192,58545,1,0,0:0:0:0:
192,192,58616,1,0,0:0:0:0:
320,192,58687,1,0,0:0:0:0:
64,192,58759,1,0,0:0:0:0:
192,192,58759,1,0,0:0:0:0:
448,192,58759,1,0,0:0:0:0:
64,192,58866,1,0,0:0:0:0:
192,192,58866,1,0,0:0:0:0:
320,192,58866,1,0,0:0:0:0:
320,192,58973,1,0,0:0:0:0:
448,192,58973,1,0,0:0:0:0:
64,192,59080,1,0,0:0:0:0:
192,192,59080,1,0,0:0:0:0:
448,192,59080,1,0,0:0:0:0:
192,192,59187,1,0,0:0:0:0:
320,192,59187,1,0,0:0:0:0:
64,192,59295,1,0,0:0:0:0:
320,192,59295,1,0,0:0:0:0:
448,192,59295,1,0,0:0:0:0:
64,192,59402,1,0,0:0:0:0:
192,192,59402,1,0,0:0:0:0:
64,192,59509,1,0,0:0:0:0:
192,192,59509,1,0,0:0:0:0:
448,192,59509,1,0,0:0:0:0:
320,192,59616,1,0,0:0:0:0:
448,192,59616,1,0,0:0:0:0:
64,0,59616,128,0,59830:1:0:0:0:
192,192,59830,1,0,0:0:0:0:
320,192,59830,1,0,0:0:0:0:
64,192,60045,1,0,0:0:0:0:
320,192,60045,1,0,0:0:0:0:
448,192,60045,1,0,0:0:0:0:
64,192,60259,1,0,0:0:0:0:
192,192,60259,1,0,0:0:0:0:
64,192,60473,1,0,0:0:0:0:
320,192,60473,1,0,0:0:0:0:
448,192,60473,1,0,0:0:0:0:
192,192,60687,1,0,0:0:0:0:
320,192,60687,1,0,0:0:0:0:
320,192,60902,1,0,0:0:0:0:
448,192,60902,1,0,0:0:0:0:
64,192,61009,1,0,0:0:0:0:
192,192,61009,1,0,0:0:0:0:
64,192,61116,1,0,0:0:0:0:
192,192,61116,1,0,0:0:0:0:
320,192,61223,1,0,0:0:0:0:
64,192,61330,1,0,0:0:0:0:
192,192,61330,1,0,0:0:0:0:
448,192,61330,1,0,0:0:0:0:
192,192,61545,1,0,0:0:0:0:
448,192,61545,1,0,0:0:0:0:
192,192,61652,1,0,0:0:0:0:
448,192,61652,1,0,0:0:0:0:
64,192,61759,1,0,0:0:0:0:
320,192,61759,1,0,0:0:0:0:
64,192,61973,1,0,0:0:0:0:
192,192,61973,1,0,0:0:0:0:
64,192,62187,1,0,0:0:0:0:
192,192,62187,1,0,0:0:0:0:
448,192,62187,1,0,0:0:0:0:
192,192,62402,1,0,0:0:0:0:
448,192,62402,1,0,0:0:0:0:
320,192,62509,1,0,0:0:0:0:
448,192,62509,1,0,0:0:0:0:
64,192,62616,1,0,0:0:0:0:
192,192,62616,1,0,0:0:0:0:
320,192,62723,1,0,0:0:0:0:
448,192,62723,1,0,0:0:0:0:
320,192,62830,1,0,0:0:0:0:
448,192,62830,1,0,0:0:0:0:
192,192,62937,1,0,0:0:0:0:
64,192,63045,1,0,0:0:0:0:
320,192,63045,1,0,0:0:0:0:
448,192,63045,1,0,0:0:0:0:
192,0,63259,128,0,63366:1:0:0:0:
320,0,63259,128,0,63366:1:0:0:0:
64,192,63473,1,0,0:0:0:0:
448,192,63473,1,0,0:0:0:0:
64,192,63687,1,0,0:0:0:0:
192,192,63687,1,0,0:0:0:0:
192,192,63902,1,0,0:0:0:0:
320,192,63902,1,0,0:0:0:0:
448,192,63902,1,0,0:0:0:0:
64,192,64116,1,0,0:0:0:0:
320,192,64116,1,0,0:0:0:0:
192,192,64330,1,0,0:0:0:0:
448,192,64330,1,0,0:0:0:0:
64,192,64437,1,0,0:0:0:0:
320,192,64437,1,0,0:0:0:0:
64,192,64545,1,0,0:0:0:0:
320,192,64545,1,0,0:0:0:0:
448,192,64652,1,0,0:0:0:0:
64,192,64759,1,0,0:0:0:0:
192,192,64759,1,0,0:0:0:0:
320,192,64759,1,0,0:0:0:0:
320,192,64973,1,0,0:0:0:0:
448,192,64973,1,0,0:0:0:0:
320,192,65080,1,0,0:0:0:0:
448,192,65080,1,0,0:0:0:0:
64,192,65187,1,0,0:0:0:0:
192,192,65187,1,0,0:0:0:0:
64,192,65402,1,0,0:0:0:0:
448,192,65402,1,0,0:0:0:0:
192,192,65616,1,0,0:0:0:0:
320,192,65616,1,0,0:0:0:0:
192,192,65830,1,0,0:0:0:0:
448,192,65830,1,0,0:0:0:0:
192,192,65937,1,0,0:0:0:0:
320,192,65937,1,0,0:0:0:0:
64,192,66045,1,0,0:0:0:0:
448,192,66045,1,0,0:0:0:0:
192,192,66152,1,0,0:0:0:0:
320,192,66152,1,0,0:0:0:0:
192,192,66259,1,0,0:0:0:0:
320,192,66259,1,0,0:0:0:0:
448,192,66366,1,0,0:0:0:0:
64,192,66473,1,0,0:0:0:0:
192,192,66473,1,0,0:0:0:0:
320,192,66473,1,0,0:0:0:0:
64,0,66687,128,0,66795:1:0:0:0:
448,0,66687,128,0,66795:1:0:0:0:
192,192,66902,1,0,0:0:0:0:
320,192,66902,1,0,0:0:0:0:
64,192,67116,1,0,0:0:0:0:
320,192,67116,1,0,0:0:0:0:
64,192,67330,1,0,0:0:0:0:
192,192,67330,1,0,0:0:0:0:
448,192,67330,1,0,0:0:0:0:
320,192,67545,1,0,0:0:0:0:
448,192,67545,1,0,0:0:0:0:
192,192,67759,1,0,0:0:0:0:
448,192,67759,1,0,0:0:0:0:
64,192,67866,1,0,0:0:0:0:
320,192,67866,1,0,0:0:0:0:
64,192,67973,1,0,0:0:0:0:
192,192,67973,1,0,0:0:0:0:
320,192,68080,1,0,0:0:0:0:
64,192,68187,1,0,0:0:0:0:
192,192,68187,1,0,0:0:0:0:
448,192,68187,1,0,0:0:0:0:
192,192,68402,1,0,0:0:0:0:
320,192,68402,1,0,0:0:0:0:
192,192,68509,1,0,0:0:0:0:
320,192,68509,1,0,0:0:0:0:
64,192,68616,1,0,0:0:0:0:
448,192,68616,1,0,0:0:0:0:
64,192,68830,1,0,0:0:0:0:
192,192,68830,1,0,0:0:0:0:
192,192,69045,1,0,0:0:0:0:
448,192,69045,1,0,0:0:0:0:
64,192,69259,1,0,0:0:0:0:
320,192,69259,1,0,0:0:0:0:
64,192,69366,1,0,0:0:0:0:
192,192,69366,1,0,0:0:0:0:
320,192,69473,1,0,0:0:0:0:
448,192,69473,1,0,0:0:0:0:
320,192,69580,1,0,0:0:0:0:
448,192,69580,1,0,0:0:0:0:
64,192,69687,1,0,0:0:0:0:
192,192,69687,1,0,0:0:0:0:
320,192,69795,1,0,0:0:0:0:
64,192,69902,1,0,0:0:0:0:
192,192,69902,1,0,0:0:0:0:
448,192,69902,1,0,0:0:0:0:
192,192,70116,1,0,0:0:0:0:
320,192,70116,1,0,0:0:0:0:
64,192,70330,1,0,0:0:0:0:
320,192,70330,1,0,0:0:0:0:
448,192,70330,1,0,0:0:0:0:
64,192,70545,1,0,0:0:0:0:
448,192,70545,1,0,0:0:0:0:
192,192,70652,1,0,0:0:0:0:
320,192,70652,1,0,0:0:0:0:
64,192,70759,1,0,0:0:0:0:
320,192,70759,1,0,0:0:0:0:
448,0,70759,128,0,70973:1:0:0:0:
64,192,70973,1,0,0:0:0:0:
192,192,70973,1,0,0:0:0:0:
64,192,71187,1,0,0:0:0:0:
192,192,71187,1,0,0:0:0:0:
448,192,71187,1,0,0:0:0:0:
320,192,71295,1,0,0:0:0:0:
64,192,71402,1,0,0:0:0:0:
192,192,71402,1,0,0:0:0:0:
320,192,71509,1,0,0:0:0:0:
448,192,71509,1,0,0:0:0:0:
64,192,71616,1,0,0:0:0:0:
192,192,71616,1,0,0:0:0:0:
448,0,71616,128,0,71830:1:0:0:0:
64,192,71830,1,0,0:0:0:0:
192,192,71830,1,0,0:0:0:0:
64,192,71937,1,0,0:0:0:0:
192,192,71937,1,0,0:0:0:0:
64,192,72045,1,0,0:0:0:0:
320,192,72045,1,0,0:0:0:0:
448,192,72045,1,0,0:0:0:0:
192,192,72116,1,0,0:0:0:0:
320,192,72187,1,0,0:0:0:0:
64,192,72259,1,0,0:0:0:0:
448,192,72259,1,0,0:0:0:0:
192,192,72330,1,0,0:0:0:0:
320,192,72402,1,0,0:0:0:0:
64,192,72473,1,0,0:0:0:0:
192,192,72473,1,0,0:0:0:0:
448,192,72473,1,0,0:0:0:0:
320,192,72545,1,0,0:0:0:0:
64,192,72616,1,0,0:0:0:0:
448,192,72687,1,0,0:0:0:0:
320,192,72759,1,0,0:0:0:0:
192,192,72830,1,0,0:0:0:0:
64,192,72902,1,0,0:0:0:0:
320,192,72902,1,0,0:0:0:0:
448,192,72902,1,0,0:0:0:0:
192,192,72973,1,0,0:0:0:0:
320,192,73045,1,0,0:0:0:0:
64,192,73116,1,0,0:0:0:0:
448,192,73116,1,0,0:0:0:0:
192,192,73187,1,0,0:0:0:0:
320,192,73259,1,0,0:0:0:0:
64,192,73330,1,0,0:0:0:0:
192,192,73330,1,0,0:0:0:0:
448,192,73330,1,0,0:0:0:0:
320,192,73402,1,0,0:0:0:0:
192,192,73473,1,0,0:0:0:0:
64,192,73545,1,0,0:0:0:0:
448,192,73545,1,0,0:0:0:0:
320,192,73616,1,0,0:0:0:0:
192,192,73687,1,0,0:0:0:0:
64,192,73759,1,0,0:0:0:0:
320,192,73759,1,0,0:0:0:0:
448,192,73759,1,0,0:0:0:0:
64,192,73973,1,0,0:0:0:0:
192,192,73973,1,0,0:0:0:0:
64,192,74187,1,0,0:0:0:0:
320,192,74187,1,0,0:0:0:0:
448,192,74187,1,0,0:0:0:0:
192,192,74402,1,0,0:0:0:0:
320,192,74402,1,0,0:0:0:0:
320,192,74616,1,0,0:0:0:0:
448,192,74616,1,0,0:0:0:0:
64,192,74723,1,0,0:0:0:0:
192,192,74723,1,0,0:0:0:0:
64,192,74830,1,0,0:0:0:0:
192,192,74830,1,0,0:0:0:0:
320,192,74937,1,0,0:0:0:0:
64,192,75045,1,0,0:0:0:0:
192,192,75045,1,0,0:0:0:0:
448,192,75045,1,0,0:0:0:0:
320,192,75259,1,0,0:0:0:0:
448,192,75259,1,0,0:0:0:0:
320,192,75366,1,0,0:0:0:0:
448,192,75366,1,0,0:0:0:0:
64,192,75473,1,0,0:0:0:0:
192,192,75473,1,0,0:0:0:0:
192,192,75687,1,0,0:0:0:0:
320,192,75687,1,0,0:0:0:0:
64,192,75902,1,0,0:0:0:0:
320,192,75902,1,0,0:0:0:0:
448,192,75902,1,0,0:0:0:0:
192,192,76116,1,0,0:0:0:0:
320,192,76116,1,0,0:0:0:0:
64,192,76223,1,0,0:0:0:0:
192,192,76223,1,0,0:0:0:0:
320,192,76330,1,0,0:0:0:0:
448,192,76330,1,0,0:0:0:0:
64,192,76437,1,0,0:0:0:0:
192,192,76437,1,0,0:0:0:0:
64,192,76545,1,0,0:0:0:0:
192,192,76545,1,0,0:0:0:0:
448,192,76652,1,0,0:0:0:0:
64,192,76759,1,0,0:0:0:0:
192,192,76759,1,0,0:0:0:0:
320,192,76759,1,0,0:0:0:0:
192,0,76973,128,0,77080:1:0:0:0:
320,0,76973,128,0,77080:1:0:0:0:
64,192,77187,1,0,0:0:0:0:
448,192,77187,1,0,0:0:0:0:
192,192,77402,1,0,0:0:0:0:
320,192,77402,1,0,0:0:0:0:
64,192,77616,1,0,0:0:0:0:
320,192,77616,1,0,0:0:0:0:
448,192,77616,1,0,0:0:0:0:
64,192,77830,1,0,0:0:0:0:
192,192,77830,1,0,0:0:0:0:
64,192,78045,1,0,0:0:0:0:
448,192,78045,1,0,0:0:0:0:
192,192,78152,1,0,0:0:0:0:
320,192,78152,1,0,0:0:0:0:
192,192,78259,1,0,0:0:0:0:
320,192,78259,1,0,0:0:0:0:
64,192,78366,1,0,0:0:0:0:
192,192,78473,1,0,0:0:0:0:
320,192,78473,1,0,0:0:0:0:
448,192,78473,1,0,0:0:0:0:
64,192,78687,1,0,0:0:0:0:
448,192,78687,1,0,0:0:0:0:
64,192,78795,1,0,0:0:0:0:
448,192,78795,1,0,0:0:0:0:
192,192,78902,1,0,0:0:0:0:
320,192,78902,1,0,0:0:0:0:
192,192,79116,1,0,0:0:0:0:
448,192,79116,1,0,0:0:0:0:
64,192,79330,1,0,0:0:0:0:
320,192,79330,1,0,0:0:0:0:
192,192,79545,1,0,0:0:0:0:
320,192,79545,1,0,0:0:0:0:
64,192,79652,1,0,0:0:0:0:
320,192,79652,1,0,0:0:0:0:
64,192,79759,1,0,0:0:0:0:
192,192,79759,1,0,0:0:0:0:
320,192,79866,1,0,0:0:0:0:
448,192,79866,1,0,0:0:0:0:
320,192,79973,1,0,0:0:0:0:
448,192,79973,1,0,0:0:0:0:
192,192,80080,1,0,0:0:0:0:
64,192,80187,1,0,0:0:0:0:
320,192,80187,1,0,0:0:0:0:
448,192,80187,1,0,0:0:0:0:
192,0,80402,128,0,80509:1:0:0:0:
448,0,80402,128,0,80509:1:0:0:0:
64,192,80616,1,0,0:0:0:0:
320,192,80616,1,0,0:0:0:0:
192,192,80830,1,0,0:0:0:0:
448,192,80830,1,0,0:0:0:0:
64,192,81045,1,0,0:0:0:0:
192,192,81045,1,0,0:0:0:0:
320,192,81045,1,0,0:0:0:0:
320,192,81259,1,0,0:0:0:0:
448,192,81259,1,0,0:0:0:0:
192,192,81473,1,0,0:0:0:0:
448,192,81473,1,0,0:0:0:0:
320,192,81580,1,0,0:0:0:0:
64,192,81687,1,0,0:0:0:0:
192,192,81687,1,0,0:0:0:0:
320,192,81795,1,0,0:0:0:0:
448,192,81795,1,0,0:0:0:0:
64,192,81902,1,0,0:0:0:0:
192,192,81902,1,0,0:0:0:0:
448,192,81902,1,0,0:0:0:0:
192,192,82116,1,0,0:0:0:0:
320,192,82116,1,0,0:0:0:0:
192,192,82223,1,0,0:0:0:0:
320,192,82223,1,0,0:0:0:0:
64,192,82330,1,0,0:0:0:0:
320,192,82330,1,0,0:0:0:0:
448,192,82330,1,0,0:0:0:0:
64,192,82545,1,0,0:0:0:0:
192,192,82545,1,0,0:0:0:0:
64,192,82759,1,0,0:0:0:0:
192,192,82759,1,0,0:0:0:0:
448,192,82759,1,0,0:0:0:0:
192,192,82866,1,0,0:0:0:0:
320,192,82866,1,0,0:0:0:0:
320,192,82973,1,0,0:0:0:0:
448,192,82973,1,0,0:0:0:0:
64,192,83080,1,0,0:0:0:0:
192,192,83080,1,0,0:0:0:0:
320,192,83187,1,0,0:0:0:0:
448,192,83187,1,0,0:0:0:0:
320,192,83295,1,0,0:0:0:0:
448,192,83295,1,0,0:0:0:0:
64,192,83402,1,0,0:0:0:0:
192,192,83402,1,0,0:0:0:0:
320,192,83509,1,0,0:0:0:0:
64,192,83616,1,0,0:0:0:0:
192,192,83616,1,0,0:0:0:0:
448,192,83616,1,0,0:0:0:0:
192,192,83830,1,0,0:0:0:0:
320,192,83830,1,0,0:0:0:0:
64,192,84045,1,0,0:0:0:0:
320,192,84045,1,0,0:0:0:0:
448,192,84045,1,0,0:0:0:0:
64,192,84259,1,0,0:0:0:0:
448,192,84259,1,0,0:0:0:0:
192,192,84366,1,0,0:0:0:0:
320,192,84366,1,0,0:0:0:0:
64,192,84473,1,0,0:0:0:0:
320,192,84473,1,0,0:0:0:0:
448,0,84473,128,0,84687:1:0:0:0:
64,192,84687,1,0,0:0:0:0:
192,192,84687,1,0,0:0:0:0:
64,192,84902,1,0,0:0:0:0:
192,192,84902,1,0,0:0:0:0:
448,192,84902,1,0,0:0:0:0:
320,192,85009,1,0,0:0:0:0:
64,192,85116,1,0,0:0:0:0:
192,192,85116,1,0,0:0:0:0:
320,192,85223,1,0,0:0:0:0:
448,192,85223,1,0,0:0:0:0:
64,192,85330,1,0,0:0:0:0:
192,192,85330,1,0,0:0:0:0:
448,0,85330,128,0,85545:1:0:0:0:
64,192,85545,1,0,0:0:0:0:
192,192,85545,1,0,0:0:0:0:
64,192,85652,1,0,0:0:0:0:
192,192,85652,1,0,0:0:0:0:
320,192,85759,1,0,0:0:0:0:
448,192,85759,1,0,0:0:0:0:
320,192,85973,1,0,0:0:0:0:
448,192,85973,1,0,0:0:0:0:
64,192,86080,1,0,0:0:0:0:
192,192,86187,1,0,0:0:0:0:
448,192,86187,1,0,0:0:0:0:
64,192,86402,1,0,0:0:0:0:
320,192,86402,1,0,0:0:0:0:
64,192,86616,1,0,0:0:0:0:
192,192,86616,1,0,0:0:0:0:
320,192,86830,1,0,0:0:0:0:
448,192,86830,1,0,0:0:0:0:
192,192,86937,1,0,0:0:0:0:
320,0,87045,128,0,87259:1:0:0:0:
448,0,87045,128,0,87259:1:0:0:0:
320,192,87473,1,0,0:0:0:0:
448,192,87473,1,0,0:0:0:0:
64,0,87473,128,0,87795:1:0:0:0:
320,192,87687,1,0,0:0:0:0:
64,192,87902,1,0,0:0:0:0:
192,192,87902,1,0,0:0:0:0:
320,192,88116,1,0,0:0:0:0:
448,192,88116,1,0,0:0:0:0:
64,192,88330,1,0,0:0:0:0:
192,192,88330,1,0,0:0:0:0:
448,192,88437,1,0,0:0:0:0:
192,192,88545,1,0,0:0:0:0:
320,192,88652,1,0,0:0:0:0:
192,192,88705,1,0,0:0:0:0:
64,192,88759,1,0,0:0:0:0:
448,192,88759,1,0,0:0:0:0:
192,192,88973,1,0,0:0:0:0:
192,192,89080,1,0,0:0:0:0:
320,192,89187,1,0,0:0:0:0:
448,192,89187,1,0,0:0:0:0:
64,192,89330,1,0,0:0:0:0:
192,192,89402,1,0,0:0:0:0:
320,192,89473,1,0,0:0:0:0:
448,192,89545,1,0,0:0:0:0:
64,192,89616,1,0,0:0:0:0:
320,192,89616,1,0,0:0:0:0:
192,192,89723,1,0,0:0:0:0:
448,192,89830,1,0,0:0:0:0:
448,192,89937,1,0,0:0:0:0:
64,192,90045,1,0,0:0:0:0:
192,192,90045,1,0,0:0:0:0:
192,192,90259,1,0,0:0:0:0:
448,192,90366,1,0,0:0:0:0:
64,192,90473,1,0,0:0:0:0:
320,192,90473,1,0,0:0:0:0:
448,192,90687,1,0,0:0:0:0:
64,0,90687,128,0,90795:1:0:0:0:
192,192,90902,1,0,0:0:0:0:
320,192,90902,1,0,0:0:0:0:
448,192,91116,1,0,0:0:0:0:
64,192,91330,1,0,0:0:0:0:
320,192,91330,1,0,0:0:0:0:
192,192,91545,1,0,0:0:0:0:
448,192,91545,1,0,0:0:0:0:
64,192,91759,1,0,0:0:0:0:
320,192,91759,1,0,0:0:0:0:
64,192,91973,1,0,0:0:0:0:
192,192,92080,1,0,0:0:0:0:
64,192,92134,1,0,0:0:0:0:
320,192,92187,1,0,0:0:0:0:
448,192,92187,1,0,0:0:0:0:
64,192,92295,1,0,0:0:0:0:
320,192,92402,1,0,0:0:0:0:
192,192,92509,1,0,0:0:0:0:
64,192,92616,1,0,0:0:0:0:
448,0,92616,128,0,92937:1:0:0:0:
320,192,93045,1,0,0:0:0:0:
64,0,93045,128,0,93366:1:0:0:0:
192,192,93473,1,0,0:0:0:0:
192,192,93580,1,0,0:0:0:0:
448,192,93687,1,0,0:0:0:0:
64,192,93795,1,0,0:0:0:0:
192,192,93902,1,0,0:0:0:0:
448,0,93902,128,0,94116:1:0:0:0:
320,192,94116,1,0,0:0:0:0:
64,192,94330,1,0,0:0:0:0:
192,192,94330,1,0,0:0:0:0:
448,192,94545,1,0,0:0:0:0:
64,192,94759,1,0,0:0:0:0:
320,192,94759,1,0,0:0:0:0:
192,192,94973,1,0,0:0:0:0:
448,192,94973,1,0,0:0:0:0:
64,192,95187,1,0,0:0:0:0:
192,192,95187,1,0,0:0:0:0:
320,192,95295,1,0,0:0:0:0:
192,192,95402,1,0,0:0:0:0:
448,192,95509,1,0,0:0:0:0:
320,192,95562,1,0,0:0:0:0:
64,192,95616,1,0,0:0:0:0:
192,192,95616,1,0,0:0:0:0:
320,192,95830,1,0,0:0:0:0:
448,0,95830,128,0,95937:1:0:0:0:
192,192,96045,1,0,0:0:0:0:
320,192,96045,1,0,0:0:0:0:
64,192,96187,1,0,0:0:0:0:
192,192,96259,1,0,0:0:0:0:
320,192,96330,1,0,0:0:0:0:
448,192,96402,1,0,0:0:0:0:
64,192,96473,1,0,0:0:0:0:
320,192,96473,1,0,0:0:0:0:
192,192,96580,1,0,0:0:0:0:
320,192,96687,1,0,0:0:0:0:
192,192,96795,1,0,0:0:0:0:
64,192,96902,1,0,0:0:0:0:
448,192,96902,1,0,0:0:0:0:
64,192,97116,1,0,0:0:0:0:
320,192,97330,1,0,0:0:0:0:
448,192,97330,1,0,0:0:0:0:
192,192,97545,1,0,0:0:0:0:
320,192,97652,1,0,0:0:0:0:
192,192,97759,1,0,0:0:0:0:
64,0,97759,128,0,97973:1:0:0:0:
448,192,97973,1,0,0:0:0:0:
192,192,98080,1,0,0:0:0:0:
64,192,98187,1,0,0:0:0:0:
320,192,98187,1,0,0:0:0:0:
64,192,98402,1,0,0:0:0:0:
448,192,98509,1,0,0:0:0:0:
192,192,98616,1,0,0:0:0:0:
320,192,98616,1,0,0:0:0:0:
64,192,98723,1,0,0:0:0:0:
192,192,98777,1,0,0:0:0:0:
320,192,98830,1,0,0:0:0:0:
448,192,98884,1,0,0:0:0:0:
192,192,98937,1,0,0:0:0:0:
320,192,98991,1,0,0:0:0:0:
64,192,99045,1,0,0:0:0:0:
448,192,99045,1,0,0:0:0:0:
320,192,99152,1,0,0:0:0:0:
192,192,99205,1,0,0:0:0:0:
448,192,99259,1,0,0:0:0:0:
320,192,99312,1,0,0:0:0:0:
192,192,99366,1,0,0:0:0:0:
64,192,99420,1,0,0:0:0:0:
320,192,99473,1,0,0:0:0:0:
448,192,99473,1,0,0:0:0:0:
192,192,99687,1,0,0:0:0:0:
448,192,99687,1,0,0:0:0:0:
320,192,99795,1,0,0:0:0:0:
64,192,99902,1,0,0:0:0:0:
448,192,99902,1,0,0:0:0:0:
64,192,100116,1,0,0:0:0:0:
448,192,100116,1,0,0:0:0:0:
192,192,100330,1,0,0:0:0:0:
320,192,100330,1,0,0:0:0:0:
64,192,100545,1,0,0:0:0:0:
448,192,100545,1,0,0:0:0:0:
320,192,100652,1,0,0:0:0:0:
192,0,100652,128,0,100705:1:0:0:0:
192,0,100866,128,0,101080:1:0:0:0:
64,192,101187,1,0,0:0:0:0:
320,192,101187,1,0,0:0:0:0:
448,192,101187,1,0,0:0:0:0:
64,192,101402,1,0,0:0:0:0:
192,192,101402,1,0,0:0:0:0:
448,192,101509,1,0,0:0:0:0:
64,192,101616,1,0,0:0:0:0:
320,192,101616,1,0,0:0:0:0:
192,192,101830,1,0,0:0:0:0:
448,192,101830,1,0,0:0:0:0:
320,192,101937,1,0,0:0:0:0:
64,192,102045,1,0,0:0:0:0:
448,192,102045,1,0,0:0:0:0:
192,192,102152,1,0,0:0:0:0:
320,192,102152,1,0,0:0:0:0:
448,192,102259,1,0,0:0:0:0:
64,192,102366,1,0,0:0:0:0:
192,192,102366,1,0,0:0:0:0:
320,192,102473,1,0,0:0:0:0:
448,192,102473,1,0,0:0:0:0:
192,192,102687,1,0,0:0:0:0:
448,192,102687,1,0,0:0:0:0:
320,192,102795,1,0,0:0:0:0:
64,192,102902,1,0,0:0:0:0:
448,192,102902,1,0,0:0:0:0:
192,192,103116,1,0,0:0:0:0:
320,192,103116,1,0,0:0:0:0:
64,192,103223,1,0,0:0:0:0:
320,192,103330,1,0,0:0:0:0:
448,192,103330,1,0,0:0:0:0:
64,192,103545,1,0,0:0:0:0:
192,192,103545,1,0,0:0:0:0:
192,192,103759,1,0,0:0:0:0:
448,192,103759,1,0,0:0:0:0:
64,192,103866,1,0,0:0:0:0:
320,192,103866,1,0,0:0:0:0:
192,192,103973,1,0,0:0:0:0:
64,192,104080,1,0,0:0:0:0:
320,192,104080,1,0,0:0:0:0:
192,192,104187,1,0,0:0:0:0:
448,192,104187,1,0,0:0:0:0:
64,192,104402,1,0,0:0:0:0:
192,192,104402,1,0,0:0:0:0:
320,192,104509,1,0,0:0:0:0:
64,192,104616,1,0,0:0:0:0:
448,192,104616,1,0,0:0:0:0:
64,192,104830,1,0,0:0:0:0:
320,192,104830,1,0,0:0:0:0:
448,192,104937,1,0,0:0:0:0:
64,192,105045,1,0,0:0:0:0:
192,192,105045,1,0,0:0:0:0:
320,192,105259,1,0,0:0:0:0:
448,192,105259,1,0,0:0:0:0:
192,192,105366,1,0,0:0:0:0:
64,192,105473,1,0,0:0:0:0:
448,192,105473,1,0,0:0:0:0:
192,192,105580,1,0,0:0:0:0:
320,192,105580,1,0,0:0:0:0:
64,192,105687,1,0,0:0:0:0:
192,192,105795,1,0,0:0:0:0:
448,192,105795,1,0,0:0:0:0:
64,192,105902,1,0,0:0:0:0:
320,192,105902,1,0,0:0:0:0:
64,192,106116,1,0,0:0:0:0:
448,192,106116,1,0,0:0:0:0:
192,192,106223,1,0,0:0:0:0:
320,192,106330,1,0,0:0:0:0:
448,192,106330,1,0,0:0:0:0:
320,192,106545,1,0,0:0:0:0:
448,192,106545,1,0,0:0:0:0:
64,192,106652,1,0,0:0:0:0:
192,192,106759,1,0,0:0:0:0:
448,192,106759,1,0,0:0:0:0:
64,192,106973,1,0,0:0:0:0:
320,192,106973,1,0,0:0:0:0:
320,192,107187,1,0,0:0:0:0:
448,192,107187,1,0,0:0:0:0:
64,192,107295,1,0,0:0:0:0:
320,192,107402,1,0,0:0:0:0:
64,192,107509,1,0,0:0:0:0:
192,192,107509,1,0,0:0:0:0:
320,192,107616,1,0,0:0:0:0:
448,192,107616,1,0,0:0:0:0:
64,192,107830,1,0,0:0:0:0:
192,192,107830,1,0,0:0:0:0:
448,192,107937,1,0,0:0:0:0:
64,192,108045,1,0,0:0:0:0:
320,192,108045,1,0,0:0:0:0:
64,192,108259,1,0,0:0:0:0:
192,192,108259,1,0,0:0:0:0:
448,192,108366,1,0,0:0:0:0:
64,192,108473,1,0,0:0:0:0:
320,192,108473,1,0,0:0:0:0:
64,192,108687,1,0,0:0:0:0:
448,192,108687,1,0,0:0:0:0:
192,192,108795,1,0,0:0:0:0:
320,192,108902,1,0,0:0:0:0:
448,192,108902,1,0,0:0:0:0:
64,192,109009,1,0,0:0:0:0:
192,192,109009,1,0,0:0:0:0:
320,192,109116,1,0,0:0:0:0:
192,192,109223,1,0,0:0:0:0:
448,192,109223,1,0,0:0:0:0:
64,192,109330,1,0,0:0:0:0:
320,192,109330,1,0,0:0:0:0:
320,192,109545,1,0,0:0:0:0:
448,192,109545,1,0,0:0:0:0:
192,192,109652,1,0,0:0:0:0:
64,192,109759,1,0,0:0:0:0:
448,192,109759,1,0,0:0:0:0:
192,192,109973,1,0,0:0:0:0:
320,192,109973,1,0,0:0:0:0:
64,192,110080,1,0,0:0:0:0:
320,192,110187,1,0,0:0:0:0:
448,192,110187,1,0,0:0:0:0:
64,192,110402,1,0,0:0:0:0:
192,192,110402,1,0,0:0:0:0:
320,192,110616,1,0,0:0:0:0:
448,192,110616,1,0,0:0:0:0:
64,192,110723,1,0,0:0:0:0:
192,192,110723,1,0,0:0:0:0:
320,192,110830,1,0,0:0:0:0:
448,192,110830,1,0,0:0:0:0:
64,192,110937,1,0,0:0:0:0:
192,192,110937,1,0,0:0:0:0:
320,192,111045,1,0,0:0:0:0:
448,192,111045,1,0,0:0:0:0:
64,192,111259,1,0,0:0:0:0:
192,192,111259,1,0,0:0:0:0:
448,192,111366,1,0,0:0:0:0:
64,192,111473,1,0,0:0:0:0:
320,192,111473,1,0,0:0:0:0:
320,192,111687,1,0,0:0:0:0:
448,192,111687,1,0,0:0:0:0:
192,192,111795,1,0,0:0:0:0:
64,192,111902,1,0,0:0:0:0:
448,192,111902,1,0,0:0:0:0:
192,192,112116,1,0,0:0:0:0:
448,192,112116,1,0,0:0:0:0:
320,192,112223,1,0,0:0:0:0:
64,192,112330,1,0,0:0:0:0:
448,192,112330,1,0,0:0:0:0:
192,192,112437,1,0,0:0:0:0:
448,192,112545,1,0,0:0:0:0:
192,192,112652,1,0,0:0:0:0:
64,192,112759,1,0,0:0:0:0:
320,192,112759,1,0,0:0:0:0:
192,192,112973,1,0,0:0:0:0:
448,192,112973,1,0,0:0:0:0:
320,192,113080,1,0,0:0:0:0:
64,192,113187,1,0,0:0:0:0:
448,192,113187,1,0,0:0:0:0:
64,192,113402,1,0,0:0:0:0:
192,192,113509,1,0,0:0:0:0:
448,192,113509,1,0,0:0:0:0:
64,192,113616,1,0,0:0:0:0:
320,192,113616,1,0,0:0:0:0:
192,192,113723,1,0,0:0:0:0:
64,192,113830,1,0,0:0:0:0:
448,192,113830,1,0,0:0:0:0:
448,192,114045,1,0,0:0:0:0:
320,192,114152,1,0,0:0:0:0:
64,192,114259,1,0,0:0:0:0:
448,192,114259,1,0,0:0:0:0:
192,192,114366,1,0,0:0:0:0:
320,192,114473,1,0,0:0:0:0:
448,192,114473,1,0,0:0:0:0:
64,192,114580,1,0,0:0:0:0:
448,192,114687,1,0,0:0:0:0:
320,192,114795,1,0,0:0:0:0:
64,192,114902,1,0,0:0:0:0:
192,192,114902,1,0,0:0:0:0:
448,192,114902,1,0,0:0:0:0:
320,192,115116,1,0,0:0:0:0:
64,192,115330,1,0,0:0:0:0:
192,192,115330,1,0,0:0:0:0:
448,192,115545,1,0,0:0:0:0:
64,192,115759,1,0,0:0:0:0:
320,192,115759,1,0,0:0:0:0:
448,192,115759,1,0,0:0:0:0:
192,192,115866,1,0,0:0:0:0:
320,192,115973,1,0,0:0:0:0:
64,192,116187,1,0,0:0:0:0:
192,192,116187,1,0,0:0:0:0:
448,192,116187,1,0,0:0:0:0:
320,192,116402,1,0,0:0:0:0:
448,192,116402,1,0,0:0:0:0:
192,192,116509,1,0,0:0:0:0:
64,192,116616,1,0,0:0:0:0:
448,192,116616,1,0,0:0:0:0:
192,192,116830,1,0,0:0:0:0:
320,192,116830,1,0,0:0:0:0:
192,192,117045,1,0,0:0:0:0:
320,192,117045,1,0,0:0:0:0:
448,192,117045,1,0,0:0:0:0:
64,192,117259,1,0,0:0:0:0:
64,192,117473,1,0,0:0:0:0:
192,192,117473,1,0,0:0:0:0:
448,192,117473,1,0,0:0:0:0:
320,192,117580,1,0,0:0:0:0:
448,192,117687,1,0,0:0:0:0:
64,192,117902,1,0,0:0:0:0:
192,192,117902,1,0,0:0:0:0:
320,192,117902,1,0,0:0:0:0:
448,192,118116,1,0,0:0:0:0:
192,192,118223,1,0,0:0:0:0:
64,192,118330,1,0,0:0:0:0:
320,192,118330,1,0,0:0:0:0:
448,192,118330,1,0,0:0:0:0:
320,192,118545,1,0,0:0:0:0:
192,192,118652,1,0,0:0:0:0:
64,192,118759,1,0,0:0:0:0:
320,192,118759,1,0,0:0:0:0:
448,192,118759,1,0,0:0:0:0:
192,192,118973,1,0,0:0:0:0:
320,192,118973,1,0,0:0:0:0:
64,192,119187,1,0,0:0:0:0:
448,192,119187,1,0,0:0:0:0:
192,192,119295,1,0,0:0:0:0:
320,192,119402,1,0,0:0:0:0:
448,192,119402,1,0,0:0:0:0:
64,192,119616,1,0,0:0:0:0:
192,192,119616,1,0,0:0:0:0:
448,192,119616,1,0,0:0:0:0:
192,192,119830,1,0,0:0:0:0:
320,192,119830,1,0,0:0:0:0:
192,192,119937,1,0,0:0:0:0:
64,192,120045,1,0,0:0:0:0:
320,192,120045,1,0,0:0:0:0:
448,192,120045,1,0,0:0:0:0:
320,192,120259,1,0,0:0:0:0:
192,192,120366,1,0,0:0:0:0:
64,192,120473,1,0,0:0:0:0:
320,192,120473,1,0,0:0:0:0:
448,192,120473,1,0,0:0:0:0:
192,192,120687,1,0,0:0:0:0:
320,192,120687,1,0,0:0:0:0:
64,192,120902,1,0,0:0:0:0:
448,192,120902,1,0,0:0:0:0:
448,192,121009,1,0,0:0:0:0:
192,192,121116,1,0,0:0:0:0:
320,192,121116,1,0,0:0:0:0:
64,192,121330,1,0,0:0:0:0:
192,192,121330,1,0,0:0:0:0:
448,192,121330,1,0,0:0:0:0:
192,192,121545,1,0,0:0:0:0:
320,192,121545,1,0,0:0:0:0:
192,192,121652,1,0,0:0:0:0:
64,192,121759,1,0,0:0:0:0:
320,192,121759,1,0,0:0:0:0:
448,192,121759,1,0,0:0:0:0:
192,192,121973,1,0,0:0:0:0:
64,192,122187,1,0,0:0:0:0:
192,192,122187,1,0,0:0:0:0:
320,192,122187,1,0,0:0:0:0:
320,192,122402,1,0,0:0:0:0:
448,192,122402,1,0,0:0:0:0:
64,192,122616,1,0,0:0:0:0:
320,192,122616,1,0,0:0:0:0:
448,192,122616,1,0,0:0:0:0:
192,192,122723,1,0,0:0:0:0:
320,192,122830,1,0,0:0:0:0:
64,192,123045,1,0,0:0:0:0:
192,192,123045,1,0,0:0:0:0:
320,192,123045,1,0,0:0:0:0:
192,192,123259,1,0,0:0:0:0:
448,192,123259,1,0,0:0:0:0:
320,192,123366,1,0,0:0:0:0:
64,192,123473,1,0,0:0:0:0:
192,192,123473,1,0,0:0:0:0:
448,192,123473,1,0,0:0:0:0:
320,192,123687,1,0,0:0:0:0:
448,192,123687,1,0,0:0:0:0:
64,192,123902,1,0,0:0:0:0:
192,192,123902,1,0,0:0:0:0:
320,192,123902,1,0,0:0:0:0:
64,192,124116,1,0,0:0:0:0:
448,192,124116,1,0,0:0:0:0:
64,192,124330,1,0,0:0:0:0:
192,192,124330,1,0,0:0:0:0:
320,192,124330,1,0,0:0:0:0:
448,192,124437,1,0,0:0:0:0:
192,192,124545,1,0,0:0:0:0:
64,192,124759,1,0,0:0:0:0:
320,192,124759,1,0,0:0:0:0:
448,192,124759,1,0,0:0:0:0:
192,192,124973,1,0,0:0:0:0:
320,192,124973,1,0,0:0:0:0:
320,192,125080,1,0,0:0:0:0:
64,192,125187,1,0,0:0:0:0:
192,192,125187,1,0,0:0:0:0:
448,192,125187,1,0,0:0:0:0:
192,192,125402,1,0,0:0:0:0:
320,192,125509,1,0,0:0:0:0:
64,192,125616,1,0,0:0:0:0:
192,192,125616,1,0,0:0:0:0:
448,192,125616,1,0,0:0:0:0:
192,192,125830,1,0,0:0:0:0:
320,192,125830,1,0,0:0:0:0:
320,192,126045,1,0,0:0:0:0:
448,192,126045,1,0,0:0:0:0:
192,192,126152,1,0,0:0:0:0:
64,192,126259,1,0,0:0:0:0:
320,192,126259,1,0,0:0:0:0:
64,192,126473,1,0,0:0:0:0:
192,192,126473,1,0,0:0:0:0:
448,192,126473,1,0,0:0:0:0:
192,192,126687,1,0,0:0:0:0:
320,192,126687,1,0,0:0:0:0:
192,192,126795,1,0,0:0:0:0:
64,192,126902,1,0,0:0:0:0:
320,192,126902,1,0,0:0:0:0:
448,192,126902,1,0,0:0:0:0:
192,192,127009,1,0,0:0:0:0:
64,192,127116,1,0,0:0:0:0:
448,192,127116,1,0,0:0:0:0:
64,192,127330,1,0,0:0:0:0:
192,192,127330,1,0,0:0:0:0:
64,192,127437,1,0,0:0:0:0:
192,192,127437,1,0,0:0:0:0:
320,192,127545,1,0,0:0:0:0:
448,192,127545,1,0,0:0:0:0:
64,192,127652,1,0,0:0:0:0:
192,192,127652,1,0,0:0:0:0:
192,192,127759,1,0,0:0:0:0:
320,192,127759,1,0,0:0:0:0:
320,192,127866,1,0,0:0:0:0:
448,192,127866,1,0,0:0:0:0:
64,192,127973,1,0,0:0:0:0:
192,192,127973,1,0,0:0:0:0:
64,192,128080,1,0,0:0:0:0:
192,192,128080,1,0,0:0:0:0:
320,192,128187,1,0,0:0:0:0:
448,0,128187,128,0,128402:1:0:0:0:
320,192,128402,1,0,0:0:0:0:
192,192,128455,1,0,0:0:0:0:
320,192,128509,1,0,0:0:0:0:
192,192,128562,1,0,0:0:0:0:
64,192,128616,1,0,0:0:0:0:
320,192,128616,1,0,0:0:0:0:
448,192,128616,1,0,0:0:0:0:
64,192,128830,1,0,0:0:0:0:
192,192,128830,1,0,0:0:0:0:
64,192,129045,1,0,0:0:0:0:
320,192,129045,1,0,0:0:0:0:
448,192,129045,1,0,0:0:0:0:
192,192,129259,1,0,0:0:0:0:
320,192,129259,1,0,0:0:0:0:
320,192,129473,1,0,0:0:0:0:
448,192,129473,1,0,0:0:0:0:
64,192,129580,1,0,0:0:0:0:
192,192,129580,1,0,0:0:0:0:
64,192,129687,1,0,0:0:0:0:
192,192,129687,1,0,0:0:0:0:
320,192,129795,1,0,0:0:0:0:
64,192,129902,1,0,0:0:0:0:
192,192,129902,1,0,0:0:0:0:
448,192,129902,1,0,0:0:0:0:
192,192,130116,1,0,0:0:0:0:
448,192,130116,1,0,0:0:0:0:
192,192,130223,1,0,0:0:0:0:
448,192,130223,1,0,0:0:0:0:
64,192,130330,1,0,0:0:0:0:
320,192,130330,1,0,0:0:0:0:
64,192,130545,1,0,0:0:0:0:
192,192,130545,1,0,0:0:0:0:
64,192,130759,1,0,0:0:0:0:
192,192,130759,1,0,0:0:0:0:
448,192,130759,1,0,0:0:0:0:
192,192,130973,1,0,0:0:0:0:
448,192,130973,1,0,0:0:0:0:
320,192,131080,1,0,0:0:0:0:
448,192,131080,1,0,0:0:0:0:
64,192,131187,1,0,0:0:0:0:
192,192,131187,1,0,0:0:0:0:
320,192,131295,1,0,0:0:0:0:
448,192,131295,1,0,0:0:0:0:
320,192,131402,1,0,0:0:0:0:
448,192,131402,1,0,0:0:0:0:
192,192,131509,1,0,0:0:0:0:
64,192,131616,1,0,0:0:0:0:
320,192,131616,1,0,0:0:0:0:
448,192,131616,1,0,0:0:0:0:
192,0,131830,128,0,131937:1:0:0:0:
320,0,131830,128,0,131937:1:0:0:0:
64,192,132045,1,0,0:0:0:0:
448,192,132045,1,0,0:0:0:0:
64,192,132259,1,0,0:0:0:0:
192,192,132259,1,0,0:0:0:0:
192,192,132473,1,0,0:0:0:0:
320,192,132473,1,0,0:0:0:0:
448,192,132473,1,0,0:0:0:0:
64,192,132687,1,0,0:0:0:0:
320,192,132687,1,0,0:0:0:0:
192,192,132902,1,0,0:0:0:0:
320,192,132902,1,0,0:0:0:0:
64,192,133009,1,0,0:0:0:0:
448,192,133009,1,0,0:0:0:0:
64,192,133116,1,0,0:0:0:0:
448,192,133116,1,0,0:0:0:0:
192,192,133223,1,0,0:0:0:0:
64,192,133330,1,0,0:0:0:0:
320,192,133330,1,0,0:0:0:0:
448,192,133330,1,0,0:0:0:0:
192,192,133545,1,0,0:0:0:0:
448,192,133545,1,0,0:0:0:0:
192,192,133652,1,0,0:0:0:0:
448,192,133652,1,0,0:0:0:0:
64,192,133759,1,0,0:0:0:0:
320,192,133759,1,0,0:0:0:0:
192,192,133973,1,0,0:0:0:0:
320,192,133973,1,0,0:0:0:0:
64,192,134187,1,0,0:0:0:0:
448,192,134187,1,0,0:0:0:0:
64,192,134402,1,0,0:0:0:0:
320,192,134402,1,0,0:0:0:0:
192,192,134509,1,0,0:0:0:0:
320,192,134509,1,0,0:0:0:0:
64,192,134616,1,0,0:0:0:0:
448,192,134616,1,0,0:0:0:0:
192,192,134723,1,0,0:0:0:0:
320,192,134723,1,0,0:0:0:0:
192,192,134830,1,0,0:0:0:0:
320,192,134830,1,0,0:0:0:0:
64,192,134937,1,0,0:0:0:0:
192,192,135045,1,0,0:0:0:0:
320,192,135045,1,0,0:0:0:0:
448,192,135045,1,0,0:0:0:0:
64,0,135259,128,0,135366:1:0:0:0:
448,0,135259,128,0,135366:1:0:0:0:
192,192,135473,1,0,0:0:0:0:
320,192,135473,1,0,0:0:0:0:
64,192,135687,1,0,0:0:0:0:
320,192,135687,1,0,0:0:0:0:
64,192,135902,1,0,0:0:0:0:
192,192,135902,1,0,0:0:0:0:
448,192,135902,1,0,0:0:0:0:
320,192,136116,1,0,0:0:0:0:
448,192,136116,1,0,0:0:0:0:
192,192,136330,1,0,0:0:0:0:
448,192,136330,1,0,0:0:0:0:
64,192,136437,1,0,0:0:0:0:
320,192,136437,1,0,0:0:0:0:
64,192,136545,1,0,0:0:0:0:
192,192,136545,1,0,0:0:0:0:
320,192,136652,1,0,0:0:0:0:
64,192,136759,1,0,0:0:0:0:
192,192,136759,1,0,0:0:0:0:
448,192,136759,1,0,0:0:0:0:
192,192,136973,1,0,0:0:0:0:
320,192,136973,1,0,0:0:0:0:
192,192,137080,1,0,0:0:0:0:
320,192,137080,1,0,0:0:0:0:
64,192,137187,1,0,0:0:0:0:
448,192,137187,1,0,0:0:0:0:
64,192,137402,1,0,0:0:0:0:
192,192,137402,1,0,0:0:0:0:
192,192,137616,1,0,0:0:0:0:
448,192,137616,1,0,0:0:0:0:
192,192,137830,1,0,0:0:0:0:
320,192,137830,1,0,0:0:0:0:
320,192,137937,1,0,0:0:0:0:
448,192,137937,1,0,0:0:0:0:
64,192,138045,1,0,0:0:0:0:
192,192,138045,1,0,0:0:0:0:
64,192,138152,1,0,0:0:0:0:
192,192,138152,1,0,0:0:0:0:
320,192,138259,1,0,0:0:0:0:
448,192,138259,1,0,0:0:0:0:
192,192,138366,1,0,0:0:0:0:
64,192,138473,1,0,0:0:0:0:
320,192,138473,1,0,0:0:0:0:
448,192,138473,1,0,0:0:0:0:
192,192,138687,1,0,0:0:0:0:
320,192,138687,1,0,0:0:0:0:
64,192,138902,1,0,0:0:0:0:
320,192,138902,1,0,0:0:0:0:
448,192,138902,1,0,0:0:0:0:
64,192,139116,1,0,0:0:0:0:
448,192,139116,1,0,0:0:0:0:
192,192,139223,1,0,0:0:0:0:
320,192,139223,1,0,0:0:0:0:
64,192,139330,1,0,0:0:0:0:
320,192,139330,1,0,0:0:0:0:
448,0,139330,128,0,139545:1:0:0:0:
64,192,139545,1,0,0:0:0:0:
192,192,139545,1,0,0:0:0:0:
64,192,139759,1,0,0:0:0:0:
192,192,139759,1,0,0:0:0:0:
448,192,139759,1,0,0:0:0:0:
320,192,139866,1,0,0:0:0:0:
64,192,139973,1,0,0:0:0:0:
192,192,139973,1,0,0:0:0:0:
320,192,140080,1,0,0:0:0:0:
448,192,140080,1,0,0:0:0:0:
64,192,140187,1,0,0:0:0:0:
192,192,140187,1,0,0:0:0:0:
448,0,140187,128,0,140402:1:0:0:0:
64,192,140402,1,0,0:0:0:0:
192,192,140402,1,0,0:0:0:0:
64,192,140509,1,0,0:0:0:0:
192,192,140509,1,0,0:0:0:0:
64,192,140616,1,0,0:0:0:0:
320,192,140616,1,0,0:0:0:0:
448,192,140616,1,0,0:0:0:0:
192,192,140687,1,0,0:0:0:0:
320,192,140759,1,0,0:0:0:0:
64,192,140830,1,0,0:0:0:0:
448,192,140830,1,0,0:0:0:0:
192,192,140902,1,0,0:0:0:0:
320,192,140973,1,0,0:0:0:0:
64,192,141045,1,0,0:0:0:0:
192,192,141045,1,0,0:0:0:0:
448,192,141045,1,0,0:0:0:0:
320,192,141116,1,0,0:0:0:0:
64,192,141187,1,0,0:0:0:0:
448,192,141259,1,0,0:0:0:0:
320,192,141330,1,0,0:0:0:0:
192,192,141402,1,0,0:0:0:0:
64,192,141473,1,0,0:0:0:0:
320,192,141473,1,0,0:0:0:0:
448,192,141473,1,0,0:0:0:0:
192,192,141545,1,0,0:0:0:0:
320,192,141616,1,0,0:0:0:0:
64,192,141687,1,0,0:0:0:0:
448,192,141687,1,0,0:0:0:0:
192,192,141759,1,0,0:0:0:0:
320,192,141830,1,0,0:0:0:0:
64,192,141902,1,0,0:0:0:0:
192,192,141902,1,0,0:0:0:0:
448,192,141902,1,0,0:0:0:0:
320,192,141973,1,0,0:0:0:0:
192,192,142045,1,0,0:0:0:0:
64,192,142116,1,0,0:0:0:0:
448,192,142116,1,0,0:0:0:0:
320,192,142187,1,0,0:0:0:0:
192,192,142259,1,0,0:0:0:0:
64,192,142330,1,0,0:0:0:0:
320,192,142330,1,0,0:0:0:0:
448,192,142330,1,0,0:0:0:0:
64,192,142545,1,0,0:0:0:0:
192,192,142545,1,0,0:0:0:0:
64,192,142759,1,0,0:0:0:0:
320,192,142759,1,0,0:0:0:0:
448,192,142759,1,0,0:0:0:0:
192,192,142973,1,0,0:0:0:0:
320,192,142973,1,0,0:0:0:0:
320,192,143187,1,0,0:0:0:0:
448,192,143187,1,0,0:0:0:0:
192,192,143295,1,0,0:0:0:0:
320,192,143295,1,0,0:0:0:0:
64,192,143402,1,0,0:0:0:0:
192,192,143402,1,0,0:0:0:0:
320,192,143509,1,0,0:0:0:0:
64,192,143616,1,0,0:0:0:0:
192,192,143616,1,0,0:0:0:0:
448,192,143616,1,0,0:0:0:0:
320,192,143830,1,0,0:0:0:0:
448,192,143830,1,0,0:0:0:0:
320,192,143937,1,0,0:0:0:0:
448,192,143937,1,0,0:0:0:0:
64,192,144045,1,0,0:0:0:0:
192,192,144045,1,0,0:0:0:0:
192,192,144259,1,0,0:0:0:0:
320,192,144259,1,0,0:0:0:0:
64,192,144473,1,0,0:0:0:0:
320,192,144473,1,0,0:0:0:0:
448,192,144473,1,0,0:0:0:0:
192,192,144687,1,0,0:0:0:0:
320,192,144687,1,0,0:0:0:0:
64,192,144795,1,0,0:0:0:0:
192,192,144795,1,0,0:0:0:0:
320,192,144902,1,0,0:0:0:0:
448,192,144902,1,0,0:0:0:0:
64,192,145009,1,0,0:0:0:0:
192,192,145009,1,0,0:0:0:0:
192,192,145116,1,0,0:0:0:0:
448,192,145116,1,0,0:0:0:0:
320,192,145223,1,0,0:0:0:0:
64,192,145330,1,0,0:0:0:0:
192,192,145330,1,0,0:0:0:0:
448,192,145330,1,0,0:0:0:0:
192,0,145545,128,0,145652:1:0:0:0:
320,0,145545,128,0,145652:1:0:0:0:
64,192,145759,1,0,0:0:0:0:
448,192,145759,1,0,0:0:0:0:
192,192,145973,1,0,0:0:0:0:
320,192,145973,1,0,0:0:0:0:
64,192,146187,1,0,0:0:0:0:
320,192,146187,1,0,0:0:0:0:
448,192,146187,1,0,0:0:0:0:
64,192,146402,1,0,0:0:0:0:
192,192,146402,1,0,0:0:0:0:
64,192,146616,1,0,0:0:0:0:
448,192,146616,1,0,0:0:0:0:
192,192,146723,1,0,0:0:0:0:
320,192,146723,1,0,0:0:0:0:
64,192,146830,1,0,0:0:0:0:
320,192,146830,1,0,0:0:0:0:
448,192,146937,1,0,0:0:0:0:
64,192,147045,1,0,0:0:0:0:
192,192,147045,1,0,0:0:0:0:
320,192,147045,1,0,0:0:0:0:
64,192,147259,1,0,0:0:0:0:
448,192,147259,1,0,0:0:0:0:
64,192,147366,1,0,0:0:0:0:
448,192,147366,1,0,0:0:0:0:
192,192,147473,1,0,0:0:0:0:
320,192,147473,1,0,0:0:0:0:
192,192,147687,1,0,0:0:0:0:
448,192,147687,1,0,0:0:0:0:
64,192,147902,1,0,0:0:0:0:
320,192,147902,1,0,0:0:0:0:
192,192,148116,1,0,0:0:0:0:
320,192,148116,1,0,0:0:0:0:
64,192,148223,1,0,0:0:0:0:
320,192,148223,1,0,0:0:0:0:
64,192,148330,1,0,0:0:0:0:
192,192,148330,1,0,0:0:0:0:
192,192,148437,1,0,0:0:0:0:
448,192,148437,1,0,0:0:0:0:
64,192,148545,1,0,0:0:0:0:
320,192,148545,1,0,0:0:0:0:
192,192,148652,1,0,0:0:0:0:
64,192,148759,1,0,0:0:0:0:
320,192,148759,1,0,0:0:0:0:
448,192,148759,1,0,0:0:0:0:
192,0,148973,128,0,149080:1:0:0:0:
448,0,148973,128,0,149080:1:0:0:0:
64,192,149187,1,0,0:0:0:0:
320,192,149187,1,0,0:0:0:0:
192,192,149402,1,0,0:0:0:0:
448,192,149402,1,0,0:0:0:0:
64,192,149616,1,0,0:0:0:0:
320,192,149616,1,0,0:0:0:0:
448,192,149616,1,0,0:0:0:0:
192,192,149830,1,0,0:0:0:0:
320,192,149830,1,0,0:0:0:0:
192,192,150045,1,0,0:0:0:0:
448,192,150045,1,0,0:0:0:0:
320,192,150152,1,0,0:0:0:0:
64,192,150259,1,0,0:0:0:0:
192,192,150259,1,0,0:0:0:0:
320,192,150366,1,0,0:0:0:0:
448,192,150366,1,0,0:0:0:0:
64,192,150473,1,0,0:0:0:0:
192,192,150473,1,0,0:0:0:0:
448,192,150473,1,0,0:0:0:0:
192,192,150687,1,0,0:0:0:0:
320,192,150687,1,0,0:0:0:0:
192,192,150795,1,0,0:0:0:0:
320,192,150795,1,0,0:0:0:0:
64,192,150902,1,0,0:0:0:0:
320,192,150902,1,0,0:0:0:0:
448,192,150902,1,0,0:0:0:0:
64,192,151116,1,0,0:0:0:0:
192,192,151116,1,0,0:0:0:0:
64,192,151330,1,0,0:0:0:0:
192,192,151330,1,0,0:0:0:0:
448,192,151330,1,0,0:0:0:0:
192,192,151437,1,0,0:0:0:0:
320,192,151437,1,0,0:0:0:0:
320,192,151545,1,0,0:0:0:0:
448,192,151545,1,0,0:0:0:0:
64,192,151652,1,0,0:0:0:0:
192,192,151652,1,0,0:0:0:0:
320,192,151759,1,0,0:0:0:0:
448,192,151759,1,0,0:0:0:0:
192,192,151866,1,0,0:0:0:0:
448,192,151866,1,0,0:0:0:0:
64,192,151973,1,0,0:0:0:0:
192,192,151973,1,0,0:0:0:0:
320,192,152080,1,0,0:0:0:0:
64,192,152187,1,0,0:0:0:0:
192,192,152187,1,0,0:0:0:0:
448,192,152187,1,0,0:0:0:0:
192,192,152402,1,0,0:0:0:0:
320,192,152402,1,0,0:0:0:0:
64,192,152616,1,0,0:0:0:0:
320,192,152616,1,0,0:0:0:0:
448,192,152616,1,0,0:0:0:0:
64,192,152830,1,0,0:0:0:0:
448,192,152830,1,0,0:0:0:0:
192,192,152937,1,0,0:0:0:0:
320,192,152937,1,0,0:0:0:0:
64,192,153045,1,0,0:0:0:0:
320,192,153045,1,0,0:0:0:0:
448,0,153045,128,0,153259:1:0:0:0:
64,192,153259,1,0,0:0:0:0:
192,192,153259,1,0,0:0:0:0:
64,192,153473,1,0,0:0:0:0:
192,192,153473,1,0,0:0:0:0:
448,192,153473,1,0,0:0:0:0:
320,192,153580,1,0,0:0:0:0:
64,192,153687,1,0,0:0:0:0:
192,192,153687,1,0,0:0:0:0:
320,192,153795,1,0,0:0:0:0:
448,192,153795,1,0,0:0:0:0:
64,192,153902,1,0,0:0:0:0:
192,192,153902,1,0,0:0:0:0:
448,0,153902,128,0,154116:1:0:0:0:
64,192,154116,1,0,0:0:0:0:
192,192,154116,1,0,0:0:0:0:
64,192,154223,1,0,0:0:0:0:
192,192,154223,1,0,0:0:0:0:
320,192,154330,1,0,0:0:0:0:
448,192,154330,1,0,0:0:0:0:
320,192,154545,1,0,0:0:0:0:
448,192,154545,1,0,0:0:0:0:
64,192,154652,1,0,0:0:0:0:
192,192,154759,1,0,0:0:0:0:
448,192,154759,1,0,0:0:0:0:
64,192,154973,1,0,0:0:0:0:
320,192,154973,1,0,0:0:0:0:
64,192,155187,1,0,0:0:0:0:
192,192,155187,1,0,0:0:0:0:
448,192,155295,1,0,0:0:0:0:
64,192,155402,1,0,0:0:0:0:
192,192,155402,1,0,0:0:0:0:
320,192,155509,1,0,0:0:0:0:
192,0,155616,128,0,155830:1:0:0:0:
448,0,155616,128,0,155830:1:0:0:0:
320,192,155830,1,0,0:0:0:0:
64,0,156045,128,0,156259:1:0:0:0:
320,192,156473,1,0,0:0:0:0:
448,0,156473,128,0,157116:1:0:0:0:
64,192,156687,1,0,0:0:0:0:
64,192,157116,1,0,0:0:0:0:
64,192,157223,1,0,0:0:0:0:
192,192,157330,1,0,0:0:0:0:
320,192,157330,1,0,0:0:0:0:
64,192,157545,1,0,0:0:0:0:
448,192,157545,1,0,0:0:0:0:
448,192,157759,1,0,0:0:0:0:
64,0,157759,128,0,158187:1:0:0:0:
320,192,157866,1,0,0:0:0:0:
192,192,158080,1,0,0:0:0:0:
320,192,158187,1,0,0:0:0:0:
192,192,158402,1,0,0:0:0:0:
448,192,158402,1,0,0:0:0:0:
448,192,158509,1,0,0:0:0:0:
320,192,158616,1,0,0:0:0:0:
64,192,158830,1,0,0:0:0:0:
320,192,158830,1,0,0:0:0:0:
64,192,158937,1,0,0:0:0:0:
192,192,159045,1,0,0:0:0:0:
320,192,159045,1,0,0:0:0:0:
64,192,159259,1,0,0:0:0:0:
448,192,159259,1,0,0:0:0:0:
64,0,159473,128,0,159687:1:0:0:0:
320,0,159473,128,0,159687:1:0:0:0:
320,192,159902,1,0,0:0:0:0:
192,0,159902,128,0,160330:1:0:0:0:
448,0,159902,128,0,160545:1:0:0:0:
64,192,160116,1,0,0:0:0:0:
64,192,160545,1,0,0:0:0:0:
64,192,160652,1,0,0:0:0:0:
192,192,160759,1,0,0:0:0:0:
320,192,160759,1,0,0:0:0:0:
64,192,160973,1,0,0:0:0:0:
448,192,160973,1,0,0:0:0:0:
320,192,161187,1,0,0:0:0:0:
64,0,161187,128,0,161616:1:0:0:0:
192,192,161295,1,0,0:0:0:0:
448,192,161509,1,0,0:0:0:0:
320,192,161616,1,0,0:0:0:0:
64,192,161830,1,0,0:0:0:0:
192,192,161830,1,0,0:0:0:0:
64,192,161937,1,0,0:0:0:0:
320,192,162045,1,0,0:0:0:0:
64,192,162259,1,0,0:0:0:0:
448,192,162259,1,0,0:0:0:0:
448,192,162366,1,0,0:0:0:0:
192,192,162473,1,0,0:0:0:0:
320,192,162473,1,0,0:0:0:0:
64,192,162687,1,0,0:0:0:0:
192,192,162687,1,0,0:0:0:0:
448,0,162902,128,0,163116:1:0:0:0:
64,192,163116,1,0,0:0:0:0:
320,192,163330,1,0,0:0:0:0:
192,0,163330,128,0,163759:1:0:0:0:
448,0,163330,128,0,163973:1:0:0:0:
64,192,163545,1,0,0:0:0:0:
64,192,163973,1,0,0:0:0:0:
64,192,164080,1,0,0:0:0:0:
192,192,164187,1,0,0:0:0:0:
448,192,164187,1,0,0:0:0:0:
64,192,164402,1,0,0:0:0:0:
192,192,164402,1,0,0:0:0:0:
320,0,164616,128,0,164830:1:0:0:0:
64,0,164616,128,0,165045:1:0:0:0:
448,192,164937,1,0,0:0:0:0:
192,192,165045,1,0,0:0:0:0:
64,192,165259,1,0,0:0:0:0:
320,192,165259,1,0,0:0:0:0:
64,192,165366,1,0,0:0:0:0:
192,192,165473,1,0,0:0:0:0:
64,192,165687,1,0,0:0:0:0:
448,192,165687,1,0,0:0:0:0:
448,192,165795,1,0,0:0:0:0:
192,192,165902,1,0,0:0:0:0:
320,192,165902,1,0,0:0:0:0:
64,192,166116,1,0,0:0:0:0:
448,192,166116,1,0,0:0:0:0:
64,0,166330,128,0,166545:1:0:0:0:
320,0,166330,128,0,167402:1:0:0:0:
192,192,166759,1,0,0:0:0:0:
448,0,166759,128,0,166973:1:0:0:0:
64,192,166973,1,0,0:0:0:0:
192,0,167187,128,0,167616:1:0:0:0:
64,192,167402,1,0,0:0:0:0:
64,192,167509,1,0,0:0:0:0:
320,192,167616,1,0,0:0:0:0:
448,192,167616,1,0,0:0:0:0:
64,192,167830,1,0,0:0:0:0:
448,192,168045,1,0,0:0:0:0:
192,0,168045,128,0,168366:1:0:0:0:
64,0,168045,128,0,168473:1:0:0:0:
320,192,168473,1,0,0:0:0:0:
64,192,168687,1,0,0:0:0:0:
320,192,168687,1,0,0:0:0:0:
64,192,168795,1,0,0:0:0:0:
192,192,168795,1,0,0:0:0:0:
448,192,168902,1,0,0:0:0:0:
64,192,169116,1,0,0:0:0:0:
320,192,169116,1,0,0:0:0:0:
320,192,169223,1,0,0:0:0:0:
192,192,169330,1,0,0:0:0:0:
448,192,169330,1,0,0:0:0:0:
64,0,169330,128,0,169652:1:0:0:0:
64,192,169759,1,0,0:0:0:0:
320,192,169759,1,0,0:0:0:0:
448,192,169759,1,0,0:0:0:0:
192,192,169973,1,0,0:0:0:0:
320,192,169973,1,0,0:0:0:0:
192,192,170080,1,0,0:0:0:0:
64,192,170187,1,0,0:0:0:0:
448,192,170187,1,0,0:0:0:0:
192,192,170402,1,0,0:0:0:0:
320,192,170402,1,0,0:0:0:0:
64,192,170616,1,0,0:0:0:0:
192,192,170616,1,0,0:0:0:0:
448,192,170723,1,0,0:0:0:0:
64,192,170830,1,0,0:0:0:0:
320,192,170937,1,0,0:0:0:0:
448,192,170937,1,0,0:0:0:0:
64,192,171045,1,0,0:0:0:0:
192,192,171045,1,0,0:0:0:0:
320,192,171259,1,0,0:0:0:0:
448,192,171259,1,0,0:0:0:0:
192,192,171366,1,0,0:0:0:0:
64,192,171473,1,0,0:0:0:0:
448,192,171473,1,0,0:0:0:0:
192,192,171687,1,0,0:0:0:0:
320,192,171687,1,0,0:0:0:0:
320,192,171795,1,0,0:0:0:0:
64,192,171902,1,0,0:0:0:0:
448,192,171902,1,0,0:0:0:0:
192,192,172116,1,0,0:0:0:0:
320,192,172116,1,0,0:0:0:0:
64,192,172223,1,0,0:0:0:0:
192,192,172330,1,0,0:0:0:0:
448,192,172330,1,0,0:0:0:0:
64,192,172437,1,0,0:0:0:0:
320,192,172545,1,0,0:0:0:0:
192,192,172652,1,0,0:0:0:0:
448,192,172652,1,0,0:0:0:0:
64,192,172759,1,0,0:0:0:0:
320,192,172759,1,0,0:0:0:0:
192,192,172973,1,0,0:0:0:0:
448,192,172973,1,0,0:0:0:0:
64,192,173187,1,0,0:0:0:0:
320,192,173187,1,0,0:0:0:0:
192,192,173402,1,0,0:0:0:0:
192,192,173509,1,0,0:0:0:0:
64,192,173616,1,0,0:0:0:0:
448,192,173616,1,0,0:0:0:0:
192,192,173830,1,0,0:0:0:0:
320,192,173830,1,0,0:0:0:0:
320,192,174045,1,0,0:0:0:0:
448,192,174045,1,0,0:0:0:0:
64,192,174152,1,0,0:0:0:0:
320,192,174259,1,0,0:0:0:0:
64,192,174366,1,0,0:0:0:0:
192,192,174366,1,0,0:0:0:0:
320,192,174473,1,0,0:0:0:0:
448,192,174473,1,0,0:0:0:0:
64,192,174687,1,0,0:0:0:0:
192,192,174687,1,0,0:0:0:0:
192,192,174902,1,0,0:0:0:0:
448,192,174902,1,0,0:0:0:0:
64,192,175116,1,0,0:0:0:0:
320,192,175116,1,0,0:0:0:0:
64,192,175223,1,0,0:0:0:0:
192,192,175330,1,0,0:0:0:0:
320,192,175330,1,0,0:0:0:0:
320,192,175437,1,0,0:0:0:0:
448,192,175437,1,0,0:0:0:0:
64,192,175545,1,0,0:0:0:0:
192,192,175545,1,0,0:0:0:0:
192,192,175759,1,0,0:0:0:0:
448,192,175759,1,0,0:0:0:0:
320,192,175866,1,0,0:0:0:0:
64,192,175973,1,0,0:0:0:0:
192,192,175973,1,0,0:0:0:0:
320,192,176080,1,0,0:0:0:0:
64,192,176187,1,0,0:0:0:0:
448,192,176187,1,0,0:0:0:0:
192,192,176295,1,0,0:0:0:0:
64,192,176402,1,0,0:0:0:0:
320,192,176402,1,0,0:0:0:0:
64,192,176616,1,0,0:0:0:0:
320,192,176616,1,0,0:0:0:0:
448,192,176616,1,0,0:0:0:0:
192,192,176830,1,0,0:0:0:0:
320,192,176830,1,0,0:0:0:0:
192,192,176937,1,0,0:0:0:0:
64,192,177045,1,0,0:0:0:0:
320,192,177045,1,0,0:0:0:0:
448,192,177045,1,0,0:0:0:0:
192,192,177259,1,0,0:0:0:0:
320,192,177259,1,0,0:0:0:0:
64,192,177473,1,0,0:0:0:0:
192,192,177473,1,0,0:0:0:0:
448,192,177580,1,0,0:0:0:0:
64,192,177687,1,0,0:0:0:0:
320,192,177795,1,0,0:0:0:0:
448,192,177795,1,0,0:0:0:0:
64,192,177902,1,0,0:0:0:0:
192,192,177902,1,0,0:0:0:0:
448,192,177902,1,0,0:0:0:0:
320,192,178116,1,0,0:0:0:0:
448,192,178116,1,0,0:0:0:0:
192,192,178223,1,0,0:0:0:0:
64,192,178330,1,0,0:0:0:0:
320,192,178330,1,0,0:0:0:0:
448,192,178330,1,0,0:0:0:0:
192,192,178545,1,0,0:0:0:0:
320,192,178545,1,0,0:0:0:0:
320,192,178652,1,0,0:0:0:0:
64,192,178759,1,0,0:0:0:0:
192,192,178759,1,0,0:0:0:0:
448,192,178759,1,0,0:0:0:0:
192,192,178973,1,0,0:0:0:0:
320,192,178973,1,0,0:0:0:0:
64,192,179080,1,0,0:0:0:0:
192,192,179187,1,0,0:0:0:0:
448,192,179187,1,0,0:0:0:0:
64,192,179295,1,0,0:0:0:0:
320,192,179402,1,0,0:0:0:0:
192,192,179509,1,0,0:0:0:0:
448,192,179509,1,0,0:0:0:0:
64,192,179616,1,0,0:0:0:0:
192,192,179616,1,0,0:0:0:0:
320,192,179616,1,0,0:0:0:0:
192,192,179830,1,0,0:0:0:0:
448,192,179830,1,0,0:0:0:0:
64,192,180045,1,0,0:0:0:0:
320,192,180045,1,0,0:0:0:0:
448,192,180045,1,0,0:0:0:0:
192,192,180259,1,0,0:0:0:0:
192,192,180366,1,0,0:0:0:0:
64,192,180473,1,0,0:0:0:0:
320,192,180473,1,0,0:0:0:0:
448,192,180473,1,0,0:0:0:0:
192,192,180687,1,0,0:0:0:0:
320,192,180687,1,0,0:0:0:0:
320,192,180902,1,0,0:0:0:0:
448,192,180902,1,0,0:0:0:0:
64,192,181009,1,0,0:0:0:0:
320,192,181116,1,0,0:0:0:0:
64,192,181223,1,0,0:0:0:0:
192,192,181223,1,0,0:0:0:0:
64,192,181330,1,0,0:0:0:0:
320,192,181330,1,0,0:0:0:0:
448,192,181330,1,0,0:0:0:0:
64,192,181545,1,0,0:0:0:0:
192,192,181545,1,0,0:0:0:0:
192,192,181759,1,0,0:0:0:0:
320,192,181759,1,0,0:0:0:0:
448,192,181759,1,0,0:0:0:0:
64,192,181973,1,0,0:0:0:0:
448,192,181973,1,0,0:0:0:0:
192,192,182045,1,0,0:0:0:0:
320,192,182116,1,0,0:0:0:0:
64,192,182187,1,0,0:0:0:0:
448,192,182187,1,0,0:0:0:0:
192,192,182295,1,0,0:0:0:0:
320,192,182295,1,0,0:0:0:0:
64,192,182402,1,0,0:0:0:0:
448,192,182402,1,0,0:0:0:0:
192,192,182616,1,0,0:0:0:0:
448,192,182616,1,0,0:0:0:0:
320,192,182723,1,0,0:0:0:0:
64,192,182830,1,0,0:0:0:0:
192,192,182830,1,0,0:0:0:0:
320,192,182937,1,0,0:0:0:0:
64,192,183045,1,0,0:0:0:0:
448,192,183045,1,0,0:0:0:0:
192,192,183116,1,0,0:0:0:0:
320,192,183187,1,0,0:0:0:0:
64,192,183259,1,0,0:0:0:0:
448,192,183259,1,0,0:0:0:0:
320,192,183330,1,0,0:0:0:0:
192,192,183402,1,0,0:0:0:0:
64,192,183473,1,0,0:0:0:0:
320,192,183473,1,0,0:0:0:0:
448,192,183473,1,0,0:0:0:0:
448,192,184116,1,0,0:0:0:0:
448,192,184330,1,0,0:0:0:0:
448,192,184973,1,0,0:0:0:0:
448,192,185402,1,0,0:0:0:0:
448,192,185830,1,0,0:0:0:0:
448,192,186045,1,0,0:0:0:0:
448,192,186902,1,0,0:0:0:0:
448,192,187545,1,0,0:0:0:0:
448,192,187759,1,0,0:0:0:0:
448,192,188402,1,0,0:0:0:0:
448,192,188830,1,0,0:0:0:0:
448,192,189259,1,0,0:0:0:0:
448,192,189473,1,0,0:0:0:0:
64,192,189902,1,0,0:0:0:0:
192,192,189902,1,0,0:0:0:0:
448,192,190330,1,0,0:0:0:0:
64,192,190545,1,0,0:0:0:0:
320,192,190759,1,0,0:0:0:0:
192,192,190973,1,0,0:0:0:0:
448,192,190973,1,0,0:0:0:0:
448,192,191187,1,0,0:0:0:0:
64,192,191402,1,0,0:0:0:0:
320,192,191616,1,0,0:0:0:0:
192,192,191830,1,0,0:0:0:0:
448,192,191830,1,0,0:0:0:0:
320,192,192045,1,0,0:0:0:0:
64,192,192259,1,0,0:0:0:0:
448,192,192259,1,0,0:0:0:0:
320,192,192473,1,0,0:0:0:0:
192,192,192687,1,0,0:0:0:0:
448,192,192687,1,0,0:0:0:0:
448,192,192902,1,0,0:0:0:0:
64,192,193116,1,0,0:0:0:0:
320,192,193330,1,0,0:0:0:0:
192,192,193545,1,0,0:0:0:0:
448,192,193759,1,0,0:0:0:0:
192,192,193973,1,0,0:0:0:0:
320,192,194187,1,0,0:0:0:0:
64,192,194402,1,0,0:0:0:0:
448,192,194402,1,0,0:0:0:0:
448,192,194616,1,0,0:0:0:0:
192,192,194830,1,0,0:0:0:0:
320,192,195045,1,0,0:0:0:0:
64,192,195259,1,0,0:0:0:0:
448,192,195259,1,0,0:0:0:0:
64,192,195687,1,0,0:0:0:0:
448,192,195687,1,0,0:0:0:0:
64,192,196116,1,0,0:0:0:0:
448,192,196116,1,0,0:0:0:0:
64,192,196330,1,0,0:0:0:0:
448,192,196330,1,0,0:0:0:0:
64,192,196545,1,0,0:0:0:0:
192,192,196545,1,0,0:0:0:0:
64,192,196759,1,0,0:0:0:0:
320,192,196759,1,0,0:0:0:0:
64,192,196973,1,0,0:0:0:0:
448,192,196973,1,0,0:0:0:0:
64,192,197187,1,0,0:0:0:0:
64,192,197402,1,0,0:0:0:0:
192,192,197616,1,0,0:0:0:0:
320,192,197723,1,0,0:0:0:0:
64,192,197937,1,0,0:0:0:0:
320,192,198152,1,0,0:0:0:0:
448,192,198366,1,0,0:0:0:0:
64,192,198473,1,0,0:0:0:0:
192,192,198473,1,0,0:0:0:0:
320,192,198473,1,0,0:0:0:0:
192,192,198687,1,0,0:0:0:0:
320,192,198687,1,0,0:0:0:0:
448,192,198687,1,0,0:0:0:0:
64,192,198902,1,0,0:0:0:0:
320,192,198902,1,0,0:0:0:0:
448,192,198902,1,0,0:0:0:0:
64,192,199116,1,0,0:0:0:0:
192,192,199116,1,0,0:0:0:0:
64,192,199330,1,0,0:0:0:0:
320,192,199330,1,0,0:0:0:0:
448,192,199330,1,0,0:0:0:0:
192,192,199545,1,0,0:0:0:0:
320,192,199545,1,0,0:0:0:0:
320,192,199759,1,0,0:0:0:0:
448,192,199759,1,0,0:0:0:0:
64,192,199866,1,0,0:0:0:0:
192,192,199866,1,0,0:0:0:0:
64,192,199973,1,0,0:0:0:0:
192,192,199973,1,0,0:0:0:0:
320,192,200080,1,0,0:0:0:0:
64,192,200187,1,0,0:0:0:0:
192,192,200187,1,0,0:0:0:0:
448,192,200187,1,0,0:0:0:0:
192,192,200402,1,0,0:0:0:0:
448,192,200402,1,0,0:0:0:0:
192,192,200509,1,0,0:0:0:0:
448,192,200509,1,0,0:0:0:0:
64,192,200616,1,0,0:0:0:0:
320,192,200616,1,0,0:0:0:0:
64,192,200830,1,0,0:0:0:0:
192,192,200830,1,0,0:0:0:0:
64,192,201045,1,0,0:0:0:0:
192,192,201045,1,0,0:0:0:0:
448,192,201045,1,0,0:0:0:0:
192,192,201259,1,0,0:0:0:0:
448,192,201259,1,0,0:0:0:0:
320,192,201366,1,0,0:0:0:0:
448,192,201366,1,0,0:0:0:0:
64,192,201473,1,0,0:0:0:0:
192,192,201473,1,0,0:0:0:0:
320,192,201580,1,0,0:0:0:0:
448,192,201580,1,0,0:0:0:0:
320,192,201687,1,0,0:0:0:0:
448,192,201687,1,0,0:0:0:0:
192,192,201795,1,0,0:0:0:0:
64,192,201902,1,0,0:0:0:0:
320,192,201902,1,0,0:0:0:0:
448,192,201902,1,0,0:0:0:0:
192,0,202116,128,0,202223:1:0:0:0:
320,0,202116,128,0,202223:1:0:0:0:
64,192,202330,1,0,0:0:0:0:
448,192,202330,1,0,0:0:0:0:
64,192,202545,1,0,0:0:0:0:
192,192,202545,1,0,0:0:0:0:
192,192,202759,1,0,0:0:0:0:
320,192,202759,1,0,0:0:0:0:
448,192,202759,1,0,0:0:0:0:
64,192,202973,1,0,0:0:0:0:
320,192,202973,1,0,0:0:0:0:
192,192,203187,1,0,0:0:0:0:
448,192,203187,1,0,0:0:0:0:
64,192,203295,1,0,0:0:0:0:
320,192,203295,1,0,0:0:0:0:
64,192,203402,1,0,0:0:0:0:
320,192,203402,1,0,0:0:0:0:
448,192,203509,1,0,0:0:0:0:
64,192,203616,1,0,0:0:0:0:
192,192,203616,1,0,0:0:0:0:
320,192,203616,1,0,0:0:0:0:
320,192,203830,1,0,0:0:0:0:
448,192,203830,1,0,0:0:0:0:
320,192,203937,1,0,0:0:0:0:
448,192,203937,1,0,0:0:0:0:
64,192,204045,1,0,0:0:0:0:
192,192,204045,1,0,0:0:0:0:
64,192,204259,1,0,0:0:0:0:
448,192,204259,1,0,0:0:0:0:
192,192,204473,1,0,0:0:0:0:
320,192,204473,1,0,0:0:0:0:
192,192,204687,1,0,0:0:0:0:
448,192,204687,1,0,0:0:0:0:
192,192,204795,1,0,0:0:0:0:
320,192,204795,1,0,0:0:0:0:
64,192,204902,1,0,0:0:0:0:
448,192,204902,1,0,0:0:0:0:
192,192,205009,1,0,0:0:0:0:
320,192,205009,1,0,0:0:0:0:
192,192,205116,1,0,0:0:0:0:
320,192,205116,1,0,0:0:0:0:
448,192,205223,1,0,0:0:0:0:
64,192,205330,1,0,0:0:0:0:
192,192,205330,1,0,0:0:0:0:
320,192,205330,1,0,0:0:0:0:
64,0,205545,128,0,205652:1:0:0:0:
448,0,205545,128,0,205652:1:0:0:0:
192,192,205759,1,0,0:0:0:0:
320,192,205759,1,0,0:0:0:0:
64,192,205973,1,0,0:0:0:0:
320,192,205973,1,0,0:0:0:0:
64,192,206187,1,0,0:0:0:0:
192,192,206187,1,0,0:0:0:0:
448,192,206187,1,0,0:0:0:0:
320,192,206402,1,0,0:0:0:0:
448,192,206402,1,0,0:0:0:0:
192,192,206616,1,0,0:0:0:0:
448,192,206616,1,0,0:0:0:0:
64,192,206723,1,0,0:0:0:0:
320,192,206723,1,0,0:0:0:0:
64,192,206830,1,0,0:0:0:0:
192,192,206830,1,0,0:0:0:0:
320,192,206937,1,0,0:0:0:0:
64,192,207045,1,0,0:0:0:0:
192,192,207045,1,0,0:0:0:0:
448,192,207045,1,0,0:0:0:0:
192,192,207259,1,0,0:0:0:0:
320,192,207259,1,0,0:0:0:0:
192,192,207366,1,0,0:0:0:0:
320,192,207366,1,0,0:0:0:0:
64,192,207473,1,0,0:0:0:0:
448,192,207473,1,0,0:0:0:0:
64,192,207687,1,0,0:0:0:0:
192,192,207687,1,0,0:0:0:0:
192,192,207902,1,0,0:0:0:0:
448,192,207902,1,0,0:0:0:0:
64,192,208116,1,0,0:0:0:0:
320,192,208116,1,0,0:0:0:0:
64,192,208223,1,0,0:0:0:0:
192,192,208223,1,0,0:0:0:0:
320,192,208330,1,0,0:0:0:0:
448,192,208330,1,0,0:0:0:0:
320,192,208437,1,0,0:0:0:0:
448,192,208437,1,0,0:0:0:0:
64,192,208545,1,0,0:0:0:0:
192,192,208545,1,0,0:0:0:0:
320,192,208652,1,0,0:0:0:0:
64,192,208759,1,0,0:0:0:0:
192,192,208759,1,0,0:0:0:0:
448,192,208759,1,0,0:0:0:0:
192,192,208973,1,0,0:0:0:0:
320,192,208973,1,0,0:0:0:0:
64,192,209187,1,0,0:0:0:0:
320,192,209187,1,0,0:0:0:0:
448,192,209187,1,0,0:0:0:0:
64,192,209402,1,0,0:0:0:0:
448,192,209402,1,0,0:0:0:0:
192,192,209509,1,0,0:0:0:0:
320,192,209509,1,0,0:0:0:0:
64,192,209616,1,0,0:0:0:0:
320,192,209616,1,0,0:0:0:0:
448,0,209616,128,0,209830:1:0:0:0:
64,192,209830,1,0,0:0:0:0:
192,192,209830,1,0,0:0:0:0:
64,192,210045,1,0,0:0:0:0:
192,192,210045,1,0,0:0:0:0:
448,192,210045,1,0,0:0:0:0:
320,192,210152,1,0,0:0:0:0:
64,192,210259,1,0,0:0:0:0:
192,192,210259,1,0,0:0:0:0:
320,192,210366,1,0,0:0:0:0:
448,192,210366,1,0,0:0:0:0:
64,192,210473,1,0,0:0:0:0:
192,192,210473,1,0,0:0:0:0:
448,0,210473,128,0,210687:1:0:0:0:
64,192,210687,1,0,0:0:0:0:
192,192,210687,1,0,0:0:0:0:
64,192,210795,1,0,0:0:0:0:
192,192,210795,1,0,0:0:0:0:
64,192,210902,1,0,0:0:0:0:
320,192,210902,1,0,0:0:0:0:
448,192,210902,1,0,0:0:0:0:
192,192,210973,1,0,0:0:0:0:
320,192,211045,1,0,0:0:0:0:
64,192,211116,1,0,0:0:0:0:
448,192,211116,1,0,0:0:0:0:
192,192,211187,1,0,0:0:0:0:
320,192,211259,1,0,0:0:0:0:
64,192,211330,1,0,0:0:0:0:
192,192,211330,1,0,0:0:0:0:
448,192,211330,1,0,0:0:0:0:
320,192,211402,1,0,0:0:0:0:
64,192,211473,1,0,0:0:0:0:
448,192,211545,1,0,0:0:0:0:
320,192,211616,1,0,0:0:0:0:
192,192,211687,1,0,0:0:0:0:
64,192,211759,1,0,0:0:0:0:
320,192,211759,1,0,0:0:0:0:
448,192,211759,1,0,0:0:0:0:
192,192,211830,1,0,0:0:0:0:
320,192,211902,1,0,0:0:0:0:
64,192,211973,1,0,0:0:0:0:
448,192,211973,1,0,0:0:0:0:
192,192,212045,1,0,0:0:0:0:
320,192,212116,1,0,0:0:0:0:
64,192,212187,1,0,0:0:0:0:
192,192,212187,1,0,0:0:0:0:
448,192,212187,1,0,0:0:0:0:
320,192,212259,1,0,0:0:0:0:
192,192,212330,1,0,0:0:0:0:
64,192,212402,1,0,0:0:0:0:
448,192,212402,1,0,0:0:0:0:
320,192,212473,1,0,0:0:0:0:
192,192,212545,1,0,0:0:0:0:
64,192,212616,1,0,0:0:0:0:
320,192,212616,1,0,0:0:0:0:
448,192,212616,1,0,0:0:0:0:
64,192,212830,1,0,0:0:0:0:
192,192,212830,1,0,0:0:0:0:
64,192,212937,1,0,0:0:0:0:
192,192,212937,1,0,0:0:0:0:
64,192,213045,1,0,0:0:0:0:
320,192,213045,1,0,0:0:0:0:
448,192,213045,1,0,0:0:0:0:
192,192,213259,1,0,0:0:0:0:
320,192,213259,1,0,0:0:0:0:
192,192,213366,1,0,0:0:0:0:
320,192,213366,1,0,0:0:0:0:
64,192,213473,1,0,0:0:0:0:
448,192,213473,1,0,0:0:0:0:
192,192,213580,1,0,0:0:0:0:
320,192,213580,1,0,0:0:0:0:
320,192,213687,1,0,0:0:0:0:
448,192,213687,1,0,0:0:0:0:
64,192,213795,1,0,0:0:0:0:
192,192,213795,1,0,0:0:0:0:
64,192,213902,1,0,0:0:0:0:
320,192,213902,1,0,0:0:0:0:
448,192,213902,1,0,0:0:0:0:
320,192,214116,1,0,0:0:0:0:
448,192,214116,1,0,0:0:0:0:
192,192,214223,1,0,0:0:0:0:
320,192,214223,1,0,0:0:0:0:
64,192,214330,1,0,0:0:0:0:
192,192,214330,1,0,0:0:0:0:
448,192,214330,1,0,0:0:0:0:
192,192,214545,1,0,0:0:0:0:
320,192,214545,1,0,0:0:0:0:
192,192,214652,1,0,0:0:0:0:
320,192,214652,1,0,0:0:0:0:
64,192,214759,1,0,0:0:0:0:
320,192,214759,1,0,0:0:0:0:
448,192,214759,1,0,0:0:0:0:
192,192,214973,1,0,0:0:0:0:
320,192,214973,1,0,0:0:0:0:
64,192,215080,1,0,0:0:0:0:
192,192,215080,1,0,0:0:0:0:
320,192,215187,1,0,0:0:0:0:
448,192,215187,1,0,0:0:0:0:
64,192,215295,1,0,0:0:0:0:
192,192,215295,1,0,0:0:0:0:
192,192,215402,1,0,0:0:0:0:
448,192,215402,1,0,0:0:0:0:
320,192,215509,1,0,0:0:0:0:
448,192,215509,1,0,0:0:0:0:
64,192,215616,1,0,0:0:0:0:
192,192,215616,1,0,0:0:0:0:
320,192,215616,1,0,0:0:0:0:
192,0,215830,128,0,215937:1:0:0:0:
320,0,215830,128,0,215937:1:0:0:0:
64,192,216045,1,0,0:0:0:0:
192,192,216045,1,0,0:0:0:0:
448,192,216045,1,0,0:0:0:0:
192,192,216259,1,0,0:0:0:0:
448,192,216259,1,0,0:0:0:0:
192,192,216366,1,0,0:0:0:0:
448,192,216366,1,0,0:0:0:0:
64,192,216473,1,0,0:0:0:0:
320,192,216473,1,0,0:0:0:0:
448,192,216473,1,0,0:0:0:0:
64,192,216687,1,0,0:0:0:0:
192,192,216687,1,0,0:0:0:0:
64,192,216902,1,0,0:0:0:0:
448,192,216902,1,0,0:0:0:0:
192,192,217009,1,0,0:0:0:0:
320,192,217009,1,0,0:0:0:0:
64,192,217116,1,0,0:0:0:0:
192,192,217116,1,0,0:0:0:0:
320,192,217223,1,0,0:0:0:0:
448,192,217223,1,0,0:0:0:0:
64,192,217330,1,0,0:0:0:0:
192,192,217330,1,0,0:0:0:0:
448,192,217330,1,0,0:0:0:0:
64,192,217545,1,0,0:0:0:0:
448,192,217545,1,0,0:0:0:0:
64,192,217652,1,0,0:0:0:0:
448,192,217652,1,0,0:0:0:0:
192,192,217759,1,0,0:0:0:0:
320,192,217759,1,0,0:0:0:0:
448,192,217759,1,0,0:0:0:0:
64,192,217973,1,0,0:0:0:0:
320,192,217973,1,0,0:0:0:0:
64,192,218080,1,0,0:0:0:0:
320,192,218080,1,0,0:0:0:0:
64,192,218187,1,0,0:0:0:0:
192,192,218187,1,0,0:0:0:0:
448,192,218187,1,0,0:0:0:0:
192,192,218402,1,0,0:0:0:0:
320,192,218402,1,0,0:0:0:0:
64,192,218509,1,0,0:0:0:0:
320,192,218509,1,0,0:0:0:0:
64,192,218616,1,0,0:0:0:0:
192,192,218616,1,0,0:0:0:0:
320,192,218723,1,0,0:0:0:0:
448,192,218723,1,0,0:0:0:0:
64,192,218830,1,0,0:0:0:0:
320,192,218830,1,0,0:0:0:0:
64,192,218937,1,0,0:0:0:0:
192,192,218937,1,0,0:0:0:0:
64,192,219045,1,0,0:0:0:0:
320,192,219045,1,0,0:0:0:0:
448,192,219045,1,0,0:0:0:0:
192,0,219259,128,0,219366:1:0:0:0:
448,0,219259,128,0,219366:1:0:0:0:
64,192,219473,1,0,0:0:0:0:
192,192,219473,1,0,0:0:0:0:
320,192,219473,1,0,0:0:0:0:
192,192,219687,1,0,0:0:0:0:
448,192,219687,1,0,0:0:0:0:
192,192,219795,1,0,0:0:0:0:
448,192,219795,1,0,0:0:0:0:
64,192,219902,1,0,0:0:0:0:
192,192,219902,1,0,0:0:0:0:
320,192,219902,1,0,0:0:0:0:
320,192,220116,1,0,0:0:0:0:
448,192,220116,1,0,0:0:0:0:
192,192,220330,1,0,0:0:0:0:
448,192,220330,1,0,0:0:0:0:
64,192,220437,1,0,0:0:0:0:
320,192,220437,1,0,0:0:0:0:
64,192,220545,1,0,0:0:0:0:
192,192,220545,1,0,0:0:0:0:
320,192,220652,1,0,0:0:0:0:
448,192,220652,1,0,0:0:0:0:
64,192,220759,1,0,0:0:0:0:
192,192,220759,1,0,0:0:0:0:
448,192,220759,1,0,0:0:0:0:
192,192,220973,1,0,0:0:0:0:
320,192,220973,1,0,0:0:0:0:
192,192,221080,1,0,0:0:0:0:
320,192,221080,1,0,0:0:0:0:
64,192,221187,1,0,0:0:0:0:
320,192,221187,1,0,0:0:0:0:
448,192,221187,1,0,0:0:0:0:
192,192,221295,1,0,0:0:0:0:
64,192,221402,1,0,0:0:0:0:
448,192,221402,1,0,0:0:0:0:
320,192,221509,1,0,0:0:0:0:
64,192,221616,1,0,0:0:0:0:
192,192,221616,1,0,0:0:0:0:
448,192,221616,1,0,0:0:0:0:
192,192,221723,1,0,0:0:0:0:
320,192,221723,1,0,0:0:0:0:
320,192,221830,1,0,0:0:0:0:
448,192,221830,1,0,0:0:0:0:
64,192,221937,1,0,0:0:0:0:
192,192,221937,1,0,0:0:0:0:
320,192,222045,1,0,0:0:0:0:
448,192,222045,1,0,0:0:0:0:
320,192,222152,1,0,0:0:0:0:
448,192,222152,1,0,0:0:0:0:
64,192,222259,1,0,0:0:0:0:
192,192,222259,1,0,0:0:0:0:
320,192,222366,1,0,0:0:0:0:
64,192,222473,1,0,0:0:0:0:
192,192,222473,1,0,0:0:0:0:
448,192,222473,1,0,0:0:0:0:
320,192,222580,1,0,0:0:0:0:
64,192,222687,1,0,0:0:0:0:
192,192,222687,1,0,0:0:0:0:
448,192,222795,1,0,0:0:0:0:
64,192,222902,1,0,0:0:0:0:
192,192,222902,1,0,0:0:0:0:
320,192,222902,1,0,0:0:0:0:
64,192,223116,1,0,0:0:0:0:
448,192,223116,1,0,0:0:0:0:
192,192,223223,1,0,0:0:0:0:
320,192,223223,1,0,0:0:0:0:
64,192,223330,1,0,0:0:0:0:
320,192,223330,1,0,0:0:0:0:
448,0,223330,128,0,223545:1:0:0:0:
64,192,223545,1,0,0:0:0:0:
192,192,223545,1,0,0:0:0:0:
64,192,223759,1,0,0:0:0:0:
192,192,223759,1,0,0:0:0:0:
448,192,223759,1,0,0:0:0:0:
320,192,223866,1,0,0:0:0:0:
64,192,223973,1,0,0:0:0:0:
192,192,223973,1,0,0:0:0:0:
320,192,224080,1,0,0:0:0:0:
448,192,224080,1,0,0:0:0:0:
64,192,224187,1,0,0:0:0:0:
192,192,224187,1,0,0:0:0:0:
448,0,224187,128,0,224402:1:0:0:0:
64,192,224402,1,0,0:0:0:0:
192,192,224402,1,0,0:0:0:0:
64,192,224509,1,0,0:0:0:0:
192,192,224509,1,0,0:0:0:0:
320,192,224616,1,0,0:0:0:0:
448,192,224616,1,0,0:0:0:0:
192,192,224723,1,0,0:0:0:0:
320,192,224830,1,0,0:0:0:0:
448,192,224830,1,0,0:0:0:0:
192,192,224902,1,0,0:0:0:0:
64,192,224973,1,0,0:0:0:0:
192,192,225045,1,0,0:0:0:0:
448,192,225045,1,0,0:0:0:0:
64,192,225259,1,0,0:0:0:0:
320,192,225259,1,0,0:0:0:0:
64,192,225473,1,0,0:0:0:0:
192,192,225473,1,0,0:0:0:0:
448,192,225580,1,0,0:0:0:0:
64,192,225687,1,0,0:0:0:0:
192,192,225687,1,0,0:0:0:0:
320,192,225795,1,0,0:0:0:0:
192,0,225902,128,0,226116:1:0:0:0:
448,0,225902,128,0,226116:1:0:0:0:
64,192,226116,1,0,0:0:0:0:
64,192,226223,1,0,0:0:0:0:
192,192,226330,1,0,0:0:0:0:
320,192,226330,1,0,0:0:0:0:
448,0,226330,128,0,226545:1:0:0:0:
320,0,226545,128,0,226652:1:0:0:0:
192,0,226652,128,0,226973:1:0:0:0:
64,192,226759,1,0,0:0:0:0:
448,192,226759,1,0,0:0:0:0:
320,192,226973,1,0,0:0:0:0:
64,0,226973,128,0,227187:1:0:0:0:
320,192,227187,1,0,0:0:0:0:
192,0,227187,128,0,227402:1:0:0:0:
320,192,227402,1,0,0:0:0:0:
448,0,227402,128,0,227616:1:0:0:0:
320,192,227509,1,0,0:0:0:0:
192,192,227616,1,0,0:0:0:0:
64,0,227616,128,0,227830:1:0:0:0:
448,192,227830,1,0,0:0:0:0:
320,0,227830,128,0,228473:1:0:0:0:
448,192,227937,1,0,0:0:0:0:
64,192,228045,1,0,0:0:0:0:
192,192,228045,1,0,0:0:0:0:
64,0,228259,128,0,228473:1:0:0:0:
192,192,228473,1,0,0:0:0:0:
448,0,228473,128,0,228902:1:0:0:0:
64,192,228687,1,0,0:0:0:0:
64,192,228795,1,0,0:0:0:0:
320,192,228902,1,0,0:0:0:0:
192,0,228902,128,0,229330:1:0:0:0:
64,192,229116,1,0,0:0:0:0:
320,192,229330,1,0,0:0:0:0:
448,0,229330,128,0,229545:1:0:0:0:
64,192,229545,1,0,0:0:0:0:
192,0,229545,128,0,229759:1:0:0:0:
64,192,229652,1,0,0:0:0:0:
448,192,229759,1,0,0:0:0:0:
320,0,229759,128,0,230402:1:0:0:0:
64,192,229973,1,0,0:0:0:0:
192,192,230187,1,0,0:0:0:0:
64,0,230187,128,0,230402:1:0:0:0:
192,0,230402,128,0,230509:1:0:0:0:
448,0,230402,128,0,230616:1:0:0:0:
320,0,230509,128,0,230616:1:0:0:0:
64,0,230616,128,0,230830:1:0:0:0:
192,0,230616,128,0,231366:1:0:0:0:
448,0,230830,128,0,231045:1:0:0:0:
64,192,231045,1,0,0:0:0:0:
320,0,231045,128,0,231152:1:0:0:0:
448,0,231152,128,0,231259:1:0:0:0:
320,192,231259,1,0,0:0:0:0:
64,0,231259,128,0,231902:1:0:0:0:
320,192,231366,1,0,0:0:0:0:
192,192,231473,1,0,0:0:0:0:
448,192,231473,1,0,0:0:0:0:
192,192,231687,1,0,0:0:0:0:
320,0,231687,128,0,231902:1:0:0:0:
448,192,231902,1,0,0:0:0:0:
192,0,231902,128,0,232330:1:0:0:0:
320,192,232116,1,0,0:0:0:0:
320,192,232223,1,0,0:0:0:0:
448,192,232330,1,0,0:0:0:0:
64,0,232330,128,0,232545:1:0:0:0:
192,192,232545,1,0,0:0:0:0:
448,0,232545,128,0,232652:1:0:0:0:
64,192,232759,1,0,0:0:0:0:
448,0,232759,128,0,232973:1:0:0:0:
320,192,232973,1,0,0:0:0:0:
64,0,232973,128,0,233080:1:0:0:0:
320,192,233080,1,0,0:0:0:0:
192,0,233080,128,0,233187:1:0:0:0:
448,192,233187,1,0,0:0:0:0:
320,192,233223,1,0,0:0:0:0:
192,192,233259,1,0,0:0:0:0:
64,192,233295,1,0,0:0:0:0:
448,192,233330,1,0,0:0:0:0:
320,192,233366,1,0,0:0:0:0:
192,192,233402,1,0,0:0:0:0:
64,0,233402,128,0,233616:1:0:0:0:
192,192,233616,1,0,0:0:0:0:
320,0,233616,128,0,233830:1:0:0:0:
64,192,233830,1,0,0:0:0:0:
448,0,233830,128,0,234045:1:0:0:0:
64,192,234045,1,0,0:0:0:0:
192,0,234045,128,0,234259:1:0:0:0:
320,192,234259,1,0,0:0:0:0:
448,0,234259,128,0,234366:1:0:0:0:
192,0,234366,128,0,234473:1:0:0:0:
320,192,234473,1,0,0:0:0:0:
448,192,234473,1,0,0:0:0:0:
64,192,234580,1,0,0:0:0:0:
64,192,234687,1,0,0:0:0:0:
320,192,234687,1,0,0:0:0:0:
64,192,234795,1,0,0:0:0:0:
192,192,234902,1,0,0:0:0:0:
320,192,234902,1,0,0:0:0:0:
448,0,234902,128,0,235223:1:0:0:0:
192,192,235116,1,0,0:0:0:0:
64,0,235223,128,0,235545:1:0:0:0:
320,192,235330,1,0,0:0:0:0:
448,192,235330,1,0,0:0:0:0:
192,192,235545,1,0,0:0:0:0:
448,0,235545,128,0,235973:1:0:0:0:
320,192,235598,1,0,0:0:0:0:
192,192,235652,1,0,0:0:0:0:
192,192,235759,1,0,0:0:0:0:
192,192,235866,1,0,0:0:0:0:
192,192,235973,1,0,0:0:0:0:
64,192,236187,1,0,0:0:0:0:
320,192,236187,1,0,0:0:0:0:
448,192,236187,1,0,0:0:0:0:
192,192,236402,1,0,0:0:0:0:
320,192,236402,1,0,0:0:0:0:
64,192,236616,1,0,0:0:0:0:
192,192,236616,1,0,0:0:0:0:
448,192,236616,1,0,0:0:0:0:
192,192,236830,1,0,0:0:0:0:
320,192,236937,1,0,0:0:0:0:
448,192,236937,1,0,0:0:0:0:
64,192,237045,1,0,0:0:0:0:
192,192,237045,1,0,0:0:0:0:
192,192,237259,1,0,0:0:0:0:
448,192,237259,1,0,0:0:0:0:
64,192,237473,1,0,0:0:0:0:
192,192,237473,1,0,0:0:0:0:
320,192,237473,1,0,0:0:0:0:
448,192,237580,1,0,0:0:0:0:
64,192,237687,1,0,0:0:0:0:
192,192,237795,1,0,0:0:0:0:
448,192,237795,1,0,0:0:0:0:
64,192,237902,1,0,0:0:0:0:
320,192,237902,1,0,0:0:0:0:
192,192,238116,1,0,0:0:0:0:
320,192,238116,1,0,0:0:0:0:
64,192,238330,1,0,0:0:0:0:
320,192,238330,1,0,0:0:0:0:
448,192,238330,1,0,0:0:0:0:
192,192,238545,1,0,0:0:0:0:
64,192,238652,1,0,0:0:0:0:
448,192,238652,1,0,0:0:0:0:
192,192,238759,1,0,0:0:0:0:
320,192,238759,1,0,0:0:0:0:
64,192,238973,1,0,0:0:0:0:
320,192,238973,1,0,0:0:0:0:
192,192,239187,1,0,0:0:0:0:
448,192,239187,1,0,0:0:0:0:
64,192,239295,1,0,0:0:0:0:
320,192,239402,1,0,0:0:0:0:
448,192,239402,1,0,0:0:0:0:
192,192,239509,1,0,0:0:0:0:
64,192,239616,1,0,0:0:0:0:
448,192,239616,1,0,0:0:0:0:
320,192,239830,1,0,0:0:0:0:
192,192,240045,1,0,0:0:0:0:
448,192,240366,1,0,0:0:0:0:
320,192,240687,1,0,0:0:0:0:
64,192,240902,1,0,0:0:0:0:
192,192,241116,1,0,0:0:0:0:
448,192,241330,1,0,0:0:0:0:
192,192,241759,1,0,0:0:0:0:
448,192,241759,1,0,0:0:0:0:
64,0,241759,128,0,242080:1:0:0:0:
320,192,241973,1,0,0:0:0:0:
64,192,242187,1,0,0:0:0:0:
192,192,242187,1,0,0:0:0:0:
320,192,242402,1,0,0:0:0:0:
448,192,242402,1,0,0:0:0:0:
64,192,242616,1,0,0:0:0:0:
192,192,242616,1,0,0:0:0:0:
448,192,242723,1,0,0:0:0:0:
192,192,242830,1,0,0:0:0:0:
320,192,242937,1,0,0:0:0:0:
192,192,242991,1,0,0:0:0:0:
64,192,243045,1,0,0:0:0:0:
448,192,243045,1,0,0:0:0:0:
192,192,243259,1,0,0:0:0:0:
192,192,243366,1,0,0:0:0:0:
320,192,243473,1,0,0:0:0:0:
448,192,243473,1,0,0:0:0:0:
64,192,243616,1,0,0:0:0:0:
192,192,243687,1,0,0:0:0:0:
320,192,243759,1,0,0:0:0:0:
448,192,243830,1,0,0:0:0:0:
64,192,243902,1,0,0:0:0:0:
320,192,243902,1,0,0:0:0:0:
192,192,244009,1,0,0:0:0:0:
448,192,244116,1,0,0:0:0:0:
448,192,244223,1,0,0:0:0:0:
64,192,244330,1,0,0:0:0:0:
192,192,244330,1,0,0:0:0:0:
192,192,244545,1,0,0:0:0:0:
448,192,244652,1,0,0:0:0:0:
64,192,244759,1,0,0:0:0:0:
320,192,244759,1,0,0:0:0:0:
448,192,244973,1,0,0:0:0:0:
64,0,244973,128,0,245080:1:0:0:0:
192,192,245187,1,0,0:0:0:0:
320,192,245187,1,0,0:0:0:0:
448,192,245402,1,0,0:0:0:0:
64,192,245616,1,0,0:0:0:0:
320,192,245616,1,0,0:0:0:0:
192,192,245830,1,0,0:0:0:0:
448,192,245830,1,0,0:0:0:0:
64,192,246045,1,0,0:0:0:0:
320,192,246045,1,0,0:0:0:0:
64,192,246259,1,0,0:0:0:0:
192,192,246366,1,0,0:0:0:0:
64,192,246420,1,0,0:0:0:0:
320,192,246473,1,0,0:0:0:0:
448,192,246473,1,0,0:0:0:0:
64,192,246580,1,0,0:0:0:0:
320,192,246687,1,0,0:0:0:0:
192,192,246795,1,0,0:0:0:0:
64,192,246902,1,0,0:0:0:0:
448,0,246902,128,0,247223:1:0:0:0:
320,192,247330,1,0,0:0:0:0:
64,0,247330,128,0,247652:1:0:0:0:
192,192,247759,1,0,0:0:0:0:
192,192,247866,1,0,0:0:0:0:
448,192,247973,1,0,0:0:0:0:
64,192,248080,1,0,0:0:0:0:
192,0,248187,128,0,248295:1:0:0:0:
448,0,248295,128,0,248402:1:0:0:0:
64,0,248402,128,0,248509:1:0:0:0:
320,0,248509,128,0,248616:1:0:0:0:
64,192,248616,1,0,0:0:0:0:
192,192,248616,1,0,0:0:0:0:
448,192,248616,1,0,0:0:0:0:
192,192,248830,1,0,0:0:0:0:
448,192,248830,1,0,0:0:0:0:
64,192,249045,1,0,0:0:0:0:
192,192,249045,1,0,0:0:0:0:
320,192,249045,1,0,0:0:0:0:
320,192,249259,1,0,0:0:0:0:
448,192,249259,1,0,0:0:0:0:
64,192,249473,1,0,0:0:0:0:
192,192,249473,1,0,0:0:0:0:
320,192,249580,1,0,0:0:0:0:
192,192,249687,1,0,0:0:0:0:
448,192,249795,1,0,0:0:0:0:
320,192,249848,1,0,0:0:0:0:
64,192,249902,1,0,0:0:0:0:
192,192,249902,1,0,0:0:0:0:
448,192,249902,1,0,0:0:0:0:
320,192,250116,1,0,0:0:0:0:
448,0,250116,128,0,250223:1:0:0:0:
192,192,250330,1,0,0:0:0:0:
320,192,250330,1,0,0:0:0:0:
64,192,250473,1,0,0:0:0:0:
192,192,250545,1,0,0:0:0:0:
320,192,250616,1,0,0:0:0:0:
448,192,250687,1,0,0:0:0:0:
64,192,250759,1,0,0:0:0:0:
192,192,250759,1,0,0:0:0:0:
320,192,250759,1,0,0:0:0:0:
448,192,250866,1,0,0:0:0:0:
192,192,250973,1,0,0:0:0:0:
320,192,251080,1,0,0:0:0:0:
64,192,251187,1,0,0:0:0:0:
448,192,251187,1,0,0:0:0:0:
64,192,251402,1,0,0:0:0:0:
192,192,251616,1,0,0:0:0:0:
320,192,251616,1,0,0:0:0:0:
448,192,251616,1,0,0:0:0:0:
192,192,251830,1,0,0:0:0:0:
320,192,251937,1,0,0:0:0:0:
192,192,252045,1,0,0:0:0:0:
64,0,252045,128,0,252259:1:0:0:0:
448,192,252259,1,0,0:0:0:0:
192,192,252366,1,0,0:0:0:0:
64,192,252473,1,0,0:0:0:0:
320,192,252473,1,0,0:0:0:0:
448,192,252473,1,0,0:0:0:0:
64,192,252687,1,0,0:0:0:0:
448,192,252795,1,0,0:0:0:0:
192,192,252902,1,0,0:0:0:0:
320,192,252902,1,0,0:0:0:0:
64,192,253009,1,0,0:0:0:0:
192,192,253062,1,0,0:0:0:0:
320,192,253116,1,0,0:0:0:0:
448,192,253170,1,0,0:0:0:0:
192,192,253223,1,0,0:0:0:0:
320,192,253277,1,0,0:0:0:0:
64,192,253330,1,0,0:0:0:0:
448,192,253330,1,0,0:0:0:0:
320,192,253437,1,0,0:0:0:0:
192,192,253491,1,0,0:0:0:0:
448,192,253545,1,0,0:0:0:0:
320,192,253598,1,0,0:0:0:0:
192,192,253652,1,0,0:0:0:0:
64,192,253705,1,0,0:0:0:0:
320,0,253973,128,0,254080:1:0:0:0:
320,0,254295,128,0,254455:1:0:0:0:
320,0,254616,128,0,254723:1:0:0:0:
192,192,255045,1,0,0:0:0:0:
320,192,255045,1,0,0:0:0:0:
