osu file format v14

[General]
AudioFilename: Fiat Lux.mp3
AudioLeadIn: 2
PreviewTime: 53380
Countdown: 0
SampleSet: None
StackLeniency: 0.7
Mode: 3
LetterboxInBreaks: 0
SpecialStyle: 0
WidescreenStoryboard: 0

[Editor]
DistanceSpacing: 0.8
BeatDivisor: 4
GridSize: 8
TimelineZoom: 1

[Metadata]
Title:dakemoto's Collection Pack Vol.1
TitleUnicode:dakemoto's Collection Pack Vol.1
Artist:Various Artist
ArtistUnicode:Various Artist
Creator:dakemoto
Version:Fiat Lux (Challenge)
Source:Stepmania
Tags:
BeatmapID:741044
BeatmapSetID:329410

[Difficulty]
HPDrainRate:7
CircleSize:4
OverallDifficulty:8
ApproachRate:10
SliderMultiplier:1.4
SliderTickRate:1

[Events]
//Background and Video events
0,0,"Fiat Lux bg.jpg",0,0
//Break Periods
//Storyboard Layer 0 (Background)
//Storyboard Layer 1 (Fail)
//Storyboard Layer 2 (Pass)
//Storyboard Layer 3 (Foreground)
//Storyboard Sound Samples

[TimingPoints]
-580,300,4,1,0,15,1,0

[HitObjects]
64,192,620,5,0,0:0:0:0:
320,192,620,1,0,0:0:0:0:
448,0,620,128,0,1820:1:0:0:0:
192,192,1820,1,0,0:0:0:0:
320,192,1820,1,0,0:0:0:0:
64,0,1820,128,0,3020:1:0:0:0:
448,192,2270,1,0,0:0:0:0:
320,192,2570,1,0,0:0:0:0:
192,192,2720,1,0,0:0:0:0:
448,192,2870,1,0,0:0:0:0:
192,192,3020,1,0,0:0:0:0:
320,192,3020,1,0,0:0:0:0:
64,192,3170,1,0,0:0:0:0:
448,192,3320,1,0,0:0:0:0:
64,192,3470,1,0,0:0:0:0:
192,192,3620,1,0,0:0:0:0:
320,192,3770,1,0,0:0:0:0:
64,192,3920,1,0,0:0:0:0:
448,192,4070,1,0,0:0:0:0:
64,192,4220,1,0,0:0:0:0:
320,192,4220,1,0,0:0:0:0:
448,192,4370,1,0,0:0:0:0:
64,192,4520,1,0,0:0:0:0:
192,192,4670,1,0,0:0:0:0:
320,192,4820,1,0,0:0:0:0:
448,192,4820,1,0,0:0:0:0:
64,192,4970,1,0,0:0:0:0:
192,192,5120,1,0,0:0:0:0:
320,192,5195,1,0,0:0:0:0:
64,192,5270,1,0,0:0:0:0:
192,192,5345,1,0,0:0:0:0:
64,192,5420,1,0,0:0:0:0:
320,192,5420,1,0,0:0:0:0:
448,192,5420,1,0,0:0:0:0:
192,192,5495,1,0,0:0:0:0:
320,192,5570,1,0,0:0:0:0:
64,192,5645,1,0,0:0:0:0:
320,192,5720,1,0,0:0:0:0:
448,192,5720,1,0,0:0:0:0:
192,192,5795,1,0,0:0:0:0:
64,192,5870,1,0,0:0:0:0:
320,192,5945,1,0,0:0:0:0:
64,192,6020,1,0,0:0:0:0:
192,192,6020,1,0,0:0:0:0:
320,192,6095,1,0,0:0:0:0:
448,192,6170,1,0,0:0:0:0:
192,192,6245,1,0,0:0:0:0:
64,192,6320,1,0,0:0:0:0:
448,192,6320,1,0,0:0:0:0:
320,192,6395,1,0,0:0:0:0:
192,192,6470,1,0,0:0:0:0:
448,192,6545,1,0,0:0:0:0:
64,192,6620,1,0,0:0:0:0:
192,192,6620,1,0,0:0:0:0:
320,192,6620,1,0,0:0:0:0:
448,192,6695,1,0,0:0:0:0:
192,192,6770,1,0,0:0:0:0:
320,192,6845,1,0,0:0:0:0:
64,192,6920,1,0,0:0:0:0:
448,192,6920,1,0,0:0:0:0:
192,192,6995,1,0,0:0:0:0:
320,192,7070,1,0,0:0:0:0:
64,192,7145,1,0,0:0:0:0:
192,192,7220,1,0,0:0:0:0:
320,192,7220,1,0,0:0:0:0:
448,192,7220,1,0,0:0:0:0:
64,192,7295,1,0,0:0:0:0:
448,192,7370,1,0,0:0:0:0:
320,192,7445,1,0,0:0:0:0:
64,192,7520,1,0,0:0:0:0:
192,192,7520,1,0,0:0:0:0:
448,192,7595,1,0,0:0:0:0:
192,192,7670,1,0,0:0:0:0:
320,192,7745,1,0,0:0:0:0:
64,192,7820,1,0,0:0:0:0:
192,192,7820,1,0,0:0:0:0:
448,192,7820,1,0,0:0:0:0:
320,192,7895,1,0,0:0:0:0:
64,192,7970,1,0,0:0:0:0:
192,192,7970,1,0,0:0:0:0:
320,192,8045,1,0,0:0:0:0:
64,192,8120,1,0,0:0:0:0:
448,192,8120,1,0,0:0:0:0:
320,192,8195,1,0,0:0:0:0:
64,192,8270,1,0,0:0:0:0:
192,192,8270,1,0,0:0:0:0:
448,192,8345,1,0,0:0:0:0:
64,192,8420,1,0,0:0:0:0:
192,192,8420,1,0,0:0:0:0:
320,192,8420,1,0,0:0:0:0:
448,192,8495,1,0,0:0:0:0:
64,192,8570,1,0,0:0:0:0:
320,192,8570,1,0,0:0:0:0:
192,192,8645,1,0,0:0:0:0:
320,192,8720,1,0,0:0:0:0:
448,192,8720,1,0,0:0:0:0:
192,192,8795,1,0,0:0:0:0:
64,192,8870,1,0,0:0:0:0:
448,192,8870,1,0,0:0:0:0:
192,192,8945,1,0,0:0:0:0:
64,192,9020,1,0,0:0:0:0:
320,192,9020,1,0,0:0:0:0:
448,192,9020,1,0,0:0:0:0:
64,192,9095,1,0,0:0:0:0:
192,192,9095,1,0,0:0:0:0:
320,192,9170,1,0,0:0:0:0:
448,192,9170,1,0,0:0:0:0:
64,192,9245,1,0,0:0:0:0:
192,192,9245,1,0,0:0:0:0:
320,192,9320,1,0,0:0:0:0:
448,192,9320,1,0,0:0:0:0:
64,192,9395,1,0,0:0:0:0:
192,192,9395,1,0,0:0:0:0:
320,192,9470,1,0,0:0:0:0:
448,192,9470,1,0,0:0:0:0:
64,192,9545,1,0,0:0:0:0:
192,192,9545,1,0,0:0:0:0:
320,192,9620,1,0,0:0:0:0:
448,192,9620,1,0,0:0:0:0:
64,192,9695,1,0,0:0:0:0:
192,192,9695,1,0,0:0:0:0:
448,192,9770,1,0,0:0:0:0:
320,192,9807,1,0,0:0:0:0:
192,192,9845,1,0,0:0:0:0:
64,192,9882,1,0,0:0:0:0:
320,192,9920,1,0,0:0:0:0:
448,192,9920,1,0,0:0:0:0:
64,192,9995,1,0,0:0:0:0:
192,192,9995,1,0,0:0:0:0:
448,192,10070,1,0,0:0:0:0:
320,192,10107,1,0,0:0:0:0:
192,192,10145,1,0,0:0:0:0:
64,192,10182,1,0,0:0:0:0:
448,0,10220,128,0,11420:1:0:0:0:
192,0,10220,128,0,12020:1:0:0:0:
320,0,10220,128,0,12020:1:0:0:0:
64,192,11420,1,0,0:0:0:0:
64,192,11570,1,0,0:0:0:0:
448,192,11720,1,0,0:0:0:0:
64,192,11870,1,0,0:0:0:0:
448,192,11945,1,0,0:0:0:0:
64,192,12020,1,0,0:0:0:0:
64,192,12170,1,0,0:0:0:0:
192,192,12320,1,0,0:0:0:0:
320,192,12470,1,0,0:0:0:0:
64,192,12620,1,0,0:0:0:0:
192,192,12620,1,0,0:0:0:0:
448,192,12620,1,0,0:0:0:0:
64,192,12770,1,0,0:0:0:0:
448,192,12770,1,0,0:0:0:0:
320,192,12820,1,0,0:0:0:0:
192,192,12870,1,0,0:0:0:0:
64,192,12920,1,0,0:0:0:0:
320,192,12920,1,0,0:0:0:0:
448,192,12920,1,0,0:0:0:0:
192,192,13070,1,0,0:0:0:0:
320,192,13070,1,0,0:0:0:0:
448,192,13070,1,0,0:0:0:0:
64,192,13220,1,0,0:0:0:0:
192,192,13220,1,0,0:0:0:0:
320,192,13220,1,0,0:0:0:0:
320,192,13370,1,0,0:0:0:0:
64,0,13370,128,0,13520:1:0:0:0:
448,0,13370,128,0,13520:1:0:0:0:
64,192,13670,1,0,0:0:0:0:
192,0,13670,128,0,13970:1:0:0:0:
320,0,13670,128,0,13970:1:0:0:0:
448,192,13970,1,0,0:0:0:0:
64,192,14045,1,0,0:0:0:0:
192,192,14120,1,0,0:0:0:0:
320,192,14120,1,0,0:0:0:0:
64,192,14270,1,0,0:0:0:0:
320,192,14420,1,0,0:0:0:0:
448,192,14420,1,0,0:0:0:0:
64,192,14570,1,0,0:0:0:0:
448,192,14570,1,0,0:0:0:0:
320,192,14607,1,0,0:0:0:0:
192,192,14645,1,0,0:0:0:0:
64,192,14682,1,0,0:0:0:0:
320,192,14720,1,0,0:0:0:0:
448,192,14720,1,0,0:0:0:0:
64,192,14870,1,0,0:0:0:0:
192,192,14870,1,0,0:0:0:0:
192,192,15020,1,0,0:0:0:0:
320,192,15020,1,0,0:0:0:0:
448,192,15020,1,0,0:0:0:0:
64,192,15170,1,0,0:0:0:0:
448,192,15170,1,0,0:0:0:0:
192,192,15220,1,0,0:0:0:0:
320,192,15270,1,0,0:0:0:0:
64,192,15320,1,0,0:0:0:0:
192,192,15320,1,0,0:0:0:0:
448,192,15320,1,0,0:0:0:0:
192,192,15470,1,0,0:0:0:0:
320,192,15470,1,0,0:0:0:0:
64,192,15620,1,0,0:0:0:0:
320,192,15620,1,0,0:0:0:0:
64,192,15770,1,0,0:0:0:0:
192,192,15770,1,0,0:0:0:0:
448,192,15770,1,0,0:0:0:0:
192,192,15920,1,0,0:0:0:0:
320,192,15920,1,0,0:0:0:0:
64,192,16070,1,0,0:0:0:0:
320,0,16070,128,0,16220:1:0:0:0:
448,0,16070,128,0,16220:1:0:0:0:
64,192,16370,1,0,0:0:0:0:
448,192,16370,1,0,0:0:0:0:
64,192,16445,1,0,0:0:0:0:
192,192,16445,1,0,0:0:0:0:
192,192,16520,1,0,0:0:0:0:
320,192,16520,1,0,0:0:0:0:
320,192,16595,1,0,0:0:0:0:
448,192,16595,1,0,0:0:0:0:
448,192,16670,1,0,0:0:0:0:
64,0,16670,128,0,16820:1:0:0:0:
192,0,16670,128,0,16820:1:0:0:0:
64,192,16970,1,0,0:0:0:0:
448,192,16970,1,0,0:0:0:0:
320,192,17007,1,0,0:0:0:0:
192,192,17045,1,0,0:0:0:0:
64,192,17082,1,0,0:0:0:0:
320,192,17120,1,0,0:0:0:0:
448,192,17120,1,0,0:0:0:0:
192,192,17270,1,0,0:0:0:0:
320,192,17270,1,0,0:0:0:0:
64,192,17420,1,0,0:0:0:0:
192,192,17420,1,0,0:0:0:0:
448,192,17420,1,0,0:0:0:0:
320,192,17470,1,0,0:0:0:0:
192,192,17520,1,0,0:0:0:0:
64,192,17570,1,0,0:0:0:0:
192,192,17620,1,0,0:0:0:0:
320,192,17670,1,0,0:0:0:0:
64,192,17720,1,0,0:0:0:0:
448,192,17720,1,0,0:0:0:0:
64,192,17870,1,0,0:0:0:0:
320,192,17870,1,0,0:0:0:0:
448,192,17870,1,0,0:0:0:0:
192,192,17920,1,0,0:0:0:0:
320,192,17970,1,0,0:0:0:0:
448,192,18020,1,0,0:0:0:0:
320,192,18070,1,0,0:0:0:0:
192,192,18120,1,0,0:0:0:0:
64,192,18170,1,0,0:0:0:0:
448,192,18170,1,0,0:0:0:0:
64,192,18320,1,0,0:0:0:0:
192,0,18320,128,0,18620:1:0:0:0:
448,0,18320,128,0,18620:1:0:0:0:
320,192,18620,1,0,0:0:0:0:
320,192,18695,1,0,0:0:0:0:
64,192,18770,1,0,0:0:0:0:
192,192,18770,1,0,0:0:0:0:
192,192,18920,1,0,0:0:0:0:
448,192,18920,1,0,0:0:0:0:
64,192,19070,1,0,0:0:0:0:
320,0,19070,128,0,19220:1:0:0:0:
448,0,19070,128,0,19220:1:0:0:0:
64,192,19370,1,0,0:0:0:0:
192,192,19370,1,0,0:0:0:0:
192,192,19520,1,0,0:0:0:0:
320,192,19520,1,0,0:0:0:0:
448,192,19520,1,0,0:0:0:0:
64,192,19595,1,0,0:0:0:0:
320,192,19670,1,0,0:0:0:0:
448,192,19670,1,0,0:0:0:0:
192,192,19745,1,0,0:0:0:0:
64,192,19820,1,0,0:0:0:0:
320,192,19820,1,0,0:0:0:0:
448,192,19820,1,0,0:0:0:0:
192,192,19895,1,0,0:0:0:0:
320,192,19970,1,0,0:0:0:0:
64,192,20045,1,0,0:0:0:0:
192,192,20120,1,0,0:0:0:0:
448,192,20120,1,0,0:0:0:0:
64,192,20195,1,0,0:0:0:0:
320,192,20195,1,0,0:0:0:0:
192,192,20270,1,0,0:0:0:0:
320,192,20345,1,0,0:0:0:0:
64,192,20420,1,0,0:0:0:0:
192,192,20420,1,0,0:0:0:0:
448,192,20420,1,0,0:0:0:0:
448,192,20495,1,0,0:0:0:0:
64,192,20570,1,0,0:0:0:0:
192,192,20570,1,0,0:0:0:0:
320,192,20570,1,0,0:0:0:0:
64,192,20720,1,0,0:0:0:0:
320,0,20720,128,0,21020:1:0:0:0:
448,0,20720,128,0,21020:1:0:0:0:
64,192,20870,1,0,0:0:0:0:
64,192,21020,1,0,0:0:0:0:
64,192,21170,1,0,0:0:0:0:
448,192,21170,1,0,0:0:0:0:
192,192,21220,1,0,0:0:0:0:
320,192,21270,1,0,0:0:0:0:
64,192,21320,1,0,0:0:0:0:
192,192,21320,1,0,0:0:0:0:
448,192,21320,1,0,0:0:0:0:
64,192,21470,1,0,0:0:0:0:
192,192,21470,1,0,0:0:0:0:
192,192,21545,1,0,0:0:0:0:
320,192,21545,1,0,0:0:0:0:
320,192,21620,1,0,0:0:0:0:
448,192,21620,1,0,0:0:0:0:
64,192,21770,1,0,0:0:0:0:
448,192,21770,1,0,0:0:0:0:
320,192,21807,1,0,0:0:0:0:
192,192,21845,1,0,0:0:0:0:
64,192,21882,1,0,0:0:0:0:
192,192,21920,1,0,0:0:0:0:
320,0,21920,128,0,22070:1:0:0:0:
448,0,21920,128,0,22070:1:0:0:0:
64,192,22220,1,0,0:0:0:0:
192,192,22220,1,0,0:0:0:0:
448,192,22220,1,0,0:0:0:0:
64,192,22370,1,0,0:0:0:0:
448,192,22370,1,0,0:0:0:0:
320,192,22420,1,0,0:0:0:0:
192,192,22470,1,0,0:0:0:0:
64,192,22520,1,0,0:0:0:0:
320,192,22520,1,0,0:0:0:0:
448,192,22520,1,0,0:0:0:0:
192,192,22670,1,0,0:0:0:0:
320,192,22670,1,0,0:0:0:0:
448,192,22670,1,0,0:0:0:0:
64,192,22820,1,0,0:0:0:0:
192,192,22820,1,0,0:0:0:0:
320,192,22820,1,0,0:0:0:0:
320,192,22970,1,0,0:0:0:0:
64,0,22970,128,0,23120:1:0:0:0:
448,0,22970,128,0,23120:1:0:0:0:
64,192,23270,1,0,0:0:0:0:
192,0,23270,128,0,23570:1:0:0:0:
320,0,23270,128,0,23570:1:0:0:0:
448,192,23570,1,0,0:0:0:0:
64,192,23645,1,0,0:0:0:0:
192,192,23720,1,0,0:0:0:0:
320,192,23720,1,0,0:0:0:0:
64,192,23870,1,0,0:0:0:0:
320,192,24020,1,0,0:0:0:0:
448,192,24020,1,0,0:0:0:0:
64,192,24170,1,0,0:0:0:0:
448,192,24170,1,0,0:0:0:0:
320,192,24207,1,0,0:0:0:0:
192,192,24245,1,0,0:0:0:0:
64,192,24282,1,0,0:0:0:0:
320,192,24320,1,0,0:0:0:0:
448,192,24320,1,0,0:0:0:0:
64,192,24470,1,0,0:0:0:0:
192,192,24470,1,0,0:0:0:0:
192,192,24620,1,0,0:0:0:0:
320,192,24620,1,0,0:0:0:0:
448,192,24620,1,0,0:0:0:0:
64,192,24770,1,0,0:0:0:0:
448,192,24770,1,0,0:0:0:0:
192,192,24820,1,0,0:0:0:0:
320,192,24870,1,0,0:0:0:0:
64,192,24920,1,0,0:0:0:0:
192,192,24920,1,0,0:0:0:0:
448,192,24920,1,0,0:0:0:0:
192,192,25070,1,0,0:0:0:0:
320,192,25070,1,0,0:0:0:0:
64,192,25220,1,0,0:0:0:0:
320,192,25220,1,0,0:0:0:0:
64,192,25370,1,0,0:0:0:0:
192,192,25370,1,0,0:0:0:0:
448,192,25370,1,0,0:0:0:0:
192,192,25520,1,0,0:0:0:0:
320,192,25520,1,0,0:0:0:0:
64,192,25670,1,0,0:0:0:0:
320,0,25670,128,0,25820:1:0:0:0:
448,0,25670,128,0,25820:1:0:0:0:
64,192,25970,1,0,0:0:0:0:
448,192,25970,1,0,0:0:0:0:
64,192,26045,1,0,0:0:0:0:
192,192,26045,1,0,0:0:0:0:
192,192,26120,1,0,0:0:0:0:
320,192,26120,1,0,0:0:0:0:
320,192,26195,1,0,0:0:0:0:
448,192,26195,1,0,0:0:0:0:
448,192,26270,1,0,0:0:0:0:
64,0,26270,128,0,26420:1:0:0:0:
192,0,26270,128,0,26420:1:0:0:0:
64,192,26570,1,0,0:0:0:0:
448,192,26570,1,0,0:0:0:0:
320,192,26607,1,0,0:0:0:0:
192,192,26645,1,0,0:0:0:0:
64,192,26682,1,0,0:0:0:0:
320,192,26720,1,0,0:0:0:0:
448,192,26720,1,0,0:0:0:0:
192,192,26870,1,0,0:0:0:0:
320,192,26870,1,0,0:0:0:0:
64,192,27020,1,0,0:0:0:0:
192,192,27020,1,0,0:0:0:0:
448,192,27020,1,0,0:0:0:0:
320,192,27070,1,0,0:0:0:0:
192,192,27120,1,0,0:0:0:0:
64,192,27170,1,0,0:0:0:0:
192,192,27220,1,0,0:0:0:0:
320,192,27270,1,0,0:0:0:0:
64,192,27320,1,0,0:0:0:0:
448,192,27320,1,0,0:0:0:0:
64,192,27470,1,0,0:0:0:0:
320,192,27470,1,0,0:0:0:0:
448,192,27470,1,0,0:0:0:0:
192,192,27520,1,0,0:0:0:0:
320,192,27570,1,0,0:0:0:0:
448,192,27620,1,0,0:0:0:0:
320,192,27670,1,0,0:0:0:0:
192,192,27720,1,0,0:0:0:0:
64,192,27770,1,0,0:0:0:0:
448,192,27770,1,0,0:0:0:0:
64,192,27920,1,0,0:0:0:0:
192,0,27920,128,0,28220:1:0:0:0:
448,0,27920,128,0,28220:1:0:0:0:
320,192,28220,1,0,0:0:0:0:
320,192,28295,1,0,0:0:0:0:
64,192,28370,1,0,0:0:0:0:
192,192,28445,1,0,0:0:0:0:
320,0,28520,128,0,28670:1:0:0:0:
448,0,28520,128,0,28670:1:0:0:0:
64,192,28820,1,0,0:0:0:0:
192,192,28820,1,0,0:0:0:0:
448,192,28820,1,0,0:0:0:0:
64,192,29007,1,0,0:0:0:0:
192,192,29007,1,0,0:0:0:0:
320,192,29007,1,0,0:0:0:0:
192,192,29195,1,0,0:0:0:0:
320,192,29195,1,0,0:0:0:0:
448,192,29195,1,0,0:0:0:0:
64,192,29420,1,0,0:0:0:0:
320,192,29420,1,0,0:0:0:0:
448,192,29420,1,0,0:0:0:0:
192,192,29495,1,0,0:0:0:0:
320,192,29570,1,0,0:0:0:0:
64,192,29645,1,0,0:0:0:0:
192,192,29720,1,0,0:0:0:0:
448,192,29720,1,0,0:0:0:0:
320,192,29795,1,0,0:0:0:0:
64,192,29870,1,0,0:0:0:0:
192,192,29945,1,0,0:0:0:0:
320,192,30020,1,0,0:0:0:0:
448,192,30020,1,0,0:0:0:0:
192,192,30095,1,0,0:0:0:0:
64,192,30170,1,0,0:0:0:0:
320,192,30245,1,0,0:0:0:0:
64,192,30320,1,0,0:0:0:0:
448,192,30320,1,0,0:0:0:0:
320,192,30395,1,0,0:0:0:0:
192,192,30470,1,0,0:0:0:0:
64,192,30545,1,0,0:0:0:0:
320,192,30620,1,0,0:0:0:0:
448,192,30620,1,0,0:0:0:0:
64,192,30695,1,0,0:0:0:0:
192,192,30770,1,0,0:0:0:0:
320,192,30845,1,0,0:0:0:0:
192,192,30920,1,0,0:0:0:0:
448,192,30920,1,0,0:0:0:0:
320,192,30995,1,0,0:0:0:0:
64,192,31070,1,0,0:0:0:0:
192,192,31145,1,0,0:0:0:0:
64,192,31220,1,0,0:0:0:0:
320,192,31220,1,0,0:0:0:0:
448,192,31220,1,0,0:0:0:0:
192,192,31295,1,0,0:0:0:0:
448,192,31370,1,0,0:0:0:0:
192,192,31445,1,0,0:0:0:0:
64,192,31520,1,0,0:0:0:0:
320,192,31520,1,0,0:0:0:0:
192,192,31595,1,0,0:0:0:0:
64,192,31670,1,0,0:0:0:0:
320,192,31670,1,0,0:0:0:0:
448,192,31670,1,0,0:0:0:0:
192,192,31745,1,0,0:0:0:0:
320,192,31820,1,0,0:0:0:0:
448,192,31820,1,0,0:0:0:0:
64,192,31895,1,0,0:0:0:0:
192,192,31970,1,0,0:0:0:0:
448,192,31970,1,0,0:0:0:0:
64,192,32045,1,0,0:0:0:0:
192,192,32045,1,0,0:0:0:0:
320,192,32120,1,0,0:0:0:0:
448,192,32120,1,0,0:0:0:0:
192,192,32195,1,0,0:0:0:0:
64,192,32270,1,0,0:0:0:0:
320,192,32270,1,0,0:0:0:0:
448,192,32345,1,0,0:0:0:0:
64,192,32420,1,0,0:0:0:0:
192,192,32420,1,0,0:0:0:0:
448,192,32495,1,0,0:0:0:0:
192,192,32570,1,0,0:0:0:0:
320,192,32570,1,0,0:0:0:0:
64,192,32645,1,0,0:0:0:0:
320,192,32645,1,0,0:0:0:0:
192,192,32720,1,0,0:0:0:0:
448,192,32720,1,0,0:0:0:0:
64,192,32795,1,0,0:0:0:0:
320,192,32870,1,0,0:0:0:0:
448,192,32870,1,0,0:0:0:0:
64,192,32945,1,0,0:0:0:0:
192,192,32945,1,0,0:0:0:0:
320,192,33020,1,0,0:0:0:0:
448,192,33020,1,0,0:0:0:0:
192,192,33095,1,0,0:0:0:0:
64,192,33170,1,0,0:0:0:0:
192,192,33220,1,0,0:0:0:0:
320,192,33270,1,0,0:0:0:0:
64,192,33320,1,0,0:0:0:0:
448,192,33320,1,0,0:0:0:0:
192,192,33395,1,0,0:0:0:0:
320,192,33470,1,0,0:0:0:0:
64,192,33545,1,0,0:0:0:0:
448,192,33620,1,0,0:0:0:0:
320,192,33657,1,0,0:0:0:0:
192,192,33695,1,0,0:0:0:0:
64,192,33732,1,0,0:0:0:0:
448,192,33770,1,0,0:0:0:0:
320,192,33807,1,0,0:0:0:0:
192,192,33845,1,0,0:0:0:0:
64,192,33882,1,0,0:0:0:0:
448,192,33920,1,0,0:0:0:0:
320,192,33957,1,0,0:0:0:0:
192,192,33995,1,0,0:0:0:0:
64,192,34032,1,0,0:0:0:0:
448,192,34070,1,0,0:0:0:0:
320,192,34107,1,0,0:0:0:0:
192,192,34145,1,0,0:0:0:0:
64,192,34182,1,0,0:0:0:0:
192,192,34220,1,0,0:0:0:0:
320,192,34220,1,0,0:0:0:0:
448,192,34220,1,0,0:0:0:0:
64,192,34295,1,0,0:0:0:0:
448,192,34370,1,0,0:0:0:0:
192,192,34445,1,0,0:0:0:0:
64,192,34520,1,0,0:0:0:0:
320,192,34520,1,0,0:0:0:0:
448,192,34520,1,0,0:0:0:0:
192,192,34595,1,0,0:0:0:0:
448,192,34670,1,0,0:0:0:0:
64,192,34745,1,0,0:0:0:0:
192,192,34820,1,0,0:0:0:0:
448,192,34820,1,0,0:0:0:0:
320,192,34895,1,0,0:0:0:0:
64,192,34970,1,0,0:0:0:0:
192,192,34970,1,0,0:0:0:0:
448,192,34970,1,0,0:0:0:0:
320,192,35045,1,0,0:0:0:0:
64,192,35120,1,0,0:0:0:0:
192,192,35120,1,0,0:0:0:0:
448,192,35195,1,0,0:0:0:0:
64,192,35270,1,0,0:0:0:0:
192,192,35270,1,0,0:0:0:0:
320,192,35270,1,0,0:0:0:0:
448,192,35345,1,0,0:0:0:0:
64,192,35420,1,0,0:0:0:0:
192,192,35420,1,0,0:0:0:0:
320,192,35495,1,0,0:0:0:0:
64,192,35570,1,0,0:0:0:0:
448,192,35570,1,0,0:0:0:0:
192,192,35645,1,0,0:0:0:0:
64,192,35720,1,0,0:0:0:0:
320,192,35720,1,0,0:0:0:0:
448,192,35795,1,0,0:0:0:0:
192,192,35870,1,0,0:0:0:0:
320,192,35870,1,0,0:0:0:0:
64,192,35945,1,0,0:0:0:0:
320,192,36020,1,0,0:0:0:0:
448,192,36020,1,0,0:0:0:0:
192,192,36095,1,0,0:0:0:0:
64,192,36170,1,0,0:0:0:0:
448,192,36170,1,0,0:0:0:0:
320,192,36245,1,0,0:0:0:0:
192,192,36320,1,0,0:0:0:0:
448,192,36320,1,0,0:0:0:0:
64,192,36395,1,0,0:0:0:0:
192,192,36470,1,0,0:0:0:0:
320,192,36470,1,0,0:0:0:0:
192,192,36545,1,0,0:0:0:0:
448,192,36545,1,0,0:0:0:0:
64,192,36620,1,0,0:0:0:0:
320,192,36620,1,0,0:0:0:0:
192,192,36695,1,0,0:0:0:0:
448,192,36770,1,0,0:0:0:0:
320,192,36845,1,0,0:0:0:0:
64,192,36920,1,0,0:0:0:0:
192,192,36920,1,0,0:0:0:0:
448,192,36920,1,0,0:0:0:0:
320,192,36995,1,0,0:0:0:0:
64,192,37070,1,0,0:0:0:0:
448,192,37145,1,0,0:0:0:0:
192,192,37220,1,0,0:0:0:0:
320,192,37220,1,0,0:0:0:0:
64,192,37295,1,0,0:0:0:0:
192,192,37370,1,0,0:0:0:0:
320,192,37370,1,0,0:0:0:0:
448,192,37370,1,0,0:0:0:0:
64,192,37445,1,0,0:0:0:0:
192,192,37520,1,0,0:0:0:0:
320,192,37520,1,0,0:0:0:0:
448,192,37595,1,0,0:0:0:0:
64,192,37670,1,0,0:0:0:0:
192,192,37670,1,0,0:0:0:0:
320,192,37670,1,0,0:0:0:0:
448,192,37745,1,0,0:0:0:0:
64,192,37820,1,0,0:0:0:0:
320,192,37820,1,0,0:0:0:0:
192,192,37895,1,0,0:0:0:0:
448,192,37970,1,0,0:0:0:0:
64,192,38045,1,0,0:0:0:0:
192,192,38120,1,0,0:0:0:0:
320,192,38120,1,0,0:0:0:0:
448,192,38195,1,0,0:0:0:0:
64,192,38270,1,0,0:0:0:0:
320,192,38345,1,0,0:0:0:0:
64,192,38420,1,0,0:0:0:0:
192,192,38420,1,0,0:0:0:0:
448,192,38495,1,0,0:0:0:0:
64,192,38570,1,0,0:0:0:0:
320,192,38570,1,0,0:0:0:0:
192,192,38645,1,0,0:0:0:0:
320,192,38720,1,0,0:0:0:0:
448,192,38720,1,0,0:0:0:0:
64,192,38795,1,0,0:0:0:0:
192,192,38870,1,0,0:0:0:0:
448,192,38870,1,0,0:0:0:0:
192,192,38945,1,0,0:0:0:0:
320,192,38945,1,0,0:0:0:0:
64,0,39020,128,0,39038:1:0:0:0:
448,0,39095,128,0,39113:1:0:0:0:
192,0,39170,128,0,39188:1:0:0:0:
64,192,39320,1,0,0:0:0:0:
192,192,39320,1,0,0:0:0:0:
448,192,39320,1,0,0:0:0:0:
320,192,39395,1,0,0:0:0:0:
192,192,39470,1,0,0:0:0:0:
448,192,39545,1,0,0:0:0:0:
64,192,39620,1,0,0:0:0:0:
320,192,39620,1,0,0:0:0:0:
192,192,39695,1,0,0:0:0:0:
64,192,39770,1,0,0:0:0:0:
320,192,39770,1,0,0:0:0:0:
448,192,39770,1,0,0:0:0:0:
192,192,39845,1,0,0:0:0:0:
320,192,39920,1,0,0:0:0:0:
448,192,39920,1,0,0:0:0:0:
64,192,39995,1,0,0:0:0:0:
192,192,40070,1,0,0:0:0:0:
448,192,40070,1,0,0:0:0:0:
320,192,40145,1,0,0:0:0:0:
64,192,40220,1,0,0:0:0:0:
448,192,40220,1,0,0:0:0:0:
320,192,40295,1,0,0:0:0:0:
64,192,40370,1,0,0:0:0:0:
192,192,40370,1,0,0:0:0:0:
448,192,40370,1,0,0:0:0:0:
320,192,40445,1,0,0:0:0:0:
64,192,40520,1,0,0:0:0:0:
192,192,40520,1,0,0:0:0:0:
448,192,40595,1,0,0:0:0:0:
64,192,40670,1,0,0:0:0:0:
192,192,40670,1,0,0:0:0:0:
320,192,40670,1,0,0:0:0:0:
448,192,40745,1,0,0:0:0:0:
64,192,40820,1,0,0:0:0:0:
320,192,40820,1,0,0:0:0:0:
192,192,40895,1,0,0:0:0:0:
64,192,40970,1,0,0:0:0:0:
320,192,40970,1,0,0:0:0:0:
448,192,40970,1,0,0:0:0:0:
192,192,41045,1,0,0:0:0:0:
64,192,41120,1,0,0:0:0:0:
320,192,41120,1,0,0:0:0:0:
448,192,41195,1,0,0:0:0:0:
64,192,41270,1,0,0:0:0:0:
192,192,41270,1,0,0:0:0:0:
320,192,41345,1,0,0:0:0:0:
64,192,41420,1,0,0:0:0:0:
448,192,41420,1,0,0:0:0:0:
192,192,41495,1,0,0:0:0:0:
64,192,41570,1,0,0:0:0:0:
320,192,41570,1,0,0:0:0:0:
448,192,41570,1,0,0:0:0:0:
192,192,41645,1,0,0:0:0:0:
320,192,41720,1,0,0:0:0:0:
448,192,41720,1,0,0:0:0:0:
192,192,41795,1,0,0:0:0:0:
64,192,41870,1,0,0:0:0:0:
448,192,41870,1,0,0:0:0:0:
192,192,41945,1,0,0:0:0:0:
64,192,42020,1,0,0:0:0:0:
320,192,42020,1,0,0:0:0:0:
448,192,42095,1,0,0:0:0:0:
64,192,42170,1,0,0:0:0:0:
192,192,42170,1,0,0:0:0:0:
320,192,42170,1,0,0:0:0:0:
448,192,42245,1,0,0:0:0:0:
64,192,42320,1,0,0:0:0:0:
320,192,42320,1,0,0:0:0:0:
192,192,42395,1,0,0:0:0:0:
64,192,42470,1,0,0:0:0:0:
320,192,42470,1,0,0:0:0:0:
448,192,42470,1,0,0:0:0:0:
192,192,42545,1,0,0:0:0:0:
320,192,42620,1,0,0:0:0:0:
448,192,42620,1,0,0:0:0:0:
64,192,42695,1,0,0:0:0:0:
192,192,42770,1,0,0:0:0:0:
448,192,42770,1,0,0:0:0:0:
320,192,42845,1,0,0:0:0:0:
64,192,42920,1,0,0:0:0:0:
448,192,42920,1,0,0:0:0:0:
320,192,42995,1,0,0:0:0:0:
64,192,43070,1,0,0:0:0:0:
192,192,43070,1,0,0:0:0:0:
448,192,43145,1,0,0:0:0:0:
64,192,43220,1,0,0:0:0:0:
320,192,43220,1,0,0:0:0:0:
192,192,43295,1,0,0:0:0:0:
64,192,43370,1,0,0:0:0:0:
448,192,43370,1,0,0:0:0:0:
192,192,43420,1,0,0:0:0:0:
320,192,43470,1,0,0:0:0:0:
64,192,43520,1,0,0:0:0:0:
448,192,43520,1,0,0:0:0:0:
320,192,43595,1,0,0:0:0:0:
192,192,43670,1,0,0:0:0:0:
448,192,43670,1,0,0:0:0:0:
64,192,43745,1,0,0:0:0:0:
320,192,43745,1,0,0:0:0:0:
192,192,43820,1,0,0:0:0:0:
320,192,43820,1,0,0:0:0:0:
448,192,43820,1,0,0:0:0:0:
64,192,43895,1,0,0:0:0:0:
448,192,43970,1,0,0:0:0:0:
192,192,44045,1,0,0:0:0:0:
64,192,44120,1,0,0:0:0:0:
320,192,44120,1,0,0:0:0:0:
448,192,44120,1,0,0:0:0:0:
192,192,44195,1,0,0:0:0:0:
64,192,44270,1,0,0:0:0:0:
448,192,44270,1,0,0:0:0:0:
320,192,44345,1,0,0:0:0:0:
64,192,44420,1,0,0:0:0:0:
192,192,44420,1,0,0:0:0:0:
320,192,44495,1,0,0:0:0:0:
64,192,44570,1,0,0:0:0:0:
192,192,44570,1,0,0:0:0:0:
448,192,44570,1,0,0:0:0:0:
320,192,44645,1,0,0:0:0:0:
192,192,44720,1,0,0:0:0:0:
448,192,44720,1,0,0:0:0:0:
64,192,44795,1,0,0:0:0:0:
192,192,44870,1,0,0:0:0:0:
320,192,44870,1,0,0:0:0:0:
448,192,44945,1,0,0:0:0:0:
64,192,45020,1,0,0:0:0:0:
320,192,45020,1,0,0:0:0:0:
192,192,45095,1,0,0:0:0:0:
64,192,45170,1,0,0:0:0:0:
320,192,45170,1,0,0:0:0:0:
448,192,45170,1,0,0:0:0:0:
192,192,45245,1,0,0:0:0:0:
64,192,45320,1,0,0:0:0:0:
320,192,45320,1,0,0:0:0:0:
448,192,45395,1,0,0:0:0:0:
64,192,45470,1,0,0:0:0:0:
192,192,45470,1,0,0:0:0:0:
320,192,45470,1,0,0:0:0:0:
448,192,45545,1,0,0:0:0:0:
64,192,45620,1,0,0:0:0:0:
192,192,45620,1,0,0:0:0:0:
320,192,45695,1,0,0:0:0:0:
64,192,45770,1,0,0:0:0:0:
448,192,45770,1,0,0:0:0:0:
320,192,45845,1,0,0:0:0:0:
64,192,45920,1,0,0:0:0:0:
192,192,45920,1,0,0:0:0:0:
448,192,45995,1,0,0:0:0:0:
320,192,46070,1,0,0:0:0:0:
64,192,46145,1,0,0:0:0:0:
192,192,46145,1,0,0:0:0:0:
448,192,46220,1,0,0:0:0:0:
192,0,46220,128,0,46370:1:0:0:0:
64,192,46520,1,0,0:0:0:0:
320,192,46520,1,0,0:0:0:0:
448,192,46520,1,0,0:0:0:0:
192,192,46595,1,0,0:0:0:0:
320,192,46670,1,0,0:0:0:0:
448,192,46670,1,0,0:0:0:0:
192,192,46745,1,0,0:0:0:0:
64,192,46820,1,0,0:0:0:0:
448,192,46820,1,0,0:0:0:0:
192,192,46895,1,0,0:0:0:0:
64,192,46970,1,0,0:0:0:0:
320,192,46970,1,0,0:0:0:0:
448,192,46970,1,0,0:0:0:0:
192,192,47045,1,0,0:0:0:0:
64,192,47120,1,0,0:0:0:0:
320,192,47120,1,0,0:0:0:0:
448,192,47195,1,0,0:0:0:0:
64,192,47270,1,0,0:0:0:0:
192,192,47270,1,0,0:0:0:0:
320,192,47270,1,0,0:0:0:0:
448,192,47345,1,0,0:0:0:0:
64,192,47420,1,0,0:0:0:0:
192,192,47420,1,0,0:0:0:0:
320,192,47495,1,0,0:0:0:0:
64,192,47570,1,0,0:0:0:0:
448,192,47570,1,0,0:0:0:0:
320,192,47645,1,0,0:0:0:0:
192,192,47720,1,0,0:0:0:0:
448,192,47720,1,0,0:0:0:0:
320,192,47795,1,0,0:0:0:0:
64,192,47870,1,0,0:0:0:0:
192,192,47870,1,0,0:0:0:0:
448,192,47945,1,0,0:0:0:0:
64,192,48020,1,0,0:0:0:0:
192,192,48020,1,0,0:0:0:0:
320,192,48095,1,0,0:0:0:0:
64,192,48170,1,0,0:0:0:0:
448,192,48170,1,0,0:0:0:0:
320,192,48245,1,0,0:0:0:0:
192,192,48320,1,0,0:0:0:0:
448,192,48320,1,0,0:0:0:0:
64,192,48395,1,0,0:0:0:0:
320,192,48470,1,0,0:0:0:0:
448,192,48470,1,0,0:0:0:0:
192,192,48545,1,0,0:0:0:0:
320,192,48545,1,0,0:0:0:0:
64,192,48620,1,0,0:0:0:0:
448,192,48620,1,0,0:0:0:0:
320,192,48695,1,0,0:0:0:0:
192,192,48770,1,0,0:0:0:0:
320,192,48845,1,0,0:0:0:0:
64,192,48920,1,0,0:0:0:0:
192,192,48920,1,0,0:0:0:0:
448,192,48920,1,0,0:0:0:0:
320,192,48995,1,0,0:0:0:0:
64,192,49070,1,0,0:0:0:0:
448,192,49145,1,0,0:0:0:0:
192,192,49220,1,0,0:0:0:0:
320,192,49220,1,0,0:0:0:0:
448,192,49295,1,0,0:0:0:0:
64,192,49370,1,0,0:0:0:0:
192,192,49370,1,0,0:0:0:0:
320,192,49370,1,0,0:0:0:0:
448,192,49445,1,0,0:0:0:0:
64,192,49520,1,0,0:0:0:0:
192,192,49520,1,0,0:0:0:0:
320,192,49595,1,0,0:0:0:0:
64,192,49670,1,0,0:0:0:0:
192,192,49670,1,0,0:0:0:0:
448,192,49670,1,0,0:0:0:0:
320,192,49745,1,0,0:0:0:0:
64,192,49820,1,0,0:0:0:0:
448,192,49820,1,0,0:0:0:0:
192,192,49895,1,0,0:0:0:0:
448,192,49970,1,0,0:0:0:0:
320,192,50045,1,0,0:0:0:0:
192,192,50120,1,0,0:0:0:0:
448,192,50120,1,0,0:0:0:0:
64,192,50195,1,0,0:0:0:0:
192,192,50270,1,0,0:0:0:0:
320,192,50270,1,0,0:0:0:0:
448,192,50270,1,0,0:0:0:0:
64,192,50345,1,0,0:0:0:0:
192,192,50420,1,0,0:0:0:0:
448,192,50420,1,0,0:0:0:0:
320,192,50495,1,0,0:0:0:0:
64,192,50570,1,0,0:0:0:0:
192,192,50570,1,0,0:0:0:0:
448,192,50570,1,0,0:0:0:0:
320,192,50645,1,0,0:0:0:0:
64,192,50720,1,0,0:0:0:0:
192,192,50720,1,0,0:0:0:0:
448,192,50795,1,0,0:0:0:0:
64,192,50870,1,0,0:0:0:0:
320,192,50870,1,0,0:0:0:0:
192,192,50945,1,0,0:0:0:0:
320,192,51020,1,0,0:0:0:0:
448,192,51020,1,0,0:0:0:0:
192,192,51095,1,0,0:0:0:0:
64,192,51170,1,0,0:0:0:0:
320,192,51170,1,0,0:0:0:0:
448,192,51170,1,0,0:0:0:0:
192,192,51245,1,0,0:0:0:0:
64,192,51320,1,0,0:0:0:0:
448,192,51320,1,0,0:0:0:0:
320,192,51395,1,0,0:0:0:0:
64,192,51470,1,0,0:0:0:0:
192,192,51470,1,0,0:0:0:0:
320,192,51545,1,0,0:0:0:0:
192,192,51620,1,0,0:0:0:0:
448,192,51620,1,0,0:0:0:0:
320,192,51695,1,0,0:0:0:0:
64,192,51770,1,0,0:0:0:0:
192,192,51770,1,0,0:0:0:0:
320,192,51845,1,0,0:0:0:0:
448,192,51845,1,0,0:0:0:0:
64,192,51920,1,0,0:0:0:0:
192,192,51920,1,0,0:0:0:0:
320,192,51995,1,0,0:0:0:0:
448,192,51995,1,0,0:0:0:0:
64,192,52070,1,0,0:0:0:0:
192,192,52070,1,0,0:0:0:0:
320,192,52145,1,0,0:0:0:0:
448,192,52145,1,0,0:0:0:0:
64,192,52220,1,0,0:0:0:0:
192,192,52220,1,0,0:0:0:0:
320,192,52295,1,0,0:0:0:0:
448,192,52295,1,0,0:0:0:0:
64,192,52370,1,0,0:0:0:0:
192,192,52370,1,0,0:0:0:0:
320,192,52445,1,0,0:0:0:0:
448,192,52445,1,0,0:0:0:0:
64,192,52520,1,0,0:0:0:0:
192,192,52520,1,0,0:0:0:0:
320,192,52595,1,0,0:0:0:0:
448,192,52595,1,0,0:0:0:0:
64,192,52670,1,0,0:0:0:0:
192,192,52670,1,0,0:0:0:0:
320,192,52745,1,0,0:0:0:0:
448,192,52745,1,0,0:0:0:0:
64,192,52820,1,0,0:0:0:0:
192,192,52820,1,0,0:0:0:0:
320,192,52970,1,0,0:0:0:0:
64,0,52970,128,0,53270:1:0:0:0:
448,0,52970,128,0,53270:1:0:0:0:
320,192,53420,1,0,0:0:0:0:
448,192,53420,1,0,0:0:0:0:
64,0,53420,128,0,53495:1:0:0:0:
192,192,53495,1,0,0:0:0:0:
448,192,53570,1,0,0:0:0:0:
448,192,53645,1,0,0:0:0:0:
64,192,53720,1,0,0:0:0:0:
192,192,53720,1,0,0:0:0:0:
320,192,53720,1,0,0:0:0:0:
448,192,53795,1,0,0:0:0:0:
320,192,53870,1,0,0:0:0:0:
64,192,53945,1,0,0:0:0:0:
192,192,54020,1,0,0:0:0:0:
320,192,54020,1,0,0:0:0:0:
448,192,54020,1,0,0:0:0:0:
64,192,54095,1,0,0:0:0:0:
320,192,54170,1,0,0:0:0:0:
320,192,54245,1,0,0:0:0:0:
64,192,54320,1,0,0:0:0:0:
192,192,54320,1,0,0:0:0:0:
448,192,54320,1,0,0:0:0:0:
320,192,54395,1,0,0:0:0:0:
192,192,54470,1,0,0:0:0:0:
448,192,54545,1,0,0:0:0:0:
64,192,54620,1,0,0:0:0:0:
192,192,54620,1,0,0:0:0:0:
320,192,54620,1,0,0:0:0:0:
448,192,54695,1,0,0:0:0:0:
192,192,54770,1,0,0:0:0:0:
192,192,54845,1,0,0:0:0:0:
64,192,54920,1,0,0:0:0:0:
320,192,54920,1,0,0:0:0:0:
448,192,54920,1,0,0:0:0:0:
192,192,54995,1,0,0:0:0:0:
320,192,55070,1,0,0:0:0:0:
448,192,55145,1,0,0:0:0:0:
64,192,55220,1,0,0:0:0:0:
192,192,55220,1,0,0:0:0:0:
320,192,55220,1,0,0:0:0:0:
448,192,55295,1,0,0:0:0:0:
64,192,55370,1,0,0:0:0:0:
64,192,55445,1,0,0:0:0:0:
192,192,55520,1,0,0:0:0:0:
320,192,55520,1,0,0:0:0:0:
448,192,55520,1,0,0:0:0:0:
64,192,55595,1,0,0:0:0:0:
448,192,55670,1,0,0:0:0:0:
192,192,55745,1,0,0:0:0:0:
64,192,55820,1,0,0:0:0:0:
320,192,55820,1,0,0:0:0:0:
448,192,55820,1,0,0:0:0:0:
192,192,55895,1,0,0:0:0:0:
448,192,55970,1,0,0:0:0:0:
448,192,56045,1,0,0:0:0:0:
64,192,56120,1,0,0:0:0:0:
192,192,56120,1,0,0:0:0:0:
320,192,56120,1,0,0:0:0:0:
448,192,56195,1,0,0:0:0:0:
192,192,56270,1,0,0:0:0:0:
320,192,56345,1,0,0:0:0:0:
64,192,56420,1,0,0:0:0:0:
192,192,56420,1,0,0:0:0:0:
448,192,56420,1,0,0:0:0:0:
320,192,56495,1,0,0:0:0:0:
64,192,56570,1,0,0:0:0:0:
64,192,56645,1,0,0:0:0:0:
192,192,56720,1,0,0:0:0:0:
320,192,56720,1,0,0:0:0:0:
448,192,56720,1,0,0:0:0:0:
64,192,56795,1,0,0:0:0:0:
192,192,56870,1,0,0:0:0:0:
320,192,56945,1,0,0:0:0:0:
64,192,57020,1,0,0:0:0:0:
192,192,57020,1,0,0:0:0:0:
448,192,57020,1,0,0:0:0:0:
320,192,57095,1,0,0:0:0:0:
192,192,57170,1,0,0:0:0:0:
192,192,57245,1,0,0:0:0:0:
64,192,57320,1,0,0:0:0:0:
320,192,57320,1,0,0:0:0:0:
448,192,57320,1,0,0:0:0:0:
192,192,57395,1,0,0:0:0:0:
448,192,57470,1,0,0:0:0:0:
192,192,57545,1,0,0:0:0:0:
64,192,57620,1,0,0:0:0:0:
320,192,57620,1,0,0:0:0:0:
448,192,57620,1,0,0:0:0:0:
64,192,57770,1,0,0:0:0:0:
192,0,57770,128,0,57845:1:0:0:0:
320,0,57770,128,0,57845:1:0:0:0:
64,192,58070,1,0,0:0:0:0:
320,0,58070,128,0,58220:1:0:0:0:
448,0,58070,128,0,58220:1:0:0:0:
64,192,58370,1,0,0:0:0:0:
192,192,58370,1,0,0:0:0:0:
64,192,58445,1,0,0:0:0:0:
192,192,58445,1,0,0:0:0:0:
320,192,58520,1,0,0:0:0:0:
448,192,58520,1,0,0:0:0:0:
64,192,58595,1,0,0:0:0:0:
192,192,58670,1,0,0:0:0:0:
448,192,58745,1,0,0:0:0:0:
64,192,58820,1,0,0:0:0:0:
192,192,58820,1,0,0:0:0:0:
320,192,58820,1,0,0:0:0:0:
448,192,58895,1,0,0:0:0:0:
64,192,58970,1,0,0:0:0:0:
64,192,59045,1,0,0:0:0:0:
192,192,59120,1,0,0:0:0:0:
320,192,59120,1,0,0:0:0:0:
448,192,59120,1,0,0:0:0:0:
64,192,59195,1,0,0:0:0:0:
320,192,59270,1,0,0:0:0:0:
448,192,59345,1,0,0:0:0:0:
64,192,59420,1,0,0:0:0:0:
192,192,59420,1,0,0:0:0:0:
320,192,59420,1,0,0:0:0:0:
448,192,59495,1,0,0:0:0:0:
192,192,59570,1,0,0:0:0:0:
192,192,59645,1,0,0:0:0:0:
64,192,59720,1,0,0:0:0:0:
320,192,59720,1,0,0:0:0:0:
448,192,59720,1,0,0:0:0:0:
192,192,59795,1,0,0:0:0:0:
320,192,59870,1,0,0:0:0:0:
448,192,59945,1,0,0:0:0:0:
64,192,60020,1,0,0:0:0:0:
192,192,60020,1,0,0:0:0:0:
320,192,60020,1,0,0:0:0:0:
448,192,60095,1,0,0:0:0:0:
64,192,60170,1,0,0:0:0:0:
64,192,60245,1,0,0:0:0:0:
192,192,60320,1,0,0:0:0:0:
320,192,60320,1,0,0:0:0:0:
448,192,60320,1,0,0:0:0:0:
64,192,60395,1,0,0:0:0:0:
448,192,60470,1,0,0:0:0:0:
320,192,60545,1,0,0:0:0:0:
64,192,60620,1,0,0:0:0:0:
192,192,60620,1,0,0:0:0:0:
448,192,60620,1,0,0:0:0:0:
320,192,60695,1,0,0:0:0:0:
192,192,60770,1,0,0:0:0:0:
192,192,60845,1,0,0:0:0:0:
64,192,60920,1,0,0:0:0:0:
448,192,60920,1,0,0:0:0:0:
64,192,60995,1,0,0:0:0:0:
448,192,60995,1,0,0:0:0:0:
320,192,61070,1,0,0:0:0:0:
192,192,61145,1,0,0:0:0:0:
448,192,61145,1,0,0:0:0:0:
192,192,61220,1,0,0:0:0:0:
448,192,61220,1,0,0:0:0:0:
320,192,61295,1,0,0:0:0:0:
64,192,61370,1,0,0:0:0:0:
192,192,61370,1,0,0:0:0:0:
64,192,61445,1,0,0:0:0:0:
192,192,61445,1,0,0:0:0:0:
448,192,61520,1,0,0:0:0:0:
192,192,61595,1,0,0:0:0:0:
320,192,61595,1,0,0:0:0:0:
192,192,61670,1,0,0:0:0:0:
320,192,61670,1,0,0:0:0:0:
192,192,61745,1,0,0:0:0:0:
64,192,61820,1,0,0:0:0:0:
320,192,61820,1,0,0:0:0:0:
448,192,61820,1,0,0:0:0:0:
192,192,61895,1,0,0:0:0:0:
448,192,61970,1,0,0:0:0:0:
192,192,62045,1,0,0:0:0:0:
64,192,62120,1,0,0:0:0:0:
320,192,62120,1,0,0:0:0:0:
448,192,62120,1,0,0:0:0:0:
192,192,62195,1,0,0:0:0:0:
448,192,62270,1,0,0:0:0:0:
320,192,62345,1,0,0:0:0:0:
64,192,62420,1,0,0:0:0:0:
192,192,62420,1,0,0:0:0:0:
448,192,62420,1,0,0:0:0:0:
320,192,62495,1,0,0:0:0:0:
448,192,62570,1,0,0:0:0:0:
192,192,62645,1,0,0:0:0:0:
64,192,62720,1,0,0:0:0:0:
320,192,62720,1,0,0:0:0:0:
448,192,62720,1,0,0:0:0:0:
192,192,62795,1,0,0:0:0:0:
448,192,62870,1,0,0:0:0:0:
320,192,62907,1,0,0:0:0:0:
192,192,62945,1,0,0:0:0:0:
64,192,62982,1,0,0:0:0:0:
192,192,63020,1,0,0:0:0:0:
320,192,63020,1,0,0:0:0:0:
448,192,63020,1,0,0:0:0:0:
64,192,63095,1,0,0:0:0:0:
64,192,63170,1,0,0:0:0:0:
192,192,63245,1,0,0:0:0:0:
64,192,63320,1,0,0:0:0:0:
320,192,63320,1,0,0:0:0:0:
448,192,63320,1,0,0:0:0:0:
320,192,63470,1,0,0:0:0:0:
64,192,63545,1,0,0:0:0:0:
64,192,63620,1,0,0:0:0:0:
320,192,63620,1,0,0:0:0:0:
448,192,63620,1,0,0:0:0:0:
192,192,63695,1,0,0:0:0:0:
448,192,63770,1,0,0:0:0:0:
192,192,63920,1,0,0:0:0:0:
320,192,63920,1,0,0:0:0:0:
64,192,63995,1,0,0:0:0:0:
64,192,64070,1,0,0:0:0:0:
320,192,64145,1,0,0:0:0:0:
64,192,64220,1,0,0:0:0:0:
192,192,64220,1,0,0:0:0:0:
448,192,64220,1,0,0:0:0:0:
320,192,64295,1,0,0:0:0:0:
448,192,64370,1,0,0:0:0:0:
192,192,64445,1,0,0:0:0:0:
64,192,64520,1,0,0:0:0:0:
320,192,64520,1,0,0:0:0:0:
448,192,64520,1,0,0:0:0:0:
192,192,64595,1,0,0:0:0:0:
320,192,64670,1,0,0:0:0:0:
64,192,64745,1,0,0:0:0:0:
192,192,64820,1,0,0:0:0:0:
320,192,64820,1,0,0:0:0:0:
448,192,64820,1,0,0:0:0:0:
64,192,64895,1,0,0:0:0:0:
192,192,64970,1,0,0:0:0:0:
320,192,65045,1,0,0:0:0:0:
64,192,65120,1,0,0:0:0:0:
192,192,65120,1,0,0:0:0:0:
448,192,65120,1,0,0:0:0:0:
320,192,65195,1,0,0:0:0:0:
192,192,65270,1,0,0:0:0:0:
64,192,65345,1,0,0:0:0:0:
192,192,65420,1,0,0:0:0:0:
320,192,65420,1,0,0:0:0:0:
448,192,65420,1,0,0:0:0:0:
64,192,65495,1,0,0:0:0:0:
64,192,65570,1,0,0:0:0:0:
320,192,65645,1,0,0:0:0:0:
64,192,65720,1,0,0:0:0:0:
192,192,65720,1,0,0:0:0:0:
448,192,65720,1,0,0:0:0:0:
320,192,65870,1,0,0:0:0:0:
64,192,65945,1,0,0:0:0:0:
64,192,66020,1,0,0:0:0:0:
320,192,66020,1,0,0:0:0:0:
448,192,66020,1,0,0:0:0:0:
192,192,66095,1,0,0:0:0:0:
448,192,66170,1,0,0:0:0:0:
192,192,66320,1,0,0:0:0:0:
320,192,66320,1,0,0:0:0:0:
64,192,66395,1,0,0:0:0:0:
64,192,66470,1,0,0:0:0:0:
320,192,66545,1,0,0:0:0:0:
64,192,66620,1,0,0:0:0:0:
192,192,66620,1,0,0:0:0:0:
448,192,66620,1,0,0:0:0:0:
320,192,66695,1,0,0:0:0:0:
64,192,66770,1,0,0:0:0:0:
448,192,66845,1,0,0:0:0:0:
64,192,66920,1,0,0:0:0:0:
192,192,66920,1,0,0:0:0:0:
320,192,66920,1,0,0:0:0:0:
448,192,66995,1,0,0:0:0:0:
64,192,67070,1,0,0:0:0:0:
192,192,67145,1,0,0:0:0:0:
64,192,67220,1,0,0:0:0:0:
320,192,67220,1,0,0:0:0:0:
448,192,67220,1,0,0:0:0:0:
192,192,67295,1,0,0:0:0:0:
192,192,67370,1,0,0:0:0:0:
320,192,67370,1,0,0:0:0:0:
64,192,67445,1,0,0:0:0:0:
448,192,67445,1,0,0:0:0:0:
192,192,67520,1,0,0:0:0:0:
320,192,67520,1,0,0:0:0:0:
64,192,67595,1,0,0:0:0:0:
192,192,67670,1,0,0:0:0:0:
448,192,67670,1,0,0:0:0:0:
320,192,67745,1,0,0:0:0:0:
64,192,67820,1,0,0:0:0:0:
192,192,67820,1,0,0:0:0:0:
448,192,67820,1,0,0:0:0:0:
320,192,67895,1,0,0:0:0:0:
448,192,67970,1,0,0:0:0:0:
192,192,68045,1,0,0:0:0:0:
320,192,68120,1,0,0:0:0:0:
448,192,68120,1,0,0:0:0:0:
64,192,68195,1,0,0:0:0:0:
192,192,68195,1,0,0:0:0:0:
320,192,68270,1,0,0:0:0:0:
64,192,68345,1,0,0:0:0:0:
448,192,68345,1,0,0:0:0:0:
192,192,68420,1,0,0:0:0:0:
320,192,68420,1,0,0:0:0:0:
64,192,68495,1,0,0:0:0:0:
448,192,68495,1,0,0:0:0:0:
192,192,68570,1,0,0:0:0:0:
320,192,68645,1,0,0:0:0:0:
448,192,68645,1,0,0:0:0:0:
64,192,68720,1,0,0:0:0:0:
192,192,68720,1,0,0:0:0:0:
320,192,68795,1,0,0:0:0:0:
448,192,68795,1,0,0:0:0:0:
64,192,68870,1,0,0:0:0:0:
320,192,68945,1,0,0:0:0:0:
448,192,68945,1,0,0:0:0:0:
64,192,69020,1,0,0:0:0:0:
192,192,69020,1,0,0:0:0:0:
320,192,69095,1,0,0:0:0:0:
448,192,69095,1,0,0:0:0:0:
64,192,69170,1,0,0:0:0:0:
192,192,69245,1,0,0:0:0:0:
320,192,69245,1,0,0:0:0:0:
64,192,69320,1,0,0:0:0:0:
448,192,69320,1,0,0:0:0:0:
192,192,69395,1,0,0:0:0:0:
320,192,69395,1,0,0:0:0:0:
64,192,69470,1,0,0:0:0:0:
320,192,69545,1,0,0:0:0:0:
448,192,69545,1,0,0:0:0:0:
64,192,69620,1,0,0:0:0:0:
192,192,69620,1,0,0:0:0:0:
320,192,69695,1,0,0:0:0:0:
448,192,69695,1,0,0:0:0:0:
64,192,69770,1,0,0:0:0:0:
192,192,69845,1,0,0:0:0:0:
448,192,69845,1,0,0:0:0:0:
64,192,69920,1,0,0:0:0:0:
320,192,69920,1,0,0:0:0:0:
192,192,69995,1,0,0:0:0:0:
448,192,69995,1,0,0:0:0:0:
320,192,70070,1,0,0:0:0:0:
64,192,70145,1,0,0:0:0:0:
192,192,70145,1,0,0:0:0:0:
64,192,70220,1,0,0:0:0:0:
320,192,70220,1,0,0:0:0:0:
448,192,70220,1,0,0:0:0:0:
192,192,70295,1,0,0:0:0:0:
320,192,70370,1,0,0:0:0:0:
448,192,70370,1,0,0:0:0:0:
64,192,70445,1,0,0:0:0:0:
192,192,70520,1,0,0:0:0:0:
320,192,70520,1,0,0:0:0:0:
448,192,70520,1,0,0:0:0:0:
64,192,70595,1,0,0:0:0:0:
320,192,70670,1,0,0:0:0:0:
448,192,70670,1,0,0:0:0:0:
192,192,70745,1,0,0:0:0:0:
64,192,70820,1,0,0:0:0:0:
320,192,70820,1,0,0:0:0:0:
448,192,70820,1,0,0:0:0:0:
192,192,70895,1,0,0:0:0:0:
64,192,70970,1,0,0:0:0:0:
320,192,70970,1,0,0:0:0:0:
448,192,71045,1,0,0:0:0:0:
64,192,71120,1,0,0:0:0:0:
192,192,71120,1,0,0:0:0:0:
320,192,71120,1,0,0:0:0:0:
448,192,71195,1,0,0:0:0:0:
64,192,71270,1,0,0:0:0:0:
192,192,71270,1,0,0:0:0:0:
320,192,71345,1,0,0:0:0:0:
64,192,71420,1,0,0:0:0:0:
448,192,71420,1,0,0:0:0:0:
192,192,71470,1,0,0:0:0:0:
320,192,71520,1,0,0:0:0:0:
448,192,71570,1,0,0:0:0:0:
192,192,71645,1,0,0:0:0:0:
64,192,71720,1,0,0:0:0:0:
448,192,71720,1,0,0:0:0:0:
192,192,71770,1,0,0:0:0:0:
320,192,71820,1,0,0:0:0:0:
448,192,71870,1,0,0:0:0:0:
192,192,71945,1,0,0:0:0:0:
448,192,72020,1,0,0:0:0:0:
320,192,72070,1,0,0:0:0:0:
192,192,72120,1,0,0:0:0:0:
64,192,72170,1,0,0:0:0:0:
320,192,72220,1,0,0:0:0:0:
192,192,72270,1,0,0:0:0:0:
448,192,72320,1,0,0:0:0:0:
320,192,72370,1,0,0:0:0:0:
192,192,72420,1,0,0:0:0:0:
64,192,72470,1,0,0:0:0:0:
320,192,72520,1,0,0:0:0:0:
192,192,72570,1,0,0:0:0:0:
320,192,72620,1,0,0:0:0:0:
448,192,72620,1,0,0:0:0:0:
64,0,72620,128,0,74270:1:0:0:0:
64,192,74570,1,0,0:0:0:0:
192,192,74720,1,0,0:0:0:0:
448,0,74870,128,0,76820:1:0:0:0:
64,192,77120,1,0,0:0:0:0:
192,192,77195,1,0,0:0:0:0:
320,192,77270,1,0,0:0:0:0:
448,192,77345,1,0,0:0:0:0:
192,192,77420,1,0,0:0:0:0:
320,192,77420,1,0,0:0:0:0:
64,0,77420,128,0,77720:1:0:0:0:
192,0,77870,128,0,78170:1:0:0:0:
448,192,78320,1,0,0:0:0:0:
320,0,78470,128,0,78920:1:0:0:0:
192,0,79070,128,0,79220:1:0:0:0:
320,192,79370,1,0,0:0:0:0:
448,192,79420,1,0,0:0:0:0:
320,192,79470,1,0,0:0:0:0:
64,192,79520,1,0,0:0:0:0:
192,192,79670,1,0,0:0:0:0:
192,0,79820,128,0,80120:1:0:0:0:
448,0,80270,128,0,80570:1:0:0:0:
64,192,80720,1,0,0:0:0:0:
320,0,80870,128,0,82070:1:0:0:0:
448,0,81470,128,0,82070:1:0:0:0:
320,192,82220,1,0,0:0:0:0:
64,0,82220,128,0,83870:1:0:0:0:
192,0,82220,128,0,83870:1:0:0:0:
64,192,84170,1,0,0:0:0:0:
192,192,84170,1,0,0:0:0:0:
320,192,84170,1,0,0:0:0:0:
64,192,84320,1,0,0:0:0:0:
192,192,84320,1,0,0:0:0:0:
448,192,84320,1,0,0:0:0:0:
192,192,84470,1,0,0:0:0:0:
320,0,84470,128,0,86420:1:0:0:0:
448,0,84470,128,0,86420:1:0:0:0:
320,192,86720,1,0,0:0:0:0:
448,192,86720,1,0,0:0:0:0:
64,192,86795,1,0,0:0:0:0:
192,192,86795,1,0,0:0:0:0:
192,192,86870,1,0,0:0:0:0:
320,192,86870,1,0,0:0:0:0:
320,192,86945,1,0,0:0:0:0:
448,192,86945,1,0,0:0:0:0:
64,192,87020,1,0,0:0:0:0:
448,192,87020,1,0,0:0:0:0:
192,0,87020,128,0,87320:1:0:0:0:
192,192,87470,1,0,0:0:0:0:
320,192,87470,1,0,0:0:0:0:
64,0,87470,128,0,87770:1:0:0:0:
192,192,87920,1,0,0:0:0:0:
320,192,87920,1,0,0:0:0:0:
448,192,87920,1,0,0:0:0:0:
64,0,88070,128,0,88220:1:0:0:0:
320,192,88220,1,0,0:0:0:0:
448,192,88220,1,0,0:0:0:0:
64,192,88370,1,0,0:0:0:0:
192,192,88370,1,0,0:0:0:0:
448,192,88370,1,0,0:0:0:0:
448,0,88670,128,0,88820:1:0:0:0:
64,192,88820,1,0,0:0:0:0:
192,192,88820,1,0,0:0:0:0:
320,192,88820,1,0,0:0:0:0:
64,192,88970,1,0,0:0:0:0:
192,192,89020,1,0,0:0:0:0:
64,192,89070,1,0,0:0:0:0:
192,192,89120,1,0,0:0:0:0:
320,192,89120,1,0,0:0:0:0:
448,192,89120,1,0,0:0:0:0:
448,192,89270,1,0,0:0:0:0:
320,0,89270,128,0,89420:1:0:0:0:
64,192,89420,1,0,0:0:0:0:
192,192,89420,1,0,0:0:0:0:
448,192,89420,1,0,0:0:0:0:
320,192,89495,1,0,0:0:0:0:
64,192,89570,1,0,0:0:0:0:
192,192,89570,1,0,0:0:0:0:
448,192,89645,1,0,0:0:0:0:
64,192,89720,1,0,0:0:0:0:
192,192,89720,1,0,0:0:0:0:
448,192,89795,1,0,0:0:0:0:
64,192,89870,1,0,0:0:0:0:
320,192,89870,1,0,0:0:0:0:
192,192,89945,1,0,0:0:0:0:
320,192,90020,1,0,0:0:0:0:
448,192,90020,1,0,0:0:0:0:
64,192,90095,1,0,0:0:0:0:
320,192,90170,1,0,0:0:0:0:
448,192,90170,1,0,0:0:0:0:
64,192,90245,1,0,0:0:0:0:
192,192,90320,1,0,0:0:0:0:
448,192,90320,1,0,0:0:0:0:
320,192,90370,1,0,0:0:0:0:
192,192,90420,1,0,0:0:0:0:
64,192,90470,1,0,0:0:0:0:
448,192,90470,1,0,0:0:0:0:
320,192,90520,1,0,0:0:0:0:
192,192,90570,1,0,0:0:0:0:
64,192,90620,1,0,0:0:0:0:
448,192,90620,1,0,0:0:0:0:
192,192,90695,1,0,0:0:0:0:
320,192,90770,1,0,0:0:0:0:
448,192,90770,1,0,0:0:0:0:
64,192,90845,1,0,0:0:0:0:
192,192,90920,1,0,0:0:0:0:
448,192,90920,1,0,0:0:0:0:
64,192,90995,1,0,0:0:0:0:
320,192,91070,1,0,0:0:0:0:
448,192,91070,1,0,0:0:0:0:
192,192,91145,1,0,0:0:0:0:
64,192,91220,1,0,0:0:0:0:
320,192,91220,1,0,0:0:0:0:
448,192,91295,1,0,0:0:0:0:
64,192,91370,1,0,0:0:0:0:
192,192,91370,1,0,0:0:0:0:
320,192,91445,1,0,0:0:0:0:
64,192,91520,1,0,0:0:0:0:
448,192,91520,1,0,0:0:0:0:
192,192,91595,1,0,0:0:0:0:
64,192,91670,1,0,0:0:0:0:
448,192,91670,1,0,0:0:0:0:
192,192,91745,1,0,0:0:0:0:
320,192,91745,1,0,0:0:0:0:
64,192,91820,1,0,0:0:0:0:
320,192,91820,1,0,0:0:0:0:
448,192,91820,1,0,0:0:0:0:
192,192,91895,1,0,0:0:0:0:
64,192,91970,1,0,0:0:0:0:
448,192,91970,1,0,0:0:0:0:
192,192,92007,1,0,0:0:0:0:
320,192,92045,1,0,0:0:0:0:
448,192,92082,1,0,0:0:0:0:
64,192,92120,1,0,0:0:0:0:
192,192,92120,1,0,0:0:0:0:
320,192,92195,1,0,0:0:0:0:
64,192,92270,1,0,0:0:0:0:
448,192,92270,1,0,0:0:0:0:
192,192,92307,1,0,0:0:0:0:
320,192,92345,1,0,0:0:0:0:
448,192,92382,1,0,0:0:0:0:
64,192,92420,1,0,0:0:0:0:
192,192,92420,1,0,0:0:0:0:
320,192,92495,1,0,0:0:0:0:
192,192,92570,1,0,0:0:0:0:
448,192,92570,1,0,0:0:0:0:
320,192,92645,1,0,0:0:0:0:
64,192,92720,1,0,0:0:0:0:
448,192,92720,1,0,0:0:0:0:
192,192,92757,1,0,0:0:0:0:
320,192,92795,1,0,0:0:0:0:
448,192,92832,1,0,0:0:0:0:
64,192,92870,1,0,0:0:0:0:
192,192,92907,1,0,0:0:0:0:
320,192,92945,1,0,0:0:0:0:
448,192,92982,1,0,0:0:0:0:
192,0,93020,128,0,93470:1:0:0:0:
320,192,93320,1,0,0:0:0:0:
448,192,93320,1,0,0:0:0:0:
64,192,93470,1,0,0:0:0:0:
448,192,93545,1,0,0:0:0:0:
64,192,93620,1,0,0:0:0:0:
64,192,93770,1,0,0:0:0:0:
192,192,93920,1,0,0:0:0:0:
320,192,94070,1,0,0:0:0:0:
64,192,94220,1,0,0:0:0:0:
192,192,94220,1,0,0:0:0:0:
448,192,94220,1,0,0:0:0:0:
64,192,94370,1,0,0:0:0:0:
448,192,94370,1,0,0:0:0:0:
320,192,94420,1,0,0:0:0:0:
192,192,94470,1,0,0:0:0:0:
64,192,94520,1,0,0:0:0:0:
448,192,94520,1,0,0:0:0:0:
192,192,94670,1,0,0:0:0:0:
320,192,94670,1,0,0:0:0:0:
64,192,94820,1,0,0:0:0:0:
320,192,94820,1,0,0:0:0:0:
192,192,94970,1,0,0:0:0:0:
448,0,94970,128,0,95120:1:0:0:0:
64,192,95270,1,0,0:0:0:0:
192,0,95270,128,0,95570:1:0:0:0:
448,192,95570,1,0,0:0:0:0:
64,192,95645,1,0,0:0:0:0:
192,192,95720,1,0,0:0:0:0:
320,192,95720,1,0,0:0:0:0:
64,192,95870,1,0,0:0:0:0:
192,192,96020,1,0,0:0:0:0:
448,192,96020,1,0,0:0:0:0:
448,192,96170,1,0,0:0:0:0:
320,192,96207,1,0,0:0:0:0:
192,192,96245,1,0,0:0:0:0:
64,192,96282,1,0,0:0:0:0:
320,192,96320,1,0,0:0:0:0:
448,192,96320,1,0,0:0:0:0:
64,192,96470,1,0,0:0:0:0:
192,192,96470,1,0,0:0:0:0:
192,192,96620,1,0,0:0:0:0:
448,192,96620,1,0,0:0:0:0:
64,192,96770,1,0,0:0:0:0:
192,192,96820,1,0,0:0:0:0:
320,192,96870,1,0,0:0:0:0:
64,192,96920,1,0,0:0:0:0:
448,192,96920,1,0,0:0:0:0:
192,192,97070,1,0,0:0:0:0:
320,192,97070,1,0,0:0:0:0:
64,192,97220,1,0,0:0:0:0:
320,192,97220,1,0,0:0:0:0:
64,192,97370,1,0,0:0:0:0:
192,192,97370,1,0,0:0:0:0:
320,192,97520,1,0,0:0:0:0:
448,192,97520,1,0,0:0:0:0:
448,192,97670,1,0,0:0:0:0:
192,0,97670,128,0,97820:1:0:0:0:
64,192,97970,1,0,0:0:0:0:
192,192,98045,1,0,0:0:0:0:
320,192,98120,1,0,0:0:0:0:
448,192,98195,1,0,0:0:0:0:
64,192,98270,1,0,0:0:0:0:
192,0,98270,128,0,98420:1:0:0:0:
64,192,98570,1,0,0:0:0:0:
448,192,98570,1,0,0:0:0:0:
320,192,98607,1,0,0:0:0:0:
192,192,98645,1,0,0:0:0:0:
64,192,98682,1,0,0:0:0:0:
320,192,98720,1,0,0:0:0:0:
448,192,98720,1,0,0:0:0:0:
192,192,98870,1,0,0:0:0:0:
320,192,98870,1,0,0:0:0:0:
64,192,99020,1,0,0:0:0:0:
192,192,99020,1,0,0:0:0:0:
448,192,99020,1,0,0:0:0:0:
320,192,99070,1,0,0:0:0:0:
192,192,99120,1,0,0:0:0:0:
64,192,99170,1,0,0:0:0:0:
192,192,99220,1,0,0:0:0:0:
320,192,99270,1,0,0:0:0:0:
64,192,99320,1,0,0:0:0:0:
448,192,99320,1,0,0:0:0:0:
64,192,99470,1,0,0:0:0:0:
320,192,99470,1,0,0:0:0:0:
448,192,99470,1,0,0:0:0:0:
192,192,99520,1,0,0:0:0:0:
320,192,99570,1,0,0:0:0:0:
448,192,99620,1,0,0:0:0:0:
320,192,99670,1,0,0:0:0:0:
192,192,99720,1,0,0:0:0:0:
64,192,99770,1,0,0:0:0:0:
448,192,99770,1,0,0:0:0:0:
64,192,99920,1,0,0:0:0:0:
192,0,99920,128,0,100220:1:0:0:0:
448,0,99920,128,0,100220:1:0:0:0:
320,192,100220,1,0,0:0:0:0:
320,192,100295,1,0,0:0:0:0:
64,192,100370,1,0,0:0:0:0:
192,192,100370,1,0,0:0:0:0:
192,192,100520,1,0,0:0:0:0:
448,192,100520,1,0,0:0:0:0:
64,192,100670,1,0,0:0:0:0:
320,0,100670,128,0,100820:1:0:0:0:
448,0,100670,128,0,100820:1:0:0:0:
64,192,100970,1,0,0:0:0:0:
192,192,100970,1,0,0:0:0:0:
192,192,101120,1,0,0:0:0:0:
320,192,101120,1,0,0:0:0:0:
448,192,101120,1,0,0:0:0:0:
64,192,101195,1,0,0:0:0:0:
320,192,101270,1,0,0:0:0:0:
448,192,101270,1,0,0:0:0:0:
192,192,101345,1,0,0:0:0:0:
64,192,101420,1,0,0:0:0:0:
320,192,101420,1,0,0:0:0:0:
448,192,101420,1,0,0:0:0:0:
192,192,101470,1,0,0:0:0:0:
320,192,101520,1,0,0:0:0:0:
448,192,101570,1,0,0:0:0:0:
64,192,101620,1,0,0:0:0:0:
192,192,101620,1,0,0:0:0:0:
320,192,101620,1,0,0:0:0:0:
192,192,101770,1,0,0:0:0:0:
64,192,101820,1,0,0:0:0:0:
320,192,101820,1,0,0:0:0:0:
448,192,101820,1,0,0:0:0:0:
192,192,102020,1,0,0:0:0:0:
320,192,102020,1,0,0:0:0:0:
448,192,102020,1,0,0:0:0:0:
64,192,102220,1,0,0:0:0:0:
192,192,102220,1,0,0:0:0:0:
320,192,102220,1,0,0:0:0:0:
192,192,102420,1,0,0:0:0:0:
320,192,102420,1,0,0:0:0:0:
448,192,102420,1,0,0:0:0:0:
64,192,102620,1,0,0:0:0:0:
192,192,102620,1,0,0:0:0:0:
320,192,102620,1,0,0:0:0:0:
64,192,102770,1,0,0:0:0:0:
448,192,102770,1,0,0:0:0:0:
192,192,102820,1,0,0:0:0:0:
320,192,102870,1,0,0:0:0:0:
64,192,102920,1,0,0:0:0:0:
192,192,102920,1,0,0:0:0:0:
448,192,102920,1,0,0:0:0:0:
64,192,103070,1,0,0:0:0:0:
192,192,103070,1,0,0:0:0:0:
192,192,103145,1,0,0:0:0:0:
320,192,103145,1,0,0:0:0:0:
320,192,103220,1,0,0:0:0:0:
448,192,103220,1,0,0:0:0:0:
64,192,103370,1,0,0:0:0:0:
448,192,103370,1,0,0:0:0:0:
320,192,103407,1,0,0:0:0:0:
192,192,103445,1,0,0:0:0:0:
64,192,103482,1,0,0:0:0:0:
192,192,103520,1,0,0:0:0:0:
320,0,103520,128,0,103670:1:0:0:0:
448,0,103520,128,0,103670:1:0:0:0:
64,192,103820,1,0,0:0:0:0:
192,192,103820,1,0,0:0:0:0:
448,192,103820,1,0,0:0:0:0:
64,192,103970,1,0,0:0:0:0:
448,192,103970,1,0,0:0:0:0:
320,192,104020,1,0,0:0:0:0:
192,192,104070,1,0,0:0:0:0:
64,192,104120,1,0,0:0:0:0:
320,192,104120,1,0,0:0:0:0:
448,192,104120,1,0,0:0:0:0:
192,192,104270,1,0,0:0:0:0:
320,192,104270,1,0,0:0:0:0:
448,192,104270,1,0,0:0:0:0:
64,192,104420,1,0,0:0:0:0:
192,192,104420,1,0,0:0:0:0:
320,192,104420,1,0,0:0:0:0:
320,192,104570,1,0,0:0:0:0:
64,0,104570,128,0,104720:1:0:0:0:
448,0,104570,128,0,104720:1:0:0:0:
64,192,104870,1,0,0:0:0:0:
192,0,104870,128,0,105170:1:0:0:0:
320,0,104870,128,0,105170:1:0:0:0:
448,192,105170,1,0,0:0:0:0:
64,192,105245,1,0,0:0:0:0:
192,192,105320,1,0,0:0:0:0:
320,192,105320,1,0,0:0:0:0:
448,192,105320,1,0,0:0:0:0:
64,192,105470,1,0,0:0:0:0:
320,192,105470,1,0,0:0:0:0:
192,192,105620,1,0,0:0:0:0:
320,192,105620,1,0,0:0:0:0:
448,192,105620,1,0,0:0:0:0:
64,192,105770,1,0,0:0:0:0:
448,192,105770,1,0,0:0:0:0:
320,192,105807,1,0,0:0:0:0:
192,192,105845,1,0,0:0:0:0:
64,192,105882,1,0,0:0:0:0:
320,192,105920,1,0,0:0:0:0:
448,192,105920,1,0,0:0:0:0:
64,192,106070,1,0,0:0:0:0:
192,192,106070,1,0,0:0:0:0:
192,192,106220,1,0,0:0:0:0:
320,192,106220,1,0,0:0:0:0:
448,192,106220,1,0,0:0:0:0:
64,192,106370,1,0,0:0:0:0:
448,192,106370,1,0,0:0:0:0:
192,192,106420,1,0,0:0:0:0:
320,192,106470,1,0,0:0:0:0:
64,192,106520,1,0,0:0:0:0:
192,192,106520,1,0,0:0:0:0:
448,192,106520,1,0,0:0:0:0:
192,192,106670,1,0,0:0:0:0:
320,192,106670,1,0,0:0:0:0:
64,192,106820,1,0,0:0:0:0:
192,192,106820,1,0,0:0:0:0:
320,192,106820,1,0,0:0:0:0:
64,192,106970,1,0,0:0:0:0:
192,192,106970,1,0,0:0:0:0:
448,192,106970,1,0,0:0:0:0:
192,192,107120,1,0,0:0:0:0:
320,192,107120,1,0,0:0:0:0:
448,192,107120,1,0,0:0:0:0:
64,192,107270,1,0,0:0:0:0:
320,0,107270,128,0,107420:1:0:0:0:
448,0,107270,128,0,107420:1:0:0:0:
64,192,107570,1,0,0:0:0:0:
448,192,107570,1,0,0:0:0:0:
64,192,107645,1,0,0:0:0:0:
192,192,107645,1,0,0:0:0:0:
192,192,107720,1,0,0:0:0:0:
320,192,107720,1,0,0:0:0:0:
320,192,107795,1,0,0:0:0:0:
448,192,107795,1,0,0:0:0:0:
448,192,107870,1,0,0:0:0:0:
64,0,107870,128,0,108020:1:0:0:0:
192,0,107870,128,0,108020:1:0:0:0:
64,192,108170,1,0,0:0:0:0:
448,192,108170,1,0,0:0:0:0:
320,192,108207,1,0,0:0:0:0:
192,192,108245,1,0,0:0:0:0:
64,192,108282,1,0,0:0:0:0:
320,192,108320,1,0,0:0:0:0:
448,192,108320,1,0,0:0:0:0:
192,192,108470,1,0,0:0:0:0:
320,192,108470,1,0,0:0:0:0:
64,192,108620,1,0,0:0:0:0:
192,192,108620,1,0,0:0:0:0:
448,192,108620,1,0,0:0:0:0:
320,192,108670,1,0,0:0:0:0:
192,192,108720,1,0,0:0:0:0:
64,192,108770,1,0,0:0:0:0:
192,192,108820,1,0,0:0:0:0:
320,192,108870,1,0,0:0:0:0:
64,192,108920,1,0,0:0:0:0:
448,192,108920,1,0,0:0:0:0:
64,192,109070,1,0,0:0:0:0:
320,192,109070,1,0,0:0:0:0:
448,192,109070,1,0,0:0:0:0:
192,192,109120,1,0,0:0:0:0:
320,192,109170,1,0,0:0:0:0:
448,192,109220,1,0,0:0:0:0:
320,192,109270,1,0,0:0:0:0:
192,192,109320,1,0,0:0:0:0:
64,192,109370,1,0,0:0:0:0:
448,192,109370,1,0,0:0:0:0:
64,192,109520,1,0,0:0:0:0:
192,0,109520,128,0,109820:1:0:0:0:
448,0,109520,128,0,109820:1:0:0:0:
320,192,109820,1,0,0:0:0:0:
320,192,109895,1,0,0:0:0:0:
64,192,109970,1,0,0:0:0:0:
192,192,109970,1,0,0:0:0:0:
64,192,110045,1,0,0:0:0:0:
192,192,110045,1,0,0:0:0:0:
320,0,110120,128,0,110270:1:0:0:0:
448,0,110120,128,0,110270:1:0:0:0:
64,192,110420,1,0,0:0:0:0:
192,192,110420,1,0,0:0:0:0:
448,192,110420,1,0,0:0:0:0:
64,192,110607,1,0,0:0:0:0:
192,192,110607,1,0,0:0:0:0:
320,192,110607,1,0,0:0:0:0:
64,192,110795,1,0,0:0:0:0:
320,192,110795,1,0,0:0:0:0:
448,192,110795,1,0,0:0:0:0:
64,192,111020,1,0,0:0:0:0:
320,192,111020,1,0,0:0:0:0:
448,192,111020,1,0,0:0:0:0:
192,192,111095,1,0,0:0:0:0:
320,192,111170,1,0,0:0:0:0:
64,192,111245,1,0,0:0:0:0:
192,192,111320,1,0,0:0:0:0:
320,192,111320,1,0,0:0:0:0:
448,192,111320,1,0,0:0:0:0:
64,192,111395,1,0,0:0:0:0:
320,192,111470,1,0,0:0:0:0:
192,192,111545,1,0,0:0:0:0:
64,192,111620,1,0,0:0:0:0:
320,192,111620,1,0,0:0:0:0:
448,192,111620,1,0,0:0:0:0:
192,192,111695,1,0,0:0:0:0:
64,192,111770,1,0,0:0:0:0:
320,192,111845,1,0,0:0:0:0:
64,192,111920,1,0,0:0:0:0:
192,192,111920,1,0,0:0:0:0:
448,192,111920,1,0,0:0:0:0:
320,192,111995,1,0,0:0:0:0:
192,192,112070,1,0,0:0:0:0:
64,192,112145,1,0,0:0:0:0:
192,192,112220,1,0,0:0:0:0:
320,192,112220,1,0,0:0:0:0:
448,192,112220,1,0,0:0:0:0:
64,192,112295,1,0,0:0:0:0:
192,192,112370,1,0,0:0:0:0:
320,192,112445,1,0,0:0:0:0:
64,192,112520,1,0,0:0:0:0:
192,192,112520,1,0,0:0:0:0:
448,192,112520,1,0,0:0:0:0:
320,192,112595,1,0,0:0:0:0:
64,192,112670,1,0,0:0:0:0:
192,192,112745,1,0,0:0:0:0:
64,192,112820,1,0,0:0:0:0:
320,192,112820,1,0,0:0:0:0:
448,192,112820,1,0,0:0:0:0:
192,192,112895,1,0,0:0:0:0:
448,192,112970,1,0,0:0:0:0:
192,192,113045,1,0,0:0:0:0:
64,192,113120,1,0,0:0:0:0:
320,192,113120,1,0,0:0:0:0:
448,192,113120,1,0,0:0:0:0:
192,192,113195,1,0,0:0:0:0:
64,192,113270,1,0,0:0:0:0:
320,192,113270,1,0,0:0:0:0:
448,192,113270,1,0,0:0:0:0:
192,192,113345,1,0,0:0:0:0:
64,192,113420,1,0,0:0:0:0:
320,192,113420,1,0,0:0:0:0:
448,192,113420,1,0,0:0:0:0:
192,192,113495,1,0,0:0:0:0:
320,192,113570,1,0,0:0:0:0:
448,192,113570,1,0,0:0:0:0:
64,192,113645,1,0,0:0:0:0:
192,192,113645,1,0,0:0:0:0:
64,192,113720,1,0,0:0:0:0:
320,192,113720,1,0,0:0:0:0:
448,192,113720,1,0,0:0:0:0:
192,192,113795,1,0,0:0:0:0:
64,192,113870,1,0,0:0:0:0:
448,192,113870,1,0,0:0:0:0:
320,192,113945,1,0,0:0:0:0:
64,192,114020,1,0,0:0:0:0:
192,192,114020,1,0,0:0:0:0:
448,192,114020,1,0,0:0:0:0:
320,192,114095,1,0,0:0:0:0:
64,192,114170,1,0,0:0:0:0:
448,192,114170,1,0,0:0:0:0:
192,192,114245,1,0,0:0:0:0:
320,192,114245,1,0,0:0:0:0:
64,192,114320,1,0,0:0:0:0:
192,192,114320,1,0,0:0:0:0:
448,192,114320,1,0,0:0:0:0:
320,192,114395,1,0,0:0:0:0:
64,192,114470,1,0,0:0:0:0:
448,192,114470,1,0,0:0:0:0:
192,192,114545,1,0,0:0:0:0:
320,192,114545,1,0,0:0:0:0:
64,192,114620,1,0,0:0:0:0:
320,192,114620,1,0,0:0:0:0:
448,192,114620,1,0,0:0:0:0:
192,192,114695,1,0,0:0:0:0:
64,192,114770,1,0,0:0:0:0:
192,192,114820,1,0,0:0:0:0:
320,192,114870,1,0,0:0:0:0:
64,192,114920,1,0,0:0:0:0:
448,192,114920,1,0,0:0:0:0:
192,192,114995,1,0,0:0:0:0:
320,192,115070,1,0,0:0:0:0:
64,192,115145,1,0,0:0:0:0:
448,192,115220,1,0,0:0:0:0:
320,192,115257,1,0,0:0:0:0:
192,192,115295,1,0,0:0:0:0:
64,192,115332,1,0,0:0:0:0:
448,192,115370,1,0,0:0:0:0:
320,192,115407,1,0,0:0:0:0:
192,192,115445,1,0,0:0:0:0:
64,192,115482,1,0,0:0:0:0:
448,192,115520,1,0,0:0:0:0:
320,192,115557,1,0,0:0:0:0:
192,192,115595,1,0,0:0:0:0:
64,192,115632,1,0,0:0:0:0:
448,192,115670,1,0,0:0:0:0:
320,192,115707,1,0,0:0:0:0:
192,192,115745,1,0,0:0:0:0:
64,192,115782,1,0,0:0:0:0:
192,192,116120,1,0,0:0:0:0:
448,192,116120,1,0,0:0:0:0:
64,0,116120,128,0,118520:1:0:0:0:
320,192,117245,1,0,0:0:0:0:
448,192,117282,1,0,0:0:0:0:
