osu file format v11

[General]
AudioFilename: Tenkuu no Yoake.mp3
AudioLeadIn: 1500
PreviewTime: 38730
Countdown: 0
SampleSet: Soft
StackLeniency: 0.6
Mode: 0
LetterboxInBreaks: 0

[Editor]
Bookmarks: 13228,26028,38834,51634,64434,66034,78834,104434,117234
DistanceSpacing: 0.7
BeatDivisor: 4
GridSize: 4

[Metadata]
Title:Long Stream Practice Maps
TitleUnicode:Long Stream Practice Maps
Artist:Various Artist
ArtistUnicode:Various Artist
Creator:onlyforyou
Version:Tenkuu no Yoake BPM150
Source:
Tags:
BeatmapID:207089
BeatmapSetID:72474

[Difficulty]
HPDrainRate:6
CircleSize:4
OverallDifficulty:6
ApproachRate:8
SliderMultiplier:0.799999999999999
SliderTickRate:1

[Events]
//Background and Video events
0,0,"Tenkuu no Yoake.jpg"
//Break Periods
//Storyboard Layer 0 (Background)
//Storyboard Layer 1 (Fail)
//Storyboard Layer 2 (Pass)
//Storyboard Layer 3 (Foreground)
//Storyboard Sound Samples
//Background Colour Transformations
3,100,0,0,0

[TimingPoints]
430,400,4,2,1,80,1,0
122130,-50,4,2,0,5,0,0

[Colours]
Combo1 : 248,211,171
Combo2 : 171,252,203
Combo3 : 175,221,254
Combo4 : 249,254,186
Combo5 : 240,80,80

[HitObjects]
136,64,13230,5,2,0:0:0
152,64,13330,1,0,0:0:0
168,64,13430,1,0,0:0:0
184,64,13530,1,0,0:0:0
200,64,13630,1,2,0:0:0
216,64,13730,1,0,0:0:0
232,64,13830,1,0,0:0:0
248,64,13930,1,0,0:0:0
264,64,14030,5,2,0:0:0
280,64,14130,1,0,0:0:0
296,64,14230,1,0,0:0:0
312,64,14330,1,0,0:0:0
328,64,14430,1,2,0:0:0
344,64,14530,1,0,0:0:0
360,64,14630,1,0,0:0:0
376,64,14730,1,0,0:0:0
392,64,14830,5,2,0:0:0
392,80,14930,1,0,0:0:0
392,96,15030,1,0,0:0:0
392,112,15130,1,0,0:0:0
392,128,15230,1,2,0:0:0
392,144,15330,1,0,0:0:0
392,160,15430,1,0,0:0:0
392,176,15530,1,0,0:0:0
392,192,15630,5,2,0:0:0
392,208,15730,1,0,0:0:0
392,224,15830,1,0,0:0:0
392,240,15930,1,0,0:0:0
392,256,16030,1,2,0:0:0
392,272,16130,1,0,0:0:0
392,288,16230,1,0,0:0:0
392,304,16330,1,0,0:0:0
392,320,16430,5,2,0:0:0
376,320,16530,1,0,0:0:0
360,320,16630,1,0,0:0:0
344,320,16730,1,0,0:0:0
328,320,16830,1,2,0:0:0
312,320,16930,1,0,0:0:0
296,320,17030,1,0,0:0:0
280,320,17130,1,0,0:0:0
264,320,17230,5,2,0:0:0
248,320,17330,1,0,0:0:0
232,320,17430,1,0,0:0:0
216,320,17530,1,0,0:0:0
200,320,17630,1,2,0:0:0
184,320,17730,1,0,0:0:0
168,320,17830,1,0,0:0:0
152,320,17930,1,0,0:0:0
136,320,18030,5,2,0:0:0
136,304,18130,1,0,0:0:0
136,288,18230,1,0,0:0:0
136,272,18330,1,0,0:0:0
136,256,18430,1,2,0:0:0
136,240,18530,1,0,0:0:0
136,224,18630,1,0,0:0:0
136,208,18730,1,0,0:0:0
136,192,18830,5,2,0:0:0
136,176,18930,1,0,0:0:0
136,160,19030,1,0,0:0:0
136,144,19130,1,0,0:0:0
136,128,19230,1,2,0:0:0
136,112,19330,1,0,0:0:0
136,96,19430,1,0,0:0:0
136,80,19530,1,0,0:0:0
136,64,19630,5,2,0:0:0
152,64,19730,1,0,0:0:0
168,64,19830,1,0,0:0:0
184,64,19930,1,0,0:0:0
200,64,20030,1,2,0:0:0
216,64,20130,1,0,0:0:0
232,64,20230,1,0,0:0:0
248,64,20330,1,0,0:0:0
264,64,20430,5,2,0:0:0
280,64,20530,1,0,0:0:0
296,64,20630,1,0,0:0:0
312,64,20730,1,0,0:0:0
328,64,20830,1,2,0:0:0
344,64,20930,1,0,0:0:0
360,64,21030,1,0,0:0:0
376,64,21130,1,0,0:0:0
392,64,21230,5,2,0:0:0
392,80,21330,1,0,0:0:0
392,96,21430,1,0,0:0:0
392,112,21530,1,0,0:0:0
392,128,21630,1,2,0:0:0
392,144,21730,1,0,0:0:0
392,160,21830,1,0,0:0:0
392,176,21930,1,0,0:0:0
392,192,22030,5,2,0:0:0
392,208,22130,1,0,0:0:0
392,224,22230,1,0,0:0:0
392,240,22330,1,0,0:0:0
392,256,22430,1,2,0:0:0
392,272,22530,1,0,0:0:0
392,288,22630,1,0,0:0:0
392,304,22730,1,0,0:0:0
392,320,22830,5,2,0:0:0
376,320,22930,1,0,0:0:0
360,320,23030,1,0,0:0:0
344,320,23130,1,0,0:0:0
328,320,23230,1,2,0:0:0
312,320,23330,1,0,0:0:0
296,320,23430,1,0,0:0:0
280,320,23530,1,0,0:0:0
264,320,23630,5,2,0:0:0
248,320,23730,1,0,0:0:0
232,320,23830,1,0,0:0:0
216,320,23930,1,0,0:0:0
200,320,24030,1,2,0:0:0
184,320,24130,1,0,0:0:0
168,320,24230,1,0,0:0:0
152,320,24330,1,0,0:0:0
136,320,24430,5,2,0:0:0
136,304,24530,1,0,0:0:0
136,288,24630,1,0,0:0:0
136,272,24730,1,0,0:0:0
136,256,24830,1,2,0:0:0
136,240,24930,1,0,0:0:0
136,224,25030,1,0,0:0:0
136,208,25130,1,0,0:0:0
136,192,25230,5,2,0:0:0
136,176,25330,1,0,0:0:0
136,160,25430,1,0,0:0:0
136,144,25530,1,0,0:0:0
136,128,25630,1,2,0:0:0
136,112,25730,1,0,0:0:0
136,96,25830,1,0,0:0:0
136,80,25930,1,0,0:0:0
136,64,26030,5,2,0:0:0
152,64,26130,1,0,0:0:0
168,64,26230,1,0,0:0:0
184,64,26330,1,0,0:0:0
200,64,26430,1,2,0:0:0
216,64,26530,1,0,0:0:0
232,64,26630,1,0,0:0:0
248,64,26730,1,0,0:0:0
264,64,26830,5,2,0:0:0
280,64,26930,1,0,0:0:0
296,64,27030,1,0,0:0:0
312,64,27130,1,0,0:0:0
328,64,27230,1,2,0:0:0
344,64,27330,1,0,0:0:0
360,64,27430,1,0,0:0:0
376,64,27530,1,0,0:0:0
392,64,27630,5,2,0:0:0
392,80,27730,1,0,0:0:0
392,96,27830,1,0,0:0:0
392,112,27930,1,0,0:0:0
392,128,28030,1,2,0:0:0
392,144,28130,1,0,0:0:0
392,160,28230,1,0,0:0:0
392,176,28330,1,0,0:0:0
392,192,28430,5,2,0:0:0
392,208,28530,1,0,0:0:0
392,224,28630,1,0,0:0:0
392,240,28730,1,0,0:0:0
392,256,28830,1,2,0:0:0
392,272,28930,1,0,0:0:0
392,288,29030,1,0,0:0:0
392,304,29130,1,0,0:0:0
392,320,29230,5,2,0:0:0
376,320,29330,1,0,0:0:0
360,320,29430,1,0,0:0:0
344,320,29530,1,0,0:0:0
328,320,29630,1,2,0:0:0
312,320,29730,1,0,0:0:0
296,320,29830,1,0,0:0:0
280,320,29930,1,0,0:0:0
264,320,30030,5,2,0:0:0
248,320,30130,1,0,0:0:0
232,320,30230,1,0,0:0:0
216,320,30330,1,0,0:0:0
200,320,30430,1,2,0:0:0
184,320,30530,1,0,0:0:0
168,320,30630,1,0,0:0:0
152,320,30730,1,0,0:0:0
136,320,30830,5,2,0:0:0
136,304,30930,1,0,0:0:0
136,288,31030,1,0,0:0:0
136,272,31130,1,0,0:0:0
136,256,31230,1,2,0:0:0
136,240,31330,1,0,0:0:0
136,224,31430,1,0,0:0:0
136,208,31530,1,0,0:0:0
136,192,31630,5,2,0:0:0
136,176,31730,1,0,0:0:0
136,160,31830,1,0,0:0:0
136,144,31930,1,0,0:0:0
136,128,32030,1,2,0:0:0
136,112,32130,1,0,0:0:0
136,96,32230,1,0,0:0:0
136,80,32330,1,0,0:0:0
136,64,32430,5,2,0:0:0
152,64,32530,1,0,0:0:0
168,64,32630,1,0,0:0:0
184,64,32730,1,0,0:0:0
200,64,32830,1,2,0:0:0
216,64,32930,1,0,0:0:0
232,64,33030,1,0,0:0:0
248,64,33130,1,0,0:0:0
264,64,33230,5,2,0:0:0
280,64,33330,1,0,0:0:0
296,64,33430,1,0,0:0:0
312,64,33530,1,0,0:0:0
328,64,33630,1,2,0:0:0
344,64,33730,1,0,0:0:0
360,64,33830,1,0,0:0:0
376,64,33930,1,0,0:0:0
392,64,34030,5,2,0:0:0
392,80,34130,1,0,0:0:0
392,96,34230,1,0,0:0:0
392,112,34330,1,0,0:0:0
392,128,34430,1,2,0:0:0
392,144,34530,1,0,0:0:0
392,160,34630,1,0,0:0:0
392,176,34730,1,0,0:0:0
392,192,34830,5,2,0:0:0
392,208,34930,1,0,0:0:0
392,224,35030,1,0,0:0:0
392,240,35130,1,0,0:0:0
392,256,35230,1,2,0:0:0
392,272,35330,1,0,0:0:0
392,288,35430,1,0,0:0:0
392,304,35530,1,0,0:0:0
392,320,35630,5,2,0:0:0
376,320,35730,1,0,0:0:0
360,320,35830,1,0,0:0:0
344,320,35930,1,0,0:0:0
328,320,36030,1,2,0:0:0
312,320,36130,1,0,0:0:0
296,320,36230,1,0,0:0:0
280,320,36330,1,0,0:0:0
264,320,36430,5,2,0:0:0
248,320,36530,1,0,0:0:0
232,320,36630,1,0,0:0:0
216,320,36730,1,0,0:0:0
200,320,36830,1,2,0:0:0
184,320,36930,1,0,0:0:0
168,320,37030,1,0,0:0:0
152,320,37130,1,0,0:0:0
136,320,37230,5,2,0:0:0
136,304,37330,1,0,0:0:0
136,288,37430,1,0,0:0:0
136,272,37530,1,0,0:0:0
136,256,37630,1,2,0:0:0
136,240,37730,1,0,0:0:0
136,224,37830,1,0,0:0:0
136,208,37930,1,0,0:0:0
136,192,38030,5,2,0:0:0
136,176,38130,1,0,0:0:0
136,160,38230,1,0,0:0:0
136,144,38330,1,0,0:0:0
136,128,38430,1,2,0:0:0
136,112,38530,1,0,0:0:0
136,96,38630,1,0,0:0:0
136,80,38730,1,0,0:0:0
136,64,38830,5,2,0:0:0
152,64,38930,1,0,0:0:0
168,64,39030,1,0,0:0:0
184,64,39130,1,0,0:0:0
200,64,39230,1,2,0:0:0
216,64,39330,1,0,0:0:0
232,64,39430,1,0,0:0:0
248,64,39530,1,0,0:0:0
264,64,39630,5,2,0:0:0
280,64,39730,1,0,0:0:0
296,64,39830,1,0,0:0:0
312,64,39930,1,0,0:0:0
328,64,40030,1,2,0:0:0
344,64,40130,1,0,0:0:0
360,64,40230,1,0,0:0:0
376,64,40330,1,0,0:0:0
392,64,40430,5,2,0:0:0
392,80,40530,1,0,0:0:0
392,96,40630,1,0,0:0:0
392,112,40730,1,0,0:0:0
392,128,40830,1,2,0:0:0
392,144,40930,1,0,0:0:0
392,160,41030,1,0,0:0:0
392,176,41130,1,0,0:0:0
392,192,41230,5,2,0:0:0
392,208,41330,1,0,0:0:0
392,224,41430,1,0,0:0:0
392,240,41530,1,0,0:0:0
392,256,41630,1,2,0:0:0
392,272,41730,1,0,0:0:0
392,288,41830,1,0,0:0:0
392,304,41930,1,0,0:0:0
392,320,42030,5,2,0:0:0
376,320,42130,1,0,0:0:0
360,320,42230,1,0,0:0:0
344,320,42330,1,0,0:0:0
328,320,42430,1,2,0:0:0
312,320,42530,1,0,0:0:0
296,320,42630,1,0,0:0:0
280,320,42730,1,0,0:0:0
264,320,42830,5,2,0:0:0
248,320,42930,1,0,0:0:0
232,320,43030,1,0,0:0:0
216,320,43130,1,0,0:0:0
200,320,43230,1,2,0:0:0
184,320,43330,1,0,0:0:0
168,320,43430,1,0,0:0:0
152,320,43530,1,0,0:0:0
136,320,43630,5,2,0:0:0
136,304,43730,1,0,0:0:0
136,288,43830,1,0,0:0:0
136,272,43930,1,0,0:0:0
136,256,44030,1,2,0:0:0
136,240,44130,1,0,0:0:0
136,224,44230,1,0,0:0:0
136,208,44330,1,0,0:0:0
136,192,44430,5,2,0:0:0
136,176,44530,1,0,0:0:0
136,160,44630,1,0,0:0:0
136,144,44730,1,0,0:0:0
136,128,44830,1,2,0:0:0
136,112,44930,1,0,0:0:0
136,96,45030,1,0,0:0:0
136,80,45130,1,0,0:0:0
136,64,45230,5,2,0:0:0
152,64,45330,1,0,0:0:0
168,64,45430,1,0,0:0:0
184,64,45530,1,0,0:0:0
200,64,45630,1,2,0:0:0
216,64,45730,1,0,0:0:0
232,64,45830,1,0,0:0:0
248,64,45930,1,0,0:0:0
264,64,46030,5,2,0:0:0
280,64,46130,1,0,0:0:0
296,64,46230,1,0,0:0:0
312,64,46330,1,0,0:0:0
328,64,46430,1,2,0:0:0
344,64,46530,1,0,0:0:0
360,64,46630,1,0,0:0:0
376,64,46730,1,0,0:0:0
392,64,46830,5,2,0:0:0
392,80,46930,1,0,0:0:0
392,96,47030,1,0,0:0:0
392,112,47130,1,0,0:0:0
392,128,47230,1,2,0:0:0
392,144,47330,1,0,0:0:0
392,160,47430,1,0,0:0:0
392,176,47530,1,0,0:0:0
392,192,47630,5,2,0:0:0
392,208,47730,1,0,0:0:0
392,224,47830,1,0,0:0:0
392,240,47930,1,0,0:0:0
392,256,48030,1,2,0:0:0
392,272,48130,1,0,0:0:0
392,288,48230,1,0,0:0:0
392,304,48330,1,0,0:0:0
392,320,48430,5,2,0:0:0
376,320,48530,1,0,0:0:0
360,320,48630,1,0,0:0:0
344,320,48730,1,0,0:0:0
328,320,48830,1,2,0:0:0
312,320,48930,1,0,0:0:0
296,320,49030,1,0,0:0:0
280,320,49130,1,0,0:0:0
264,320,49230,5,2,0:0:0
248,320,49330,1,0,0:0:0
232,320,49430,1,0,0:0:0
216,320,49530,1,0,0:0:0
200,320,49630,1,2,0:0:0
184,320,49730,1,0,0:0:0
168,320,49830,1,0,0:0:0
152,320,49930,1,0,0:0:0
136,320,50030,5,2,0:0:0
136,304,50130,1,0,0:0:0
136,288,50230,1,0,0:0:0
136,272,50330,1,0,0:0:0
136,256,50430,1,2,0:0:0
136,240,50530,1,0,0:0:0
136,224,50630,1,0,0:0:0
136,208,50730,1,0,0:0:0
136,192,50830,5,2,0:0:0
136,176,50930,1,0,0:0:0
136,160,51030,1,0,0:0:0
136,144,51130,1,0,0:0:0
136,128,51230,1,2,0:0:0
136,112,51330,1,0,0:0:0
136,96,51430,1,0,0:0:0
136,80,51530,1,0,0:0:0
136,64,51630,5,2,0:0:0
152,64,51730,1,0,0:0:0
168,64,51830,1,0,0:0:0
184,64,51930,1,0,0:0:0
200,64,52030,1,2,0:0:0
216,64,52130,1,0,0:0:0
232,64,52230,1,0,0:0:0
248,64,52330,1,0,0:0:0
264,64,52430,5,2,0:0:0
280,64,52530,1,0,0:0:0
296,64,52630,1,0,0:0:0
312,64,52730,1,0,0:0:0
328,64,52830,1,2,0:0:0
344,64,52930,1,0,0:0:0
360,64,53030,1,0,0:0:0
376,64,53130,1,0,0:0:0
392,64,53230,5,2,0:0:0
392,80,53330,1,0,0:0:0
392,96,53430,1,0,0:0:0
392,112,53530,1,0,0:0:0
392,128,53630,1,2,0:0:0
392,144,53730,1,0,0:0:0
392,160,53830,1,0,0:0:0
392,176,53930,1,0,0:0:0
392,192,54030,5,2,0:0:0
392,208,54130,1,0,0:0:0
392,224,54230,1,0,0:0:0
392,240,54330,1,0,0:0:0
392,256,54430,1,2,0:0:0
392,272,54530,1,0,0:0:0
392,288,54630,1,0,0:0:0
392,304,54730,1,0,0:0:0
392,320,54830,5,2,0:0:0
376,320,54930,1,0,0:0:0
360,320,55030,1,0,0:0:0
344,320,55130,1,0,0:0:0
328,320,55230,1,2,0:0:0
312,320,55330,1,0,0:0:0
296,320,55430,1,0,0:0:0
280,320,55530,1,0,0:0:0
264,320,55630,5,2,0:0:0
248,320,55730,1,0,0:0:0
232,320,55830,1,0,0:0:0
216,320,55930,1,0,0:0:0
200,320,56030,1,2,0:0:0
184,320,56130,1,0,0:0:0
168,320,56230,1,0,0:0:0
152,320,56330,1,0,0:0:0
136,320,56430,5,2,0:0:0
136,304,56530,1,0,0:0:0
136,288,56630,1,0,0:0:0
136,272,56730,1,0,0:0:0
136,256,56830,1,2,0:0:0
136,240,56930,1,0,0:0:0
136,224,57030,1,0,0:0:0
136,208,57130,1,0,0:0:0
136,192,57230,5,2,0:0:0
136,176,57330,1,0,0:0:0
136,160,57430,1,0,0:0:0
136,144,57530,1,0,0:0:0
136,128,57630,1,2,0:0:0
136,112,57730,1,0,0:0:0
136,96,57830,1,0,0:0:0
136,80,57930,1,0,0:0:0
136,64,58030,5,2,0:0:0
152,64,58130,1,0,0:0:0
168,64,58230,1,0,0:0:0
184,64,58330,1,0,0:0:0
200,64,58430,1,2,0:0:0
216,64,58530,1,0,0:0:0
232,64,58630,1,0,0:0:0
248,64,58730,1,0,0:0:0
264,64,58830,5,2,0:0:0
280,64,58930,1,0,0:0:0
296,64,59030,1,0,0:0:0
312,64,59130,1,0,0:0:0
328,64,59230,1,2,0:0:0
344,64,59330,1,0,0:0:0
360,64,59430,1,0,0:0:0
376,64,59530,1,0,0:0:0
392,64,59630,5,2,0:0:0
392,80,59730,1,0,0:0:0
392,96,59830,1,0,0:0:0
392,112,59930,1,0,0:0:0
392,128,60030,1,2,0:0:0
392,144,60130,1,0,0:0:0
392,160,60230,1,0,0:0:0
392,176,60330,1,0,0:0:0
392,192,60430,5,2,0:0:0
392,208,60530,1,0,0:0:0
392,224,60630,1,0,0:0:0
392,240,60730,1,0,0:0:0
392,256,60830,1,2,0:0:0
392,272,60930,1,0,0:0:0
392,288,61030,1,0,0:0:0
392,304,61130,1,0,0:0:0
392,320,61230,5,2,0:0:0
376,320,61330,1,0,0:0:0
360,320,61430,1,0,0:0:0
344,320,61530,1,0,0:0:0
328,320,61630,1,2,0:0:0
312,320,61730,1,0,0:0:0
296,320,61830,1,0,0:0:0
280,320,61930,1,0,0:0:0
264,320,62030,5,2,0:0:0
248,320,62130,1,0,0:0:0
232,320,62230,1,0,0:0:0
216,320,62330,1,0,0:0:0
200,320,62430,1,2,0:0:0
184,320,62530,1,0,0:0:0
168,320,62630,1,0,0:0:0
152,320,62730,1,0,0:0:0
136,320,62830,5,2,0:0:0
136,304,62930,1,0,0:0:0
136,288,63030,1,0,0:0:0
136,272,63130,1,0,0:0:0
136,256,63230,1,2,0:0:0
136,240,63330,1,0,0:0:0
136,224,63430,1,0,0:0:0
136,208,63530,1,0,0:0:0
136,192,63630,5,2,0:0:0
136,176,63730,1,0,0:0:0
136,160,63830,1,0,0:0:0
136,144,63930,1,0,0:0:0
136,128,64030,1,2,0:0:0
136,112,64130,1,0,0:0:0
136,96,64230,1,0,0:0:0
136,80,64330,1,0,0:0:0
136,64,64430,5,2,0:0:0
152,64,64530,1,0,0:0:0
168,64,64630,1,0,0:0:0
184,64,64730,1,0,0:0:0
200,64,64830,1,2,0:0:0
216,64,64930,1,0,0:0:0
232,64,65030,1,0,0:0:0
248,64,65130,1,0,0:0:0
264,64,65230,5,2,0:0:0
280,64,65330,1,0,0:0:0
296,64,65430,1,0,0:0:0
312,64,65530,1,0,0:0:0
328,64,65630,1,2,0:0:0
344,64,65730,1,0,0:0:0
360,64,65830,1,0,0:0:0
376,64,65930,1,0,0:0:0
392,64,66030,5,2,0:0:0
392,80,66130,1,0,0:0:0
392,96,66230,1,0,0:0:0
392,112,66330,1,0,0:0:0
392,128,66430,1,2,0:0:0
392,144,66530,1,0,0:0:0
392,160,66630,1,0,0:0:0
392,176,66730,1,0,0:0:0
392,192,66830,5,2,0:0:0
392,208,66930,1,0,0:0:0
392,224,67030,1,0,0:0:0
392,240,67130,1,0,0:0:0
392,256,67230,1,2,0:0:0
392,272,67330,1,0,0:0:0
392,288,67430,1,0,0:0:0
392,304,67530,1,0,0:0:0
392,320,67630,5,2,0:0:0
376,320,67730,1,0,0:0:0
360,320,67830,1,0,0:0:0
344,320,67930,1,0,0:0:0
328,320,68030,1,2,0:0:0
312,320,68130,1,0,0:0:0
296,320,68230,1,0,0:0:0
280,320,68330,1,0,0:0:0
264,320,68430,5,2,0:0:0
248,320,68530,1,0,0:0:0
232,320,68630,1,0,0:0:0
216,320,68730,1,0,0:0:0
200,320,68830,1,2,0:0:0
184,320,68930,1,0,0:0:0
168,320,69030,1,0,0:0:0
152,320,69130,1,0,0:0:0
136,320,69230,5,2,0:0:0
136,304,69330,1,0,0:0:0
136,288,69430,1,0,0:0:0
136,272,69530,1,0,0:0:0
136,256,69630,1,2,0:0:0
136,240,69730,1,0,0:0:0
136,224,69830,1,0,0:0:0
136,208,69930,1,0,0:0:0
136,192,70030,5,2,0:0:0
136,176,70130,1,0,0:0:0
136,160,70230,1,0,0:0:0
136,144,70330,1,0,0:0:0
136,128,70430,1,2,0:0:0
136,112,70530,1,0,0:0:0
136,96,70630,1,0,0:0:0
136,80,70730,1,0,0:0:0
136,64,70830,5,2,0:0:0
152,64,70930,1,0,0:0:0
168,64,71030,1,0,0:0:0
184,64,71130,1,0,0:0:0
200,64,71230,1,2,0:0:0
216,64,71330,1,0,0:0:0
232,64,71430,1,0,0:0:0
248,64,71530,1,0,0:0:0
264,64,71630,5,2,0:0:0
280,64,71730,1,0,0:0:0
296,64,71830,1,0,0:0:0
312,64,71930,1,0,0:0:0
328,64,72030,1,2,0:0:0
344,64,72130,1,0,0:0:0
360,64,72230,1,0,0:0:0
376,64,72330,1,0,0:0:0
392,64,72430,5,2,0:0:0
392,80,72530,1,0,0:0:0
392,96,72630,1,0,0:0:0
392,112,72730,1,0,0:0:0
392,128,72830,1,2,0:0:0
392,144,72930,1,0,0:0:0
392,160,73030,1,0,0:0:0
392,176,73130,1,0,0:0:0
392,192,73230,5,2,0:0:0
392,208,73330,1,0,0:0:0
392,224,73430,1,0,0:0:0
392,240,73530,1,0,0:0:0
392,256,73630,1,2,0:0:0
392,272,73730,1,0,0:0:0
392,288,73830,1,0,0:0:0
392,304,73930,1,0,0:0:0
392,320,74030,5,2,0:0:0
376,320,74130,1,0,0:0:0
360,320,74230,1,0,0:0:0
344,320,74330,1,0,0:0:0
328,320,74430,1,2,0:0:0
312,320,74530,1,0,0:0:0
296,320,74630,1,0,0:0:0
280,320,74730,1,0,0:0:0
264,320,74830,5,2,0:0:0
248,320,74930,1,0,0:0:0
232,320,75030,1,0,0:0:0
216,320,75130,1,0,0:0:0
200,320,75230,1,2,0:0:0
184,320,75330,1,0,0:0:0
168,320,75430,1,0,0:0:0
152,320,75530,1,0,0:0:0
136,320,75630,5,2,0:0:0
136,304,75730,1,0,0:0:0
136,288,75830,1,0,0:0:0
136,272,75930,1,0,0:0:0
136,256,76030,1,2,0:0:0
136,240,76130,1,0,0:0:0
136,224,76230,1,0,0:0:0
136,208,76330,1,0,0:0:0
136,192,76430,5,2,0:0:0
136,176,76530,1,0,0:0:0
136,160,76630,1,0,0:0:0
136,144,76730,1,0,0:0:0
136,128,76830,1,2,0:0:0
136,112,76930,1,0,0:0:0
136,96,77030,1,0,0:0:0
136,80,77130,1,0,0:0:0
136,64,77230,5,2,0:0:0
152,64,77330,1,0,0:0:0
168,64,77430,1,0,0:0:0
184,64,77530,1,0,0:0:0
200,64,77630,1,2,0:0:0
216,64,77730,1,0,0:0:0
232,64,77830,1,0,0:0:0
248,64,77930,1,0,0:0:0
264,64,78030,5,2,0:0:0
280,64,78130,1,0,0:0:0
296,64,78230,1,0,0:0:0
312,64,78330,1,0,0:0:0
328,64,78430,1,2,0:0:0
344,64,78530,1,0,0:0:0
360,64,78630,1,0,0:0:0
376,64,78730,1,0,0:0:0
392,64,78830,5,2,0:0:0
392,80,78930,1,0,0:0:0
392,96,79030,1,0,0:0:0
392,112,79130,1,0,0:0:0
392,128,79230,1,2,0:0:0
392,144,79330,1,0,0:0:0
392,160,79430,1,0,0:0:0
392,176,79530,1,0,0:0:0
392,192,79630,5,2,0:0:0
392,208,79730,1,0,0:0:0
392,224,79830,1,0,0:0:0
392,240,79930,1,0,0:0:0
392,256,80030,1,2,0:0:0
392,272,80130,1,0,0:0:0
392,288,80230,1,0,0:0:0
392,304,80330,1,0,0:0:0
392,320,80430,5,2,0:0:0
376,320,80530,1,0,0:0:0
360,320,80630,1,0,0:0:0
344,320,80730,1,0,0:0:0
328,320,80830,1,2,0:0:0
312,320,80930,1,0,0:0:0
296,320,81030,1,0,0:0:0
280,320,81130,1,0,0:0:0
264,320,81230,5,2,0:0:0
248,320,81330,1,0,0:0:0
232,320,81430,1,0,0:0:0
216,320,81530,1,0,0:0:0
200,320,81630,1,2,0:0:0
184,320,81730,1,0,0:0:0
168,320,81830,1,0,0:0:0
152,320,81930,1,0,0:0:0
136,320,82030,5,2,0:0:0
136,304,82130,1,0,0:0:0
136,288,82230,1,0,0:0:0
136,272,82330,1,0,0:0:0
136,256,82430,1,2,0:0:0
136,240,82530,1,0,0:0:0
136,224,82630,1,0,0:0:0
136,208,82730,1,0,0:0:0
136,192,82830,5,2,0:0:0
136,176,82930,1,0,0:0:0
136,160,83030,1,0,0:0:0
136,144,83130,1,0,0:0:0
136,128,83230,1,2,0:0:0
136,112,83330,1,0,0:0:0
136,96,83430,1,0,0:0:0
136,80,83530,1,0,0:0:0
136,64,83630,5,2,0:0:0
152,64,83730,1,0,0:0:0
168,64,83830,1,0,0:0:0
184,64,83930,1,0,0:0:0
200,64,84030,1,2,0:0:0
216,64,84130,1,0,0:0:0
232,64,84230,1,0,0:0:0
248,64,84330,1,0,0:0:0
264,64,84430,5,2,0:0:0
280,64,84530,1,0,0:0:0
296,64,84630,1,0,0:0:0
312,64,84730,1,0,0:0:0
328,64,84830,1,2,0:0:0
344,64,84930,1,0,0:0:0
360,64,85030,1,0,0:0:0
376,64,85130,1,0,0:0:0
392,64,85230,5,2,0:0:0
392,80,85330,1,0,0:0:0
392,96,85430,1,0,0:0:0
392,112,85530,1,0,0:0:0
392,128,85630,1,2,0:0:0
392,144,85730,1,0,0:0:0
392,160,85830,1,0,0:0:0
392,176,85930,1,0,0:0:0
392,192,86030,5,2,0:0:0
392,208,86130,1,0,0:0:0
392,224,86230,1,0,0:0:0
392,240,86330,1,0,0:0:0
392,256,86430,1,2,0:0:0
392,272,86530,1,0,0:0:0
392,288,86630,1,0,0:0:0
392,304,86730,1,0,0:0:0
392,320,86830,5,2,0:0:0
376,320,86930,1,0,0:0:0
360,320,87030,1,0,0:0:0
344,320,87130,1,0,0:0:0
328,320,87230,1,2,0:0:0
312,320,87330,1,0,0:0:0
296,320,87430,1,0,0:0:0
280,320,87530,1,0,0:0:0
264,320,87630,5,2,0:0:0
248,320,87730,1,0,0:0:0
232,320,87830,1,0,0:0:0
216,320,87930,1,0,0:0:0
200,320,88030,1,2,0:0:0
184,320,88130,1,0,0:0:0
168,320,88230,1,0,0:0:0
152,320,88330,1,0,0:0:0
136,320,88430,5,2,0:0:0
136,304,88530,1,0,0:0:0
136,288,88630,1,0,0:0:0
136,272,88730,1,0,0:0:0
136,256,88830,1,2,0:0:0
136,240,88930,1,0,0:0:0
136,224,89030,1,0,0:0:0
136,208,89130,1,0,0:0:0
136,192,89230,5,2,0:0:0
136,176,89330,1,0,0:0:0
136,160,89430,1,0,0:0:0
136,144,89530,1,0,0:0:0
136,128,89630,1,2,0:0:0
136,112,89730,1,0,0:0:0
136,96,89830,1,0,0:0:0
136,80,89930,1,0,0:0:0
136,64,90030,5,2,0:0:0
152,64,90130,1,0,0:0:0
168,64,90230,1,0,0:0:0
184,64,90330,1,0,0:0:0
200,64,90430,1,2,0:0:0
216,64,90530,1,0,0:0:0
232,64,90630,1,0,0:0:0
248,64,90730,1,0,0:0:0
264,64,90830,5,2,0:0:0
280,64,90930,1,0,0:0:0
296,64,91030,1,0,0:0:0
312,64,91130,1,0,0:0:0
328,64,91230,1,2,0:0:0
344,64,91330,1,0,0:0:0
360,64,91430,1,0,0:0:0
376,64,91530,1,0,0:0:0
392,64,91630,5,2,0:0:0
392,80,91730,1,0,0:0:0
392,96,91830,1,0,0:0:0
392,112,91930,1,0,0:0:0
392,128,92030,1,2,0:0:0
392,144,92130,1,0,0:0:0
392,160,92230,1,0,0:0:0
392,176,92330,1,0,0:0:0
392,192,92430,5,2,0:0:0
392,208,92530,1,0,0:0:0
392,224,92630,1,0,0:0:0
392,240,92730,1,0,0:0:0
392,256,92830,1,2,0:0:0
392,272,92930,1,0,0:0:0
392,288,93030,1,0,0:0:0
392,304,93130,1,0,0:0:0
392,320,93230,5,2,0:0:0
376,320,93330,1,0,0:0:0
360,320,93430,1,0,0:0:0
344,320,93530,1,0,0:0:0
328,320,93630,1,2,0:0:0
312,320,93730,1,0,0:0:0
296,320,93830,1,0,0:0:0
280,320,93930,1,0,0:0:0
264,320,94030,5,2,0:0:0
248,320,94130,1,0,0:0:0
232,320,94230,1,0,0:0:0
216,320,94330,1,0,0:0:0
200,320,94430,1,2,0:0:0
184,320,94530,1,0,0:0:0
168,320,94630,1,0,0:0:0
152,320,94730,1,0,0:0:0
136,320,94830,5,2,0:0:0
136,304,94930,1,0,0:0:0
136,288,95030,1,0,0:0:0
136,272,95130,1,0,0:0:0
136,256,95230,1,2,0:0:0
136,240,95330,1,0,0:0:0
136,224,95430,1,0,0:0:0
136,208,95530,1,0,0:0:0
136,192,95630,5,2,0:0:0
136,176,95730,1,0,0:0:0
136,160,95830,1,0,0:0:0
136,144,95930,1,0,0:0:0
136,128,96030,1,2,0:0:0
136,112,96130,1,0,0:0:0
136,96,96230,1,0,0:0:0
136,80,96330,1,0,0:0:0
136,64,96430,5,2,0:0:0
152,64,96530,1,0,0:0:0
168,64,96630,1,0,0:0:0
184,64,96730,1,0,0:0:0
200,64,96830,1,2,0:0:0
216,64,96930,1,0,0:0:0
232,64,97030,1,0,0:0:0
248,64,97130,1,0,0:0:0
264,64,97230,5,2,0:0:0
280,64,97330,1,0,0:0:0
296,64,97430,1,0,0:0:0
312,64,97530,1,0,0:0:0
328,64,97630,1,2,0:0:0
344,64,97730,1,0,0:0:0
360,64,97830,1,0,0:0:0
376,64,97930,1,0,0:0:0
392,64,98030,5,2,0:0:0
392,80,98130,1,0,0:0:0
392,96,98230,1,0,0:0:0
392,112,98330,1,0,0:0:0
392,128,98430,1,2,0:0:0
392,144,98530,1,0,0:0:0
392,160,98630,1,0,0:0:0
392,176,98730,1,0,0:0:0
392,192,98830,5,2,0:0:0
392,208,98930,1,0,0:0:0
392,224,99030,1,0,0:0:0
392,240,99130,1,0,0:0:0
392,256,99230,1,2,0:0:0
392,272,99330,1,0,0:0:0
392,288,99430,1,0,0:0:0
392,304,99530,1,0,0:0:0
392,320,99630,5,2,0:0:0
376,320,99730,1,0,0:0:0
360,320,99830,1,0,0:0:0
344,320,99930,1,0,0:0:0
328,320,100030,1,2,0:0:0
312,320,100130,1,0,0:0:0
296,320,100230,1,0,0:0:0
280,320,100330,1,0,0:0:0
264,320,100430,5,2,0:0:0
248,320,100530,1,0,0:0:0
232,320,100630,1,0,0:0:0
216,320,100730,1,0,0:0:0
200,320,100830,1,2,0:0:0
184,320,100930,1,0,0:0:0
168,320,101030,1,0,0:0:0
152,320,101130,1,0,0:0:0
136,320,101230,5,2,0:0:0
136,304,101330,1,0,0:0:0
136,288,101430,1,0,0:0:0
136,272,101530,1,0,0:0:0
136,256,101630,1,2,0:0:0
136,240,101730,1,0,0:0:0
136,224,101830,1,0,0:0:0
136,208,101930,1,0,0:0:0
136,192,102030,5,2,0:0:0
136,176,102130,1,0,0:0:0
136,160,102230,1,0,0:0:0
136,144,102330,1,0,0:0:0
136,128,102430,1,2,0:0:0
136,112,102530,1,0,0:0:0
136,96,102630,1,0,0:0:0
136,80,102730,1,0,0:0:0
136,64,102830,5,2,0:0:0
152,64,102930,1,0,0:0:0
168,64,103030,1,0,0:0:0
184,64,103130,1,0,0:0:0
200,64,103230,1,2,0:0:0
216,64,103330,1,0,0:0:0
232,64,103430,1,0,0:0:0
248,64,103530,1,0,0:0:0
264,64,103630,5,2,0:0:0
280,64,103730,1,0,0:0:0
296,64,103830,1,0,0:0:0
312,64,103930,1,0,0:0:0
328,64,104030,1,2,0:0:0
344,64,104130,1,0,0:0:0
360,64,104230,1,0,0:0:0
376,64,104330,1,0,0:0:0
392,64,104430,5,2,0:0:0
392,80,104530,1,0,0:0:0
392,96,104630,1,0,0:0:0
392,112,104730,1,0,0:0:0
392,128,104830,1,2,0:0:0
392,144,104930,1,0,0:0:0
392,160,105030,1,0,0:0:0
392,176,105130,1,0,0:0:0
392,192,105230,5,2,0:0:0
392,208,105330,1,0,0:0:0
392,224,105430,1,0,0:0:0
392,240,105530,1,0,0:0:0
392,256,105630,1,2,0:0:0
392,272,105730,1,0,0:0:0
392,288,105830,1,0,0:0:0
392,304,105930,1,0,0:0:0
392,320,106030,5,2,0:0:0
376,320,106130,1,0,0:0:0
360,320,106230,1,0,0:0:0
344,320,106330,1,0,0:0:0
328,320,106430,1,2,0:0:0
312,320,106530,1,0,0:0:0
296,320,106630,1,0,0:0:0
280,320,106730,1,0,0:0:0
264,320,106830,5,2,0:0:0
248,320,106930,1,0,0:0:0
232,320,107030,1,0,0:0:0
216,320,107130,1,0,0:0:0
200,320,107230,1,2,0:0:0
184,320,107330,1,0,0:0:0
168,320,107430,1,0,0:0:0
152,320,107530,1,0,0:0:0
136,320,107630,5,2,0:0:0
136,304,107730,1,0,0:0:0
136,288,107830,1,0,0:0:0
136,272,107930,1,0,0:0:0
136,256,108030,1,2,0:0:0
136,240,108130,1,0,0:0:0
136,224,108230,1,0,0:0:0
136,208,108330,1,0,0:0:0
136,192,108430,5,2,0:0:0
136,176,108530,1,0,0:0:0
136,160,108630,1,0,0:0:0
136,144,108730,1,0,0:0:0
136,128,108830,1,2,0:0:0
136,112,108930,1,0,0:0:0
136,96,109030,1,0,0:0:0
136,80,109130,1,0,0:0:0
136,64,109230,5,2,0:0:0
152,64,109330,1,0,0:0:0
168,64,109430,1,0,0:0:0
184,64,109530,1,0,0:0:0
200,64,109630,1,2,0:0:0
216,64,109730,1,0,0:0:0
232,64,109830,1,0,0:0:0
248,64,109930,1,0,0:0:0
264,64,110030,5,2,0:0:0
280,64,110130,1,0,0:0:0
296,64,110230,1,0,0:0:0
312,64,110330,1,0,0:0:0
328,64,110430,1,2,0:0:0
344,64,110530,1,0,0:0:0
360,64,110630,1,0,0:0:0
376,64,110730,1,0,0:0:0
392,64,110830,5,2,0:0:0
392,80,110930,1,0,0:0:0
392,96,111030,1,0,0:0:0
392,112,111130,1,0,0:0:0
392,128,111230,1,2,0:0:0
392,144,111330,1,0,0:0:0
392,160,111430,1,0,0:0:0
392,176,111530,1,0,0:0:0
392,192,111630,5,2,0:0:0
392,208,111730,1,0,0:0:0
392,224,111830,1,0,0:0:0
392,240,111930,1,0,0:0:0
392,256,112030,1,2,0:0:0
392,272,112130,1,0,0:0:0
392,288,112230,1,0,0:0:0
392,304,112330,1,0,0:0:0
392,320,112430,5,2,0:0:0
376,320,112530,1,0,0:0:0
360,320,112630,1,0,0:0:0
344,320,112730,1,0,0:0:0
328,320,112830,1,2,0:0:0
312,320,112930,1,0,0:0:0
296,320,113030,1,0,0:0:0
280,320,113130,1,0,0:0:0
264,320,113230,5,2,0:0:0
248,320,113330,1,0,0:0:0
232,320,113430,1,0,0:0:0
216,320,113530,1,0,0:0:0
200,320,113630,1,2,0:0:0
184,320,113730,1,0,0:0:0
168,320,113830,1,0,0:0:0
152,320,113930,1,0,0:0:0
136,320,114030,5,2,0:0:0
136,304,114130,1,0,0:0:0
136,288,114230,1,0,0:0:0
136,272,114330,1,0,0:0:0
136,256,114430,1,2,0:0:0
136,240,114530,1,0,0:0:0
136,224,114630,1,0,0:0:0
136,208,114730,1,0,0:0:0
136,192,114830,5,2,0:0:0
136,176,114930,1,0,0:0:0
136,160,115030,1,0,0:0:0
136,144,115130,1,0,0:0:0
136,128,115230,1,2,0:0:0
136,112,115330,1,0,0:0:0
136,96,115430,1,0,0:0:0
136,80,115530,1,0,0:0:0
136,64,115630,5,2,0:0:0
152,64,115730,1,0,0:0:0
168,64,115830,1,0,0:0:0
184,64,115930,1,0,0:0:0
200,64,116030,1,2,0:0:0
216,64,116130,1,0,0:0:0
232,64,116230,1,0,0:0:0
248,64,116330,1,0,0:0:0
264,64,116430,5,2,0:0:0
280,64,116530,1,0,0:0:0
296,64,116630,1,0,0:0:0
312,64,116730,1,0,0:0:0
328,64,116830,1,2,0:0:0
344,64,116930,1,0,0:0:0
360,64,117030,1,0,0:0:0
376,64,117130,1,0,0:0:0
392,64,117230,5,2,0:0:0
392,80,117330,1,0,0:0:0
392,96,117430,1,0,0:0:0
392,112,117530,1,0,0:0:0
392,128,117630,1,2,0:0:0
392,144,117730,1,0,0:0:0
392,160,117830,1,0,0:0:0
392,176,117930,1,0,0:0:0
392,192,118030,5,2,0:0:0
392,208,118130,1,0,0:0:0
392,224,118230,1,0,0:0:0
392,240,118330,1,0,0:0:0
392,256,118430,1,2,0:0:0
392,272,118530,1,0,0:0:0
392,288,118630,1,0,0:0:0
392,304,118730,1,0,0:0:0
392,320,118830,5,2,0:0:0
376,320,118930,1,0,0:0:0
360,320,119030,1,0,0:0:0
344,320,119130,1,0,0:0:0
328,320,119230,1,2,0:0:0
312,320,119330,1,0,0:0:0
296,320,119430,1,0,0:0:0
280,320,119530,1,0,0:0:0
264,320,119630,5,2,0:0:0
248,320,119730,1,0,0:0:0
232,320,119830,1,0,0:0:0
216,320,119930,1,0,0:0:0
200,320,120030,1,2,0:0:0
184,320,120130,1,0,0:0:0
168,320,120230,1,0,0:0:0
152,320,120330,1,0,0:0:0
136,320,120430,5,2,0:0:0
136,304,120530,1,0,0:0:0
136,288,120630,1,0,0:0:0
136,272,120730,1,0,0:0:0
136,256,120830,1,2,0:0:0
136,240,120930,1,0,0:0:0
136,224,121030,1,0,0:0:0
136,208,121130,1,0,0:0:0
136,192,121230,5,2,0:0:0
136,176,121330,1,0,0:0:0
136,160,121430,1,0,0:0:0
136,144,121530,1,0,0:0:0
136,128,121630,1,2,0:0:0
136,112,121730,1,0,0:0:0
136,96,121830,1,0,0:0:0
136,80,121930,1,0,0:0:0
136,64,122030,1,0,0:0:0
256,192,122130,12,0,123630,0:0:0
