osu file format v11

[General]
AudioFilename: Oblivion.mp3
AudioLeadIn: 1004
PreviewTime: 56309
Countdown: 0
SampleSet: Soft
StackLeniency: 0.7
Mode: 0
LetterboxInBreaks: 1

[Editor]
DistanceSpacing: 0.3
BeatDivisor: 4
GridSize: 4

[Metadata]
Title:Long Stream Practice Maps
TitleUnicode:Long Stream Practice Maps
Artist:Various Artist
ArtistUnicode:Various Artist
Creator:onlyforyou
Version:Oblivion BPM170
Source:
Tags:
BeatmapID:207539
BeatmapSetID:72474

[Difficulty]
HPDrainRate:7
CircleSize:4
OverallDifficulty:7
ApproachRate:8
SliderMultiplier:2
SliderTickRate:1

[Events]
//Background and Video events
0,0,"Oblivion.jpg"
//Break Periods
2,96257,100955
//Storyboard Layer 0 (Background)
//Storyboard Layer 1 (Fail)
//Storyboard Layer 2 (Pass)
//Storyboard Layer 3 (Foreground)
//Storyboard Sound Samples
//Background Colour Transformations
3,100,163,162,255

[TimingPoints]
58,352.941176470588,4,2,1,70,1,0
11352,-100,4,2,1,75,0,0
33940,-100,4,2,1,50,0,0
56528,-100,4,2,1,90,0,1
79116,-100,4,2,1,70,0,0
101705,-100,4,2,1,90,0,1
124293,-100,4,2,1,70,0,0
169116,-100,4,2,1,35,0,0
177852,-100,4,2,1,5,0,0

[Colours]
Combo1 : 216,50,50
Combo2 : 71,192,31
Combo3 : 68,200,215
Combo4 : 217,221,55

[HitObjects]
108,72,58,5,2,0:0:0
124,72,146,1,0,0:0:0
140,72,234,1,0,0:0:0
156,72,322,1,0,0:0:0
172,72,410,1,2,0:0:0
188,72,499,1,0,0:0:0
204,72,587,1,0,0:0:0
220,72,675,1,0,0:0:0
236,72,763,5,2,0:0:0
252,72,852,1,0,0:0:0
268,72,940,1,0,0:0:0
284,72,1028,1,0,0:0:0
300,72,1116,1,2,0:0:0
316,72,1205,1,0,0:0:0
332,72,1293,1,0,0:0:0
348,72,1381,1,0,0:0:0
364,72,1469,5,2,0:0:0
364,88,1557,1,0,0:0:0
364,104,1646,1,0,0:0:0
364,120,1734,1,0,0:0:0
364,136,1822,1,2,0:0:0
364,152,1910,1,0,0:0:0
364,168,1999,1,0,0:0:0
364,184,2087,1,0,0:0:0
364,200,2175,5,2,0:0:0
364,216,2263,1,0,0:0:0
364,232,2352,1,0,0:0:0
364,248,2440,1,0,0:0:0
364,264,2528,1,2,0:0:0
364,280,2616,1,0,0:0:0
364,296,2705,1,0,0:0:0
364,312,2793,1,0,0:0:0
364,328,2881,5,2,0:0:0
348,328,2969,1,0,0:0:0
332,328,3057,1,0,0:0:0
316,328,3146,1,0,0:0:0
300,328,3234,1,2,0:0:0
284,328,3322,1,0,0:0:0
268,328,3410,1,0,0:0:0
252,328,3499,1,0,0:0:0
236,328,3587,5,2,0:0:0
220,328,3675,1,0,0:0:0
204,328,3763,1,0,0:0:0
188,328,3852,1,0,0:0:0
172,328,3940,1,2,0:0:0
156,328,4028,1,0,0:0:0
140,328,4116,1,0,0:0:0
124,328,4205,1,0,0:0:0
108,328,4293,5,2,0:0:0
108,312,4381,1,0,0:0:0
108,296,4469,1,0,0:0:0
108,280,4557,1,0,0:0:0
108,264,4646,1,2,0:0:0
108,248,4734,1,0,0:0:0
108,232,4822,1,0,0:0:0
108,216,4910,1,0,0:0:0
108,200,4999,5,2,0:0:0
108,184,5087,1,0,0:0:0
108,168,5175,1,0,0:0:0
108,152,5263,1,0,0:0:0
108,136,5352,1,2,0:0:0
108,120,5440,1,0,0:0:0
108,104,5528,1,0,0:0:0
108,88,5616,1,0,0:0:0
108,72,5705,5,2,0:0:0
124,72,5793,1,0,0:0:0
140,72,5881,1,0,0:0:0
156,72,5969,1,0,0:0:0
172,72,6057,1,2,0:0:0
188,72,6146,1,0,0:0:0
204,72,6234,1,0,0:0:0
220,72,6322,1,0,0:0:0
236,72,6410,5,2,0:0:0
252,72,6499,1,0,0:0:0
268,72,6587,1,0,0:0:0
284,72,6675,1,0,0:0:0
300,72,6763,1,2,0:0:0
316,72,6852,1,0,0:0:0
332,72,6940,1,0,0:0:0
348,72,7028,1,0,0:0:0
364,72,7116,5,2,0:0:0
364,88,7204,1,0,0:0:0
364,104,7293,1,0,0:0:0
364,120,7381,1,0,0:0:0
364,136,7469,1,2,0:0:0
364,152,7557,1,0,0:0:0
364,168,7646,1,0,0:0:0
364,184,7734,1,0,0:0:0
364,200,7822,5,2,0:0:0
364,216,7910,1,0,0:0:0
364,232,7999,1,0,0:0:0
364,248,8087,1,0,0:0:0
364,264,8175,1,2,0:0:0
364,280,8263,1,0,0:0:0
364,296,8352,1,0,0:0:0
364,312,8440,1,0,0:0:0
364,328,8528,5,2,0:0:0
348,328,8616,1,0,0:0:0
332,328,8704,1,0,0:0:0
316,328,8793,1,0,0:0:0
300,328,8881,1,2,0:0:0
284,328,8969,1,0,0:0:0
268,328,9057,1,0,0:0:0
252,328,9146,1,0,0:0:0
236,328,9234,5,2,0:0:0
220,328,9322,1,0,0:0:0
204,328,9410,1,0,0:0:0
188,328,9499,1,0,0:0:0
172,328,9587,1,2,0:0:0
156,328,9675,1,0,0:0:0
140,328,9763,1,0,0:0:0
124,328,9852,1,0,0:0:0
108,328,9940,5,2,0:0:0
108,312,10028,1,0,0:0:0
108,296,10116,1,0,0:0:0
108,280,10204,1,0,0:0:0
108,264,10293,1,2,0:0:0
108,248,10381,1,0,0:0:0
108,232,10469,1,0,0:0:0
108,216,10557,1,0,0:0:0
108,200,10646,5,2,0:0:0
108,184,10734,1,0,0:0:0
108,168,10822,1,0,0:0:0
108,152,10910,1,0,0:0:0
108,136,10999,1,2,0:0:0
108,120,11087,1,0,0:0:0
108,104,11175,1,0,0:0:0
108,88,11263,1,0,0:0:0
108,72,11352,5,2,0:0:0
124,72,11440,1,0,0:0:0
140,72,11528,1,0,0:0:0
156,72,11616,1,0,0:0:0
172,72,11704,1,2,0:0:0
188,72,11793,1,0,0:0:0
204,72,11881,1,0,0:0:0
220,72,11969,1,0,0:0:0
236,72,12057,5,2,0:0:0
252,72,12146,1,0,0:0:0
268,72,12234,1,0,0:0:0
284,72,12322,1,0,0:0:0
300,72,12410,1,2,0:0:0
316,72,12499,1,0,0:0:0
332,72,12587,1,0,0:0:0
348,72,12675,1,0,0:0:0
364,72,12763,5,2,0:0:0
364,88,12851,1,0,0:0:0
364,104,12940,1,0,0:0:0
364,120,13028,1,0,0:0:0
364,136,13116,1,2,0:0:0
364,152,13204,1,0,0:0:0
364,168,13293,1,0,0:0:0
364,184,13381,1,0,0:0:0
364,200,13469,5,2,0:0:0
364,216,13557,1,0,0:0:0
364,232,13646,1,0,0:0:0
364,248,13734,1,0,0:0:0
364,264,13822,1,2,0:0:0
364,280,13910,1,0,0:0:0
364,296,13999,1,0,0:0:0
364,312,14087,1,0,0:0:0
364,328,14175,5,2,0:0:0
348,328,14263,1,0,0:0:0
332,328,14351,1,0,0:0:0
316,328,14440,1,0,0:0:0
300,328,14528,1,2,0:0:0
284,328,14616,1,0,0:0:0
268,328,14704,1,0,0:0:0
252,328,14793,1,0,0:0:0
236,328,14881,5,2,0:0:0
220,328,14969,1,0,0:0:0
204,328,15057,1,0,0:0:0
188,328,15146,1,0,0:0:0
172,328,15234,1,2,0:0:0
156,328,15322,1,0,0:0:0
140,328,15410,1,0,0:0:0
124,328,15499,1,0,0:0:0
108,328,15587,5,2,0:0:0
108,312,15675,1,0,0:0:0
108,296,15763,1,0,0:0:0
108,280,15851,1,0,0:0:0
108,264,15940,1,2,0:0:0
108,248,16028,1,0,0:0:0
108,232,16116,1,0,0:0:0
108,216,16204,1,0,0:0:0
108,200,16293,5,2,0:0:0
108,184,16381,1,0,0:0:0
108,168,16469,1,0,0:0:0
108,152,16557,1,0,0:0:0
108,136,16646,1,2,0:0:0
108,120,16734,1,0,0:0:0
108,104,16822,1,0,0:0:0
108,88,16910,1,0,0:0:0
108,72,16999,5,2,0:0:0
124,72,17087,1,0,0:0:0
140,72,17175,1,0,0:0:0
156,72,17263,1,0,0:0:0
172,72,17351,1,2,0:0:0
188,72,17440,1,0,0:0:0
204,72,17528,1,0,0:0:0
220,72,17616,1,0,0:0:0
236,72,17704,5,2,0:0:0
252,72,17793,1,0,0:0:0
268,72,17881,1,0,0:0:0
284,72,17969,1,0,0:0:0
300,72,18057,1,2,0:0:0
316,72,18146,1,0,0:0:0
332,72,18234,1,0,0:0:0
348,72,18322,1,0,0:0:0
364,72,18410,5,2,0:0:0
364,88,18498,1,0,0:0:0
364,104,18587,1,0,0:0:0
364,120,18675,1,0,0:0:0
364,136,18763,1,2,0:0:0
364,152,18851,1,0,0:0:0
364,168,18940,1,0,0:0:0
364,184,19028,1,0,0:0:0
364,200,19116,5,2,0:0:0
364,216,19204,1,0,0:0:0
364,232,19293,1,0,0:0:0
364,248,19381,1,0,0:0:0
364,264,19469,1,2,0:0:0
364,280,19557,1,0,0:0:0
364,296,19646,1,0,0:0:0
364,312,19734,1,0,0:0:0
364,328,19822,5,2,0:0:0
348,328,19910,1,0,0:0:0
332,328,19998,1,0,0:0:0
316,328,20087,1,0,0:0:0
300,328,20175,1,2,0:0:0
284,328,20263,1,0,0:0:0
268,328,20351,1,0,0:0:0
252,328,20440,1,0,0:0:0
236,328,20528,5,2,0:0:0
220,328,20616,1,0,0:0:0
204,328,20704,1,0,0:0:0
188,328,20793,1,0,0:0:0
172,328,20881,1,2,0:0:0
156,328,20969,1,0,0:0:0
140,328,21057,1,0,0:0:0
124,328,21146,1,0,0:0:0
108,328,21234,5,2,0:0:0
108,312,21322,1,0,0:0:0
108,296,21410,1,0,0:0:0
108,280,21498,1,0,0:0:0
108,264,21587,1,2,0:0:0
108,248,21675,1,0,0:0:0
108,232,21763,1,0,0:0:0
108,216,21851,1,0,0:0:0
108,200,21940,5,2,0:0:0
108,184,22028,1,0,0:0:0
108,168,22116,1,0,0:0:0
108,152,22204,1,0,0:0:0
108,136,22293,1,2,0:0:0
108,120,22381,1,0,0:0:0
108,104,22469,1,0,0:0:0
108,88,22557,1,0,0:0:0
108,72,22646,5,2,0:0:0
124,72,22734,1,0,0:0:0
140,72,22822,1,0,0:0:0
156,72,22910,1,0,0:0:0
172,72,22998,1,2,0:0:0
188,72,23087,1,0,0:0:0
204,72,23175,1,0,0:0:0
220,72,23263,1,0,0:0:0
236,72,23351,5,2,0:0:0
252,72,23440,1,0,0:0:0
268,72,23528,1,0,0:0:0
284,72,23616,1,0,0:0:0
300,72,23704,1,2,0:0:0
316,72,23793,1,0,0:0:0
332,72,23881,1,0,0:0:0
348,72,23969,1,0,0:0:0
364,72,24057,5,2,0:0:0
364,88,24145,1,0,0:0:0
364,104,24234,1,0,0:0:0
364,120,24322,1,0,0:0:0
364,136,24410,1,2,0:0:0
364,152,24498,1,0,0:0:0
364,168,24587,1,0,0:0:0
364,184,24675,1,0,0:0:0
364,200,24763,5,2,0:0:0
364,216,24851,1,0,0:0:0
364,232,24940,1,0,0:0:0
364,248,25028,1,0,0:0:0
364,264,25116,1,2,0:0:0
364,280,25204,1,0,0:0:0
364,296,25293,1,0,0:0:0
364,312,25381,1,0,0:0:0
364,328,25469,5,2,0:0:0
348,328,25557,1,0,0:0:0
332,328,25645,1,0,0:0:0
316,328,25734,1,0,0:0:0
300,328,25822,1,2,0:0:0
284,328,25910,1,0,0:0:0
268,328,25998,1,0,0:0:0
252,328,26087,1,0,0:0:0
236,328,26175,5,2,0:0:0
220,328,26263,1,0,0:0:0
204,328,26351,1,0,0:0:0
188,328,26440,1,0,0:0:0
172,328,26528,1,2,0:0:0
156,328,26616,1,0,0:0:0
140,328,26704,1,0,0:0:0
124,328,26793,1,0,0:0:0
108,328,26881,5,2,0:0:0
108,312,26969,1,0,0:0:0
108,296,27057,1,0,0:0:0
108,280,27145,1,0,0:0:0
108,264,27234,1,2,0:0:0
108,248,27322,1,0,0:0:0
108,232,27410,1,0,0:0:0
108,216,27498,1,0,0:0:0
108,200,27587,5,2,0:0:0
108,184,27675,1,0,0:0:0
108,168,27763,1,0,0:0:0
108,152,27851,1,0,0:0:0
108,136,27940,1,2,0:0:0
108,120,28028,1,0,0:0:0
108,104,28116,1,0,0:0:0
108,88,28204,1,0,0:0:0
108,72,28293,5,2,0:0:0
124,72,28381,1,0,0:0:0
140,72,28469,1,0,0:0:0
156,72,28557,1,0,0:0:0
172,72,28645,1,2,0:0:0
188,72,28734,1,0,0:0:0
204,72,28822,1,0,0:0:0
220,72,28910,1,0,0:0:0
236,72,28998,5,2,0:0:0
252,72,29087,1,0,0:0:0
268,72,29175,1,0,0:0:0
284,72,29263,1,0,0:0:0
300,72,29351,1,2,0:0:0
316,72,29440,1,0,0:0:0
332,72,29528,1,0,0:0:0
348,72,29616,1,0,0:0:0
364,72,29704,5,2,0:0:0
364,88,29792,1,0,0:0:0
364,104,29881,1,0,0:0:0
364,120,29969,1,0,0:0:0
364,136,30057,1,2,0:0:0
364,152,30145,1,0,0:0:0
364,168,30234,1,0,0:0:0
364,184,30322,1,0,0:0:0
364,200,30410,5,2,0:0:0
364,216,30498,1,0,0:0:0
364,232,30587,1,0,0:0:0
364,248,30675,1,0,0:0:0
364,264,30763,1,2,0:0:0
364,280,30851,1,0,0:0:0
364,296,30940,1,0,0:0:0
364,312,31028,1,0,0:0:0
364,328,31116,5,2,0:0:0
348,328,31204,1,0,0:0:0
332,328,31292,1,0,0:0:0
316,328,31381,1,0,0:0:0
300,328,31469,1,2,0:0:0
284,328,31557,1,0,0:0:0
268,328,31645,1,0,0:0:0
252,328,31734,1,0,0:0:0
236,328,31822,5,2,0:0:0
220,328,31910,1,0,0:0:0
204,328,31998,1,0,0:0:0
188,328,32087,1,0,0:0:0
172,328,32175,1,2,0:0:0
156,328,32263,1,0,0:0:0
140,328,32351,1,0,0:0:0
124,328,32440,1,0,0:0:0
108,328,32528,5,2,0:0:0
108,312,32616,1,0,0:0:0
108,296,32704,1,0,0:0:0
108,280,32792,1,0,0:0:0
108,264,32881,1,2,0:0:0
108,248,32969,1,0,0:0:0
108,232,33057,1,0,0:0:0
108,216,33145,1,0,0:0:0
108,200,33234,5,2,0:0:0
108,184,33322,1,0,0:0:0
108,168,33410,1,0,0:0:0
108,152,33498,1,0,0:0:0
108,136,33587,1,2,0:0:0
108,120,33675,1,0,0:0:0
108,104,33763,1,0,0:0:0
108,88,33851,1,0,0:0:0
108,72,33940,5,2,0:0:0
124,72,34028,1,0,0:0:0
140,72,34116,1,0,0:0:0
156,72,34204,1,0,0:0:0
172,72,34292,1,2,0:0:0
188,72,34381,1,0,0:0:0
204,72,34469,1,0,0:0:0
220,72,34557,1,0,0:0:0
236,72,34645,5,2,0:0:0
252,72,34734,1,0,0:0:0
268,72,34822,1,0,0:0:0
284,72,34910,1,0,0:0:0
300,72,34998,1,2,0:0:0
316,72,35087,1,0,0:0:0
332,72,35175,1,0,0:0:0
348,72,35263,1,0,0:0:0
364,72,35351,5,2,0:0:0
364,88,35439,1,0,0:0:0
364,104,35528,1,0,0:0:0
364,120,35616,1,0,0:0:0
364,136,35704,1,2,0:0:0
364,152,35792,1,0,0:0:0
364,168,35881,1,0,0:0:0
364,184,35969,1,0,0:0:0
364,200,36057,5,2,0:0:0
364,216,36145,1,0,0:0:0
364,232,36234,1,0,0:0:0
364,248,36322,1,0,0:0:0
364,264,36410,1,2,0:0:0
364,280,36498,1,0,0:0:0
364,296,36587,1,0,0:0:0
364,312,36675,1,0,0:0:0
364,328,36763,5,2,0:0:0
348,328,36851,1,0,0:0:0
332,328,36939,1,0,0:0:0
316,328,37028,1,0,0:0:0
300,328,37116,1,2,0:0:0
284,328,37204,1,0,0:0:0
268,328,37292,1,0,0:0:0
252,328,37381,1,0,0:0:0
236,328,37469,5,2,0:0:0
220,328,37557,1,0,0:0:0
204,328,37645,1,0,0:0:0
188,328,37734,1,0,0:0:0
172,328,37822,1,2,0:0:0
156,328,37910,1,0,0:0:0
140,328,37998,1,0,0:0:0
124,328,38087,1,0,0:0:0
108,328,38175,5,2,0:0:0
108,312,38263,1,0,0:0:0
108,296,38351,1,0,0:0:0
108,280,38439,1,0,0:0:0
108,264,38528,1,2,0:0:0
108,248,38616,1,0,0:0:0
108,232,38704,1,0,0:0:0
108,216,38792,1,0,0:0:0
108,200,38881,5,2,0:0:0
108,184,38969,1,0,0:0:0
108,168,39057,1,0,0:0:0
108,152,39145,1,0,0:0:0
108,136,39234,1,2,0:0:0
108,120,39322,1,0,0:0:0
108,104,39410,1,0,0:0:0
108,88,39498,1,0,0:0:0
108,72,39587,5,2,0:0:0
124,72,39675,1,0,0:0:0
140,72,39763,1,0,0:0:0
156,72,39851,1,0,0:0:0
172,72,39939,1,2,0:0:0
188,72,40028,1,0,0:0:0
204,72,40116,1,0,0:0:0
220,72,40204,1,0,0:0:0
236,72,40292,5,2,0:0:0
252,72,40381,1,0,0:0:0
268,72,40469,1,0,0:0:0
284,72,40557,1,0,0:0:0
300,72,40645,1,2,0:0:0
316,72,40734,1,0,0:0:0
332,72,40822,1,0,0:0:0
348,72,40910,1,0,0:0:0
364,72,40998,5,2,0:0:0
364,88,41086,1,0,0:0:0
364,104,41175,1,0,0:0:0
364,120,41263,1,0,0:0:0
364,136,41351,1,2,0:0:0
364,152,41439,1,0,0:0:0
364,168,41528,1,0,0:0:0
364,184,41616,1,0,0:0:0
364,200,41704,5,2,0:0:0
364,216,41792,1,0,0:0:0
364,232,41881,1,0,0:0:0
364,248,41969,1,0,0:0:0
364,264,42057,1,2,0:0:0
364,280,42145,1,0,0:0:0
364,296,42234,1,0,0:0:0
364,312,42322,1,0,0:0:0
364,328,42410,5,2,0:0:0
348,328,42498,1,0,0:0:0
332,328,42586,1,0,0:0:0
316,328,42675,1,0,0:0:0
300,328,42763,1,2,0:0:0
284,328,42851,1,0,0:0:0
268,328,42939,1,0,0:0:0
252,328,43028,1,0,0:0:0
236,328,43116,5,2,0:0:0
220,328,43204,1,0,0:0:0
204,328,43292,1,0,0:0:0
188,328,43381,1,0,0:0:0
172,328,43469,1,2,0:0:0
156,328,43557,1,0,0:0:0
140,328,43645,1,0,0:0:0
124,328,43734,1,0,0:0:0
108,328,43822,5,2,0:0:0
108,312,43910,1,0,0:0:0
108,296,43998,1,0,0:0:0
108,280,44086,1,0,0:0:0
108,264,44175,1,2,0:0:0
108,248,44263,1,0,0:0:0
108,232,44351,1,0,0:0:0
108,216,44439,1,0,0:0:0
108,200,44528,5,2,0:0:0
108,184,44616,1,0,0:0:0
108,168,44704,1,0,0:0:0
108,152,44792,1,0,0:0:0
108,136,44881,1,2,0:0:0
108,120,44969,1,0,0:0:0
108,104,45057,1,0,0:0:0
108,88,45145,1,0,0:0:0
108,72,45234,5,2,0:0:0
124,72,45322,1,0,0:0:0
140,72,45410,1,0,0:0:0
156,72,45498,1,0,0:0:0
172,72,45586,1,2,0:0:0
188,72,45675,1,0,0:0:0
204,72,45763,1,0,0:0:0
220,72,45851,1,0,0:0:0
236,72,45939,5,2,0:0:0
252,72,46028,1,0,0:0:0
268,72,46116,1,0,0:0:0
284,72,46204,1,0,0:0:0
300,72,46292,1,2,0:0:0
316,72,46381,1,0,0:0:0
332,72,46469,1,0,0:0:0
348,72,46557,1,0,0:0:0
364,72,46645,5,2,0:0:0
364,88,46733,1,0,0:0:0
364,104,46822,1,0,0:0:0
364,120,46910,1,0,0:0:0
364,136,46998,1,2,0:0:0
364,152,47086,1,0,0:0:0
364,168,47175,1,0,0:0:0
364,184,47263,1,0,0:0:0
364,200,47351,5,2,0:0:0
364,216,47439,1,0,0:0:0
364,232,47528,1,0,0:0:0
364,248,47616,1,0,0:0:0
364,264,47704,1,2,0:0:0
364,280,47792,1,0,0:0:0
364,296,47881,1,0,0:0:0
364,312,47969,1,0,0:0:0
364,328,48057,5,2,0:0:0
348,328,48145,1,0,0:0:0
332,328,48233,1,0,0:0:0
316,328,48322,1,0,0:0:0
300,328,48410,1,2,0:0:0
284,328,48498,1,0,0:0:0
268,328,48586,1,0,0:0:0
252,328,48675,1,0,0:0:0
236,328,48763,5,2,0:0:0
220,328,48851,1,0,0:0:0
204,328,48939,1,0,0:0:0
188,328,49028,1,0,0:0:0
172,328,49116,1,2,0:0:0
156,328,49204,1,0,0:0:0
140,328,49292,1,0,0:0:0
124,328,49381,1,0,0:0:0
108,328,49469,5,2,0:0:0
108,312,49557,1,0,0:0:0
108,296,49645,1,0,0:0:0
108,280,49733,1,0,0:0:0
108,264,49822,1,2,0:0:0
108,248,49910,1,0,0:0:0
108,232,49998,1,0,0:0:0
108,216,50086,1,0,0:0:0
108,200,50175,5,2,0:0:0
108,184,50263,1,0,0:0:0
108,168,50351,1,0,0:0:0
108,152,50439,1,0,0:0:0
108,136,50528,1,2,0:0:0
108,120,50616,1,0,0:0:0
108,104,50704,1,0,0:0:0
108,88,50792,1,0,0:0:0
108,72,50881,5,2,0:0:0
124,72,50969,1,0,0:0:0
140,72,51057,1,0,0:0:0
156,72,51145,1,0,0:0:0
172,72,51233,1,2,0:0:0
188,72,51322,1,0,0:0:0
204,72,51410,1,0,0:0:0
220,72,51498,1,0,0:0:0
236,72,51586,5,2,0:0:0
252,72,51675,1,0,0:0:0
268,72,51763,1,0,0:0:0
284,72,51851,1,0,0:0:0
300,72,51939,1,2,0:0:0
316,72,52028,1,0,0:0:0
332,72,52116,1,0,0:0:0
348,72,52204,1,0,0:0:0
364,72,52292,5,2,0:0:0
364,88,52380,1,0,0:0:0
364,104,52469,1,0,0:0:0
364,120,52557,1,0,0:0:0
364,136,52645,1,2,0:0:0
364,152,52733,1,0,0:0:0
364,168,52822,1,0,0:0:0
364,184,52910,1,0,0:0:0
364,200,52998,5,2,0:0:0
364,216,53086,1,0,0:0:0
364,232,53175,1,0,0:0:0
364,248,53263,1,0,0:0:0
364,264,53351,1,2,0:0:0
364,280,53439,1,0,0:0:0
364,296,53528,1,0,0:0:0
364,312,53616,1,0,0:0:0
364,328,53704,5,2,0:0:0
348,328,53792,1,0,0:0:0
332,328,53880,1,0,0:0:0
316,328,53969,1,0,0:0:0
300,328,54057,1,2,0:0:0
284,328,54145,1,0,0:0:0
268,328,54233,1,0,0:0:0
252,328,54322,1,0,0:0:0
236,328,54410,5,2,0:0:0
220,328,54498,1,0,0:0:0
204,328,54586,1,0,0:0:0
188,328,54675,1,0,0:0:0
172,328,54763,1,2,0:0:0
156,328,54851,1,0,0:0:0
140,328,54939,1,0,0:0:0
124,328,55028,1,0,0:0:0
108,328,55116,5,2,0:0:0
108,312,55204,1,0,0:0:0
108,296,55292,1,0,0:0:0
108,280,55380,1,0,0:0:0
108,264,55469,1,2,0:0:0
108,248,55557,1,0,0:0:0
108,232,55645,1,0,0:0:0
108,216,55733,1,0,0:0:0
108,200,55822,5,2,0:0:0
108,184,55910,1,0,0:0:0
108,168,55998,1,0,0:0:0
108,152,56086,1,0,0:0:0
108,136,56175,1,2,0:0:0
108,120,56263,1,0,0:0:0
108,104,56351,1,0,0:0:0
108,88,56439,1,0,0:0:0
108,72,56528,5,2,0:0:0
124,72,56616,1,0,0:0:0
140,72,56704,1,0,0:0:0
156,72,56792,1,0,0:0:0
172,72,56880,1,2,0:0:0
188,72,56969,1,0,0:0:0
204,72,57057,1,0,0:0:0
220,72,57145,1,0,0:0:0
236,72,57233,5,2,0:0:0
252,72,57322,1,0,0:0:0
268,72,57410,1,0,0:0:0
284,72,57498,1,0,0:0:0
300,72,57586,1,2,0:0:0
316,72,57675,1,0,0:0:0
332,72,57763,1,0,0:0:0
348,72,57851,1,0,0:0:0
364,72,57939,5,2,0:0:0
364,88,58027,1,0,0:0:0
364,104,58116,1,0,0:0:0
364,120,58204,1,0,0:0:0
364,136,58292,1,2,0:0:0
364,152,58380,1,0,0:0:0
364,168,58469,1,0,0:0:0
364,184,58557,1,0,0:0:0
364,200,58645,5,2,0:0:0
364,216,58733,1,0,0:0:0
364,232,58822,1,0,0:0:0
364,248,58910,1,0,0:0:0
364,264,58998,1,2,0:0:0
364,280,59086,1,0,0:0:0
364,296,59175,1,0,0:0:0
364,312,59263,1,0,0:0:0
364,328,59351,5,2,0:0:0
348,328,59439,1,0,0:0:0
332,328,59527,1,0,0:0:0
316,328,59616,1,0,0:0:0
300,328,59704,1,2,0:0:0
284,328,59792,1,0,0:0:0
268,328,59880,1,0,0:0:0
252,328,59969,1,0,0:0:0
236,328,60057,5,2,0:0:0
220,328,60145,1,0,0:0:0
204,328,60233,1,0,0:0:0
188,328,60322,1,0,0:0:0
172,328,60410,1,2,0:0:0
156,328,60498,1,0,0:0:0
140,328,60586,1,0,0:0:0
124,328,60675,1,0,0:0:0
108,328,60763,5,2,0:0:0
108,312,60851,1,0,0:0:0
108,296,60939,1,0,0:0:0
108,280,61027,1,0,0:0:0
108,264,61116,1,2,0:0:0
108,248,61204,1,0,0:0:0
108,232,61292,1,0,0:0:0
108,216,61380,1,0,0:0:0
108,200,61469,5,2,0:0:0
108,184,61557,1,0,0:0:0
108,168,61645,1,0,0:0:0
108,152,61733,1,0,0:0:0
108,136,61822,1,2,0:0:0
108,120,61910,1,0,0:0:0
108,104,61998,1,0,0:0:0
108,88,62086,1,0,0:0:0
108,72,62175,5,2,0:0:0
124,72,62263,1,0,0:0:0
140,72,62351,1,0,0:0:0
156,72,62439,1,0,0:0:0
172,72,62527,1,2,0:0:0
188,72,62616,1,0,0:0:0
204,72,62704,1,0,0:0:0
220,72,62792,1,0,0:0:0
236,72,62880,5,2,0:0:0
252,72,62969,1,0,0:0:0
268,72,63057,1,0,0:0:0
284,72,63145,1,0,0:0:0
300,72,63233,1,2,0:0:0
316,72,63322,1,0,0:0:0
332,72,63410,1,0,0:0:0
348,72,63498,1,0,0:0:0
364,72,63586,5,2,0:0:0
364,88,63674,1,0,0:0:0
364,104,63763,1,0,0:0:0
364,120,63851,1,0,0:0:0
364,136,63939,1,2,0:0:0
364,152,64027,1,0,0:0:0
364,168,64116,1,0,0:0:0
364,184,64204,1,0,0:0:0
364,200,64292,5,2,0:0:0
364,216,64380,1,0,0:0:0
364,232,64469,1,0,0:0:0
364,248,64557,1,0,0:0:0
364,264,64645,1,2,0:0:0
364,280,64733,1,0,0:0:0
364,296,64822,1,0,0:0:0
364,312,64910,1,0,0:0:0
364,328,64998,5,2,0:0:0
348,328,65086,1,0,0:0:0
332,328,65174,1,0,0:0:0
316,328,65263,1,0,0:0:0
300,328,65351,1,2,0:0:0
284,328,65439,1,0,0:0:0
268,328,65527,1,0,0:0:0
252,328,65616,1,0,0:0:0
236,328,65704,5,2,0:0:0
220,328,65792,1,0,0:0:0
204,328,65880,1,0,0:0:0
188,328,65969,1,0,0:0:0
172,328,66057,1,2,0:0:0
156,328,66145,1,0,0:0:0
140,328,66233,1,0,0:0:0
124,328,66322,1,0,0:0:0
108,328,66410,5,2,0:0:0
108,312,66498,1,0,0:0:0
108,296,66586,1,0,0:0:0
108,280,66674,1,0,0:0:0
108,264,66763,1,2,0:0:0
108,248,66851,1,0,0:0:0
108,232,66939,1,0,0:0:0
108,216,67027,1,0,0:0:0
108,200,67116,5,2,0:0:0
108,184,67204,1,0,0:0:0
108,168,67292,1,0,0:0:0
108,152,67380,1,0,0:0:0
108,136,67469,1,2,0:0:0
108,120,67557,1,0,0:0:0
108,104,67645,1,0,0:0:0
108,88,67733,1,0,0:0:0
108,72,67822,5,2,0:0:0
124,72,67910,1,0,0:0:0
140,72,67998,1,0,0:0:0
156,72,68086,1,0,0:0:0
172,72,68174,1,2,0:0:0
188,72,68263,1,0,0:0:0
204,72,68351,1,0,0:0:0
220,72,68439,1,0,0:0:0
236,72,68527,5,2,0:0:0
252,72,68616,1,0,0:0:0
268,72,68704,1,0,0:0:0
284,72,68792,1,0,0:0:0
300,72,68880,1,2,0:0:0
316,72,68969,1,0,0:0:0
332,72,69057,1,0,0:0:0
348,72,69145,1,0,0:0:0
364,72,69233,5,2,0:0:0
364,88,69321,1,0,0:0:0
364,104,69410,1,0,0:0:0
364,120,69498,1,0,0:0:0
364,136,69586,1,2,0:0:0
364,152,69674,1,0,0:0:0
364,168,69763,1,0,0:0:0
364,184,69851,1,0,0:0:0
364,200,69939,5,2,0:0:0
364,216,70027,1,0,0:0:0
364,232,70116,1,0,0:0:0
364,248,70204,1,0,0:0:0
364,264,70292,1,2,0:0:0
364,280,70380,1,0,0:0:0
364,296,70469,1,0,0:0:0
364,312,70557,1,0,0:0:0
364,328,70645,5,2,0:0:0
348,328,70733,1,0,0:0:0
332,328,70821,1,0,0:0:0
316,328,70910,1,0,0:0:0
300,328,70998,1,2,0:0:0
284,328,71086,1,0,0:0:0
268,328,71174,1,0,0:0:0
252,328,71263,1,0,0:0:0
236,328,71351,5,2,0:0:0
220,328,71439,1,0,0:0:0
204,328,71527,1,0,0:0:0
188,328,71616,1,0,0:0:0
172,328,71704,1,2,0:0:0
156,328,71792,1,0,0:0:0
140,328,71880,1,0,0:0:0
124,328,71969,1,0,0:0:0
108,328,72057,5,2,0:0:0
108,312,72145,1,0,0:0:0
108,296,72233,1,0,0:0:0
108,280,72321,1,0,0:0:0
108,264,72410,1,2,0:0:0
108,248,72498,1,0,0:0:0
108,232,72586,1,0,0:0:0
108,216,72674,1,0,0:0:0
108,200,72763,5,2,0:0:0
108,184,72851,1,0,0:0:0
108,168,72939,1,0,0:0:0
108,152,73027,1,0,0:0:0
108,136,73116,1,2,0:0:0
108,120,73204,1,0,0:0:0
108,104,73292,1,0,0:0:0
108,88,73380,1,0,0:0:0
108,72,73469,5,2,0:0:0
124,72,73557,1,0,0:0:0
140,72,73645,1,0,0:0:0
156,72,73733,1,0,0:0:0
172,72,73821,1,2,0:0:0
188,72,73910,1,0,0:0:0
204,72,73998,1,0,0:0:0
220,72,74086,1,0,0:0:0
236,72,74174,5,2,0:0:0
252,72,74263,1,0,0:0:0
268,72,74351,1,0,0:0:0
284,72,74439,1,0,0:0:0
300,72,74527,1,2,0:0:0
316,72,74616,1,0,0:0:0
332,72,74704,1,0,0:0:0
348,72,74792,1,0,0:0:0
364,72,74880,5,2,0:0:0
364,88,74968,1,0,0:0:0
364,104,75057,1,0,0:0:0
364,120,75145,1,0,0:0:0
364,136,75233,1,2,0:0:0
364,152,75321,1,0,0:0:0
364,168,75410,1,0,0:0:0
364,184,75498,1,0,0:0:0
364,200,75586,5,2,0:0:0
364,216,75674,1,0,0:0:0
364,232,75763,1,0,0:0:0
364,248,75851,1,0,0:0:0
364,264,75939,1,2,0:0:0
364,280,76027,1,0,0:0:0
364,296,76116,1,0,0:0:0
364,312,76204,1,0,0:0:0
364,328,76292,5,2,0:0:0
348,328,76380,1,0,0:0:0
332,328,76468,1,0,0:0:0
316,328,76557,1,0,0:0:0
300,328,76645,1,2,0:0:0
284,328,76733,1,0,0:0:0
268,328,76821,1,0,0:0:0
252,328,76910,1,0,0:0:0
236,328,76998,5,2,0:0:0
220,328,77086,1,0,0:0:0
204,328,77174,1,0,0:0:0
188,328,77263,1,0,0:0:0
172,328,77351,1,2,0:0:0
156,328,77439,1,0,0:0:0
140,328,77527,1,0,0:0:0
124,328,77616,1,0,0:0:0
108,328,77704,5,2,0:0:0
108,312,77792,1,0,0:0:0
108,296,77880,1,0,0:0:0
108,280,77968,1,0,0:0:0
108,264,78057,1,2,0:0:0
108,248,78145,1,0,0:0:0
108,232,78233,1,0,0:0:0
108,216,78321,1,0,0:0:0
108,200,78410,5,2,0:0:0
108,184,78498,1,0,0:0:0
108,168,78586,1,0,0:0:0
108,152,78674,1,0,0:0:0
108,136,78763,1,2,0:0:0
108,120,78851,1,0,0:0:0
108,104,78939,1,0,0:0:0
108,88,79027,1,0,0:0:0
108,72,79116,5,2,0:0:0
124,72,79204,1,0,0:0:0
140,72,79292,1,0,0:0:0
156,72,79380,1,0,0:0:0
172,72,79468,1,2,0:0:0
188,72,79557,1,0,0:0:0
204,72,79645,1,0,0:0:0
220,72,79733,1,0,0:0:0
236,72,79821,5,2,0:0:0
252,72,79910,1,0,0:0:0
268,72,79998,1,0,0:0:0
284,72,80086,1,0,0:0:0
300,72,80174,1,2,0:0:0
316,72,80263,1,0,0:0:0
332,72,80351,1,0,0:0:0
348,72,80439,1,0,0:0:0
364,72,80527,5,2,0:0:0
364,88,80615,1,0,0:0:0
364,104,80704,1,0,0:0:0
364,120,80792,1,0,0:0:0
364,136,80880,1,2,0:0:0
364,152,80968,1,0,0:0:0
364,168,81057,1,0,0:0:0
364,184,81145,1,0,0:0:0
364,200,81233,5,2,0:0:0
364,216,81321,1,0,0:0:0
364,232,81410,1,0,0:0:0
364,248,81498,1,0,0:0:0
364,264,81586,1,2,0:0:0
364,280,81674,1,0,0:0:0
364,296,81763,1,0,0:0:0
364,312,81851,1,0,0:0:0
364,328,81939,5,2,0:0:0
348,328,82027,1,0,0:0:0
332,328,82115,1,0,0:0:0
316,328,82204,1,0,0:0:0
300,328,82292,1,2,0:0:0
284,328,82380,1,0,0:0:0
268,328,82468,1,0,0:0:0
252,328,82557,1,0,0:0:0
236,328,82645,5,2,0:0:0
220,328,82733,1,0,0:0:0
204,328,82821,1,0,0:0:0
188,328,82910,1,0,0:0:0
172,328,82998,1,2,0:0:0
156,328,83086,1,0,0:0:0
140,328,83174,1,0,0:0:0
124,328,83263,1,0,0:0:0
108,328,83351,5,2,0:0:0
108,312,83439,1,0,0:0:0
108,296,83527,1,0,0:0:0
108,280,83615,1,0,0:0:0
108,264,83704,1,2,0:0:0
108,248,83792,1,0,0:0:0
108,232,83880,1,0,0:0:0
108,216,83968,1,0,0:0:0
108,200,84057,5,2,0:0:0
108,184,84145,1,0,0:0:0
108,168,84233,1,0,0:0:0
108,152,84321,1,0,0:0:0
108,136,84410,1,2,0:0:0
108,120,84498,1,0,0:0:0
108,104,84586,1,0,0:0:0
108,88,84674,1,0,0:0:0
108,72,84763,5,2,0:0:0
124,72,84851,1,0,0:0:0
140,72,84939,1,0,0:0:0
156,72,85027,1,0,0:0:0
172,72,85115,1,2,0:0:0
188,72,85204,1,0,0:0:0
204,72,85292,1,0,0:0:0
220,72,85380,1,0,0:0:0
236,72,85468,5,2,0:0:0
252,72,85557,1,0,0:0:0
268,72,85645,1,0,0:0:0
284,72,85733,1,0,0:0:0
300,72,85821,1,2,0:0:0
316,72,85910,1,0,0:0:0
332,72,85998,1,0,0:0:0
348,72,86086,1,0,0:0:0
364,72,86174,5,2,0:0:0
364,88,86262,1,0,0:0:0
364,104,86351,1,0,0:0:0
364,120,86439,1,0,0:0:0
364,136,86527,1,2,0:0:0
364,152,86615,1,0,0:0:0
364,168,86704,1,0,0:0:0
364,184,86792,1,0,0:0:0
364,200,86880,5,2,0:0:0
364,216,86968,1,0,0:0:0
364,232,87057,1,0,0:0:0
364,248,87145,1,0,0:0:0
364,264,87233,1,2,0:0:0
364,280,87321,1,0,0:0:0
364,296,87410,1,0,0:0:0
364,312,87498,1,0,0:0:0
364,328,87586,5,2,0:0:0
348,328,87674,1,0,0:0:0
332,328,87762,1,0,0:0:0
316,328,87851,1,0,0:0:0
300,328,87939,1,2,0:0:0
284,328,88027,1,0,0:0:0
268,328,88115,1,0,0:0:0
252,328,88204,1,0,0:0:0
236,328,88292,5,2,0:0:0
220,328,88380,1,0,0:0:0
204,328,88468,1,0,0:0:0
188,328,88557,1,0,0:0:0
172,328,88645,1,2,0:0:0
156,328,88733,1,0,0:0:0
140,328,88821,1,0,0:0:0
124,328,88910,1,0,0:0:0
108,328,88998,5,2,0:0:0
108,312,89086,1,0,0:0:0
108,296,89174,1,0,0:0:0
108,280,89262,1,0,0:0:0
108,264,89351,1,2,0:0:0
108,248,89439,1,0,0:0:0
108,232,89527,1,0,0:0:0
108,216,89615,1,0,0:0:0
108,200,89704,5,2,0:0:0
108,184,89792,1,0,0:0:0
108,168,89880,1,0,0:0:0
108,152,89968,1,0,0:0:0
108,136,90057,1,2,0:0:0
108,120,90145,1,0,0:0:0
108,104,90233,1,0,0:0:0
108,88,90321,1,0,0:0:0
108,72,90410,5,2,0:0:0
124,72,90498,1,0,0:0:0
140,72,90586,1,0,0:0:0
156,72,90674,1,0,0:0:0
172,72,90762,1,2,0:0:0
188,72,90851,1,0,0:0:0
204,72,90939,1,0,0:0:0
220,72,91027,1,0,0:0:0
236,72,91115,5,2,0:0:0
252,72,91204,1,0,0:0:0
268,72,91292,1,0,0:0:0
284,72,91380,1,0,0:0:0
300,72,91468,1,2,0:0:0
316,72,91557,1,0,0:0:0
332,72,91645,1,0,0:0:0
348,72,91733,1,0,0:0:0
364,72,91821,5,2,0:0:0
364,88,91909,1,0,0:0:0
364,104,91998,1,0,0:0:0
364,120,92086,1,0,0:0:0
364,136,92174,1,2,0:0:0
364,152,92262,1,0,0:0:0
364,168,92351,1,0,0:0:0
364,184,92439,1,0,0:0:0
364,200,92527,5,2,0:0:0
364,216,92615,1,0,0:0:0
364,232,92704,1,0,0:0:0
364,248,92792,1,0,0:0:0
364,264,92880,1,2,0:0:0
364,280,92968,1,0,0:0:0
364,296,93057,1,0,0:0:0
364,312,93145,1,0,0:0:0
364,328,93233,5,2,0:0:0
348,328,93321,1,0,0:0:0
332,328,93409,1,0,0:0:0
316,328,93498,1,0,0:0:0
300,328,93586,1,2,0:0:0
284,328,93674,1,0,0:0:0
268,328,93762,1,0,0:0:0
252,328,93851,1,0,0:0:0
236,328,93939,5,2,0:0:0
220,328,94027,1,0,0:0:0
204,328,94115,1,0,0:0:0
188,328,94204,1,0,0:0:0
172,328,94292,1,2,0:0:0
156,328,94380,1,0,0:0:0
140,328,94468,1,0,0:0:0
124,328,94557,1,0,0:0:0
108,328,94645,5,2,0:0:0
108,312,94733,1,0,0:0:0
108,296,94821,1,0,0:0:0
108,280,94909,1,0,0:0:0
108,264,94998,1,2,0:0:0
108,248,95086,1,0,0:0:0
108,232,95174,1,0,0:0:0
108,216,95262,1,0,0:0:0
108,200,95351,5,2,0:0:0
108,184,95439,1,0,0:0:0
108,168,95527,1,0,0:0:0
108,152,95615,1,0,0:0:0
108,136,95704,1,2,0:0:0
108,120,95792,1,0,0:0:0
108,104,95880,1,0,0:0:0
108,88,95968,1,0,0:0:0
108,72,96057,1,2,0:0:0
108,72,101705,5,2,0:0:0
124,72,101793,1,0,0:0:0
140,72,101881,1,0,0:0:0
156,72,101969,1,0,0:0:0
172,72,102057,1,2,0:0:0
188,72,102146,1,0,0:0:0
204,72,102234,1,0,0:0:0
220,72,102322,1,0,0:0:0
236,72,102410,5,2,0:0:0
252,72,102499,1,0,0:0:0
268,72,102587,1,0,0:0:0
284,72,102675,1,0,0:0:0
300,72,102763,1,2,0:0:0
316,72,102852,1,0,0:0:0
332,72,102940,1,0,0:0:0
348,72,103028,1,0,0:0:0
364,72,103116,5,2,0:0:0
364,88,103204,1,0,0:0:0
364,104,103293,1,0,0:0:0
364,120,103381,1,0,0:0:0
364,136,103469,1,2,0:0:0
364,152,103557,1,0,0:0:0
364,168,103646,1,0,0:0:0
364,184,103734,1,0,0:0:0
364,200,103822,5,2,0:0:0
364,216,103910,1,0,0:0:0
364,232,103999,1,0,0:0:0
364,248,104087,1,0,0:0:0
364,264,104175,1,2,0:0:0
364,280,104263,1,0,0:0:0
364,296,104352,1,0,0:0:0
364,312,104440,1,0,0:0:0
364,328,104528,5,2,0:0:0
348,328,104616,1,0,0:0:0
332,328,104704,1,0,0:0:0
316,328,104793,1,0,0:0:0
300,328,104881,1,2,0:0:0
284,328,104969,1,0,0:0:0
268,328,105057,1,0,0:0:0
252,328,105146,1,0,0:0:0
236,328,105234,5,2,0:0:0
220,328,105322,1,0,0:0:0
204,328,105410,1,0,0:0:0
188,328,105499,1,0,0:0:0
172,328,105587,1,2,0:0:0
156,328,105675,1,0,0:0:0
140,328,105763,1,0,0:0:0
124,328,105852,1,0,0:0:0
108,328,105940,5,2,0:0:0
108,312,106028,1,0,0:0:0
108,296,106116,1,0,0:0:0
108,280,106204,1,0,0:0:0
108,264,106293,1,2,0:0:0
108,248,106381,1,0,0:0:0
108,232,106469,1,0,0:0:0
108,216,106557,1,0,0:0:0
108,200,106646,5,2,0:0:0
108,184,106734,1,0,0:0:0
108,168,106822,1,0,0:0:0
108,152,106910,1,0,0:0:0
108,136,106999,1,2,0:0:0
108,120,107087,1,0,0:0:0
108,104,107175,1,0,0:0:0
108,88,107263,1,0,0:0:0
108,72,107352,5,2,0:0:0
124,72,107440,1,0,0:0:0
140,72,107528,1,0,0:0:0
156,72,107616,1,0,0:0:0
172,72,107704,1,2,0:0:0
188,72,107793,1,0,0:0:0
204,72,107881,1,0,0:0:0
220,72,107969,1,0,0:0:0
236,72,108057,5,2,0:0:0
252,72,108146,1,0,0:0:0
268,72,108234,1,0,0:0:0
284,72,108322,1,0,0:0:0
300,72,108410,1,2,0:0:0
316,72,108499,1,0,0:0:0
332,72,108587,1,0,0:0:0
348,72,108675,1,0,0:0:0
364,72,108763,5,2,0:0:0
364,88,108851,1,0,0:0:0
364,104,108940,1,0,0:0:0
364,120,109028,1,0,0:0:0
364,136,109116,1,2,0:0:0
364,152,109204,1,0,0:0:0
364,168,109293,1,0,0:0:0
364,184,109381,1,0,0:0:0
364,200,109469,5,2,0:0:0
364,216,109557,1,0,0:0:0
364,232,109646,1,0,0:0:0
364,248,109734,1,0,0:0:0
364,264,109822,1,2,0:0:0
364,280,109910,1,0,0:0:0
364,296,109999,1,0,0:0:0
364,312,110087,1,0,0:0:0
364,328,110175,5,2,0:0:0
348,328,110263,1,0,0:0:0
332,328,110351,1,0,0:0:0
316,328,110440,1,0,0:0:0
300,328,110528,1,2,0:0:0
284,328,110616,1,0,0:0:0
268,328,110704,1,0,0:0:0
252,328,110793,1,0,0:0:0
236,328,110881,5,2,0:0:0
220,328,110969,1,0,0:0:0
204,328,111057,1,0,0:0:0
188,328,111146,1,0,0:0:0
172,328,111234,1,2,0:0:0
156,328,111322,1,0,0:0:0
140,328,111410,1,0,0:0:0
124,328,111499,1,0,0:0:0
108,328,111587,5,2,0:0:0
108,312,111675,1,0,0:0:0
108,296,111763,1,0,0:0:0
108,280,111851,1,0,0:0:0
108,264,111940,1,2,0:0:0
108,248,112028,1,0,0:0:0
108,232,112116,1,0,0:0:0
108,216,112204,1,0,0:0:0
108,200,112293,5,2,0:0:0
108,184,112381,1,0,0:0:0
108,168,112469,1,0,0:0:0
108,152,112557,1,0,0:0:0
108,136,112646,1,2,0:0:0
108,120,112734,1,0,0:0:0
108,104,112822,1,0,0:0:0
108,88,112910,1,0,0:0:0
108,72,112999,5,2,0:0:0
124,72,113087,1,0,0:0:0
140,72,113175,1,0,0:0:0
156,72,113263,1,0,0:0:0
172,72,113351,1,2,0:0:0
188,72,113440,1,0,0:0:0
204,72,113528,1,0,0:0:0
220,72,113616,1,0,0:0:0
236,72,113704,5,2,0:0:0
252,72,113793,1,0,0:0:0
268,72,113881,1,0,0:0:0
284,72,113969,1,0,0:0:0
300,72,114057,1,2,0:0:0
316,72,114146,1,0,0:0:0
332,72,114234,1,0,0:0:0
348,72,114322,1,0,0:0:0
364,72,114410,5,2,0:0:0
364,88,114498,1,0,0:0:0
364,104,114587,1,0,0:0:0
364,120,114675,1,0,0:0:0
364,136,114763,1,2,0:0:0
364,152,114851,1,0,0:0:0
364,168,114940,1,0,0:0:0
364,184,115028,1,0,0:0:0
364,200,115116,5,2,0:0:0
364,216,115204,1,0,0:0:0
364,232,115293,1,0,0:0:0
364,248,115381,1,0,0:0:0
364,264,115469,1,2,0:0:0
364,280,115557,1,0,0:0:0
364,296,115646,1,0,0:0:0
364,312,115734,1,0,0:0:0
364,328,115822,5,2,0:0:0
348,328,115910,1,0,0:0:0
332,328,115998,1,0,0:0:0
316,328,116087,1,0,0:0:0
300,328,116175,1,2,0:0:0
284,328,116263,1,0,0:0:0
268,328,116351,1,0,0:0:0
252,328,116440,1,0,0:0:0
236,328,116528,5,2,0:0:0
220,328,116616,1,0,0:0:0
204,328,116704,1,0,0:0:0
188,328,116793,1,0,0:0:0
172,328,116881,1,2,0:0:0
156,328,116969,1,0,0:0:0
140,328,117057,1,0,0:0:0
124,328,117146,1,0,0:0:0
108,328,117234,5,2,0:0:0
108,312,117322,1,0,0:0:0
108,296,117410,1,0,0:0:0
108,280,117498,1,0,0:0:0
108,264,117587,1,2,0:0:0
108,248,117675,1,0,0:0:0
108,232,117763,1,0,0:0:0
108,216,117851,1,0,0:0:0
108,200,117940,5,2,0:0:0
108,184,118028,1,0,0:0:0
108,168,118116,1,0,0:0:0
108,152,118204,1,0,0:0:0
108,136,118293,1,2,0:0:0
108,120,118381,1,0,0:0:0
108,104,118469,1,0,0:0:0
108,88,118557,1,0,0:0:0
108,72,118646,5,2,0:0:0
124,72,118734,1,0,0:0:0
140,72,118822,1,0,0:0:0
156,72,118910,1,0,0:0:0
172,72,118998,1,2,0:0:0
188,72,119087,1,0,0:0:0
204,72,119175,1,0,0:0:0
220,72,119263,1,0,0:0:0
236,72,119351,5,2,0:0:0
252,72,119440,1,0,0:0:0
268,72,119528,1,0,0:0:0
284,72,119616,1,0,0:0:0
300,72,119704,1,2,0:0:0
316,72,119793,1,0,0:0:0
332,72,119881,1,0,0:0:0
348,72,119969,1,0,0:0:0
364,72,120057,5,2,0:0:0
364,88,120145,1,0,0:0:0
364,104,120234,1,0,0:0:0
364,120,120322,1,0,0:0:0
364,136,120410,1,2,0:0:0
364,152,120498,1,0,0:0:0
364,168,120587,1,0,0:0:0
364,184,120675,1,0,0:0:0
364,200,120763,5,2,0:0:0
364,216,120851,1,0,0:0:0
364,232,120940,1,0,0:0:0
364,248,121028,1,0,0:0:0
364,264,121116,1,2,0:0:0
364,280,121204,1,0,0:0:0
364,296,121293,1,0,0:0:0
364,312,121381,1,0,0:0:0
364,328,121469,5,2,0:0:0
348,328,121557,1,0,0:0:0
332,328,121645,1,0,0:0:0
316,328,121734,1,0,0:0:0
300,328,121822,1,2,0:0:0
284,328,121910,1,0,0:0:0
268,328,121998,1,0,0:0:0
252,328,122087,1,0,0:0:0
236,328,122175,5,2,0:0:0
220,328,122263,1,0,0:0:0
204,328,122351,1,0,0:0:0
188,328,122440,1,0,0:0:0
172,328,122528,1,2,0:0:0
156,328,122616,1,0,0:0:0
140,328,122704,1,0,0:0:0
124,328,122793,1,0,0:0:0
108,328,122881,5,2,0:0:0
108,312,122969,1,0,0:0:0
108,296,123057,1,0,0:0:0
108,280,123145,1,0,0:0:0
108,264,123234,1,2,0:0:0
108,248,123322,1,0,0:0:0
108,232,123410,1,0,0:0:0
108,216,123498,1,0,0:0:0
108,200,123587,5,2,0:0:0
108,184,123675,1,0,0:0:0
108,168,123763,1,0,0:0:0
108,152,123851,1,0,0:0:0
108,136,123940,1,2,0:0:0
108,120,124028,1,0,0:0:0
108,104,124116,1,0,0:0:0
108,88,124204,1,0,0:0:0
108,72,124293,5,2,0:0:0
124,72,124381,1,0,0:0:0
140,72,124469,1,0,0:0:0
156,72,124557,1,0,0:0:0
172,72,124645,1,2,0:0:0
188,72,124734,1,0,0:0:0
204,72,124822,1,0,0:0:0
220,72,124910,1,0,0:0:0
236,72,124998,5,2,0:0:0
252,72,125087,1,0,0:0:0
268,72,125175,1,0,0:0:0
284,72,125263,1,0,0:0:0
300,72,125351,1,2,0:0:0
316,72,125440,1,0,0:0:0
332,72,125528,1,0,0:0:0
348,72,125616,1,0,0:0:0
364,72,125704,5,2,0:0:0
364,88,125792,1,0,0:0:0
364,104,125881,1,0,0:0:0
364,120,125969,1,0,0:0:0
364,136,126057,1,2,0:0:0
364,152,126145,1,0,0:0:0
364,168,126234,1,0,0:0:0
364,184,126322,1,0,0:0:0
364,200,126410,5,2,0:0:0
364,216,126498,1,0,0:0:0
364,232,126587,1,0,0:0:0
364,248,126675,1,0,0:0:0
364,264,126763,1,2,0:0:0
364,280,126851,1,0,0:0:0
364,296,126940,1,0,0:0:0
364,312,127028,1,0,0:0:0
364,328,127116,5,2,0:0:0
348,328,127204,1,0,0:0:0
332,328,127292,1,0,0:0:0
316,328,127381,1,0,0:0:0
300,328,127469,1,2,0:0:0
284,328,127557,1,0,0:0:0
268,328,127645,1,0,0:0:0
252,328,127734,1,0,0:0:0
236,328,127822,5,2,0:0:0
220,328,127910,1,0,0:0:0
204,328,127998,1,0,0:0:0
188,328,128087,1,0,0:0:0
172,328,128175,1,2,0:0:0
156,328,128263,1,0,0:0:0
140,328,128351,1,0,0:0:0
124,328,128440,1,0,0:0:0
108,328,128528,5,2,0:0:0
108,312,128616,1,0,0:0:0
108,296,128704,1,0,0:0:0
108,280,128792,1,0,0:0:0
108,264,128881,1,2,0:0:0
108,248,128969,1,0,0:0:0
108,232,129057,1,0,0:0:0
108,216,129145,1,0,0:0:0
108,200,129234,5,2,0:0:0
108,184,129322,1,0,0:0:0
108,168,129410,1,0,0:0:0
108,152,129498,1,0,0:0:0
108,136,129587,1,2,0:0:0
108,120,129675,1,0,0:0:0
108,104,129763,1,0,0:0:0
108,88,129851,1,0,0:0:0
108,72,129940,5,2,0:0:0
124,72,130028,1,0,0:0:0
140,72,130116,1,0,0:0:0
156,72,130204,1,0,0:0:0
172,72,130292,1,2,0:0:0
188,72,130381,1,0,0:0:0
204,72,130469,1,0,0:0:0
220,72,130557,1,0,0:0:0
236,72,130645,5,2,0:0:0
252,72,130734,1,0,0:0:0
268,72,130822,1,0,0:0:0
284,72,130910,1,0,0:0:0
300,72,130998,1,2,0:0:0
316,72,131087,1,0,0:0:0
332,72,131175,1,0,0:0:0
348,72,131263,1,0,0:0:0
364,72,131351,5,2,0:0:0
364,88,131439,1,0,0:0:0
364,104,131528,1,0,0:0:0
364,120,131616,1,0,0:0:0
364,136,131704,1,2,0:0:0
364,152,131792,1,0,0:0:0
364,168,131881,1,0,0:0:0
364,184,131969,1,0,0:0:0
364,200,132057,5,2,0:0:0
364,216,132145,1,0,0:0:0
364,232,132234,1,0,0:0:0
364,248,132322,1,0,0:0:0
364,264,132410,1,2,0:0:0
364,280,132498,1,0,0:0:0
364,296,132587,1,0,0:0:0
364,312,132675,1,0,0:0:0
364,328,132763,5,2,0:0:0
348,328,132851,1,0,0:0:0
332,328,132939,1,0,0:0:0
316,328,133028,1,0,0:0:0
300,328,133116,1,2,0:0:0
284,328,133204,1,0,0:0:0
268,328,133292,1,0,0:0:0
252,328,133381,1,0,0:0:0
236,328,133469,5,2,0:0:0
220,328,133557,1,0,0:0:0
204,328,133645,1,0,0:0:0
188,328,133734,1,0,0:0:0
172,328,133822,1,2,0:0:0
156,328,133910,1,0,0:0:0
140,328,133998,1,0,0:0:0
124,328,134087,1,0,0:0:0
108,328,134175,5,2,0:0:0
108,312,134263,1,0,0:0:0
108,296,134351,1,0,0:0:0
108,280,134439,1,0,0:0:0
108,264,134528,1,2,0:0:0
108,248,134616,1,0,0:0:0
108,232,134704,1,0,0:0:0
108,216,134792,1,0,0:0:0
108,200,134881,5,2,0:0:0
108,184,134969,1,0,0:0:0
108,168,135057,1,0,0:0:0
108,152,135145,1,0,0:0:0
108,136,135234,1,2,0:0:0
108,120,135322,1,0,0:0:0
108,104,135410,1,0,0:0:0
108,88,135498,1,0,0:0:0
108,72,135587,5,2,0:0:0
124,72,135675,1,0,0:0:0
140,72,135763,1,0,0:0:0
156,72,135851,1,0,0:0:0
172,72,135939,1,2,0:0:0
188,72,136028,1,0,0:0:0
204,72,136116,1,0,0:0:0
220,72,136204,1,0,0:0:0
236,72,136292,5,2,0:0:0
252,72,136381,1,0,0:0:0
268,72,136469,1,0,0:0:0
284,72,136557,1,0,0:0:0
300,72,136645,1,2,0:0:0
316,72,136734,1,0,0:0:0
332,72,136822,1,0,0:0:0
348,72,136910,1,0,0:0:0
364,72,136998,5,2,0:0:0
364,88,137086,1,0,0:0:0
364,104,137175,1,0,0:0:0
364,120,137263,1,0,0:0:0
364,136,137351,1,2,0:0:0
364,152,137439,1,0,0:0:0
364,168,137528,1,0,0:0:0
364,184,137616,1,0,0:0:0
364,200,137704,5,2,0:0:0
364,216,137792,1,0,0:0:0
364,232,137881,1,0,0:0:0
364,248,137969,1,0,0:0:0
364,264,138057,1,2,0:0:0
364,280,138145,1,0,0:0:0
364,296,138234,1,0,0:0:0
364,312,138322,1,0,0:0:0
364,328,138410,5,2,0:0:0
348,328,138498,1,0,0:0:0
332,328,138586,1,0,0:0:0
316,328,138675,1,0,0:0:0
300,328,138763,1,2,0:0:0
284,328,138851,1,0,0:0:0
268,328,138939,1,0,0:0:0
252,328,139028,1,0,0:0:0
236,328,139116,5,2,0:0:0
220,328,139204,1,0,0:0:0
204,328,139292,1,0,0:0:0
188,328,139381,1,0,0:0:0
172,328,139469,1,2,0:0:0
156,328,139557,1,0,0:0:0
140,328,139645,1,0,0:0:0
124,328,139734,1,0,0:0:0
108,328,139822,5,2,0:0:0
108,312,139910,1,0,0:0:0
108,296,139998,1,0,0:0:0
108,280,140086,1,0,0:0:0
108,264,140175,1,2,0:0:0
108,248,140263,1,0,0:0:0
108,232,140351,1,0,0:0:0
108,216,140439,1,0,0:0:0
108,200,140528,5,2,0:0:0
108,184,140616,1,0,0:0:0
108,168,140704,1,0,0:0:0
108,152,140792,1,0,0:0:0
108,136,140881,1,2,0:0:0
108,120,140969,1,0,0:0:0
108,104,141057,1,0,0:0:0
108,88,141145,1,0,0:0:0
108,72,141234,5,2,0:0:0
124,72,141322,1,0,0:0:0
140,72,141410,1,0,0:0:0
156,72,141498,1,0,0:0:0
172,72,141586,1,2,0:0:0
188,72,141675,1,0,0:0:0
204,72,141763,1,0,0:0:0
220,72,141851,1,0,0:0:0
236,72,141939,5,2,0:0:0
252,72,142028,1,0,0:0:0
268,72,142116,1,0,0:0:0
284,72,142204,1,0,0:0:0
300,72,142292,1,2,0:0:0
316,72,142381,1,0,0:0:0
332,72,142469,1,0,0:0:0
348,72,142557,1,0,0:0:0
364,72,142645,5,2,0:0:0
364,88,142733,1,0,0:0:0
364,104,142822,1,0,0:0:0
364,120,142910,1,0,0:0:0
364,136,142998,1,2,0:0:0
364,152,143086,1,0,0:0:0
364,168,143175,1,0,0:0:0
364,184,143263,1,0,0:0:0
364,200,143351,5,2,0:0:0
364,216,143439,1,0,0:0:0
364,232,143528,1,0,0:0:0
364,248,143616,1,0,0:0:0
364,264,143704,1,2,0:0:0
364,280,143792,1,0,0:0:0
364,296,143881,1,0,0:0:0
364,312,143969,1,0,0:0:0
364,328,144057,5,2,0:0:0
348,328,144145,1,0,0:0:0
332,328,144233,1,0,0:0:0
316,328,144322,1,0,0:0:0
300,328,144410,1,2,0:0:0
284,328,144498,1,0,0:0:0
268,328,144586,1,0,0:0:0
252,328,144675,1,0,0:0:0
236,328,144763,5,2,0:0:0
220,328,144851,1,0,0:0:0
204,328,144939,1,0,0:0:0
188,328,145028,1,0,0:0:0
172,328,145116,1,2,0:0:0
156,328,145204,1,0,0:0:0
140,328,145292,1,0,0:0:0
124,328,145381,1,0,0:0:0
108,328,145469,5,2,0:0:0
108,312,145557,1,0,0:0:0
108,296,145645,1,0,0:0:0
108,280,145733,1,0,0:0:0
108,264,145822,1,2,0:0:0
108,248,145910,1,0,0:0:0
108,232,145998,1,0,0:0:0
108,216,146086,1,0,0:0:0
108,200,146175,5,2,0:0:0
108,184,146263,1,0,0:0:0
108,168,146351,1,0,0:0:0
108,152,146439,1,0,0:0:0
108,136,146528,1,2,0:0:0
108,120,146616,1,0,0:0:0
108,104,146704,1,0,0:0:0
108,88,146792,1,0,0:0:0
108,72,146881,5,2,0:0:0
124,72,146969,1,0,0:0:0
140,72,147057,1,0,0:0:0
156,72,147145,1,0,0:0:0
172,72,147233,1,2,0:0:0
188,72,147322,1,0,0:0:0
204,72,147410,1,0,0:0:0
220,72,147498,1,0,0:0:0
236,72,147586,5,2,0:0:0
252,72,147675,1,0,0:0:0
268,72,147763,1,0,0:0:0
284,72,147851,1,0,0:0:0
300,72,147939,1,2,0:0:0
316,72,148028,1,0,0:0:0
332,72,148116,1,0,0:0:0
348,72,148204,1,0,0:0:0
364,72,148292,5,2,0:0:0
364,88,148380,1,0,0:0:0
364,104,148469,1,0,0:0:0
364,120,148557,1,0,0:0:0
364,136,148645,1,2,0:0:0
364,152,148733,1,0,0:0:0
364,168,148822,1,0,0:0:0
364,184,148910,1,0,0:0:0
364,200,148998,5,2,0:0:0
364,216,149086,1,0,0:0:0
364,232,149175,1,0,0:0:0
364,248,149263,1,0,0:0:0
364,264,149351,1,2,0:0:0
364,280,149439,1,0,0:0:0
364,296,149528,1,0,0:0:0
364,312,149616,1,0,0:0:0
364,328,149704,5,2,0:0:0
348,328,149792,1,0,0:0:0
332,328,149880,1,0,0:0:0
316,328,149969,1,0,0:0:0
300,328,150057,1,2,0:0:0
284,328,150145,1,0,0:0:0
268,328,150233,1,0,0:0:0
252,328,150322,1,0,0:0:0
236,328,150410,5,2,0:0:0
220,328,150498,1,0,0:0:0
204,328,150586,1,0,0:0:0
188,328,150675,1,0,0:0:0
172,328,150763,1,2,0:0:0
156,328,150851,1,0,0:0:0
140,328,150939,1,0,0:0:0
124,328,151028,1,0,0:0:0
108,328,151116,5,2,0:0:0
108,312,151204,1,0,0:0:0
108,296,151292,1,0,0:0:0
108,280,151380,1,0,0:0:0
108,264,151469,1,2,0:0:0
108,248,151557,1,0,0:0:0
108,232,151645,1,0,0:0:0
108,216,151733,1,0,0:0:0
108,200,151822,5,2,0:0:0
108,184,151910,1,0,0:0:0
108,168,151998,1,0,0:0:0
108,152,152086,1,0,0:0:0
108,136,152175,1,2,0:0:0
108,120,152263,1,0,0:0:0
108,104,152351,1,0,0:0:0
108,88,152439,1,0,0:0:0
108,72,152528,5,2,0:0:0
124,72,152616,1,0,0:0:0
140,72,152704,1,0,0:0:0
156,72,152792,1,0,0:0:0
172,72,152880,1,2,0:0:0
188,72,152969,1,0,0:0:0
204,72,153057,1,0,0:0:0
220,72,153145,1,0,0:0:0
236,72,153233,5,2,0:0:0
252,72,153322,1,0,0:0:0
268,72,153410,1,0,0:0:0
284,72,153498,1,0,0:0:0
300,72,153586,1,2,0:0:0
316,72,153675,1,0,0:0:0
332,72,153763,1,0,0:0:0
348,72,153851,1,0,0:0:0
364,72,153939,5,2,0:0:0
364,88,154027,1,0,0:0:0
364,104,154116,1,0,0:0:0
364,120,154204,1,0,0:0:0
364,136,154292,1,2,0:0:0
364,152,154380,1,0,0:0:0
364,168,154469,1,0,0:0:0
364,184,154557,1,0,0:0:0
364,200,154645,5,2,0:0:0
364,216,154733,1,0,0:0:0
364,232,154822,1,0,0:0:0
364,248,154910,1,0,0:0:0
364,264,154998,1,2,0:0:0
364,280,155086,1,0,0:0:0
364,296,155175,1,0,0:0:0
364,312,155263,1,0,0:0:0
364,328,155351,5,2,0:0:0
348,328,155439,1,0,0:0:0
332,328,155527,1,0,0:0:0
316,328,155616,1,0,0:0:0
300,328,155704,1,2,0:0:0
284,328,155792,1,0,0:0:0
268,328,155880,1,0,0:0:0
252,328,155969,1,0,0:0:0
236,328,156057,5,2,0:0:0
220,328,156145,1,0,0:0:0
204,328,156233,1,0,0:0:0
188,328,156322,1,0,0:0:0
172,328,156410,1,2,0:0:0
156,328,156498,1,0,0:0:0
140,328,156586,1,0,0:0:0
124,328,156675,1,0,0:0:0
108,328,156763,5,2,0:0:0
108,312,156851,1,0,0:0:0
108,296,156939,1,0,0:0:0
108,280,157027,1,0,0:0:0
108,264,157116,1,2,0:0:0
108,248,157204,1,0,0:0:0
108,232,157292,1,0,0:0:0
108,216,157380,1,0,0:0:0
108,200,157469,5,2,0:0:0
108,184,157557,1,0,0:0:0
108,168,157645,1,0,0:0:0
108,152,157733,1,0,0:0:0
108,136,157822,1,2,0:0:0
108,120,157910,1,0,0:0:0
108,104,157998,1,0,0:0:0
108,88,158086,1,0,0:0:0
108,72,158175,5,2,0:0:0
124,72,158263,1,0,0:0:0
140,72,158351,1,0,0:0:0
156,72,158439,1,0,0:0:0
172,72,158527,1,2,0:0:0
188,72,158616,1,0,0:0:0
204,72,158704,1,0,0:0:0
220,72,158792,1,0,0:0:0
236,72,158880,5,2,0:0:0
252,72,158969,1,0,0:0:0
268,72,159057,1,0,0:0:0
284,72,159145,1,0,0:0:0
300,72,159233,1,2,0:0:0
316,72,159322,1,0,0:0:0
332,72,159410,1,0,0:0:0
348,72,159498,1,0,0:0:0
364,72,159586,5,2,0:0:0
364,88,159674,1,0,0:0:0
364,104,159763,1,0,0:0:0
364,120,159851,1,0,0:0:0
364,136,159939,1,2,0:0:0
364,152,160027,1,0,0:0:0
364,168,160116,1,0,0:0:0
364,184,160204,1,0,0:0:0
364,200,160292,5,2,0:0:0
364,216,160380,1,0,0:0:0
364,232,160469,1,0,0:0:0
364,248,160557,1,0,0:0:0
364,264,160645,1,2,0:0:0
364,280,160733,1,0,0:0:0
364,296,160822,1,0,0:0:0
364,312,160910,1,0,0:0:0
364,328,160998,5,2,0:0:0
348,328,161086,1,0,0:0:0
332,328,161174,1,0,0:0:0
316,328,161263,1,0,0:0:0
300,328,161351,1,2,0:0:0
284,328,161439,1,0,0:0:0
268,328,161527,1,0,0:0:0
252,328,161616,1,0,0:0:0
236,328,161704,5,2,0:0:0
220,328,161792,1,0,0:0:0
204,328,161880,1,0,0:0:0
188,328,161969,1,0,0:0:0
172,328,162057,1,2,0:0:0
156,328,162145,1,0,0:0:0
140,328,162233,1,0,0:0:0
124,328,162322,1,0,0:0:0
108,328,162410,5,2,0:0:0
108,312,162498,1,0,0:0:0
108,296,162586,1,0,0:0:0
108,280,162674,1,0,0:0:0
108,264,162763,1,2,0:0:0
108,248,162851,1,0,0:0:0
108,232,162939,1,0,0:0:0
108,216,163027,1,0,0:0:0
108,200,163116,5,2,0:0:0
108,184,163204,1,0,0:0:0
108,168,163292,1,0,0:0:0
108,152,163380,1,0,0:0:0
108,136,163469,1,2,0:0:0
108,120,163557,1,0,0:0:0
108,104,163645,1,0,0:0:0
108,88,163733,1,0,0:0:0
108,72,163822,5,2,0:0:0
124,72,163910,1,0,0:0:0
140,72,163998,1,0,0:0:0
156,72,164086,1,0,0:0:0
172,72,164174,1,2,0:0:0
188,72,164263,1,0,0:0:0
204,72,164351,1,0,0:0:0
220,72,164439,1,0,0:0:0
236,72,164527,5,2,0:0:0
252,72,164616,1,0,0:0:0
268,72,164704,1,0,0:0:0
284,72,164792,1,0,0:0:0
300,72,164880,1,2,0:0:0
316,72,164969,1,0,0:0:0
332,72,165057,1,0,0:0:0
348,72,165145,1,0,0:0:0
364,72,165233,5,2,0:0:0
364,88,165321,1,0,0:0:0
364,104,165410,1,0,0:0:0
364,120,165498,1,0,0:0:0
364,136,165586,1,2,0:0:0
364,152,165674,1,0,0:0:0
364,168,165763,1,0,0:0:0
364,184,165851,1,0,0:0:0
364,200,165939,5,2,0:0:0
364,216,166027,1,0,0:0:0
364,232,166116,1,0,0:0:0
364,248,166204,1,0,0:0:0
364,264,166292,1,2,0:0:0
364,280,166380,1,0,0:0:0
364,296,166469,1,0,0:0:0
364,312,166557,1,0,0:0:0
364,328,166645,5,2,0:0:0
348,328,166733,1,0,0:0:0
332,328,166821,1,0,0:0:0
316,328,166910,1,0,0:0:0
300,328,166998,1,2,0:0:0
284,328,167086,1,0,0:0:0
268,328,167174,1,0,0:0:0
252,328,167263,1,0,0:0:0
236,328,167351,5,2,0:0:0
220,328,167439,1,0,0:0:0
204,328,167527,1,0,0:0:0
188,328,167616,1,0,0:0:0
172,328,167704,1,2,0:0:0
156,328,167792,1,0,0:0:0
140,328,167880,1,0,0:0:0
124,328,167969,1,0,0:0:0
108,328,168057,5,2,0:0:0
108,312,168145,1,0,0:0:0
108,296,168233,1,0,0:0:0
108,280,168321,1,0,0:0:0
108,264,168410,1,2,0:0:0
108,248,168498,1,0,0:0:0
108,232,168586,1,0,0:0:0
108,216,168674,1,0,0:0:0
108,200,168763,5,2,0:0:0
108,184,168851,1,0,0:0:0
108,168,168939,1,0,0:0:0
108,152,169027,1,0,0:0:0
108,136,169116,1,2,0:0:0
108,120,169204,1,0,0:0:0
108,104,169292,1,0,0:0:0
108,88,169380,1,0,0:0:0
108,72,169469,5,2,0:0:0
124,72,169557,1,0,0:0:0
140,72,169645,1,0,0:0:0
156,72,169733,1,0,0:0:0
172,72,169821,1,2,0:0:0
188,72,169910,1,0,0:0:0
204,72,169998,1,0,0:0:0
220,72,170086,1,0,0:0:0
236,72,170174,5,2,0:0:0
252,72,170263,1,0,0:0:0
268,72,170351,1,0,0:0:0
284,72,170439,1,0,0:0:0
300,72,170527,1,2,0:0:0
316,72,170616,1,0,0:0:0
332,72,170704,1,0,0:0:0
348,72,170792,1,0,0:0:0
364,72,170880,5,2,0:0:0
364,88,170968,1,0,0:0:0
364,104,171057,1,0,0:0:0
364,120,171145,1,0,0:0:0
364,136,171233,1,2,0:0:0
364,152,171321,1,0,0:0:0
364,168,171410,1,0,0:0:0
364,184,171498,1,0,0:0:0
364,200,171586,5,2,0:0:0
364,216,171674,1,0,0:0:0
364,232,171763,1,0,0:0:0
364,248,171851,1,0,0:0:0
364,264,171939,1,2,0:0:0
364,280,172027,1,0,0:0:0
364,296,172116,1,0,0:0:0
364,312,172204,1,0,0:0:0
364,328,172292,5,2,0:0:0
348,328,172380,1,0,0:0:0
332,328,172468,1,0,0:0:0
316,328,172557,1,0,0:0:0
300,328,172645,1,2,0:0:0
284,328,172733,1,0,0:0:0
268,328,172821,1,0,0:0:0
252,328,172910,1,0,0:0:0
236,328,172998,5,2,0:0:0
220,328,173086,1,0,0:0:0
204,328,173174,1,0,0:0:0
188,328,173263,1,0,0:0:0
172,328,173351,1,2,0:0:0
156,328,173439,1,0,0:0:0
140,328,173527,1,0,0:0:0
124,328,173616,1,0,0:0:0
108,328,173704,5,2,0:0:0
108,312,173792,1,0,0:0:0
108,296,173880,1,0,0:0:0
108,280,173968,1,0,0:0:0
108,264,174057,1,2,0:0:0
108,248,174145,1,0,0:0:0
108,232,174233,1,0,0:0:0
108,216,174321,1,0,0:0:0
108,200,174410,5,2,0:0:0
108,184,174498,1,0,0:0:0
108,168,174586,1,0,0:0:0
108,152,174674,1,0,0:0:0
108,136,174763,1,2,0:0:0
108,120,174851,1,0,0:0:0
108,104,174939,1,0,0:0:0
108,88,175027,1,0,0:0:0
108,72,175116,1,2,0:0:0
256,192,175205,12,0,177940,0:0:0
