osu file format v11

[General]
AudioFilename: Neurotoxin.mp3
AudioLeadIn: 0
PreviewTime: 62879
Countdown: 0
SampleSet: Soft
StackLeniency: 0.7
Mode: 0
LetterboxInBreaks: 1

[Editor]
Bookmarks: 6629,17879,39713,62879,84629,95379,104383
DistanceSpacing: 0.3
BeatDivisor: 4
GridSize: 4

[Metadata]
Title:Long Stream Practice Maps
TitleUnicode:
Artist:Various Artist
ArtistUnicode:
Creator:onlyforyou
Version:Neurotoxin BPM180
Source:
Tags:
BeatmapID:207692
BeatmapSetID:72474

[Difficulty]
HPDrainRate:7
CircleSize:4
OverallDifficulty:7
ApproachRate:9
SliderMultiplier:1.84
SliderTickRate:2

[Events]
//Background and Video events
0,0,"Neurotoxin.jpg"
//Break Periods
//Storyboard Layer 0 (Background)
//Storyboard Layer 1 (Fail)
//Storyboard Layer 2 (Pass)
//Storyboard Layer 3 (Foreground)
//Storyboard Sound Samples
//Background Colour Transformations
3,100,134,102,128

[TimingPoints]
796,333.333333333333,4,2,0,90,1,0
63462,-100,4,2,0,90,0,1
84795,-133.333333333333,4,2,0,90,0,0
106462,-100,4,2,0,90,0,1
127462,-100,4,2,0,90,0,0
130045,-100,4,2,0,5,0,0

[Colours]
Combo1 : 190,139,139
Combo2 : 120,141,190
Combo3 : 176,154,203
Combo4 : 126,165,154

[HitObjects]
164,96,7462,5,2,0:0:0
176,96,7545,1,0,0:0:0
188,96,7629,1,0,0:0:0
200,96,7712,1,0,0:0:0
212,96,7795,1,2,0:0:0
224,96,7879,1,0,0:0:0
236,96,7962,1,0,0:0:0
248,96,8045,1,0,0:0:0
260,96,8129,5,2,0:0:0
272,96,8212,1,0,0:0:0
284,96,8295,1,0,0:0:0
296,96,8379,1,0,0:0:0
308,96,8462,1,2,0:0:0
320,96,8545,1,0,0:0:0
332,96,8629,1,0,0:0:0
344,96,8712,1,0,0:0:0
356,96,8795,5,2,0:0:0
356,108,8879,1,0,0:0:0
356,120,8962,1,0,0:0:0
356,132,9045,1,0,0:0:0
356,144,9129,1,2,0:0:0
356,156,9212,1,0,0:0:0
356,168,9295,1,0,0:0:0
356,180,9379,1,0,0:0:0
356,192,9462,5,2,0:0:0
356,204,9545,1,0,0:0:0
356,216,9629,1,0,0:0:0
356,228,9712,1,0,0:0:0
356,240,9795,1,2,0:0:0
356,252,9879,1,0,0:0:0
356,264,9962,1,0,0:0:0
356,276,10045,1,0,0:0:0
356,288,10129,5,2,0:0:0
344,288,10212,1,0,0:0:0
332,288,10295,1,0,0:0:0
320,288,10379,1,0,0:0:0
308,288,10462,1,2,0:0:0
296,288,10545,1,0,0:0:0
284,288,10629,1,0,0:0:0
272,288,10712,1,0,0:0:0
260,288,10795,5,2,0:0:0
248,288,10879,1,0,0:0:0
236,288,10962,1,0,0:0:0
224,288,11045,1,0,0:0:0
212,288,11129,1,2,0:0:0
200,288,11212,1,0,0:0:0
188,288,11295,1,0,0:0:0
176,288,11379,1,0,0:0:0
164,288,11462,5,2,0:0:0
164,276,11545,1,0,0:0:0
164,264,11629,1,0,0:0:0
164,252,11712,1,0,0:0:0
164,240,11795,1,2,0:0:0
164,228,11879,1,0,0:0:0
164,216,11962,1,0,0:0:0
164,204,12045,1,0,0:0:0
164,192,12129,5,2,0:0:0
164,180,12212,1,0,0:0:0
164,168,12295,1,0,0:0:0
164,156,12379,1,0,0:0:0
164,144,12462,1,2,0:0:0
164,132,12545,1,0,0:0:0
164,120,12629,1,0,0:0:0
164,108,12712,1,0,0:0:0
164,96,12795,5,2,0:0:0
176,96,12878,1,0,0:0:0
188,96,12962,1,0,0:0:0
200,96,13045,1,0,0:0:0
212,96,13128,1,2,0:0:0
224,96,13212,1,0,0:0:0
236,96,13295,1,0,0:0:0
248,96,13378,1,0,0:0:0
260,96,13462,5,2,0:0:0
272,96,13545,1,0,0:0:0
284,96,13628,1,0,0:0:0
296,96,13712,1,0,0:0:0
308,96,13795,1,2,0:0:0
320,96,13878,1,0,0:0:0
332,96,13962,1,0,0:0:0
344,96,14045,1,0,0:0:0
356,96,14128,5,2,0:0:0
356,108,14212,1,0,0:0:0
356,120,14295,1,0,0:0:0
356,132,14378,1,0,0:0:0
356,144,14462,1,2,0:0:0
356,156,14545,1,0,0:0:0
356,168,14628,1,0,0:0:0
356,180,14712,1,0,0:0:0
356,192,14795,5,2,0:0:0
356,204,14878,1,0,0:0:0
356,216,14962,1,0,0:0:0
356,228,15045,1,0,0:0:0
356,240,15128,1,2,0:0:0
356,252,15212,1,0,0:0:0
356,264,15295,1,0,0:0:0
356,276,15378,1,0,0:0:0
356,288,15462,5,2,0:0:0
344,288,15545,1,0,0:0:0
332,288,15628,1,0,0:0:0
320,288,15712,1,0,0:0:0
308,288,15795,1,2,0:0:0
296,288,15878,1,0,0:0:0
284,288,15962,1,0,0:0:0
272,288,16045,1,0,0:0:0
260,288,16128,5,2,0:0:0
248,288,16212,1,0,0:0:0
236,288,16295,1,0,0:0:0
224,288,16378,1,0,0:0:0
212,288,16462,1,2,0:0:0
200,288,16545,1,0,0:0:0
188,288,16628,1,0,0:0:0
176,288,16712,1,0,0:0:0
164,288,16795,5,2,0:0:0
164,276,16878,1,0,0:0:0
164,264,16962,1,0,0:0:0
164,252,17045,1,0,0:0:0
164,240,17128,1,2,0:0:0
164,228,17212,1,0,0:0:0
164,216,17295,1,0,0:0:0
164,204,17378,1,0,0:0:0
164,192,17462,5,2,0:0:0
164,180,17545,1,0,0:0:0
164,168,17628,1,0,0:0:0
164,156,17712,1,0,0:0:0
164,144,17795,1,2,0:0:0
164,132,17878,1,0,0:0:0
164,120,17962,1,0,0:0:0
164,108,18045,1,0,0:0:0
164,96,18129,5,2,0:0:0
176,96,18212,1,0,0:0:0
188,96,18296,1,0,0:0:0
200,96,18379,1,0,0:0:0
212,96,18462,1,2,0:0:0
224,96,18546,1,0,0:0:0
236,96,18629,1,0,0:0:0
248,96,18712,1,0,0:0:0
260,96,18796,5,2,0:0:0
272,96,18879,1,0,0:0:0
284,96,18962,1,0,0:0:0
296,96,19046,1,0,0:0:0
308,96,19129,1,2,0:0:0
320,96,19212,1,0,0:0:0
332,96,19296,1,0,0:0:0
344,96,19379,1,0,0:0:0
356,96,19462,5,2,0:0:0
356,108,19546,1,0,0:0:0
356,120,19629,1,0,0:0:0
356,132,19712,1,0,0:0:0
356,144,19796,1,2,0:0:0
356,156,19879,1,0,0:0:0
356,168,19962,1,0,0:0:0
356,180,20046,1,0,0:0:0
356,192,20129,5,2,0:0:0
356,204,20212,1,0,0:0:0
356,216,20296,1,0,0:0:0
356,228,20379,1,0,0:0:0
356,240,20462,1,2,0:0:0
356,252,20546,1,0,0:0:0
356,264,20629,1,0,0:0:0
356,276,20712,1,0,0:0:0
356,288,20796,5,2,0:0:0
344,288,20879,1,0,0:0:0
332,288,20962,1,0,0:0:0
320,288,21046,1,0,0:0:0
308,288,21129,1,2,0:0:0
296,288,21212,1,0,0:0:0
284,288,21296,1,0,0:0:0
272,288,21379,1,0,0:0:0
260,288,21462,5,2,0:0:0
248,288,21546,1,0,0:0:0
236,288,21629,1,0,0:0:0
224,288,21712,1,0,0:0:0
212,288,21796,1,2,0:0:0
200,288,21879,1,0,0:0:0
188,288,21962,1,0,0:0:0
176,288,22046,1,0,0:0:0
164,288,22129,5,2,0:0:0
164,276,22212,1,0,0:0:0
164,264,22296,1,0,0:0:0
164,252,22379,1,0,0:0:0
164,240,22462,1,2,0:0:0
164,228,22546,1,0,0:0:0
164,216,22629,1,0,0:0:0
164,204,22712,1,0,0:0:0
164,192,22796,5,2,0:0:0
164,180,22879,1,0,0:0:0
164,168,22962,1,0,0:0:0
164,156,23046,1,0,0:0:0
164,144,23129,1,2,0:0:0
164,132,23212,1,0,0:0:0
164,120,23296,1,0,0:0:0
164,108,23379,1,0,0:0:0
164,96,23462,5,2,0:0:0
176,96,23545,1,0,0:0:0
188,96,23629,1,0,0:0:0
200,96,23712,1,0,0:0:0
212,96,23795,1,2,0:0:0
224,96,23879,1,0,0:0:0
236,96,23962,1,0,0:0:0
248,96,24045,1,0,0:0:0
260,96,24129,5,2,0:0:0
272,96,24212,1,0,0:0:0
284,96,24295,1,0,0:0:0
296,96,24379,1,0,0:0:0
308,96,24462,1,2,0:0:0
320,96,24545,1,0,0:0:0
332,96,24629,1,0,0:0:0
344,96,24712,1,0,0:0:0
356,96,24795,5,2,0:0:0
356,108,24879,1,0,0:0:0
356,120,24962,1,0,0:0:0
356,132,25045,1,0,0:0:0
356,144,25129,1,2,0:0:0
356,156,25212,1,0,0:0:0
356,168,25295,1,0,0:0:0
356,180,25379,1,0,0:0:0
356,192,25462,5,2,0:0:0
356,204,25545,1,0,0:0:0
356,216,25629,1,0,0:0:0
356,228,25712,1,0,0:0:0
356,240,25795,1,2,0:0:0
356,252,25879,1,0,0:0:0
356,264,25962,1,0,0:0:0
356,276,26045,1,0,0:0:0
356,288,26129,5,2,0:0:0
344,288,26212,1,0,0:0:0
332,288,26295,1,0,0:0:0
320,288,26379,1,0,0:0:0
308,288,26462,1,2,0:0:0
296,288,26545,1,0,0:0:0
284,288,26629,1,0,0:0:0
272,288,26712,1,0,0:0:0
260,288,26795,5,2,0:0:0
248,288,26879,1,0,0:0:0
236,288,26962,1,0,0:0:0
224,288,27045,1,0,0:0:0
212,288,27129,1,2,0:0:0
200,288,27212,1,0,0:0:0
188,288,27295,1,0,0:0:0
176,288,27379,1,0,0:0:0
164,288,27462,5,2,0:0:0
164,276,27545,1,0,0:0:0
164,264,27629,1,0,0:0:0
164,252,27712,1,0,0:0:0
164,240,27795,1,2,0:0:0
164,228,27879,1,0,0:0:0
164,216,27962,1,0,0:0:0
164,204,28045,1,0,0:0:0
164,192,28129,5,2,0:0:0
164,180,28212,1,0,0:0:0
164,168,28295,1,0,0:0:0
164,156,28379,1,0,0:0:0
164,144,28462,1,2,0:0:0
164,132,28545,1,0,0:0:0
164,120,28629,1,0,0:0:0
164,108,28712,1,0,0:0:0
164,96,28795,5,2,0:0:0
176,96,28878,1,0,0:0:0
188,96,28962,1,0,0:0:0
200,96,29045,1,0,0:0:0
212,96,29128,1,2,0:0:0
224,96,29212,1,0,0:0:0
236,96,29295,1,0,0:0:0
248,96,29378,1,0,0:0:0
260,96,29462,5,2,0:0:0
272,96,29545,1,0,0:0:0
284,96,29628,1,0,0:0:0
296,96,29712,1,0,0:0:0
308,96,29795,1,2,0:0:0
320,96,29878,1,0,0:0:0
332,96,29962,1,0,0:0:0
344,96,30045,1,0,0:0:0
356,96,30128,5,2,0:0:0
356,108,30212,1,0,0:0:0
356,120,30295,1,0,0:0:0
356,132,30378,1,0,0:0:0
356,144,30462,1,2,0:0:0
356,156,30545,1,0,0:0:0
356,168,30628,1,0,0:0:0
356,180,30712,1,0,0:0:0
356,192,30795,5,2,0:0:0
356,204,30878,1,0,0:0:0
356,216,30962,1,0,0:0:0
356,228,31045,1,0,0:0:0
356,240,31128,1,2,0:0:0
356,252,31212,1,0,0:0:0
356,264,31295,1,0,0:0:0
356,276,31378,1,0,0:0:0
356,288,31462,5,2,0:0:0
344,288,31545,1,0,0:0:0
332,288,31628,1,0,0:0:0
320,288,31712,1,0,0:0:0
308,288,31795,1,2,0:0:0
296,288,31878,1,0,0:0:0
284,288,31962,1,0,0:0:0
272,288,32045,1,0,0:0:0
260,288,32128,5,2,0:0:0
248,288,32212,1,0,0:0:0
236,288,32295,1,0,0:0:0
224,288,32378,1,0,0:0:0
212,288,32462,1,2,0:0:0
200,288,32545,1,0,0:0:0
188,288,32628,1,0,0:0:0
176,288,32712,1,0,0:0:0
164,288,32795,5,2,0:0:0
164,276,32878,1,0,0:0:0
164,264,32962,1,0,0:0:0
164,252,33045,1,0,0:0:0
164,240,33128,1,2,0:0:0
164,228,33212,1,0,0:0:0
164,216,33295,1,0,0:0:0
164,204,33378,1,0,0:0:0
164,192,33462,5,2,0:0:0
164,180,33545,1,0,0:0:0
164,168,33628,1,0,0:0:0
164,156,33712,1,0,0:0:0
164,144,33795,1,2,0:0:0
164,132,33878,1,0,0:0:0
164,120,33962,1,0,0:0:0
164,108,34045,1,0,0:0:0
164,96,34128,5,2,0:0:0
176,96,34211,1,0,0:0:0
188,96,34295,1,0,0:0:0
200,96,34378,1,0,0:0:0
212,96,34461,1,2,0:0:0
224,96,34545,1,0,0:0:0
236,96,34628,1,0,0:0:0
248,96,34711,1,0,0:0:0
260,96,34795,5,2,0:0:0
272,96,34878,1,0,0:0:0
284,96,34961,1,0,0:0:0
296,96,35045,1,0,0:0:0
308,96,35128,1,2,0:0:0
320,96,35211,1,0,0:0:0
332,96,35295,1,0,0:0:0
344,96,35378,1,0,0:0:0
356,96,35461,5,2,0:0:0
356,108,35545,1,0,0:0:0
356,120,35628,1,0,0:0:0
356,132,35711,1,0,0:0:0
356,144,35795,1,2,0:0:0
356,156,35878,1,0,0:0:0
356,168,35961,1,0,0:0:0
356,180,36045,1,0,0:0:0
356,192,36128,5,2,0:0:0
356,204,36211,1,0,0:0:0
356,216,36295,1,0,0:0:0
356,228,36378,1,0,0:0:0
356,240,36461,1,2,0:0:0
356,252,36545,1,0,0:0:0
356,264,36628,1,0,0:0:0
356,276,36711,1,0,0:0:0
356,288,36795,5,2,0:0:0
344,288,36878,1,0,0:0:0
332,288,36961,1,0,0:0:0
320,288,37045,1,0,0:0:0
308,288,37128,1,2,0:0:0
296,288,37211,1,0,0:0:0
284,288,37295,1,0,0:0:0
272,288,37378,1,0,0:0:0
260,288,37461,5,2,0:0:0
248,288,37545,1,0,0:0:0
236,288,37628,1,0,0:0:0
224,288,37711,1,0,0:0:0
212,288,37795,1,2,0:0:0
200,288,37878,1,0,0:0:0
188,288,37961,1,0,0:0:0
176,288,38045,1,0,0:0:0
164,288,38128,5,2,0:0:0
164,276,38211,1,0,0:0:0
164,264,38295,1,0,0:0:0
164,252,38378,1,0,0:0:0
164,240,38461,1,2,0:0:0
164,228,38545,1,0,0:0:0
164,216,38628,1,0,0:0:0
164,204,38711,1,0,0:0:0
164,192,38795,5,2,0:0:0
164,180,38878,1,0,0:0:0
164,168,38961,1,0,0:0:0
164,156,39045,1,0,0:0:0
164,144,39128,1,2,0:0:0
164,132,39211,1,0,0:0:0
164,120,39295,1,0,0:0:0
164,108,39378,1,0,0:0:0
164,96,39462,5,2,0:0:0
176,96,39545,1,0,0:0:0
188,96,39629,1,0,0:0:0
200,96,39712,1,0,0:0:0
212,96,39795,1,2,0:0:0
224,96,39879,1,0,0:0:0
236,96,39962,1,0,0:0:0
248,96,40045,1,0,0:0:0
260,96,40129,5,2,0:0:0
272,96,40212,1,0,0:0:0
284,96,40295,1,0,0:0:0
296,96,40379,1,0,0:0:0
308,96,40462,1,2,0:0:0
320,96,40545,1,0,0:0:0
332,96,40629,1,0,0:0:0
344,96,40712,1,0,0:0:0
356,96,40795,5,2,0:0:0
356,108,40879,1,0,0:0:0
356,120,40962,1,0,0:0:0
356,132,41045,1,0,0:0:0
356,144,41129,1,2,0:0:0
356,156,41212,1,0,0:0:0
356,168,41295,1,0,0:0:0
356,180,41379,1,0,0:0:0
356,192,41462,5,2,0:0:0
356,204,41545,1,0,0:0:0
356,216,41629,1,0,0:0:0
356,228,41712,1,0,0:0:0
356,240,41795,1,2,0:0:0
356,252,41879,1,0,0:0:0
356,264,41962,1,0,0:0:0
356,276,42045,1,0,0:0:0
356,288,42129,5,2,0:0:0
344,288,42212,1,0,0:0:0
332,288,42295,1,0,0:0:0
320,288,42379,1,0,0:0:0
308,288,42462,1,2,0:0:0
296,288,42545,1,0,0:0:0
284,288,42629,1,0,0:0:0
272,288,42712,1,0,0:0:0
260,288,42795,5,2,0:0:0
248,288,42879,1,0,0:0:0
236,288,42962,1,0,0:0:0
224,288,43045,1,0,0:0:0
212,288,43129,1,2,0:0:0
200,288,43212,1,0,0:0:0
188,288,43295,1,0,0:0:0
176,288,43379,1,0,0:0:0
164,288,43462,5,2,0:0:0
164,276,43545,1,0,0:0:0
164,264,43629,1,0,0:0:0
164,252,43712,1,0,0:0:0
164,240,43795,1,2,0:0:0
164,228,43879,1,0,0:0:0
164,216,43962,1,0,0:0:0
164,204,44045,1,0,0:0:0
164,192,44129,5,2,0:0:0
164,180,44212,1,0,0:0:0
164,168,44295,1,0,0:0:0
164,156,44379,1,0,0:0:0
164,144,44462,1,2,0:0:0
164,132,44545,1,0,0:0:0
164,120,44629,1,0,0:0:0
164,108,44712,1,0,0:0:0
164,96,44795,5,2,0:0:0
176,96,44878,1,0,0:0:0
188,96,44962,1,0,0:0:0
200,96,45045,1,0,0:0:0
212,96,45128,1,2,0:0:0
224,96,45212,1,0,0:0:0
236,96,45295,1,0,0:0:0
248,96,45378,1,0,0:0:0
260,96,45462,5,2,0:0:0
272,96,45545,1,0,0:0:0
284,96,45628,1,0,0:0:0
296,96,45712,1,0,0:0:0
308,96,45795,1,2,0:0:0
320,96,45878,1,0,0:0:0
332,96,45962,1,0,0:0:0
344,96,46045,1,0,0:0:0
356,96,46128,5,2,0:0:0
356,108,46212,1,0,0:0:0
356,120,46295,1,0,0:0:0
356,132,46378,1,0,0:0:0
356,144,46462,1,2,0:0:0
356,156,46545,1,0,0:0:0
356,168,46628,1,0,0:0:0
356,180,46712,1,0,0:0:0
356,192,46795,5,2,0:0:0
356,204,46878,1,0,0:0:0
356,216,46962,1,0,0:0:0
356,228,47045,1,0,0:0:0
356,240,47128,1,2,0:0:0
356,252,47212,1,0,0:0:0
356,264,47295,1,0,0:0:0
356,276,47378,1,0,0:0:0
356,288,47462,5,2,0:0:0
344,288,47545,1,0,0:0:0
332,288,47628,1,0,0:0:0
320,288,47712,1,0,0:0:0
308,288,47795,1,2,0:0:0
296,288,47878,1,0,0:0:0
284,288,47962,1,0,0:0:0
272,288,48045,1,0,0:0:0
260,288,48128,5,2,0:0:0
248,288,48212,1,0,0:0:0
236,288,48295,1,0,0:0:0
224,288,48378,1,0,0:0:0
212,288,48462,1,2,0:0:0
200,288,48545,1,0,0:0:0
188,288,48628,1,0,0:0:0
176,288,48712,1,0,0:0:0
164,288,48795,5,2,0:0:0
164,276,48878,1,0,0:0:0
164,264,48962,1,0,0:0:0
164,252,49045,1,0,0:0:0
164,240,49128,1,2,0:0:0
164,228,49212,1,0,0:0:0
164,216,49295,1,0,0:0:0
164,204,49378,1,0,0:0:0
164,192,49462,5,2,0:0:0
164,180,49545,1,0,0:0:0
164,168,49628,1,0,0:0:0
164,156,49712,1,0,0:0:0
164,144,49795,1,2,0:0:0
164,132,49878,1,0,0:0:0
164,120,49962,1,0,0:0:0
164,108,50045,1,0,0:0:0
164,96,50129,5,2,0:0:0
176,96,50212,1,0,0:0:0
188,96,50296,1,0,0:0:0
200,96,50379,1,0,0:0:0
212,96,50462,1,2,0:0:0
224,96,50546,1,0,0:0:0
236,96,50629,1,0,0:0:0
248,96,50712,1,0,0:0:0
260,96,50796,5,2,0:0:0
272,96,50879,1,0,0:0:0
284,96,50962,1,0,0:0:0
296,96,51046,1,0,0:0:0
308,96,51129,1,2,0:0:0
320,96,51212,1,0,0:0:0
332,96,51296,1,0,0:0:0
344,96,51379,1,0,0:0:0
356,96,51462,5,2,0:0:0
356,108,51546,1,0,0:0:0
356,120,51629,1,0,0:0:0
356,132,51712,1,0,0:0:0
356,144,51796,1,2,0:0:0
356,156,51879,1,0,0:0:0
356,168,51962,1,0,0:0:0
356,180,52046,1,0,0:0:0
356,192,52129,5,2,0:0:0
356,204,52212,1,0,0:0:0
356,216,52296,1,0,0:0:0
356,228,52379,1,0,0:0:0
356,240,52462,1,2,0:0:0
356,252,52546,1,0,0:0:0
356,264,52629,1,0,0:0:0
356,276,52712,1,0,0:0:0
356,288,52796,5,2,0:0:0
344,288,52879,1,0,0:0:0
332,288,52962,1,0,0:0:0
320,288,53046,1,0,0:0:0
308,288,53129,1,2,0:0:0
296,288,53212,1,0,0:0:0
284,288,53296,1,0,0:0:0
272,288,53379,1,0,0:0:0
260,288,53462,5,2,0:0:0
248,288,53546,1,0,0:0:0
236,288,53629,1,0,0:0:0
224,288,53712,1,0,0:0:0
212,288,53796,1,2,0:0:0
200,288,53879,1,0,0:0:0
188,288,53962,1,0,0:0:0
176,288,54046,1,0,0:0:0
164,288,54129,5,2,0:0:0
164,276,54212,1,0,0:0:0
164,264,54296,1,0,0:0:0
164,252,54379,1,0,0:0:0
164,240,54462,1,2,0:0:0
164,228,54546,1,0,0:0:0
164,216,54629,1,0,0:0:0
164,204,54712,1,0,0:0:0
164,192,54796,5,2,0:0:0
164,180,54879,1,0,0:0:0
164,168,54962,1,0,0:0:0
164,156,55046,1,0,0:0:0
164,144,55129,1,2,0:0:0
164,132,55212,1,0,0:0:0
164,120,55296,1,0,0:0:0
164,108,55379,1,0,0:0:0
164,96,55462,5,2,0:0:0
176,96,55545,1,0,0:0:0
188,96,55629,1,0,0:0:0
200,96,55712,1,0,0:0:0
212,96,55795,1,2,0:0:0
224,96,55879,1,0,0:0:0
236,96,55962,1,0,0:0:0
248,96,56045,1,0,0:0:0
260,96,56129,5,2,0:0:0
272,96,56212,1,0,0:0:0
284,96,56295,1,0,0:0:0
296,96,56379,1,0,0:0:0
308,96,56462,1,2,0:0:0
320,96,56545,1,0,0:0:0
332,96,56629,1,0,0:0:0
344,96,56712,1,0,0:0:0
356,96,56795,5,2,0:0:0
356,108,56879,1,0,0:0:0
356,120,56962,1,0,0:0:0
356,132,57045,1,0,0:0:0
356,144,57129,1,2,0:0:0
356,156,57212,1,0,0:0:0
356,168,57295,1,0,0:0:0
356,180,57379,1,0,0:0:0
356,192,57462,5,2,0:0:0
356,204,57545,1,0,0:0:0
356,216,57629,1,0,0:0:0
356,228,57712,1,0,0:0:0
356,240,57795,1,2,0:0:0
356,252,57879,1,0,0:0:0
356,264,57962,1,0,0:0:0
356,276,58045,1,0,0:0:0
356,288,58129,5,2,0:0:0
344,288,58212,1,0,0:0:0
332,288,58295,1,0,0:0:0
320,288,58379,1,0,0:0:0
308,288,58462,1,2,0:0:0
296,288,58545,1,0,0:0:0
284,288,58629,1,0,0:0:0
272,288,58712,1,0,0:0:0
260,288,58795,5,2,0:0:0
248,288,58879,1,0,0:0:0
236,288,58962,1,0,0:0:0
224,288,59045,1,0,0:0:0
212,288,59129,1,2,0:0:0
200,288,59212,1,0,0:0:0
188,288,59295,1,0,0:0:0
176,288,59379,1,0,0:0:0
164,288,59462,5,2,0:0:0
164,276,59545,1,0,0:0:0
164,264,59629,1,0,0:0:0
164,252,59712,1,0,0:0:0
164,240,59795,1,2,0:0:0
164,228,59879,1,0,0:0:0
164,216,59962,1,0,0:0:0
164,204,60045,1,0,0:0:0
164,192,60129,5,2,0:0:0
164,180,60212,1,0,0:0:0
164,168,60295,1,0,0:0:0
164,156,60379,1,0,0:0:0
164,144,60462,1,2,0:0:0
164,132,60545,1,0,0:0:0
164,120,60629,1,0,0:0:0
164,108,60712,1,0,0:0:0
164,96,60796,5,2,0:0:0
176,96,60879,1,0,0:0:0
188,96,60963,1,0,0:0:0
200,96,61046,1,0,0:0:0
212,96,61129,1,2,0:0:0
224,96,61213,1,0,0:0:0
236,96,61296,1,0,0:0:0
248,96,61379,1,0,0:0:0
260,96,61463,5,2,0:0:0
272,96,61546,1,0,0:0:0
284,96,61629,1,0,0:0:0
296,96,61713,1,0,0:0:0
308,96,61796,1,2,0:0:0
320,96,61879,1,0,0:0:0
332,96,61963,1,0,0:0:0
344,96,62046,1,0,0:0:0
356,96,62129,5,2,0:0:0
356,108,62213,1,0,0:0:0
356,120,62296,1,0,0:0:0
356,132,62379,1,0,0:0:0
356,144,62463,1,2,0:0:0
356,156,62546,1,0,0:0:0
356,168,62629,1,0,0:0:0
356,180,62713,1,0,0:0:0
356,192,62796,5,2,0:0:0
356,204,62879,1,0,0:0:0
356,216,62963,1,0,0:0:0
356,228,63046,1,0,0:0:0
356,240,63129,1,2,0:0:0
356,252,63213,1,0,0:0:0
356,264,63296,1,0,0:0:0
356,276,63379,1,0,0:0:0
356,288,63463,5,2,0:0:0
344,288,63546,1,0,0:0:0
332,288,63629,1,0,0:0:0
320,288,63713,1,0,0:0:0
308,288,63796,1,2,0:0:0
296,288,63879,1,0,0:0:0
284,288,63963,1,0,0:0:0
272,288,64046,1,0,0:0:0
260,288,64129,5,2,0:0:0
248,288,64213,1,0,0:0:0
236,288,64296,1,0,0:0:0
224,288,64379,1,0,0:0:0
212,288,64463,1,2,0:0:0
200,288,64546,1,0,0:0:0
188,288,64629,1,0,0:0:0
176,288,64713,1,0,0:0:0
164,288,64796,5,2,0:0:0
164,276,64879,1,0,0:0:0
164,264,64963,1,0,0:0:0
164,252,65046,1,0,0:0:0
164,240,65129,1,2,0:0:0
164,228,65213,1,0,0:0:0
164,216,65296,1,0,0:0:0
164,204,65379,1,0,0:0:0
164,192,65463,5,2,0:0:0
164,180,65546,1,0,0:0:0
164,168,65629,1,0,0:0:0
164,156,65713,1,0,0:0:0
164,144,65796,1,2,0:0:0
164,132,65879,1,0,0:0:0
164,120,65963,1,0,0:0:0
164,108,66046,1,0,0:0:0
164,96,66129,5,2,0:0:0
176,96,66212,1,0,0:0:0
188,96,66296,1,0,0:0:0
200,96,66379,1,0,0:0:0
212,96,66462,1,2,0:0:0
224,96,66546,1,0,0:0:0
236,96,66629,1,0,0:0:0
248,96,66712,1,0,0:0:0
260,96,66796,5,2,0:0:0
272,96,66879,1,0,0:0:0
284,96,66962,1,0,0:0:0
296,96,67046,1,0,0:0:0
308,96,67129,1,2,0:0:0
320,96,67212,1,0,0:0:0
332,96,67296,1,0,0:0:0
344,96,67379,1,0,0:0:0
356,96,67462,5,2,0:0:0
356,108,67546,1,0,0:0:0
356,120,67629,1,0,0:0:0
356,132,67712,1,0,0:0:0
356,144,67796,1,2,0:0:0
356,156,67879,1,0,0:0:0
356,168,67962,1,0,0:0:0
356,180,68046,1,0,0:0:0
356,192,68129,5,2,0:0:0
356,204,68212,1,0,0:0:0
356,216,68296,1,0,0:0:0
356,228,68379,1,0,0:0:0
356,240,68462,1,2,0:0:0
356,252,68546,1,0,0:0:0
356,264,68629,1,0,0:0:0
356,276,68712,1,0,0:0:0
356,288,68796,5,2,0:0:0
344,288,68879,1,0,0:0:0
332,288,68962,1,0,0:0:0
320,288,69046,1,0,0:0:0
308,288,69129,1,2,0:0:0
296,288,69212,1,0,0:0:0
284,288,69296,1,0,0:0:0
272,288,69379,1,0,0:0:0
260,288,69462,5,2,0:0:0
248,288,69546,1,0,0:0:0
236,288,69629,1,0,0:0:0
224,288,69712,1,0,0:0:0
212,288,69796,1,2,0:0:0
200,288,69879,1,0,0:0:0
188,288,69962,1,0,0:0:0
176,288,70046,1,0,0:0:0
164,288,70129,5,2,0:0:0
164,276,70212,1,0,0:0:0
164,264,70296,1,0,0:0:0
164,252,70379,1,0,0:0:0
164,240,70462,1,2,0:0:0
164,228,70546,1,0,0:0:0
164,216,70629,1,0,0:0:0
164,204,70712,1,0,0:0:0
164,192,70796,5,2,0:0:0
164,180,70879,1,0,0:0:0
164,168,70962,1,0,0:0:0
164,156,71046,1,0,0:0:0
164,144,71129,1,2,0:0:0
164,132,71212,1,0,0:0:0
164,120,71296,1,0,0:0:0
164,108,71379,1,0,0:0:0
164,96,71462,5,2,0:0:0
176,96,71545,1,0,0:0:0
188,96,71629,1,0,0:0:0
200,96,71712,1,0,0:0:0
212,96,71795,1,2,0:0:0
224,96,71879,1,0,0:0:0
236,96,71962,1,0,0:0:0
248,96,72045,1,0,0:0:0
260,96,72129,5,2,0:0:0
272,96,72212,1,0,0:0:0
284,96,72295,1,0,0:0:0
296,96,72379,1,0,0:0:0
308,96,72462,1,2,0:0:0
320,96,72545,1,0,0:0:0
332,96,72629,1,0,0:0:0
344,96,72712,1,0,0:0:0
356,96,72795,5,2,0:0:0
356,108,72879,1,0,0:0:0
356,120,72962,1,0,0:0:0
356,132,73045,1,0,0:0:0
356,144,73129,1,2,0:0:0
356,156,73212,1,0,0:0:0
356,168,73295,1,0,0:0:0
356,180,73379,1,0,0:0:0
356,192,73462,5,2,0:0:0
356,204,73545,1,0,0:0:0
356,216,73629,1,0,0:0:0
356,228,73712,1,0,0:0:0
356,240,73795,1,2,0:0:0
356,252,73879,1,0,0:0:0
356,264,73962,1,0,0:0:0
356,276,74045,1,0,0:0:0
356,288,74129,5,2,0:0:0
344,288,74212,1,0,0:0:0
332,288,74295,1,0,0:0:0
320,288,74379,1,0,0:0:0
308,288,74462,1,2,0:0:0
296,288,74545,1,0,0:0:0
284,288,74629,1,0,0:0:0
272,288,74712,1,0,0:0:0
260,288,74795,5,2,0:0:0
248,288,74879,1,0,0:0:0
236,288,74962,1,0,0:0:0
224,288,75045,1,0,0:0:0
212,288,75129,1,2,0:0:0
200,288,75212,1,0,0:0:0
188,288,75295,1,0,0:0:0
176,288,75379,1,0,0:0:0
164,288,75462,5,2,0:0:0
164,276,75545,1,0,0:0:0
164,264,75629,1,0,0:0:0
164,252,75712,1,0,0:0:0
164,240,75795,1,2,0:0:0
164,228,75879,1,0,0:0:0
164,216,75962,1,0,0:0:0
164,204,76045,1,0,0:0:0
164,192,76129,5,2,0:0:0
164,180,76212,1,0,0:0:0
164,168,76295,1,0,0:0:0
164,156,76379,1,0,0:0:0
164,144,76462,1,2,0:0:0
164,132,76545,1,0,0:0:0
164,120,76629,1,0,0:0:0
164,108,76712,1,0,0:0:0
164,96,76795,5,2,0:0:0
176,96,76878,1,0,0:0:0
188,96,76962,1,0,0:0:0
200,96,77045,1,0,0:0:0
212,96,77128,1,2,0:0:0
224,96,77212,1,0,0:0:0
236,96,77295,1,0,0:0:0
248,96,77378,1,0,0:0:0
260,96,77462,5,2,0:0:0
272,96,77545,1,0,0:0:0
284,96,77628,1,0,0:0:0
296,96,77712,1,0,0:0:0
308,96,77795,1,2,0:0:0
320,96,77878,1,0,0:0:0
332,96,77962,1,0,0:0:0
344,96,78045,1,0,0:0:0
356,96,78128,5,2,0:0:0
356,108,78212,1,0,0:0:0
356,120,78295,1,0,0:0:0
356,132,78378,1,0,0:0:0
356,144,78462,1,2,0:0:0
356,156,78545,1,0,0:0:0
356,168,78628,1,0,0:0:0
356,180,78712,1,0,0:0:0
356,192,78795,5,2,0:0:0
356,204,78878,1,0,0:0:0
356,216,78962,1,0,0:0:0
356,228,79045,1,0,0:0:0
356,240,79128,1,2,0:0:0
356,252,79212,1,0,0:0:0
356,264,79295,1,0,0:0:0
356,276,79378,1,0,0:0:0
356,288,79462,5,2,0:0:0
344,288,79545,1,0,0:0:0
332,288,79628,1,0,0:0:0
320,288,79712,1,0,0:0:0
308,288,79795,1,2,0:0:0
296,288,79878,1,0,0:0:0
284,288,79962,1,0,0:0:0
272,288,80045,1,0,0:0:0
260,288,80128,5,2,0:0:0
248,288,80212,1,0,0:0:0
236,288,80295,1,0,0:0:0
224,288,80378,1,0,0:0:0
212,288,80462,1,2,0:0:0
200,288,80545,1,0,0:0:0
188,288,80628,1,0,0:0:0
176,288,80712,1,0,0:0:0
164,288,80795,5,2,0:0:0
164,276,80878,1,0,0:0:0
164,264,80962,1,0,0:0:0
164,252,81045,1,0,0:0:0
164,240,81128,1,2,0:0:0
164,228,81212,1,0,0:0:0
164,216,81295,1,0,0:0:0
164,204,81378,1,0,0:0:0
164,192,81462,5,2,0:0:0
164,180,81545,1,0,0:0:0
164,168,81628,1,0,0:0:0
164,156,81712,1,0,0:0:0
164,144,81795,1,2,0:0:0
164,132,81878,1,0,0:0:0
164,120,81962,1,0,0:0:0
164,108,82045,1,0,0:0:0
164,96,82129,5,2,0:0:0
176,96,82212,1,0,0:0:0
188,96,82296,1,0,0:0:0
200,96,82379,1,0,0:0:0
212,96,82462,1,2,0:0:0
224,96,82546,1,0,0:0:0
236,96,82629,1,0,0:0:0
248,96,82712,1,0,0:0:0
260,96,82796,5,2,0:0:0
272,96,82879,1,0,0:0:0
284,96,82962,1,0,0:0:0
296,96,83046,1,0,0:0:0
308,96,83129,1,2,0:0:0
320,96,83212,1,0,0:0:0
332,96,83296,1,0,0:0:0
344,96,83379,1,0,0:0:0
356,96,83462,5,2,0:0:0
356,108,83546,1,0,0:0:0
356,120,83629,1,0,0:0:0
356,132,83712,1,0,0:0:0
356,144,83796,1,2,0:0:0
356,156,83879,1,0,0:0:0
356,168,83962,1,0,0:0:0
356,180,84046,1,0,0:0:0
356,192,84129,5,2,0:0:0
356,204,84212,1,0,0:0:0
356,216,84296,1,0,0:0:0
356,228,84379,1,0,0:0:0
356,240,84462,1,2,0:0:0
356,252,84546,1,0,0:0:0
356,264,84629,1,0,0:0:0
356,276,84712,1,0,0:0:0
356,288,84796,5,2,0:0:0
344,288,84879,1,0,0:0:0
332,288,84962,1,0,0:0:0
320,288,85046,1,0,0:0:0
308,288,85129,1,2,0:0:0
296,288,85212,1,0,0:0:0
284,288,85296,1,0,0:0:0
272,288,85379,1,0,0:0:0
260,288,85462,5,2,0:0:0
248,288,85546,1,0,0:0:0
236,288,85629,1,0,0:0:0
224,288,85712,1,0,0:0:0
212,288,85796,1,2,0:0:0
200,288,85879,1,0,0:0:0
188,288,85962,1,0,0:0:0
176,288,86046,1,0,0:0:0
164,288,86129,5,2,0:0:0
164,276,86212,1,0,0:0:0
164,264,86296,1,0,0:0:0
164,252,86379,1,0,0:0:0
164,240,86462,1,2,0:0:0
164,228,86546,1,0,0:0:0
164,216,86629,1,0,0:0:0
164,204,86712,1,0,0:0:0
164,192,86796,5,2,0:0:0
164,180,86879,1,0,0:0:0
164,168,86962,1,0,0:0:0
164,156,87046,1,0,0:0:0
164,144,87129,1,2,0:0:0
164,132,87212,1,0,0:0:0
164,120,87296,1,0,0:0:0
164,108,87379,1,0,0:0:0
164,96,87462,5,2,0:0:0
176,96,87545,1,0,0:0:0
188,96,87629,1,0,0:0:0
200,96,87712,1,0,0:0:0
212,96,87795,1,2,0:0:0
224,96,87879,1,0,0:0:0
236,96,87962,1,0,0:0:0
248,96,88045,1,0,0:0:0
260,96,88129,5,2,0:0:0
272,96,88212,1,0,0:0:0
284,96,88295,1,0,0:0:0
296,96,88379,1,0,0:0:0
308,96,88462,1,2,0:0:0
320,96,88545,1,0,0:0:0
332,96,88629,1,0,0:0:0
344,96,88712,1,0,0:0:0
356,96,88795,5,2,0:0:0
356,108,88879,1,0,0:0:0
356,120,88962,1,0,0:0:0
356,132,89045,1,0,0:0:0
356,144,89129,1,2,0:0:0
356,156,89212,1,0,0:0:0
356,168,89295,1,0,0:0:0
356,180,89379,1,0,0:0:0
356,192,89462,5,2,0:0:0
356,204,89545,1,0,0:0:0
356,216,89629,1,0,0:0:0
356,228,89712,1,0,0:0:0
356,240,89795,1,2,0:0:0
356,252,89879,1,0,0:0:0
356,264,89962,1,0,0:0:0
356,276,90045,1,0,0:0:0
356,288,90129,5,2,0:0:0
344,288,90212,1,0,0:0:0
332,288,90295,1,0,0:0:0
320,288,90379,1,0,0:0:0
308,288,90462,1,2,0:0:0
296,288,90545,1,0,0:0:0
284,288,90629,1,0,0:0:0
272,288,90712,1,0,0:0:0
260,288,90795,5,2,0:0:0
248,288,90879,1,0,0:0:0
236,288,90962,1,0,0:0:0
224,288,91045,1,0,0:0:0
212,288,91129,1,2,0:0:0
200,288,91212,1,0,0:0:0
188,288,91295,1,0,0:0:0
176,288,91379,1,0,0:0:0
164,288,91462,5,2,0:0:0
164,276,91545,1,0,0:0:0
164,264,91629,1,0,0:0:0
164,252,91712,1,0,0:0:0
164,240,91795,1,2,0:0:0
164,228,91879,1,0,0:0:0
164,216,91962,1,0,0:0:0
164,204,92045,1,0,0:0:0
164,192,92129,5,2,0:0:0
164,180,92212,1,0,0:0:0
164,168,92295,1,0,0:0:0
164,156,92379,1,0,0:0:0
164,144,92462,1,2,0:0:0
164,132,92545,1,0,0:0:0
164,120,92629,1,0,0:0:0
164,108,92712,1,0,0:0:0
164,96,92795,5,2,0:0:0
176,96,92878,1,0,0:0:0
188,96,92962,1,0,0:0:0
200,96,93045,1,0,0:0:0
212,96,93128,1,2,0:0:0
224,96,93212,1,0,0:0:0
236,96,93295,1,0,0:0:0
248,96,93378,1,0,0:0:0
260,96,93462,5,2,0:0:0
272,96,93545,1,0,0:0:0
284,96,93628,1,0,0:0:0
296,96,93712,1,0,0:0:0
308,96,93795,1,2,0:0:0
320,96,93878,1,0,0:0:0
332,96,93962,1,0,0:0:0
344,96,94045,1,0,0:0:0
356,96,94128,5,2,0:0:0
356,108,94212,1,0,0:0:0
356,120,94295,1,0,0:0:0
356,132,94378,1,0,0:0:0
356,144,94462,1,2,0:0:0
356,156,94545,1,0,0:0:0
356,168,94628,1,0,0:0:0
356,180,94712,1,0,0:0:0
356,192,94795,5,2,0:0:0
356,204,94878,1,0,0:0:0
356,216,94962,1,0,0:0:0
356,228,95045,1,0,0:0:0
356,240,95128,1,2,0:0:0
356,252,95212,1,0,0:0:0
356,264,95295,1,0,0:0:0
356,276,95378,1,0,0:0:0
356,288,95462,5,2,0:0:0
344,288,95545,1,0,0:0:0
332,288,95628,1,0,0:0:0
320,288,95712,1,0,0:0:0
308,288,95795,1,2,0:0:0
296,288,95878,1,0,0:0:0
284,288,95962,1,0,0:0:0
272,288,96045,1,0,0:0:0
260,288,96128,5,2,0:0:0
248,288,96212,1,0,0:0:0
236,288,96295,1,0,0:0:0
224,288,96378,1,0,0:0:0
212,288,96462,1,2,0:0:0
200,288,96545,1,0,0:0:0
188,288,96628,1,0,0:0:0
176,288,96712,1,0,0:0:0
164,288,96795,5,2,0:0:0
164,276,96878,1,0,0:0:0
164,264,96962,1,0,0:0:0
164,252,97045,1,0,0:0:0
164,240,97128,1,2,0:0:0
164,228,97212,1,0,0:0:0
164,216,97295,1,0,0:0:0
164,204,97378,1,0,0:0:0
164,192,97462,5,2,0:0:0
164,180,97545,1,0,0:0:0
164,168,97628,1,0,0:0:0
164,156,97712,1,0,0:0:0
164,144,97795,1,2,0:0:0
164,132,97878,1,0,0:0:0
164,120,97962,1,0,0:0:0
164,108,98045,1,0,0:0:0
164,96,98128,5,2,0:0:0
176,96,98211,1,0,0:0:0
188,96,98295,1,0,0:0:0
200,96,98378,1,0,0:0:0
212,96,98461,1,2,0:0:0
224,96,98545,1,0,0:0:0
236,96,98628,1,0,0:0:0
248,96,98711,1,0,0:0:0
260,96,98795,5,2,0:0:0
272,96,98878,1,0,0:0:0
284,96,98961,1,0,0:0:0
296,96,99045,1,0,0:0:0
308,96,99128,1,2,0:0:0
320,96,99211,1,0,0:0:0
332,96,99295,1,0,0:0:0
344,96,99378,1,0,0:0:0
356,96,99461,5,2,0:0:0
356,108,99545,1,0,0:0:0
356,120,99628,1,0,0:0:0
356,132,99711,1,0,0:0:0
356,144,99795,1,2,0:0:0
356,156,99878,1,0,0:0:0
356,168,99961,1,0,0:0:0
356,180,100045,1,0,0:0:0
356,192,100128,5,2,0:0:0
356,204,100211,1,0,0:0:0
356,216,100295,1,0,0:0:0
356,228,100378,1,0,0:0:0
356,240,100461,1,2,0:0:0
356,252,100545,1,0,0:0:0
356,264,100628,1,0,0:0:0
356,276,100711,1,0,0:0:0
356,288,100795,5,2,0:0:0
344,288,100878,1,0,0:0:0
332,288,100961,1,0,0:0:0
320,288,101045,1,0,0:0:0
308,288,101128,1,2,0:0:0
296,288,101211,1,0,0:0:0
284,288,101295,1,0,0:0:0
272,288,101378,1,0,0:0:0
260,288,101461,5,2,0:0:0
248,288,101545,1,0,0:0:0
236,288,101628,1,0,0:0:0
224,288,101711,1,0,0:0:0
212,288,101795,1,2,0:0:0
200,288,101878,1,0,0:0:0
188,288,101961,1,0,0:0:0
176,288,102045,1,0,0:0:0
164,288,102128,5,2,0:0:0
164,276,102211,1,0,0:0:0
164,264,102295,1,0,0:0:0
164,252,102378,1,0,0:0:0
164,240,102461,1,2,0:0:0
164,228,102545,1,0,0:0:0
164,216,102628,1,0,0:0:0
164,204,102711,1,0,0:0:0
164,192,102795,5,2,0:0:0
164,180,102878,1,0,0:0:0
164,168,102961,1,0,0:0:0
164,156,103045,1,0,0:0:0
164,144,103128,1,2,0:0:0
164,132,103211,1,0,0:0:0
164,120,103295,1,0,0:0:0
164,108,103378,1,0,0:0:0
164,96,103462,5,2,0:0:0
176,96,103545,1,0,0:0:0
188,96,103629,1,0,0:0:0
200,96,103712,1,0,0:0:0
212,96,103795,1,2,0:0:0
224,96,103879,1,0,0:0:0
236,96,103962,1,0,0:0:0
248,96,104045,1,0,0:0:0
260,96,104129,5,2,0:0:0
272,96,104212,1,0,0:0:0
284,96,104295,1,0,0:0:0
296,96,104379,1,0,0:0:0
308,96,104462,1,2,0:0:0
320,96,104545,1,0,0:0:0
332,96,104629,1,0,0:0:0
344,96,104712,1,0,0:0:0
356,96,104795,5,2,0:0:0
356,108,104879,1,0,0:0:0
356,120,104962,1,0,0:0:0
356,132,105045,1,0,0:0:0
356,144,105129,1,2,0:0:0
356,156,105212,1,0,0:0:0
356,168,105295,1,0,0:0:0
356,180,105379,1,0,0:0:0
356,192,105462,5,2,0:0:0
356,204,105545,1,0,0:0:0
356,216,105629,1,0,0:0:0
356,228,105712,1,0,0:0:0
356,240,105795,1,2,0:0:0
356,252,105879,1,0,0:0:0
356,264,105962,1,0,0:0:0
356,276,106045,1,0,0:0:0
356,288,106129,5,2,0:0:0
344,288,106212,1,0,0:0:0
332,288,106295,1,0,0:0:0
320,288,106379,1,0,0:0:0
308,288,106462,1,2,0:0:0
296,288,106545,1,0,0:0:0
284,288,106629,1,0,0:0:0
272,288,106712,1,0,0:0:0
260,288,106795,5,2,0:0:0
248,288,106879,1,0,0:0:0
236,288,106962,1,0,0:0:0
224,288,107045,1,0,0:0:0
212,288,107129,1,2,0:0:0
200,288,107212,1,0,0:0:0
188,288,107295,1,0,0:0:0
176,288,107379,1,0,0:0:0
164,288,107462,5,2,0:0:0
164,276,107545,1,0,0:0:0
164,264,107629,1,0,0:0:0
164,252,107712,1,0,0:0:0
164,240,107795,1,2,0:0:0
164,228,107879,1,0,0:0:0
164,216,107962,1,0,0:0:0
164,204,108045,1,0,0:0:0
164,192,108129,5,2,0:0:0
164,180,108212,1,0,0:0:0
164,168,108295,1,0,0:0:0
164,156,108379,1,0,0:0:0
164,144,108462,1,2,0:0:0
164,132,108545,1,0,0:0:0
164,120,108629,1,0,0:0:0
164,108,108712,1,0,0:0:0
164,96,108795,5,2,0:0:0
176,96,108878,1,0,0:0:0
188,96,108962,1,0,0:0:0
200,96,109045,1,0,0:0:0
212,96,109128,1,2,0:0:0
224,96,109212,1,0,0:0:0
236,96,109295,1,0,0:0:0
248,96,109378,1,0,0:0:0
260,96,109462,5,2,0:0:0
272,96,109545,1,0,0:0:0
284,96,109628,1,0,0:0:0
296,96,109712,1,0,0:0:0
308,96,109795,1,2,0:0:0
320,96,109878,1,0,0:0:0
332,96,109962,1,0,0:0:0
344,96,110045,1,0,0:0:0
356,96,110128,5,2,0:0:0
356,108,110212,1,0,0:0:0
356,120,110295,1,0,0:0:0
356,132,110378,1,0,0:0:0
356,144,110462,1,2,0:0:0
356,156,110545,1,0,0:0:0
356,168,110628,1,0,0:0:0
356,180,110712,1,0,0:0:0
356,192,110795,5,2,0:0:0
356,204,110878,1,0,0:0:0
356,216,110962,1,0,0:0:0
356,228,111045,1,0,0:0:0
356,240,111128,1,2,0:0:0
356,252,111212,1,0,0:0:0
356,264,111295,1,0,0:0:0
356,276,111378,1,0,0:0:0
356,288,111462,5,2,0:0:0
344,288,111545,1,0,0:0:0
332,288,111628,1,0,0:0:0
320,288,111712,1,0,0:0:0
308,288,111795,1,2,0:0:0
296,288,111878,1,0,0:0:0
284,288,111962,1,0,0:0:0
272,288,112045,1,0,0:0:0
260,288,112128,5,2,0:0:0
248,288,112212,1,0,0:0:0
236,288,112295,1,0,0:0:0
224,288,112378,1,0,0:0:0
212,288,112462,1,2,0:0:0
200,288,112545,1,0,0:0:0
188,288,112628,1,0,0:0:0
176,288,112712,1,0,0:0:0
164,288,112795,5,2,0:0:0
164,276,112878,1,0,0:0:0
164,264,112962,1,0,0:0:0
164,252,113045,1,0,0:0:0
164,240,113128,1,2,0:0:0
164,228,113212,1,0,0:0:0
164,216,113295,1,0,0:0:0
164,204,113378,1,0,0:0:0
164,192,113462,5,2,0:0:0
164,180,113545,1,0,0:0:0
164,168,113628,1,0,0:0:0
164,156,113712,1,0,0:0:0
164,144,113795,1,2,0:0:0
164,132,113878,1,0,0:0:0
164,120,113962,1,0,0:0:0
164,108,114045,1,0,0:0:0
164,96,114129,5,2,0:0:0
176,96,114212,1,0,0:0:0
188,96,114296,1,0,0:0:0
200,96,114379,1,0,0:0:0
212,96,114462,1,2,0:0:0
224,96,114546,1,0,0:0:0
236,96,114629,1,0,0:0:0
248,96,114712,1,0,0:0:0
260,96,114796,5,2,0:0:0
272,96,114879,1,0,0:0:0
284,96,114962,1,0,0:0:0
296,96,115046,1,0,0:0:0
308,96,115129,1,2,0:0:0
320,96,115212,1,0,0:0:0
332,96,115296,1,0,0:0:0
344,96,115379,1,0,0:0:0
356,96,115462,5,2,0:0:0
356,108,115546,1,0,0:0:0
356,120,115629,1,0,0:0:0
356,132,115712,1,0,0:0:0
356,144,115796,1,2,0:0:0
356,156,115879,1,0,0:0:0
356,168,115962,1,0,0:0:0
356,180,116046,1,0,0:0:0
356,192,116129,5,2,0:0:0
356,204,116212,1,0,0:0:0
356,216,116296,1,0,0:0:0
356,228,116379,1,0,0:0:0
356,240,116462,1,2,0:0:0
356,252,116546,1,0,0:0:0
356,264,116629,1,0,0:0:0
356,276,116712,1,0,0:0:0
356,288,116796,5,2,0:0:0
344,288,116879,1,0,0:0:0
332,288,116962,1,0,0:0:0
320,288,117046,1,0,0:0:0
308,288,117129,1,2,0:0:0
296,288,117212,1,0,0:0:0
284,288,117296,1,0,0:0:0
272,288,117379,1,0,0:0:0
260,288,117462,5,2,0:0:0
248,288,117546,1,0,0:0:0
236,288,117629,1,0,0:0:0
224,288,117712,1,0,0:0:0
212,288,117796,1,2,0:0:0
200,288,117879,1,0,0:0:0
188,288,117962,1,0,0:0:0
176,288,118046,1,0,0:0:0
164,288,118129,5,2,0:0:0
164,276,118212,1,0,0:0:0
164,264,118296,1,0,0:0:0
164,252,118379,1,0,0:0:0
164,240,118462,1,2,0:0:0
164,228,118546,1,0,0:0:0
164,216,118629,1,0,0:0:0
164,204,118712,1,0,0:0:0
164,192,118796,5,2,0:0:0
164,180,118879,1,0,0:0:0
164,168,118962,1,0,0:0:0
164,156,119046,1,0,0:0:0
164,144,119129,1,2,0:0:0
164,132,119212,1,0,0:0:0
164,120,119296,1,0,0:0:0
164,108,119379,1,0,0:0:0
164,96,119462,5,2,0:0:0
176,96,119545,1,0,0:0:0
188,96,119629,1,0,0:0:0
200,96,119712,1,0,0:0:0
212,96,119795,1,2,0:0:0
224,96,119879,1,0,0:0:0
236,96,119962,1,0,0:0:0
248,96,120045,1,0,0:0:0
260,96,120129,5,2,0:0:0
272,96,120212,1,0,0:0:0
284,96,120295,1,0,0:0:0
296,96,120379,1,0,0:0:0
308,96,120462,1,2,0:0:0
320,96,120545,1,0,0:0:0
332,96,120629,1,0,0:0:0
344,96,120712,1,0,0:0:0
356,96,120795,5,2,0:0:0
356,108,120879,1,0,0:0:0
356,120,120962,1,0,0:0:0
356,132,121045,1,0,0:0:0
356,144,121129,1,2,0:0:0
356,156,121212,1,0,0:0:0
356,168,121295,1,0,0:0:0
356,180,121379,1,0,0:0:0
356,192,121462,5,2,0:0:0
356,204,121545,1,0,0:0:0
356,216,121629,1,0,0:0:0
356,228,121712,1,0,0:0:0
356,240,121795,1,2,0:0:0
356,252,121879,1,0,0:0:0
356,264,121962,1,0,0:0:0
356,276,122045,1,0,0:0:0
356,288,122129,5,2,0:0:0
344,288,122212,1,0,0:0:0
332,288,122295,1,0,0:0:0
320,288,122379,1,0,0:0:0
308,288,122462,1,2,0:0:0
296,288,122545,1,0,0:0:0
284,288,122629,1,0,0:0:0
272,288,122712,1,0,0:0:0
260,288,122795,5,2,0:0:0
248,288,122879,1,0,0:0:0
236,288,122962,1,0,0:0:0
224,288,123045,1,0,0:0:0
212,288,123129,1,2,0:0:0
200,288,123212,1,0,0:0:0
188,288,123295,1,0,0:0:0
176,288,123379,1,0,0:0:0
164,288,123462,5,2,0:0:0
164,276,123545,1,0,0:0:0
164,264,123629,1,0,0:0:0
164,252,123712,1,0,0:0:0
164,240,123795,1,2,0:0:0
164,228,123879,1,0,0:0:0
164,216,123962,1,0,0:0:0
164,204,124045,1,0,0:0:0
164,192,124129,5,2,0:0:0
164,180,124212,1,0,0:0:0
164,168,124295,1,0,0:0:0
164,156,124379,1,0,0:0:0
164,144,124462,1,2,0:0:0
164,132,124545,1,0,0:0:0
164,120,124629,1,0,0:0:0
164,108,124712,1,0,0:0:0
164,96,124795,5,2,0:0:0
176,96,124878,1,0,0:0:0
188,96,124962,1,0,0:0:0
200,96,125045,1,0,0:0:0
212,96,125128,1,2,0:0:0
224,96,125212,1,0,0:0:0
236,96,125295,1,0,0:0:0
248,96,125378,1,0,0:0:0
260,96,125462,5,2,0:0:0
272,96,125545,1,0,0:0:0
284,96,125628,1,0,0:0:0
296,96,125712,1,0,0:0:0
308,96,125795,1,2,0:0:0
320,96,125878,1,0,0:0:0
332,96,125962,1,0,0:0:0
344,96,126045,1,0,0:0:0
356,96,126128,5,2,0:0:0
356,108,126212,1,0,0:0:0
356,120,126295,1,0,0:0:0
356,132,126378,1,0,0:0:0
356,144,126462,1,2,0:0:0
356,156,126545,1,0,0:0:0
356,168,126628,1,0,0:0:0
356,180,126712,1,0,0:0:0
356,192,126795,5,2,0:0:0
356,204,126878,1,0,0:0:0
356,216,126962,1,0,0:0:0
356,228,127045,1,0,0:0:0
356,240,127128,1,2,0:0:0
356,252,127212,1,0,0:0:0
356,264,127295,1,0,0:0:0
356,276,127378,1,0,0:0:0
356,288,127462,1,2,0:0:0
256,192,127545,12,0,130129,0:0:0
