osu file format v11

[General]
AudioFilename: axion.mp3
AudioLeadIn: 0
PreviewTime: 23567
Countdown: 0
SampleSet: Soft
StackLeniency: 0.6
Mode: 0
LetterboxInBreaks: 0

[Editor]
Bookmarks: 10281,17138,23995,30853,37710,44567,51424,54857,61710,70281,77138,83995,90853,97710,104567,111424
DistanceSpacing: 0.4
BeatDivisor: 4
GridSize: 8

[Metadata]
Title:Long Stream Practice Maps
TitleUnicode:Long Stream Practice Maps
Artist:Various Artist
ArtistUnicode:Various Artist
Creator:onlyforyou
Version:AXION BPM160
Source:
Tags:
BeatmapID:207087
BeatmapSetID:72474

[Difficulty]
HPDrainRate:7
CircleSize:4
OverallDifficulty:7
ApproachRate:8
SliderMultiplier:1.6
SliderTickRate:1

[Events]
//Background and Video events
0,0,"axion.jpg"
//Break Periods
//Storyboard Layer 0 (Background)
//Storyboard Layer 1 (Fail)
//Storyboard Layer 2 (Pass)
//Storyboard Layer 3 (Foreground)
//Storyboard Sound Samples
//Background Colour Transformations
3,100,0,0,0

[TimingPoints]
400,375,4,2,1,80,1,0
51400,-100,4,2,1,80,0,1
63353,-100,4,2,1,80,0,0
63400,-200,4,2,1,80,0,1
63446,-200,4,2,1,80,0,0
117493,-100,4,2,0,5,0,0

[Colours]
Combo1 : 255,255,128
Combo2 : 255,0,0
Combo3 : 128,255,128
Combo4 : 255,128,64

[HitObjects]
112,64,1900,5,2,0:0:0
128,64,1993,1,0,0:0:0
144,64,2087,1,0,0:0:0
160,64,2181,1,0,0:0:0
176,64,2275,1,2,0:0:0
192,64,2368,1,0,0:0:0
208,64,2462,1,0,0:0:0
224,64,2556,1,0,0:0:0
240,64,2650,5,2,0:0:0
256,64,2743,1,0,0:0:0
272,64,2837,1,0,0:0:0
288,64,2931,1,0,0:0:0
304,64,3025,1,2,0:0:0
320,64,3118,1,0,0:0:0
336,64,3212,1,0,0:0:0
352,64,3306,1,0,0:0:0
368,64,3400,5,2,0:0:0
368,80,3493,1,0,0:0:0
368,96,3587,1,0,0:0:0
368,112,3681,1,0,0:0:0
368,128,3775,1,2,0:0:0
368,144,3868,1,0,0:0:0
368,160,3962,1,0,0:0:0
368,176,4056,1,0,0:0:0
368,192,4150,5,2,0:0:0
368,208,4243,1,0,0:0:0
368,224,4337,1,0,0:0:0
368,240,4431,1,0,0:0:0
368,256,4525,1,2,0:0:0
368,272,4618,1,0,0:0:0
368,288,4712,1,0,0:0:0
368,304,4806,1,0,0:0:0
368,320,4900,5,2,0:0:0
352,320,4993,1,0,0:0:0
336,320,5087,1,0,0:0:0
320,320,5181,1,0,0:0:0
304,320,5275,1,2,0:0:0
288,320,5368,1,0,0:0:0
272,320,5462,1,0,0:0:0
256,320,5556,1,0,0:0:0
240,320,5650,5,2,0:0:0
224,320,5743,1,0,0:0:0
208,320,5837,1,0,0:0:0
192,320,5931,1,0,0:0:0
176,320,6025,1,2,0:0:0
160,320,6118,1,0,0:0:0
144,320,6212,1,0,0:0:0
128,320,6306,1,0,0:0:0
112,320,6400,5,2,0:0:0
112,304,6493,1,0,0:0:0
112,288,6587,1,0,0:0:0
112,272,6681,1,0,0:0:0
112,256,6775,1,2,0:0:0
112,240,6868,1,0,0:0:0
112,224,6962,1,0,0:0:0
112,208,7056,1,0,0:0:0
112,192,7150,5,2,0:0:0
112,176,7243,1,0,0:0:0
112,160,7337,1,0,0:0:0
112,144,7431,1,0,0:0:0
112,128,7525,1,2,0:0:0
112,112,7618,1,0,0:0:0
112,96,7712,1,0,0:0:0
112,80,7806,1,0,0:0:0
112,64,7900,5,2,0:0:0
128,64,7993,1,0,0:0:0
144,64,8087,1,0,0:0:0
160,64,8181,1,0,0:0:0
176,64,8275,1,2,0:0:0
192,64,8368,1,0,0:0:0
208,64,8462,1,0,0:0:0
224,64,8556,1,0,0:0:0
240,64,8650,5,2,0:0:0
256,64,8743,1,0,0:0:0
272,64,8837,1,0,0:0:0
288,64,8931,1,0,0:0:0
304,64,9025,1,2,0:0:0
320,64,9118,1,0,0:0:0
336,64,9212,1,0,0:0:0
352,64,9306,1,0,0:0:0
368,64,9400,5,2,0:0:0
368,80,9493,1,0,0:0:0
368,96,9587,1,0,0:0:0
368,112,9681,1,0,0:0:0
368,128,9775,1,2,0:0:0
368,144,9868,1,0,0:0:0
368,160,9962,1,0,0:0:0
368,176,10056,1,0,0:0:0
368,192,10150,5,2,0:0:0
368,208,10243,1,0,0:0:0
368,224,10337,1,0,0:0:0
368,240,10431,1,0,0:0:0
368,256,10525,1,2,0:0:0
368,272,10618,1,0,0:0:0
368,288,10712,1,0,0:0:0
368,304,10806,1,0,0:0:0
368,320,10900,5,2,0:0:0
352,320,10993,1,0,0:0:0
336,320,11087,1,0,0:0:0
320,320,11181,1,0,0:0:0
304,320,11275,1,2,0:0:0
288,320,11368,1,0,0:0:0
272,320,11462,1,0,0:0:0
256,320,11556,1,0,0:0:0
240,320,11650,5,2,0:0:0
224,320,11743,1,0,0:0:0
208,320,11837,1,0,0:0:0
192,320,11931,1,0,0:0:0
176,320,12025,1,2,0:0:0
160,320,12118,1,0,0:0:0
144,320,12212,1,0,0:0:0
128,320,12306,1,0,0:0:0
112,320,12400,5,2,0:0:0
112,304,12493,1,0,0:0:0
112,288,12587,1,0,0:0:0
112,272,12681,1,0,0:0:0
112,256,12775,1,2,0:0:0
112,240,12868,1,0,0:0:0
112,224,12962,1,0,0:0:0
112,208,13056,1,0,0:0:0
112,192,13150,5,2,0:0:0
112,176,13243,1,0,0:0:0
112,160,13337,1,0,0:0:0
112,144,13431,1,0,0:0:0
112,128,13525,1,2,0:0:0
112,112,13618,1,0,0:0:0
112,96,13712,1,0,0:0:0
112,80,13806,1,0,0:0:0
112,64,13900,5,2,0:0:0
128,64,13993,1,0,0:0:0
144,64,14087,1,0,0:0:0
160,64,14181,1,0,0:0:0
176,64,14275,1,2,0:0:0
192,64,14368,1,0,0:0:0
208,64,14462,1,0,0:0:0
224,64,14556,1,0,0:0:0
240,64,14650,5,2,0:0:0
256,64,14743,1,0,0:0:0
272,64,14837,1,0,0:0:0
288,64,14931,1,0,0:0:0
304,64,15025,1,2,0:0:0
320,64,15118,1,0,0:0:0
336,64,15212,1,0,0:0:0
352,64,15306,1,0,0:0:0
368,64,15400,5,2,0:0:0
368,80,15493,1,0,0:0:0
368,96,15587,1,0,0:0:0
368,112,15681,1,0,0:0:0
368,128,15775,1,2,0:0:0
368,144,15868,1,0,0:0:0
368,160,15962,1,0,0:0:0
368,176,16056,1,0,0:0:0
368,192,16150,5,2,0:0:0
368,208,16243,1,0,0:0:0
368,224,16337,1,0,0:0:0
368,240,16431,1,0,0:0:0
368,256,16525,1,2,0:0:0
368,272,16618,1,0,0:0:0
368,288,16712,1,0,0:0:0
368,304,16806,1,0,0:0:0
368,320,16900,5,2,0:0:0
352,320,16993,1,0,0:0:0
336,320,17087,1,0,0:0:0
320,320,17181,1,0,0:0:0
304,320,17275,1,2,0:0:0
288,320,17368,1,0,0:0:0
272,320,17462,1,0,0:0:0
256,320,17556,1,0,0:0:0
240,320,17650,5,2,0:0:0
224,320,17743,1,0,0:0:0
208,320,17837,1,0,0:0:0
192,320,17931,1,0,0:0:0
176,320,18025,1,2,0:0:0
160,320,18118,1,0,0:0:0
144,320,18212,1,0,0:0:0
128,320,18306,1,0,0:0:0
112,320,18400,5,2,0:0:0
112,304,18493,1,0,0:0:0
112,288,18587,1,0,0:0:0
112,272,18681,1,0,0:0:0
112,256,18775,1,2,0:0:0
112,240,18868,1,0,0:0:0
112,224,18962,1,0,0:0:0
112,208,19056,1,0,0:0:0
112,192,19150,5,2,0:0:0
112,176,19243,1,0,0:0:0
112,160,19337,1,0,0:0:0
112,144,19431,1,0,0:0:0
112,128,19525,1,2,0:0:0
112,112,19618,1,0,0:0:0
112,96,19712,1,0,0:0:0
112,80,19806,1,0,0:0:0
112,64,19900,5,2,0:0:0
128,64,19993,1,0,0:0:0
144,64,20087,1,0,0:0:0
160,64,20181,1,0,0:0:0
176,64,20275,1,2,0:0:0
192,64,20368,1,0,0:0:0
208,64,20462,1,0,0:0:0
224,64,20556,1,0,0:0:0
240,64,20650,5,2,0:0:0
256,64,20743,1,0,0:0:0
272,64,20837,1,0,0:0:0
288,64,20931,1,0,0:0:0
304,64,21025,1,2,0:0:0
320,64,21118,1,0,0:0:0
336,64,21212,1,0,0:0:0
352,64,21306,1,0,0:0:0
368,64,21400,5,2,0:0:0
368,80,21493,1,0,0:0:0
368,96,21587,1,0,0:0:0
368,112,21681,1,0,0:0:0
368,128,21775,1,2,0:0:0
368,144,21868,1,0,0:0:0
368,160,21962,1,0,0:0:0
368,176,22056,1,0,0:0:0
368,192,22150,5,2,0:0:0
368,208,22243,1,0,0:0:0
368,224,22337,1,0,0:0:0
368,240,22431,1,0,0:0:0
368,256,22525,1,2,0:0:0
368,272,22618,1,0,0:0:0
368,288,22712,1,0,0:0:0
368,304,22806,1,0,0:0:0
368,320,22900,5,2,0:0:0
352,320,22993,1,0,0:0:0
336,320,23087,1,0,0:0:0
320,320,23181,1,0,0:0:0
304,320,23275,1,2,0:0:0
288,320,23368,1,0,0:0:0
272,320,23462,1,0,0:0:0
256,320,23556,1,0,0:0:0
240,320,23650,5,2,0:0:0
224,320,23743,1,0,0:0:0
208,320,23837,1,0,0:0:0
192,320,23931,1,0,0:0:0
176,320,24025,1,2,0:0:0
160,320,24118,1,0,0:0:0
144,320,24212,1,0,0:0:0
128,320,24306,1,0,0:0:0
112,320,24400,5,2,0:0:0
112,304,24493,1,0,0:0:0
112,288,24587,1,0,0:0:0
112,272,24681,1,0,0:0:0
112,256,24775,1,2,0:0:0
112,240,24868,1,0,0:0:0
112,224,24962,1,0,0:0:0
112,208,25056,1,0,0:0:0
112,192,25150,5,2,0:0:0
112,176,25243,1,0,0:0:0
112,160,25337,1,0,0:0:0
112,144,25431,1,0,0:0:0
112,128,25525,1,2,0:0:0
112,112,25618,1,0,0:0:0
112,96,25712,1,0,0:0:0
112,80,25806,1,0,0:0:0
112,64,25900,5,2,0:0:0
128,64,25993,1,0,0:0:0
144,64,26087,1,0,0:0:0
160,64,26181,1,0,0:0:0
176,64,26275,1,2,0:0:0
192,64,26368,1,0,0:0:0
208,64,26462,1,0,0:0:0
224,64,26556,1,0,0:0:0
240,64,26650,5,2,0:0:0
256,64,26743,1,0,0:0:0
272,64,26837,1,0,0:0:0
288,64,26931,1,0,0:0:0
304,64,27025,1,2,0:0:0
320,64,27118,1,0,0:0:0
336,64,27212,1,0,0:0:0
352,64,27306,1,0,0:0:0
368,64,27400,5,2,0:0:0
368,80,27493,1,0,0:0:0
368,96,27587,1,0,0:0:0
368,112,27681,1,0,0:0:0
368,128,27775,1,2,0:0:0
368,144,27868,1,0,0:0:0
368,160,27962,1,0,0:0:0
368,176,28056,1,0,0:0:0
368,192,28150,5,2,0:0:0
368,208,28243,1,0,0:0:0
368,224,28337,1,0,0:0:0
368,240,28431,1,0,0:0:0
368,256,28525,1,2,0:0:0
368,272,28618,1,0,0:0:0
368,288,28712,1,0,0:0:0
368,304,28806,1,0,0:0:0
368,320,28900,5,2,0:0:0
352,320,28993,1,0,0:0:0
336,320,29087,1,0,0:0:0
320,320,29181,1,0,0:0:0
304,320,29275,1,2,0:0:0
288,320,29368,1,0,0:0:0
272,320,29462,1,0,0:0:0
256,320,29556,1,0,0:0:0
240,320,29650,5,2,0:0:0
224,320,29743,1,0,0:0:0
208,320,29837,1,0,0:0:0
192,320,29931,1,0,0:0:0
176,320,30025,1,2,0:0:0
160,320,30118,1,0,0:0:0
144,320,30212,1,0,0:0:0
128,320,30306,1,0,0:0:0
112,320,30400,5,2,0:0:0
112,304,30493,1,0,0:0:0
112,288,30587,1,0,0:0:0
112,272,30681,1,0,0:0:0
112,256,30775,1,2,0:0:0
112,240,30868,1,0,0:0:0
112,224,30962,1,0,0:0:0
112,208,31056,1,0,0:0:0
112,192,31150,5,2,0:0:0
112,176,31243,1,0,0:0:0
112,160,31337,1,0,0:0:0
112,144,31431,1,0,0:0:0
112,128,31525,1,2,0:0:0
112,112,31618,1,0,0:0:0
112,96,31712,1,0,0:0:0
112,80,31806,1,0,0:0:0
112,64,31900,5,2,0:0:0
128,64,31993,1,0,0:0:0
144,64,32087,1,0,0:0:0
160,64,32181,1,0,0:0:0
176,64,32275,1,2,0:0:0
192,64,32368,1,0,0:0:0
208,64,32462,1,0,0:0:0
224,64,32556,1,0,0:0:0
240,64,32650,5,2,0:0:0
256,64,32743,1,0,0:0:0
272,64,32837,1,0,0:0:0
288,64,32931,1,0,0:0:0
304,64,33025,1,2,0:0:0
320,64,33118,1,0,0:0:0
336,64,33212,1,0,0:0:0
352,64,33306,1,0,0:0:0
368,64,33400,5,2,0:0:0
368,80,33493,1,0,0:0:0
368,96,33587,1,0,0:0:0
368,112,33681,1,0,0:0:0
368,128,33775,1,2,0:0:0
368,144,33868,1,0,0:0:0
368,160,33962,1,0,0:0:0
368,176,34056,1,0,0:0:0
368,192,34150,5,2,0:0:0
368,208,34243,1,0,0:0:0
368,224,34337,1,0,0:0:0
368,240,34431,1,0,0:0:0
368,256,34525,1,2,0:0:0
368,272,34618,1,0,0:0:0
368,288,34712,1,0,0:0:0
368,304,34806,1,0,0:0:0
368,320,34900,5,2,0:0:0
352,320,34993,1,0,0:0:0
336,320,35087,1,0,0:0:0
320,320,35181,1,0,0:0:0
304,320,35275,1,2,0:0:0
288,320,35368,1,0,0:0:0
272,320,35462,1,0,0:0:0
256,320,35556,1,0,0:0:0
240,320,35650,5,2,0:0:0
224,320,35743,1,0,0:0:0
208,320,35837,1,0,0:0:0
192,320,35931,1,0,0:0:0
176,320,36025,1,2,0:0:0
160,320,36118,1,0,0:0:0
144,320,36212,1,0,0:0:0
128,320,36306,1,0,0:0:0
112,320,36400,5,2,0:0:0
112,304,36493,1,0,0:0:0
112,288,36587,1,0,0:0:0
112,272,36681,1,0,0:0:0
112,256,36775,1,2,0:0:0
112,240,36868,1,0,0:0:0
112,224,36962,1,0,0:0:0
112,208,37056,1,0,0:0:0
112,192,37150,5,2,0:0:0
112,176,37243,1,0,0:0:0
112,160,37337,1,0,0:0:0
112,144,37431,1,0,0:0:0
112,128,37525,1,2,0:0:0
112,112,37618,1,0,0:0:0
112,96,37712,1,0,0:0:0
112,80,37806,1,0,0:0:0
112,64,37900,5,2,0:0:0
128,64,37993,1,0,0:0:0
144,64,38087,1,0,0:0:0
160,64,38181,1,0,0:0:0
176,64,38275,1,2,0:0:0
192,64,38368,1,0,0:0:0
208,64,38462,1,0,0:0:0
224,64,38556,1,0,0:0:0
240,64,38650,5,2,0:0:0
256,64,38743,1,0,0:0:0
272,64,38837,1,0,0:0:0
288,64,38931,1,0,0:0:0
304,64,39025,1,2,0:0:0
320,64,39118,1,0,0:0:0
336,64,39212,1,0,0:0:0
352,64,39306,1,0,0:0:0
368,64,39400,5,2,0:0:0
368,80,39493,1,0,0:0:0
368,96,39587,1,0,0:0:0
368,112,39681,1,0,0:0:0
368,128,39775,1,2,0:0:0
368,144,39868,1,0,0:0:0
368,160,39962,1,0,0:0:0
368,176,40056,1,0,0:0:0
368,192,40150,5,2,0:0:0
368,208,40243,1,0,0:0:0
368,224,40337,1,0,0:0:0
368,240,40431,1,0,0:0:0
368,256,40525,1,2,0:0:0
368,272,40618,1,0,0:0:0
368,288,40712,1,0,0:0:0
368,304,40806,1,0,0:0:0
368,320,40900,5,2,0:0:0
352,320,40993,1,0,0:0:0
336,320,41087,1,0,0:0:0
320,320,41181,1,0,0:0:0
304,320,41275,1,2,0:0:0
288,320,41368,1,0,0:0:0
272,320,41462,1,0,0:0:0
256,320,41556,1,0,0:0:0
240,320,41650,5,2,0:0:0
224,320,41743,1,0,0:0:0
208,320,41837,1,0,0:0:0
192,320,41931,1,0,0:0:0
176,320,42025,1,2,0:0:0
160,320,42118,1,0,0:0:0
144,320,42212,1,0,0:0:0
128,320,42306,1,0,0:0:0
112,320,42400,5,2,0:0:0
112,304,42493,1,0,0:0:0
112,288,42587,1,0,0:0:0
112,272,42681,1,0,0:0:0
112,256,42775,1,2,0:0:0
112,240,42868,1,0,0:0:0
112,224,42962,1,0,0:0:0
112,208,43056,1,0,0:0:0
112,192,43150,5,2,0:0:0
112,176,43243,1,0,0:0:0
112,160,43337,1,0,0:0:0
112,144,43431,1,0,0:0:0
112,128,43525,1,2,0:0:0
112,112,43618,1,0,0:0:0
112,96,43712,1,0,0:0:0
112,80,43806,1,0,0:0:0
112,64,43900,5,2,0:0:0
128,64,43993,1,0,0:0:0
144,64,44087,1,0,0:0:0
160,64,44181,1,0,0:0:0
176,64,44275,1,2,0:0:0
192,64,44368,1,0,0:0:0
208,64,44462,1,0,0:0:0
224,64,44556,1,0,0:0:0
240,64,44650,5,2,0:0:0
256,64,44743,1,0,0:0:0
272,64,44837,1,0,0:0:0
288,64,44931,1,0,0:0:0
304,64,45025,1,2,0:0:0
320,64,45118,1,0,0:0:0
336,64,45212,1,0,0:0:0
352,64,45306,1,0,0:0:0
368,64,45400,5,2,0:0:0
368,80,45493,1,0,0:0:0
368,96,45587,1,0,0:0:0
368,112,45681,1,0,0:0:0
368,128,45775,1,2,0:0:0
368,144,45868,1,0,0:0:0
368,160,45962,1,0,0:0:0
368,176,46056,1,0,0:0:0
368,192,46150,5,2,0:0:0
368,208,46243,1,0,0:0:0
368,224,46337,1,0,0:0:0
368,240,46431,1,0,0:0:0
368,256,46525,1,2,0:0:0
368,272,46618,1,0,0:0:0
368,288,46712,1,0,0:0:0
368,304,46806,1,0,0:0:0
368,320,46900,5,2,0:0:0
352,320,46993,1,0,0:0:0
336,320,47087,1,0,0:0:0
320,320,47181,1,0,0:0:0
304,320,47275,1,2,0:0:0
288,320,47368,1,0,0:0:0
272,320,47462,1,0,0:0:0
256,320,47556,1,0,0:0:0
240,320,47650,5,2,0:0:0
224,320,47743,1,0,0:0:0
208,320,47837,1,0,0:0:0
192,320,47931,1,0,0:0:0
176,320,48025,1,2,0:0:0
160,320,48118,1,0,0:0:0
144,320,48212,1,0,0:0:0
128,320,48306,1,0,0:0:0
112,320,48400,5,2,0:0:0
112,304,48493,1,0,0:0:0
112,288,48587,1,0,0:0:0
112,272,48681,1,0,0:0:0
112,256,48775,1,2,0:0:0
112,240,48868,1,0,0:0:0
112,224,48962,1,0,0:0:0
112,208,49056,1,0,0:0:0
112,192,49150,5,2,0:0:0
112,176,49243,1,0,0:0:0
112,160,49337,1,0,0:0:0
112,144,49431,1,0,0:0:0
112,128,49525,1,2,0:0:0
112,112,49618,1,0,0:0:0
112,96,49712,1,0,0:0:0
112,80,49806,1,0,0:0:0
112,64,49900,5,2,0:0:0
128,64,49993,1,0,0:0:0
144,64,50087,1,0,0:0:0
160,64,50181,1,0,0:0:0
176,64,50275,1,2,0:0:0
192,64,50368,1,0,0:0:0
208,64,50462,1,0,0:0:0
224,64,50556,1,0,0:0:0
240,64,50650,5,2,0:0:0
256,64,50743,1,0,0:0:0
272,64,50837,1,0,0:0:0
288,64,50931,1,0,0:0:0
304,64,51025,1,2,0:0:0
320,64,51118,1,0,0:0:0
336,64,51212,1,0,0:0:0
352,64,51306,1,0,0:0:0
368,64,51400,5,2,0:0:0
368,80,51493,1,0,0:0:0
368,96,51587,1,0,0:0:0
368,112,51681,1,0,0:0:0
368,128,51775,1,2,0:0:0
368,144,51868,1,0,0:0:0
368,160,51962,1,0,0:0:0
368,176,52056,1,0,0:0:0
368,192,52150,5,2,0:0:0
368,208,52243,1,0,0:0:0
368,224,52337,1,0,0:0:0
368,240,52431,1,0,0:0:0
368,256,52525,1,2,0:0:0
368,272,52618,1,0,0:0:0
368,288,52712,1,0,0:0:0
368,304,52806,1,0,0:0:0
368,320,52900,5,2,0:0:0
352,320,52993,1,0,0:0:0
336,320,53087,1,0,0:0:0
320,320,53181,1,0,0:0:0
304,320,53275,1,2,0:0:0
288,320,53368,1,0,0:0:0
272,320,53462,1,0,0:0:0
256,320,53556,1,0,0:0:0
240,320,53650,5,2,0:0:0
224,320,53743,1,0,0:0:0
208,320,53837,1,0,0:0:0
192,320,53931,1,0,0:0:0
176,320,54025,1,2,0:0:0
160,320,54118,1,0,0:0:0
144,320,54212,1,0,0:0:0
128,320,54306,1,0,0:0:0
112,320,54400,5,2,0:0:0
112,304,54493,1,0,0:0:0
112,288,54587,1,0,0:0:0
112,272,54681,1,0,0:0:0
112,256,54775,1,2,0:0:0
112,240,54868,1,0,0:0:0
112,224,54962,1,0,0:0:0
112,208,55056,1,0,0:0:0
112,192,55150,5,2,0:0:0
112,176,55243,1,0,0:0:0
112,160,55337,1,0,0:0:0
112,144,55431,1,0,0:0:0
112,128,55525,1,2,0:0:0
112,112,55618,1,0,0:0:0
112,96,55712,1,0,0:0:0
112,80,55806,1,0,0:0:0
112,64,55900,5,2,0:0:0
128,64,55993,1,0,0:0:0
144,64,56087,1,0,0:0:0
160,64,56181,1,0,0:0:0
176,64,56275,1,2,0:0:0
192,64,56368,1,0,0:0:0
208,64,56462,1,0,0:0:0
224,64,56556,1,0,0:0:0
240,64,56650,5,2,0:0:0
256,64,56743,1,0,0:0:0
272,64,56837,1,0,0:0:0
288,64,56931,1,0,0:0:0
304,64,57025,1,2,0:0:0
320,64,57118,1,0,0:0:0
336,64,57212,1,0,0:0:0
352,64,57306,1,0,0:0:0
368,64,57400,5,2,0:0:0
368,80,57493,1,0,0:0:0
368,96,57587,1,0,0:0:0
368,112,57681,1,0,0:0:0
368,128,57775,1,2,0:0:0
368,144,57868,1,0,0:0:0
368,160,57962,1,0,0:0:0
368,176,58056,1,0,0:0:0
368,192,58150,5,2,0:0:0
368,208,58243,1,0,0:0:0
368,224,58337,1,0,0:0:0
368,240,58431,1,0,0:0:0
368,256,58525,1,2,0:0:0
368,272,58618,1,0,0:0:0
368,288,58712,1,0,0:0:0
368,304,58806,1,0,0:0:0
368,320,58900,5,2,0:0:0
352,320,58993,1,0,0:0:0
336,320,59087,1,0,0:0:0
320,320,59181,1,0,0:0:0
304,320,59275,1,2,0:0:0
288,320,59368,1,0,0:0:0
272,320,59462,1,0,0:0:0
256,320,59556,1,0,0:0:0
240,320,59650,5,2,0:0:0
224,320,59743,1,0,0:0:0
208,320,59837,1,0,0:0:0
192,320,59931,1,0,0:0:0
176,320,60025,1,2,0:0:0
160,320,60118,1,0,0:0:0
144,320,60212,1,0,0:0:0
128,320,60306,1,0,0:0:0
112,320,60400,5,2,0:0:0
112,304,60493,1,0,0:0:0
112,288,60587,1,0,0:0:0
112,272,60681,1,0,0:0:0
112,256,60775,1,2,0:0:0
112,240,60868,1,0,0:0:0
112,224,60962,1,0,0:0:0
112,208,61056,1,0,0:0:0
112,192,61150,5,2,0:0:0
112,176,61243,1,0,0:0:0
112,160,61337,1,0,0:0:0
112,144,61431,1,0,0:0:0
112,128,61525,1,2,0:0:0
112,112,61618,1,0,0:0:0
112,96,61712,1,0,0:0:0
112,80,61806,1,0,0:0:0
112,64,61900,5,2,0:0:0
128,64,61993,1,0,0:0:0
144,64,62087,1,0,0:0:0
160,64,62181,1,0,0:0:0
176,64,62275,1,2,0:0:0
192,64,62368,1,0,0:0:0
208,64,62462,1,0,0:0:0
224,64,62556,1,0,0:0:0
240,64,62650,5,2,0:0:0
256,64,62743,1,0,0:0:0
272,64,62837,1,0,0:0:0
288,64,62931,1,0,0:0:0
304,64,63025,1,2,0:0:0
320,64,63118,1,0,0:0:0
336,64,63212,1,0,0:0:0
352,64,63306,1,0,0:0:0
368,64,63400,5,2,0:0:0
368,80,63493,1,0,0:0:0
368,96,63587,1,0,0:0:0
368,112,63681,1,0,0:0:0
368,128,63775,1,2,0:0:0
368,144,63868,1,0,0:0:0
368,160,63962,1,0,0:0:0
368,176,64056,1,0,0:0:0
368,192,64150,5,2,0:0:0
368,208,64243,1,0,0:0:0
368,224,64337,1,0,0:0:0
368,240,64431,1,0,0:0:0
368,256,64525,1,2,0:0:0
368,272,64618,1,0,0:0:0
368,288,64712,1,0,0:0:0
368,304,64806,1,0,0:0:0
368,320,64900,5,2,0:0:0
352,320,64993,1,0,0:0:0
336,320,65087,1,0,0:0:0
320,320,65181,1,0,0:0:0
304,320,65275,1,2,0:0:0
288,320,65368,1,0,0:0:0
272,320,65462,1,0,0:0:0
256,320,65556,1,0,0:0:0
240,320,65650,5,2,0:0:0
224,320,65743,1,0,0:0:0
208,320,65837,1,0,0:0:0
192,320,65931,1,0,0:0:0
176,320,66025,1,2,0:0:0
160,320,66118,1,0,0:0:0
144,320,66212,1,0,0:0:0
128,320,66306,1,0,0:0:0
112,320,66400,5,2,0:0:0
112,304,66493,1,0,0:0:0
112,288,66587,1,0,0:0:0
112,272,66681,1,0,0:0:0
112,256,66775,1,2,0:0:0
112,240,66868,1,0,0:0:0
112,224,66962,1,0,0:0:0
112,208,67056,1,0,0:0:0
112,192,67150,5,2,0:0:0
112,176,67243,1,0,0:0:0
112,160,67337,1,0,0:0:0
112,144,67431,1,0,0:0:0
112,128,67525,1,2,0:0:0
112,112,67618,1,0,0:0:0
112,96,67712,1,0,0:0:0
112,80,67806,1,0,0:0:0
112,64,67900,5,2,0:0:0
128,64,67993,1,0,0:0:0
144,64,68087,1,0,0:0:0
160,64,68181,1,0,0:0:0
176,64,68275,1,2,0:0:0
192,64,68368,1,0,0:0:0
208,64,68462,1,0,0:0:0
224,64,68556,1,0,0:0:0
240,64,68650,5,2,0:0:0
256,64,68743,1,0,0:0:0
272,64,68837,1,0,0:0:0
288,64,68931,1,0,0:0:0
304,64,69025,1,2,0:0:0
320,64,69118,1,0,0:0:0
336,64,69212,1,0,0:0:0
352,64,69306,1,0,0:0:0
368,64,69400,5,2,0:0:0
368,80,69493,1,0,0:0:0
368,96,69587,1,0,0:0:0
368,112,69681,1,0,0:0:0
368,128,69775,1,2,0:0:0
368,144,69868,1,0,0:0:0
368,160,69962,1,0,0:0:0
368,176,70056,1,0,0:0:0
368,192,70150,5,2,0:0:0
368,208,70243,1,0,0:0:0
368,224,70337,1,0,0:0:0
368,240,70431,1,0,0:0:0
368,256,70525,1,2,0:0:0
368,272,70618,1,0,0:0:0
368,288,70712,1,0,0:0:0
368,304,70806,1,0,0:0:0
368,320,70900,5,2,0:0:0
352,320,70993,1,0,0:0:0
336,320,71087,1,0,0:0:0
320,320,71181,1,0,0:0:0
304,320,71275,1,2,0:0:0
288,320,71368,1,0,0:0:0
272,320,71462,1,0,0:0:0
256,320,71556,1,0,0:0:0
240,320,71650,5,2,0:0:0
224,320,71743,1,0,0:0:0
208,320,71837,1,0,0:0:0
192,320,71931,1,0,0:0:0
176,320,72025,1,2,0:0:0
160,320,72118,1,0,0:0:0
144,320,72212,1,0,0:0:0
128,320,72306,1,0,0:0:0
112,320,72400,5,2,0:0:0
112,304,72493,1,0,0:0:0
112,288,72587,1,0,0:0:0
112,272,72681,1,0,0:0:0
112,256,72775,1,2,0:0:0
112,240,72868,1,0,0:0:0
112,224,72962,1,0,0:0:0
112,208,73056,1,0,0:0:0
112,192,73150,5,2,0:0:0
112,176,73243,1,0,0:0:0
112,160,73337,1,0,0:0:0
112,144,73431,1,0,0:0:0
112,128,73525,1,2,0:0:0
112,112,73618,1,0,0:0:0
112,96,73712,1,0,0:0:0
112,80,73806,1,0,0:0:0
112,64,73900,5,2,0:0:0
128,64,73993,1,0,0:0:0
144,64,74087,1,0,0:0:0
160,64,74181,1,0,0:0:0
176,64,74275,1,2,0:0:0
192,64,74368,1,0,0:0:0
208,64,74462,1,0,0:0:0
224,64,74556,1,0,0:0:0
240,64,74650,5,2,0:0:0
256,64,74743,1,0,0:0:0
272,64,74837,1,0,0:0:0
288,64,74931,1,0,0:0:0
304,64,75025,1,2,0:0:0
320,64,75118,1,0,0:0:0
336,64,75212,1,0,0:0:0
352,64,75306,1,0,0:0:0
368,64,75400,5,2,0:0:0
368,80,75493,1,0,0:0:0
368,96,75587,1,0,0:0:0
368,112,75681,1,0,0:0:0
368,128,75775,1,2,0:0:0
368,144,75868,1,0,0:0:0
368,160,75962,1,0,0:0:0
368,176,76056,1,0,0:0:0
368,192,76150,5,2,0:0:0
368,208,76243,1,0,0:0:0
368,224,76337,1,0,0:0:0
368,240,76431,1,0,0:0:0
368,256,76525,1,2,0:0:0
368,272,76618,1,0,0:0:0
368,288,76712,1,0,0:0:0
368,304,76806,1,0,0:0:0
368,320,76900,5,2,0:0:0
352,320,76993,1,0,0:0:0
336,320,77087,1,0,0:0:0
320,320,77181,1,0,0:0:0
304,320,77275,1,2,0:0:0
288,320,77368,1,0,0:0:0
272,320,77462,1,0,0:0:0
256,320,77556,1,0,0:0:0
240,320,77650,5,2,0:0:0
224,320,77743,1,0,0:0:0
208,320,77837,1,0,0:0:0
192,320,77931,1,0,0:0:0
176,320,78025,1,2,0:0:0
160,320,78118,1,0,0:0:0
144,320,78212,1,0,0:0:0
128,320,78306,1,0,0:0:0
112,320,78400,5,2,0:0:0
112,304,78493,1,0,0:0:0
112,288,78587,1,0,0:0:0
112,272,78681,1,0,0:0:0
112,256,78775,1,2,0:0:0
112,240,78868,1,0,0:0:0
112,224,78962,1,0,0:0:0
112,208,79056,1,0,0:0:0
112,192,79150,5,2,0:0:0
112,176,79243,1,0,0:0:0
112,160,79337,1,0,0:0:0
112,144,79431,1,0,0:0:0
112,128,79525,1,2,0:0:0
112,112,79618,1,0,0:0:0
112,96,79712,1,0,0:0:0
112,80,79806,1,0,0:0:0
112,64,79900,5,2,0:0:0
128,64,79993,1,0,0:0:0
144,64,80087,1,0,0:0:0
160,64,80181,1,0,0:0:0
176,64,80275,1,2,0:0:0
192,64,80368,1,0,0:0:0
208,64,80462,1,0,0:0:0
224,64,80556,1,0,0:0:0
240,64,80650,5,2,0:0:0
256,64,80743,1,0,0:0:0
272,64,80837,1,0,0:0:0
288,64,80931,1,0,0:0:0
304,64,81025,1,2,0:0:0
320,64,81118,1,0,0:0:0
336,64,81212,1,0,0:0:0
352,64,81306,1,0,0:0:0
368,64,81400,5,2,0:0:0
368,80,81493,1,0,0:0:0
368,96,81587,1,0,0:0:0
368,112,81681,1,0,0:0:0
368,128,81775,1,2,0:0:0
368,144,81868,1,0,0:0:0
368,160,81962,1,0,0:0:0
368,176,82056,1,0,0:0:0
368,192,82150,5,2,0:0:0
368,208,82243,1,0,0:0:0
368,224,82337,1,0,0:0:0
368,240,82431,1,0,0:0:0
368,256,82525,1,2,0:0:0
368,272,82618,1,0,0:0:0
368,288,82712,1,0,0:0:0
368,304,82806,1,0,0:0:0
368,320,82900,5,2,0:0:0
352,320,82993,1,0,0:0:0
336,320,83087,1,0,0:0:0
320,320,83181,1,0,0:0:0
304,320,83275,1,2,0:0:0
288,320,83368,1,0,0:0:0
272,320,83462,1,0,0:0:0
256,320,83556,1,0,0:0:0
240,320,83650,5,2,0:0:0
224,320,83743,1,0,0:0:0
208,320,83837,1,0,0:0:0
192,320,83931,1,0,0:0:0
176,320,84025,1,2,0:0:0
160,320,84118,1,0,0:0:0
144,320,84212,1,0,0:0:0
128,320,84306,1,0,0:0:0
112,320,84400,5,2,0:0:0
112,304,84493,1,0,0:0:0
112,288,84587,1,0,0:0:0
112,272,84681,1,0,0:0:0
112,256,84775,1,2,0:0:0
112,240,84868,1,0,0:0:0
112,224,84962,1,0,0:0:0
112,208,85056,1,0,0:0:0
112,192,85150,5,2,0:0:0
112,176,85243,1,0,0:0:0
112,160,85337,1,0,0:0:0
112,144,85431,1,0,0:0:0
112,128,85525,1,2,0:0:0
112,112,85618,1,0,0:0:0
112,96,85712,1,0,0:0:0
112,80,85806,1,0,0:0:0
112,64,85900,5,2,0:0:0
128,64,85993,1,0,0:0:0
144,64,86087,1,0,0:0:0
160,64,86181,1,0,0:0:0
176,64,86275,1,2,0:0:0
192,64,86368,1,0,0:0:0
208,64,86462,1,0,0:0:0
224,64,86556,1,0,0:0:0
240,64,86650,5,2,0:0:0
256,64,86743,1,0,0:0:0
272,64,86837,1,0,0:0:0
288,64,86931,1,0,0:0:0
304,64,87025,1,2,0:0:0
320,64,87118,1,0,0:0:0
336,64,87212,1,0,0:0:0
352,64,87306,1,0,0:0:0
368,64,87400,5,2,0:0:0
368,80,87493,1,0,0:0:0
368,96,87587,1,0,0:0:0
368,112,87681,1,0,0:0:0
368,128,87775,1,2,0:0:0
368,144,87868,1,0,0:0:0
368,160,87962,1,0,0:0:0
368,176,88056,1,0,0:0:0
368,192,88150,5,2,0:0:0
368,208,88243,1,0,0:0:0
368,224,88337,1,0,0:0:0
368,240,88431,1,0,0:0:0
368,256,88525,1,2,0:0:0
368,272,88618,1,0,0:0:0
368,288,88712,1,0,0:0:0
368,304,88806,1,0,0:0:0
368,320,88900,5,2,0:0:0
352,320,88993,1,0,0:0:0
336,320,89087,1,0,0:0:0
320,320,89181,1,0,0:0:0
304,320,89275,1,2,0:0:0
288,320,89368,1,0,0:0:0
272,320,89462,1,0,0:0:0
256,320,89556,1,0,0:0:0
240,320,89650,5,2,0:0:0
224,320,89743,1,0,0:0:0
208,320,89837,1,0,0:0:0
192,320,89931,1,0,0:0:0
176,320,90025,1,2,0:0:0
160,320,90118,1,0,0:0:0
144,320,90212,1,0,0:0:0
128,320,90306,1,0,0:0:0
112,320,90400,5,2,0:0:0
112,304,90493,1,0,0:0:0
112,288,90587,1,0,0:0:0
112,272,90681,1,0,0:0:0
112,256,90775,1,2,0:0:0
112,240,90868,1,0,0:0:0
112,224,90962,1,0,0:0:0
112,208,91056,1,0,0:0:0
112,192,91150,5,2,0:0:0
112,176,91243,1,0,0:0:0
112,160,91337,1,0,0:0:0
112,144,91431,1,0,0:0:0
112,128,91525,1,2,0:0:0
112,112,91618,1,0,0:0:0
112,96,91712,1,0,0:0:0
112,80,91806,1,0,0:0:0
112,64,91900,5,2,0:0:0
128,64,91993,1,0,0:0:0
144,64,92087,1,0,0:0:0
160,64,92181,1,0,0:0:0
176,64,92275,1,2,0:0:0
192,64,92368,1,0,0:0:0
208,64,92462,1,0,0:0:0
224,64,92556,1,0,0:0:0
240,64,92650,5,2,0:0:0
256,64,92743,1,0,0:0:0
272,64,92837,1,0,0:0:0
288,64,92931,1,0,0:0:0
304,64,93025,1,2,0:0:0
320,64,93118,1,0,0:0:0
336,64,93212,1,0,0:0:0
352,64,93306,1,0,0:0:0
368,64,93400,5,2,0:0:0
368,80,93493,1,0,0:0:0
368,96,93587,1,0,0:0:0
368,112,93681,1,0,0:0:0
368,128,93775,1,2,0:0:0
368,144,93868,1,0,0:0:0
368,160,93962,1,0,0:0:0
368,176,94056,1,0,0:0:0
368,192,94150,5,2,0:0:0
368,208,94243,1,0,0:0:0
368,224,94337,1,0,0:0:0
368,240,94431,1,0,0:0:0
368,256,94525,1,2,0:0:0
368,272,94618,1,0,0:0:0
368,288,94712,1,0,0:0:0
368,304,94806,1,0,0:0:0
368,320,94900,5,2,0:0:0
352,320,94993,1,0,0:0:0
336,320,95087,1,0,0:0:0
320,320,95181,1,0,0:0:0
304,320,95275,1,2,0:0:0
288,320,95368,1,0,0:0:0
272,320,95462,1,0,0:0:0
256,320,95556,1,0,0:0:0
240,320,95650,5,2,0:0:0
224,320,95743,1,0,0:0:0
208,320,95837,1,0,0:0:0
192,320,95931,1,0,0:0:0
176,320,96025,1,2,0:0:0
160,320,96118,1,0,0:0:0
144,320,96212,1,0,0:0:0
128,320,96306,1,0,0:0:0
112,320,96400,5,2,0:0:0
112,304,96493,1,0,0:0:0
112,288,96587,1,0,0:0:0
112,272,96681,1,0,0:0:0
112,256,96775,1,2,0:0:0
112,240,96868,1,0,0:0:0
112,224,96962,1,0,0:0:0
112,208,97056,1,0,0:0:0
112,192,97150,5,2,0:0:0
112,176,97243,1,0,0:0:0
112,160,97337,1,0,0:0:0
112,144,97431,1,0,0:0:0
112,128,97525,1,2,0:0:0
112,112,97618,1,0,0:0:0
112,96,97712,1,0,0:0:0
112,80,97806,1,0,0:0:0
112,64,97900,5,2,0:0:0
128,64,97993,1,0,0:0:0
144,64,98087,1,0,0:0:0
160,64,98181,1,0,0:0:0
176,64,98275,1,2,0:0:0
192,64,98368,1,0,0:0:0
208,64,98462,1,0,0:0:0
224,64,98556,1,0,0:0:0
240,64,98650,5,2,0:0:0
256,64,98743,1,0,0:0:0
272,64,98837,1,0,0:0:0
288,64,98931,1,0,0:0:0
304,64,99025,1,2,0:0:0
320,64,99118,1,0,0:0:0
336,64,99212,1,0,0:0:0
352,64,99306,1,0,0:0:0
368,64,99400,5,2,0:0:0
368,80,99493,1,0,0:0:0
368,96,99587,1,0,0:0:0
368,112,99681,1,0,0:0:0
368,128,99775,1,2,0:0:0
368,144,99868,1,0,0:0:0
368,160,99962,1,0,0:0:0
368,176,100056,1,0,0:0:0
368,192,100150,5,2,0:0:0
368,208,100243,1,0,0:0:0
368,224,100337,1,0,0:0:0
368,240,100431,1,0,0:0:0
368,256,100525,1,2,0:0:0
368,272,100618,1,0,0:0:0
368,288,100712,1,0,0:0:0
368,304,100806,1,0,0:0:0
368,320,100900,5,2,0:0:0
352,320,100993,1,0,0:0:0
336,320,101087,1,0,0:0:0
320,320,101181,1,0,0:0:0
304,320,101275,1,2,0:0:0
288,320,101368,1,0,0:0:0
272,320,101462,1,0,0:0:0
256,320,101556,1,0,0:0:0
240,320,101650,5,2,0:0:0
224,320,101743,1,0,0:0:0
208,320,101837,1,0,0:0:0
192,320,101931,1,0,0:0:0
176,320,102025,1,2,0:0:0
160,320,102118,1,0,0:0:0
144,320,102212,1,0,0:0:0
128,320,102306,1,0,0:0:0
112,320,102400,5,2,0:0:0
112,304,102493,1,0,0:0:0
112,288,102587,1,0,0:0:0
112,272,102681,1,0,0:0:0
112,256,102775,1,2,0:0:0
112,240,102868,1,0,0:0:0
112,224,102962,1,0,0:0:0
112,208,103056,1,0,0:0:0
112,192,103150,5,2,0:0:0
112,176,103243,1,0,0:0:0
112,160,103337,1,0,0:0:0
112,144,103431,1,0,0:0:0
112,128,103525,1,2,0:0:0
112,112,103618,1,0,0:0:0
112,96,103712,1,0,0:0:0
112,80,103806,1,0,0:0:0
112,64,103900,5,2,0:0:0
128,64,103993,1,0,0:0:0
144,64,104087,1,0,0:0:0
160,64,104181,1,0,0:0:0
176,64,104275,1,2,0:0:0
192,64,104368,1,0,0:0:0
208,64,104462,1,0,0:0:0
224,64,104556,1,0,0:0:0
240,64,104650,5,2,0:0:0
256,64,104743,1,0,0:0:0
272,64,104837,1,0,0:0:0
288,64,104931,1,0,0:0:0
304,64,105025,1,2,0:0:0
320,64,105118,1,0,0:0:0
336,64,105212,1,0,0:0:0
352,64,105306,1,0,0:0:0
368,64,105400,5,2,0:0:0
368,80,105493,1,0,0:0:0
368,96,105587,1,0,0:0:0
368,112,105681,1,0,0:0:0
368,128,105775,1,2,0:0:0
368,144,105868,1,0,0:0:0
368,160,105962,1,0,0:0:0
368,176,106056,1,0,0:0:0
368,192,106150,5,2,0:0:0
368,208,106243,1,0,0:0:0
368,224,106337,1,0,0:0:0
368,240,106431,1,0,0:0:0
368,256,106525,1,2,0:0:0
368,272,106618,1,0,0:0:0
368,288,106712,1,0,0:0:0
368,304,106806,1,0,0:0:0
368,320,106900,5,2,0:0:0
352,320,106993,1,0,0:0:0
336,320,107087,1,0,0:0:0
320,320,107181,1,0,0:0:0
304,320,107275,1,2,0:0:0
288,320,107368,1,0,0:0:0
272,320,107462,1,0,0:0:0
256,320,107556,1,0,0:0:0
240,320,107650,5,2,0:0:0
224,320,107743,1,0,0:0:0
208,320,107837,1,0,0:0:0
192,320,107931,1,0,0:0:0
176,320,108025,1,2,0:0:0
160,320,108118,1,0,0:0:0
144,320,108212,1,0,0:0:0
128,320,108306,1,0,0:0:0
112,320,108400,5,2,0:0:0
112,304,108493,1,0,0:0:0
112,288,108587,1,0,0:0:0
112,272,108681,1,0,0:0:0
112,256,108775,1,2,0:0:0
112,240,108868,1,0,0:0:0
112,224,108962,1,0,0:0:0
112,208,109056,1,0,0:0:0
112,192,109150,5,2,0:0:0
112,176,109243,1,0,0:0:0
112,160,109337,1,0,0:0:0
112,144,109431,1,0,0:0:0
112,128,109525,1,2,0:0:0
112,112,109618,1,0,0:0:0
112,96,109712,1,0,0:0:0
112,80,109806,1,0,0:0:0
112,64,109900,5,2,0:0:0
128,64,109993,1,0,0:0:0
144,64,110087,1,0,0:0:0
160,64,110181,1,0,0:0:0
176,64,110275,1,2,0:0:0
192,64,110368,1,0,0:0:0
208,64,110462,1,0,0:0:0
224,64,110556,1,0,0:0:0
240,64,110650,5,2,0:0:0
256,64,110743,1,0,0:0:0
272,64,110837,1,0,0:0:0
288,64,110931,1,0,0:0:0
304,64,111025,1,2,0:0:0
320,64,111118,1,0,0:0:0
336,64,111212,1,0,0:0:0
352,64,111306,1,0,0:0:0
368,64,111400,5,2,0:0:0
368,80,111493,1,0,0:0:0
368,96,111587,1,0,0:0:0
368,112,111681,1,0,0:0:0
368,128,111775,1,2,0:0:0
368,144,111868,1,0,0:0:0
368,160,111962,1,0,0:0:0
368,176,112056,1,0,0:0:0
368,192,112150,5,2,0:0:0
368,208,112243,1,0,0:0:0
368,224,112337,1,0,0:0:0
368,240,112431,1,0,0:0:0
368,256,112525,1,2,0:0:0
368,272,112618,1,0,0:0:0
368,288,112712,1,0,0:0:0
368,304,112806,1,0,0:0:0
368,320,112900,5,2,0:0:0
352,320,112993,1,0,0:0:0
336,320,113087,1,0,0:0:0
320,320,113181,1,0,0:0:0
304,320,113275,1,2,0:0:0
288,320,113368,1,0,0:0:0
272,320,113462,1,0,0:0:0
256,320,113556,1,0,0:0:0
240,320,113650,5,2,0:0:0
224,320,113743,1,0,0:0:0
208,320,113837,1,0,0:0:0
192,320,113931,1,0,0:0:0
176,320,114025,1,2,0:0:0
160,320,114118,1,0,0:0:0
144,320,114212,1,0,0:0:0
128,320,114306,1,0,0:0:0
112,320,114400,5,2,0:0:0
112,304,114493,1,0,0:0:0
112,288,114587,1,0,0:0:0
112,272,114681,1,0,0:0:0
112,256,114775,1,2,0:0:0
112,240,114868,1,0,0:0:0
112,224,114962,1,0,0:0:0
112,208,115056,1,0,0:0:0
112,192,115150,5,2,0:0:0
112,176,115243,1,0,0:0:0
112,160,115337,1,0,0:0:0
112,144,115431,1,0,0:0:0
112,128,115525,1,2,0:0:0
112,112,115618,1,0,0:0:0
112,96,115712,1,0,0:0:0
112,80,115806,1,0,0:0:0
112,64,115900,5,2,0:0:0
128,64,115993,1,0,0:0:0
144,64,116087,1,0,0:0:0
160,64,116181,1,0,0:0:0
176,64,116275,1,2,0:0:0
192,64,116368,1,0,0:0:0
208,64,116462,1,0,0:0:0
224,64,116556,1,0,0:0:0
240,64,116650,5,2,0:0:0
256,64,116743,1,0,0:0:0
272,64,116837,1,0,0:0:0
288,64,116931,1,0,0:0:0
304,64,117025,1,2,0:0:0
320,64,117118,1,0,0:0:0
336,64,117212,1,0,0:0:0
352,64,117306,1,0,0:0:0
368,64,117400,1,0,0:0:0
256,192,117493,12,0,118900,0:0:0
