osu file format v13

[General]
AudioFilename: Identity Part 4.mp3
AudioLeadIn: 0
PreviewTime: 23567
Countdown: 0
SampleSet: None
StackLeniency: 0.6
Mode: 0
LetterboxInBreaks: 0
WidescreenStoryboard: 0

[Editor]
Bookmarks: 10281,17138,23995,30853,37710,44567,51424,54857,61710,70281,77138,83995,90853,97710,104567,111424
DistanceSpacing: 2
BeatDivisor: 4
GridSize: 8
TimelineZoom: 0.4999999

[Metadata]
Title:Long Jump Stream Practice Maps
TitleUnicode:Long Jump Stream Practice Maps
Artist:Various Artist
ArtistUnicode:Various Artist
Creator:Jimpky
Version:Identity Part 4 BPM140
Source:
Tags:Jump Stream
BeatmapID:496063
BeatmapSetID:210894

[Difficulty]
HPDrainRate:0
CircleSize:4
OverallDifficulty:3
ApproachRate:9
SliderMultiplier:1.6
SliderTickRate:1

[Events]
//Background and Video events
0,0,"Identity Part 4.jpg",0,0
//Break Periods
//Storyboard Layer 0 (Background)
//Storyboard Layer 1 (Fail)
//Storyboard Layer 2 (Pass)
//Storyboard Layer 3 (Foreground)
//Storyboard Sound Samples
//Background Colour Transformations
3,100,0,0,0

[TimingPoints]
3426.52298607195,428.571428571429,4,2,1,80,1,0
23997,-100,4,2,1,80,0,1
24105,-100,4,2,1,80,0,0
37712,-100,4,2,1,80,0,1
37819,-100,4,2,1,80,0,0
83997,-83.3333333333333,4,2,1,80,0,1
84105,-83.3333333333333,4,2,1,80,0,0
97712,-71.4285714285714,4,2,1,80,0,1
97819,-71.4285714285714,4,2,1,80,0,0
111426,-71.4285714285714,4,2,1,80,0,1
111533,-71.4285714285714,4,2,1,5,0,0

[Colours]
Combo1 : 255,255,128
Combo2 : 255,0,0
Combo3 : 128,255,128
Combo4 : 255,128,64

[HitObjects]
0,80,5033,5,2,0:0:0:0:
24,8,5140,1,0,0:0:0:0:
56,80,5247,1,0,0:0:0:0:
88,8,5354,1,0,0:0:0:0:
120,80,5462,1,2,0:0:0:0:
152,8,5569,1,0,0:0:0:0:
184,80,5676,1,0,0:0:0:0:
216,8,5783,1,0,0:0:0:0:
248,80,5890,1,2,0:0:0:0:
280,8,5997,1,0,0:0:0:0:
312,80,6104,1,0,0:0:0:0:
344,8,6212,1,0,0:0:0:0:
376,80,6319,1,2,0:0:0:0:
408,8,6426,1,0,0:0:0:0:
440,80,6533,1,0,0:0:0:0:
472,8,6640,1,0,0:0:0:0:
488,336,6855,5,2,0:0:0:0:
464,264,6962,1,0,0:0:0:0:
432,336,7069,1,0,0:0:0:0:
400,264,7176,1,0,0:0:0:0:
368,336,7284,1,2,0:0:0:0:
336,264,7391,1,0,0:0:0:0:
304,336,7498,1,0,0:0:0:0:
272,264,7605,1,0,0:0:0:0:
240,336,7712,1,2,0:0:0:0:
208,264,7819,1,0,0:0:0:0:
176,336,7926,1,0,0:0:0:0:
144,264,8034,1,0,0:0:0:0:
112,336,8141,1,2,0:0:0:0:
80,264,8248,1,0,0:0:0:0:
48,336,8355,1,0,0:0:0:0:
16,264,8462,1,0,0:0:0:0:
264,192,8997,5,0,0:0:0:0:
232,120,9104,1,0,0:0:0:0:
264,192,9212,1,0,0:0:0:0:
232,120,9319,1,0,0:0:0:0:
264,192,9426,1,0,0:0:0:0:
232,120,9533,1,0,0:0:0:0:
264,192,9640,1,0,0:0:0:0:
232,120,9747,1,0,0:0:0:0:
0,80,10283,5,2,0:0:0:0:
24,8,10390,1,0,0:0:0:0:
56,80,10497,1,0,0:0:0:0:
88,8,10604,1,0,0:0:0:0:
120,80,10712,1,2,0:0:0:0:
152,8,10819,1,0,0:0:0:0:
184,80,10926,1,0,0:0:0:0:
216,8,11033,1,0,0:0:0:0:
248,80,11140,1,2,0:0:0:0:
280,8,11247,1,0,0:0:0:0:
312,80,11354,1,0,0:0:0:0:
344,8,11462,1,0,0:0:0:0:
376,80,11569,1,2,0:0:0:0:
408,8,11676,1,0,0:0:0:0:
440,80,11783,1,0,0:0:0:0:
472,8,11890,1,0,0:0:0:0:
488,336,12105,5,2,0:0:0:0:
464,264,12212,1,0,0:0:0:0:
432,336,12319,1,0,0:0:0:0:
400,264,12426,1,0,0:0:0:0:
368,336,12534,1,2,0:0:0:0:
336,264,12641,1,0,0:0:0:0:
304,336,12748,1,0,0:0:0:0:
272,264,12855,1,0,0:0:0:0:
240,336,12962,1,2,0:0:0:0:
208,264,13069,1,0,0:0:0:0:
176,336,13176,1,0,0:0:0:0:
144,264,13284,1,0,0:0:0:0:
112,336,13391,1,2,0:0:0:0:
80,264,13498,1,0,0:0:0:0:
48,336,13605,1,0,0:0:0:0:
16,264,13712,1,0,0:0:0:0:
264,192,14247,5,0,0:0:0:0:
232,120,14354,1,0,0:0:0:0:
264,192,14462,1,0,0:0:0:0:
232,120,14569,1,0,0:0:0:0:
264,192,14676,1,0,0:0:0:0:
232,120,14783,1,0,0:0:0:0:
264,192,14890,1,0,0:0:0:0:
232,120,14997,1,0,0:0:0:0:
0,80,15426,5,2,0:0:0:0:
24,8,15533,1,0,0:0:0:0:
56,80,15640,1,0,0:0:0:0:
88,8,15747,1,0,0:0:0:0:
120,80,15855,1,2,0:0:0:0:
152,8,15962,1,0,0:0:0:0:
184,80,16069,1,0,0:0:0:0:
216,8,16176,1,0,0:0:0:0:
248,80,16283,1,2,0:0:0:0:
280,8,16390,1,0,0:0:0:0:
312,80,16497,1,0,0:0:0:0:
344,8,16605,1,0,0:0:0:0:
376,80,16712,1,2,0:0:0:0:
408,8,16819,1,0,0:0:0:0:
440,80,16926,1,0,0:0:0:0:
472,8,17033,1,0,0:0:0:0:
488,336,17248,5,2,0:0:0:0:
464,264,17355,1,0,0:0:0:0:
432,336,17462,1,0,0:0:0:0:
400,264,17569,1,0,0:0:0:0:
368,336,17677,1,2,0:0:0:0:
336,264,17784,1,0,0:0:0:0:
304,336,17891,1,0,0:0:0:0:
272,264,17998,1,0,0:0:0:0:
240,336,18105,1,2,0:0:0:0:
208,264,18212,1,0,0:0:0:0:
176,336,18319,1,0,0:0:0:0:
144,264,18427,1,0,0:0:0:0:
112,336,18534,1,2,0:0:0:0:
80,264,18641,1,0,0:0:0:0:
48,336,18748,1,0,0:0:0:0:
16,264,18855,1,0,0:0:0:0:
264,192,19390,5,0,0:0:0:0:
232,120,19497,1,0,0:0:0:0:
264,192,19605,1,0,0:0:0:0:
232,120,19712,1,0,0:0:0:0:
264,192,19819,1,0,0:0:0:0:
232,120,19926,1,0,0:0:0:0:
264,192,20033,1,0,0:0:0:0:
232,120,20140,1,0,0:0:0:0:
0,80,22283,5,2,0:0:0:0:
24,8,22390,1,0,0:0:0:0:
56,80,22497,1,0,0:0:0:0:
88,8,22604,1,0,0:0:0:0:
120,80,22712,1,2,0:0:0:0:
152,8,22819,1,0,0:0:0:0:
184,80,22926,1,0,0:0:0:0:
216,8,23033,1,0,0:0:0:0:
248,80,23140,1,2,0:0:0:0:
280,8,23247,1,0,0:0:0:0:
312,80,23354,1,0,0:0:0:0:
344,8,23462,1,0,0:0:0:0:
376,80,23569,1,2,0:0:0:0:
408,8,23676,1,0,0:0:0:0:
440,80,23783,1,0,0:0:0:0:
472,8,23890,1,0,0:0:0:0:
488,336,24105,5,2,0:0:0:0:
464,264,24212,1,0,0:0:0:0:
432,336,24319,1,0,0:0:0:0:
400,264,24426,1,0,0:0:0:0:
368,336,24534,1,2,0:0:0:0:
336,264,24641,1,0,0:0:0:0:
304,336,24748,1,0,0:0:0:0:
272,264,24855,1,0,0:0:0:0:
240,336,24962,1,2,0:0:0:0:
208,264,25069,1,0,0:0:0:0:
176,336,25176,1,0,0:0:0:0:
144,264,25284,1,0,0:0:0:0:
112,336,25391,1,2,0:0:0:0:
80,264,25498,1,0,0:0:0:0:
48,336,25605,1,0,0:0:0:0:
16,264,25712,1,0,0:0:0:0:
264,192,26247,5,0,0:0:0:0:
232,120,26354,1,0,0:0:0:0:
264,192,26462,1,0,0:0:0:0:
232,120,26569,1,0,0:0:0:0:
264,192,26676,1,0,0:0:0:0:
232,120,26783,1,0,0:0:0:0:
264,192,26890,1,0,0:0:0:0:
232,120,26997,1,0,0:0:0:0:
0,80,29140,5,2,0:0:0:0:
24,8,29247,1,0,0:0:0:0:
56,80,29354,1,0,0:0:0:0:
88,8,29461,1,0,0:0:0:0:
120,80,29569,1,2,0:0:0:0:
152,8,29676,1,0,0:0:0:0:
184,80,29783,1,0,0:0:0:0:
216,8,29890,1,0,0:0:0:0:
248,80,29997,1,2,0:0:0:0:
280,8,30104,1,0,0:0:0:0:
312,80,30211,1,0,0:0:0:0:
344,8,30319,1,0,0:0:0:0:
376,80,30426,1,2,0:0:0:0:
408,8,30533,1,0,0:0:0:0:
440,80,30640,1,0,0:0:0:0:
472,8,30747,1,0,0:0:0:0:
488,336,30962,5,2,0:0:0:0:
464,264,31069,1,0,0:0:0:0:
432,336,31176,1,0,0:0:0:0:
400,264,31283,1,0,0:0:0:0:
368,336,31391,1,2,0:0:0:0:
336,264,31498,1,0,0:0:0:0:
304,336,31605,1,0,0:0:0:0:
272,264,31712,1,0,0:0:0:0:
240,336,31819,1,2,0:0:0:0:
208,264,31926,1,0,0:0:0:0:
176,336,32033,1,0,0:0:0:0:
144,264,32141,1,0,0:0:0:0:
112,336,32248,1,2,0:0:0:0:
80,264,32355,1,0,0:0:0:0:
48,336,32462,1,0,0:0:0:0:
16,264,32569,1,0,0:0:0:0:
264,192,33104,5,0,0:0:0:0:
232,120,33211,1,0,0:0:0:0:
264,192,33319,1,0,0:0:0:0:
232,120,33426,1,0,0:0:0:0:
264,192,33533,1,0,0:0:0:0:
232,120,33640,1,0,0:0:0:0:
264,192,33747,1,0,0:0:0:0:
232,120,33854,1,0,0:0:0:0:
0,80,35997,5,2,0:0:0:0:
24,8,36104,1,0,0:0:0:0:
56,80,36211,1,0,0:0:0:0:
88,8,36318,1,0,0:0:0:0:
120,80,36426,1,2,0:0:0:0:
152,8,36533,1,0,0:0:0:0:
184,80,36640,1,0,0:0:0:0:
216,8,36747,1,0,0:0:0:0:
248,80,36854,1,2,0:0:0:0:
280,8,36961,1,0,0:0:0:0:
312,80,37068,1,0,0:0:0:0:
344,8,37176,1,0,0:0:0:0:
376,80,37283,1,2,0:0:0:0:
408,8,37390,1,0,0:0:0:0:
440,80,37497,1,0,0:0:0:0:
472,8,37604,1,0,0:0:0:0:
488,336,37819,5,2,0:0:0:0:
464,264,37926,1,0,0:0:0:0:
432,336,38033,1,0,0:0:0:0:
400,264,38140,1,0,0:0:0:0:
368,336,38248,1,2,0:0:0:0:
336,264,38355,1,0,0:0:0:0:
304,336,38462,1,0,0:0:0:0:
272,264,38569,1,0,0:0:0:0:
240,336,38676,1,2,0:0:0:0:
208,264,38783,1,0,0:0:0:0:
176,336,38890,1,0,0:0:0:0:
144,264,38998,1,0,0:0:0:0:
112,336,39105,1,2,0:0:0:0:
80,264,39212,1,0,0:0:0:0:
48,336,39319,1,0,0:0:0:0:
16,264,39426,1,0,0:0:0:0:
264,192,39961,5,0,0:0:0:0:
232,120,40068,1,0,0:0:0:0:
264,192,40176,1,0,0:0:0:0:
232,120,40283,1,0,0:0:0:0:
264,192,40390,1,0,0:0:0:0:
232,120,40497,1,0,0:0:0:0:
264,192,40604,1,0,0:0:0:0:
232,120,40711,1,0,0:0:0:0:
0,80,42855,5,2,0:0:0:0:
24,8,42962,1,0,0:0:0:0:
56,80,43069,1,0,0:0:0:0:
88,8,43176,1,0,0:0:0:0:
120,80,43284,1,2,0:0:0:0:
152,8,43391,1,0,0:0:0:0:
184,80,43498,1,0,0:0:0:0:
216,8,43605,1,0,0:0:0:0:
248,80,43712,1,2,0:0:0:0:
280,8,43819,1,0,0:0:0:0:
312,80,43926,1,0,0:0:0:0:
344,8,44034,1,0,0:0:0:0:
376,80,44141,1,2,0:0:0:0:
408,8,44248,1,0,0:0:0:0:
440,80,44355,1,0,0:0:0:0:
472,8,44462,1,0,0:0:0:0:
488,336,44677,5,2,0:0:0:0:
464,264,44784,1,0,0:0:0:0:
432,336,44891,1,0,0:0:0:0:
400,264,44998,1,0,0:0:0:0:
368,336,45106,1,2,0:0:0:0:
336,264,45213,1,0,0:0:0:0:
304,336,45320,1,0,0:0:0:0:
272,264,45427,1,0,0:0:0:0:
240,336,45534,1,2,0:0:0:0:
208,264,45641,1,0,0:0:0:0:
176,336,45748,1,0,0:0:0:0:
144,264,45856,1,0,0:0:0:0:
112,336,45963,1,2,0:0:0:0:
80,264,46070,1,0,0:0:0:0:
48,336,46177,1,0,0:0:0:0:
16,264,46284,1,0,0:0:0:0:
264,192,46819,5,0,0:0:0:0:
232,120,46926,1,0,0:0:0:0:
264,192,47034,1,0,0:0:0:0:
232,120,47141,1,0,0:0:0:0:
264,192,47248,1,0,0:0:0:0:
232,120,47355,1,0,0:0:0:0:
264,192,47462,1,0,0:0:0:0:
232,120,47569,1,0,0:0:0:0:
0,80,49712,5,2,0:0:0:0:
24,8,49819,1,0,0:0:0:0:
56,80,49926,1,0,0:0:0:0:
88,8,50033,1,0,0:0:0:0:
120,80,50141,1,2,0:0:0:0:
152,8,50248,1,0,0:0:0:0:
184,80,50355,1,0,0:0:0:0:
216,8,50462,1,0,0:0:0:0:
248,80,50569,1,2,0:0:0:0:
280,8,50676,1,0,0:0:0:0:
312,80,50783,1,0,0:0:0:0:
344,8,50891,1,0,0:0:0:0:
376,80,50998,1,2,0:0:0:0:
408,8,51105,1,0,0:0:0:0:
440,80,51212,1,0,0:0:0:0:
472,8,51319,1,0,0:0:0:0:
488,336,51534,5,2,0:0:0:0:
464,264,51641,1,0,0:0:0:0:
432,336,51748,1,0,0:0:0:0:
400,264,51855,1,0,0:0:0:0:
368,336,51963,1,2,0:0:0:0:
336,264,52070,1,0,0:0:0:0:
304,336,52177,1,0,0:0:0:0:
272,264,52284,1,0,0:0:0:0:
240,336,52391,1,2,0:0:0:0:
208,264,52498,1,0,0:0:0:0:
176,336,52605,1,0,0:0:0:0:
144,264,52713,1,0,0:0:0:0:
112,336,52820,1,2,0:0:0:0:
80,264,52927,1,0,0:0:0:0:
48,336,53034,1,0,0:0:0:0:
16,264,53141,1,0,0:0:0:0:
264,192,53676,5,0,0:0:0:0:
232,120,53783,1,0,0:0:0:0:
264,192,53891,1,0,0:0:0:0:
232,120,53998,1,0,0:0:0:0:
264,192,54105,1,0,0:0:0:0:
232,120,54212,1,0,0:0:0:0:
264,192,54319,1,0,0:0:0:0:
232,120,54426,1,0,0:0:0:0:
0,80,56569,5,2,0:0:0:0:
24,8,56676,1,0,0:0:0:0:
56,80,56783,1,0,0:0:0:0:
88,8,56890,1,0,0:0:0:0:
120,80,56998,1,2,0:0:0:0:
152,8,57105,1,0,0:0:0:0:
184,80,57212,1,0,0:0:0:0:
216,8,57319,1,0,0:0:0:0:
248,80,57426,1,2,0:0:0:0:
280,8,57533,1,0,0:0:0:0:
312,80,57640,1,0,0:0:0:0:
344,8,57748,1,0,0:0:0:0:
376,80,57855,1,2,0:0:0:0:
408,8,57962,1,0,0:0:0:0:
440,80,58069,1,0,0:0:0:0:
472,8,58176,1,0,0:0:0:0:
488,336,58391,5,2,0:0:0:0:
464,264,58498,1,0,0:0:0:0:
432,336,58605,1,0,0:0:0:0:
400,264,58712,1,0,0:0:0:0:
368,336,58820,1,2,0:0:0:0:
336,264,58927,1,0,0:0:0:0:
304,336,59034,1,0,0:0:0:0:
272,264,59141,1,0,0:0:0:0:
240,336,59248,1,2,0:0:0:0:
208,264,59355,1,0,0:0:0:0:
176,336,59462,1,0,0:0:0:0:
144,264,59570,1,0,0:0:0:0:
112,336,59677,1,2,0:0:0:0:
80,264,59784,1,0,0:0:0:0:
48,336,59891,1,0,0:0:0:0:
16,264,59998,1,0,0:0:0:0:
264,192,60533,5,0,0:0:0:0:
232,120,60640,1,0,0:0:0:0:
264,192,60748,1,0,0:0:0:0:
232,120,60855,1,0,0:0:0:0:
264,192,60962,1,0,0:0:0:0:
232,120,61069,1,0,0:0:0:0:
264,192,61176,1,0,0:0:0:0:
232,120,61283,1,0,0:0:0:0:
0,80,63426,5,2,0:0:0:0:
24,8,63533,1,0,0:0:0:0:
56,80,63640,1,0,0:0:0:0:
88,8,63747,1,0,0:0:0:0:
120,80,63855,1,2,0:0:0:0:
152,8,63962,1,0,0:0:0:0:
184,80,64069,1,0,0:0:0:0:
216,8,64176,1,0,0:0:0:0:
248,80,64283,1,2,0:0:0:0:
280,8,64390,1,0,0:0:0:0:
312,80,64497,1,0,0:0:0:0:
344,8,64605,1,0,0:0:0:0:
376,80,64712,1,2,0:0:0:0:
408,8,64819,1,0,0:0:0:0:
440,80,64926,1,0,0:0:0:0:
472,8,65033,1,0,0:0:0:0:
488,336,65248,5,2,0:0:0:0:
464,264,65355,1,0,0:0:0:0:
432,336,65462,1,0,0:0:0:0:
400,264,65569,1,0,0:0:0:0:
368,336,65677,1,2,0:0:0:0:
336,264,65784,1,0,0:0:0:0:
304,336,65891,1,0,0:0:0:0:
272,264,65998,1,0,0:0:0:0:
240,336,66105,1,2,0:0:0:0:
208,264,66212,1,0,0:0:0:0:
176,336,66319,1,0,0:0:0:0:
144,264,66427,1,0,0:0:0:0:
112,336,66534,1,2,0:0:0:0:
80,264,66641,1,0,0:0:0:0:
48,336,66748,1,0,0:0:0:0:
16,264,66855,1,0,0:0:0:0:
264,192,67390,5,0,0:0:0:0:
232,120,67497,1,0,0:0:0:0:
264,192,67605,1,0,0:0:0:0:
232,120,67712,1,0,0:0:0:0:
264,192,67819,1,0,0:0:0:0:
232,120,67926,1,0,0:0:0:0:
264,192,68033,1,0,0:0:0:0:
232,120,68140,1,0,0:0:0:0:
0,80,70283,5,2,0:0:0:0:
24,8,70390,1,0,0:0:0:0:
56,80,70497,1,0,0:0:0:0:
88,8,70604,1,0,0:0:0:0:
120,80,70712,1,2,0:0:0:0:
152,8,70819,1,0,0:0:0:0:
184,80,70926,1,0,0:0:0:0:
216,8,71033,1,0,0:0:0:0:
248,80,71140,1,2,0:0:0:0:
280,8,71247,1,0,0:0:0:0:
312,80,71354,1,0,0:0:0:0:
344,8,71462,1,0,0:0:0:0:
376,80,71569,1,2,0:0:0:0:
408,8,71676,1,0,0:0:0:0:
440,80,71783,1,0,0:0:0:0:
472,8,71890,1,0,0:0:0:0:
488,336,72105,5,2,0:0:0:0:
464,264,72212,1,0,0:0:0:0:
432,336,72319,1,0,0:0:0:0:
400,264,72426,1,0,0:0:0:0:
368,336,72534,1,2,0:0:0:0:
336,264,72641,1,0,0:0:0:0:
304,336,72748,1,0,0:0:0:0:
272,264,72855,1,0,0:0:0:0:
240,336,72962,1,2,0:0:0:0:
208,264,73069,1,0,0:0:0:0:
176,336,73176,1,0,0:0:0:0:
144,264,73284,1,0,0:0:0:0:
112,336,73391,1,2,0:0:0:0:
80,264,73498,1,0,0:0:0:0:
48,336,73605,1,0,0:0:0:0:
16,264,73712,1,0,0:0:0:0:
264,192,74247,5,0,0:0:0:0:
232,120,74354,1,0,0:0:0:0:
264,192,74462,1,0,0:0:0:0:
232,120,74569,1,0,0:0:0:0:
264,192,74676,1,0,0:0:0:0:
232,120,74783,1,0,0:0:0:0:
264,192,74890,1,0,0:0:0:0:
232,120,74997,1,0,0:0:0:0:
0,80,77140,5,2,0:0:0:0:
24,8,77247,1,0,0:0:0:0:
56,80,77354,1,0,0:0:0:0:
88,8,77461,1,0,0:0:0:0:
120,80,77569,1,2,0:0:0:0:
152,8,77676,1,0,0:0:0:0:
184,80,77783,1,0,0:0:0:0:
216,8,77890,1,0,0:0:0:0:
248,80,77997,1,2,0:0:0:0:
280,8,78104,1,0,0:0:0:0:
312,80,78211,1,0,0:0:0:0:
344,8,78319,1,0,0:0:0:0:
376,80,78426,1,2,0:0:0:0:
408,8,78533,1,0,0:0:0:0:
440,80,78640,1,0,0:0:0:0:
472,8,78747,1,0,0:0:0:0:
488,336,78962,5,2,0:0:0:0:
464,264,79069,1,0,0:0:0:0:
432,336,79176,1,0,0:0:0:0:
400,264,79283,1,0,0:0:0:0:
368,336,79391,1,2,0:0:0:0:
336,264,79498,1,0,0:0:0:0:
304,336,79605,1,0,0:0:0:0:
272,264,79712,1,0,0:0:0:0:
240,336,79819,1,2,0:0:0:0:
208,264,79926,1,0,0:0:0:0:
176,336,80033,1,0,0:0:0:0:
144,264,80141,1,0,0:0:0:0:
112,336,80248,1,2,0:0:0:0:
80,264,80355,1,0,0:0:0:0:
48,336,80462,1,0,0:0:0:0:
16,264,80569,1,0,0:0:0:0:
264,192,81104,5,0,0:0:0:0:
232,120,81211,1,0,0:0:0:0:
264,192,81319,1,0,0:0:0:0:
232,120,81426,1,0,0:0:0:0:
264,192,81533,1,0,0:0:0:0:
232,120,81640,1,0,0:0:0:0:
264,192,81747,1,0,0:0:0:0:
232,120,81854,1,0,0:0:0:0:
0,80,83997,5,2,0:0:0:0:
24,8,84104,1,0,0:0:0:0:
56,80,84211,1,0,0:0:0:0:
88,8,84318,1,0,0:0:0:0:
120,80,84426,1,2,0:0:0:0:
152,8,84533,1,0,0:0:0:0:
184,80,84640,1,0,0:0:0:0:
216,8,84747,1,0,0:0:0:0:
248,80,84854,1,2,0:0:0:0:
280,8,84961,1,0,0:0:0:0:
312,80,85068,1,0,0:0:0:0:
344,8,85176,1,0,0:0:0:0:
376,80,85283,1,2,0:0:0:0:
408,8,85390,1,0,0:0:0:0:
440,80,85497,1,0,0:0:0:0:
472,8,85604,1,0,0:0:0:0:
488,336,85819,5,2,0:0:0:0:
464,264,85926,1,0,0:0:0:0:
432,336,86033,1,0,0:0:0:0:
400,264,86140,1,0,0:0:0:0:
368,336,86248,1,2,0:0:0:0:
336,264,86355,1,0,0:0:0:0:
304,336,86462,1,0,0:0:0:0:
272,264,86569,1,0,0:0:0:0:
240,336,86676,1,2,0:0:0:0:
208,264,86783,1,0,0:0:0:0:
176,336,86890,1,0,0:0:0:0:
144,264,86998,1,0,0:0:0:0:
112,336,87105,1,2,0:0:0:0:
80,264,87212,1,0,0:0:0:0:
48,336,87319,1,0,0:0:0:0:
16,264,87426,1,0,0:0:0:0:
264,192,87961,5,0,0:0:0:0:
232,120,88068,1,0,0:0:0:0:
264,192,88176,1,0,0:0:0:0:
232,120,88283,1,0,0:0:0:0:
264,192,88390,1,0,0:0:0:0:
232,120,88497,1,0,0:0:0:0:
264,192,88604,1,0,0:0:0:0:
232,120,88711,1,0,0:0:0:0:
0,80,90855,5,2,0:0:0:0:
24,8,90962,1,0,0:0:0:0:
56,80,91069,1,0,0:0:0:0:
88,8,91176,1,0,0:0:0:0:
120,80,91284,1,2,0:0:0:0:
152,8,91391,1,0,0:0:0:0:
184,80,91498,1,0,0:0:0:0:
216,8,91605,1,0,0:0:0:0:
248,80,91712,1,2,0:0:0:0:
280,8,91819,1,0,0:0:0:0:
312,80,91926,1,0,0:0:0:0:
344,8,92034,1,0,0:0:0:0:
376,80,92141,1,2,0:0:0:0:
408,8,92248,1,0,0:0:0:0:
440,80,92355,1,0,0:0:0:0:
472,8,92462,1,0,0:0:0:0:
488,336,92677,5,2,0:0:0:0:
464,264,92784,1,0,0:0:0:0:
432,336,92891,1,0,0:0:0:0:
400,264,92998,1,0,0:0:0:0:
368,336,93106,1,2,0:0:0:0:
336,264,93213,1,0,0:0:0:0:
304,336,93320,1,0,0:0:0:0:
272,264,93427,1,0,0:0:0:0:
240,336,93534,1,2,0:0:0:0:
208,264,93641,1,0,0:0:0:0:
176,336,93748,1,0,0:0:0:0:
144,264,93856,1,0,0:0:0:0:
112,336,93963,1,2,0:0:0:0:
80,264,94070,1,0,0:0:0:0:
48,336,94177,1,0,0:0:0:0:
16,264,94284,1,0,0:0:0:0:
264,192,94819,5,0,0:0:0:0:
232,120,94926,1,0,0:0:0:0:
264,192,95034,1,0,0:0:0:0:
232,120,95141,1,0,0:0:0:0:
264,192,95248,1,0,0:0:0:0:
232,120,95355,1,0,0:0:0:0:
264,192,95462,1,0,0:0:0:0:
232,120,95569,1,0,0:0:0:0:
0,80,97712,5,2,0:0:0:0:
24,8,97819,1,0,0:0:0:0:
56,80,97926,1,0,0:0:0:0:
88,8,98033,1,0,0:0:0:0:
120,80,98141,1,2,0:0:0:0:
152,8,98248,1,0,0:0:0:0:
184,80,98355,1,0,0:0:0:0:
216,8,98462,1,0,0:0:0:0:
248,80,98569,1,2,0:0:0:0:
280,8,98676,1,0,0:0:0:0:
312,80,98783,1,0,0:0:0:0:
344,8,98891,1,0,0:0:0:0:
376,80,98998,1,2,0:0:0:0:
408,8,99105,1,0,0:0:0:0:
440,80,99212,1,0,0:0:0:0:
472,8,99319,1,0,0:0:0:0:
488,336,99534,5,2,0:0:0:0:
464,264,99641,1,0,0:0:0:0:
432,336,99748,1,0,0:0:0:0:
400,264,99855,1,0,0:0:0:0:
368,336,99963,1,2,0:0:0:0:
336,264,100070,1,0,0:0:0:0:
304,336,100177,1,0,0:0:0:0:
272,264,100284,1,0,0:0:0:0:
240,336,100391,1,2,0:0:0:0:
208,264,100498,1,0,0:0:0:0:
176,336,100605,1,0,0:0:0:0:
144,264,100713,1,0,0:0:0:0:
112,336,100820,1,2,0:0:0:0:
80,264,100927,1,0,0:0:0:0:
48,336,101034,1,0,0:0:0:0:
16,264,101141,1,0,0:0:0:0:
264,192,101676,5,0,0:0:0:0:
232,120,101783,1,0,0:0:0:0:
264,192,101891,1,0,0:0:0:0:
232,120,101998,1,0,0:0:0:0:
264,192,102105,1,0,0:0:0:0:
232,120,102212,1,0,0:0:0:0:
264,192,102319,1,0,0:0:0:0:
232,120,102426,1,0,0:0:0:0:
0,80,104569,5,2,0:0:0:0:
24,8,104676,1,0,0:0:0:0:
56,80,104783,1,0,0:0:0:0:
88,8,104890,1,0,0:0:0:0:
120,80,104998,1,2,0:0:0:0:
152,8,105105,1,0,0:0:0:0:
184,80,105212,1,0,0:0:0:0:
216,8,105319,1,0,0:0:0:0:
248,80,105426,1,2,0:0:0:0:
280,8,105533,1,0,0:0:0:0:
312,80,105640,1,0,0:0:0:0:
344,8,105748,1,0,0:0:0:0:
376,80,105855,1,2,0:0:0:0:
408,8,105962,1,0,0:0:0:0:
440,80,106069,1,0,0:0:0:0:
472,8,106176,1,0,0:0:0:0:
488,336,106391,5,2,0:0:0:0:
464,264,106498,1,0,0:0:0:0:
432,336,106605,1,0,0:0:0:0:
400,264,106712,1,0,0:0:0:0:
368,336,106820,1,2,0:0:0:0:
336,264,106927,1,0,0:0:0:0:
304,336,107034,1,0,0:0:0:0:
272,264,107141,1,0,0:0:0:0:
240,336,107248,1,2,0:0:0:0:
208,264,107355,1,0,0:0:0:0:
176,336,107462,1,0,0:0:0:0:
144,264,107570,1,0,0:0:0:0:
112,336,107677,1,2,0:0:0:0:
80,264,107784,1,0,0:0:0:0:
48,336,107891,1,0,0:0:0:0:
16,264,107998,1,0,0:0:0:0:
264,192,108533,5,0,0:0:0:0:
232,120,108640,1,0,0:0:0:0:
264,192,108748,1,0,0:0:0:0:
232,120,108855,1,0,0:0:0:0:
264,192,108962,1,0,0:0:0:0:
232,120,109069,1,0,0:0:0:0:
264,192,109176,1,0,0:0:0:0:
232,120,109283,1,0,0:0:0:0:
0,80,111426,5,2,0:0:0:0:
24,8,111533,1,0,0:0:0:0:
56,80,111640,1,0,0:0:0:0:
88,8,111747,1,0,0:0:0:0:
120,80,111855,1,2,0:0:0:0:
152,8,111962,1,0,0:0:0:0:
184,80,112069,1,0,0:0:0:0:
216,8,112176,1,0,0:0:0:0:
248,80,112283,1,2,0:0:0:0:
280,8,112390,1,0,0:0:0:0:
312,80,112497,1,0,0:0:0:0:
344,8,112605,1,0,0:0:0:0:
376,80,112712,1,2,0:0:0:0:
408,8,112819,1,0,0:0:0:0:
440,80,112926,1,0,0:0:0:0:
472,8,113033,1,0,0:0:0:0:
488,336,113248,5,2,0:0:0:0:
464,264,113355,1,0,0:0:0:0:
432,336,113462,1,0,0:0:0:0:
400,264,113569,1,0,0:0:0:0:
368,336,113677,1,2,0:0:0:0:
336,264,113784,1,0,0:0:0:0:
304,336,113891,1,0,0:0:0:0:
272,264,113998,1,0,0:0:0:0:
240,336,114105,1,2,0:0:0:0:
208,264,114212,1,0,0:0:0:0:
176,336,114319,1,0,0:0:0:0:
144,264,114427,1,0,0:0:0:0:
112,336,114534,1,2,0:0:0:0:
80,264,114641,1,0,0:0:0:0:
48,336,114748,1,0,0:0:0:0:
16,264,114855,1,0,0:0:0:0:
264,192,115390,5,0,0:0:0:0:
232,120,115497,1,0,0:0:0:0:
264,192,115605,1,0,0:0:0:0:
232,120,115712,1,0,0:0:0:0:
264,192,115819,1,0,0:0:0:0:
232,120,115926,1,0,0:0:0:0:
264,192,116033,1,0,0:0:0:0:
232,120,116140,1,0,0:0:0:0:
