osu file format v13

[General]
AudioFilename: axion.mp3
AudioLeadIn: 0
PreviewTime: 23567
Countdown: 0
SampleSet: None
StackLeniency: 0.6
Mode: 0
LetterboxInBreaks: 0
WidescreenStoryboard: 0

[Editor]
Bookmarks: 10281,17138,23995,30853,37710,44567,51424,54857,61710,70281,77138,83995,90853,97710,104567,111424
DistanceSpacing: 2
BeatDivisor: 4
GridSize: 8
TimelineZoom: 1

[Metadata]
Title:Long Jump Stream Practice Maps
TitleUnicode:Long Jump Stream Practice Maps
Artist:Various Artist
ArtistUnicode:Various Artist
Creator:Jimpky
Version:AXION BPM160
Source:
Tags:Jump Stream
BeatmapID:496062
BeatmapSetID:210894

[Difficulty]
HPDrainRate:0
CircleSize:5
OverallDifficulty:2
ApproachRate:8
SliderMultiplier:1.6
SliderTickRate:1

[Events]
//Background and Video events
0,0,"axion.jpg",0,0
//Break Periods
//Storyboard Layer 0 (Background)
//Storyboard Layer 1 (Fail)
//Storyboard Layer 2 (Pass)
//Storyboard Layer 3 (Foreground)
//Storyboard Sound Samples
//Background Colour Transformations
3,100,0,0,0

[TimingPoints]
400,375,4,2,1,80,1,0
51400,-100,4,2,1,80,0,1
63353,-100,4,2,1,80,0,0
63400,-200,4,2,1,80,0,1
63446,-200,4,2,1,80,0,0
117493,-100,4,2,0,5,0,0

[Colours]
Combo1 : 255,255,128
Combo2 : 255,0,0
Combo3 : 128,255,128
Combo4 : 255,128,64

[HitObjects]
0,72,1900,5,2,0:0:0:0:
24,0,1993,1,0,0:0:0:0:
64,72,2087,1,0,0:0:0:0:
88,0,2181,1,0,0:0:0:0:
120,72,2275,1,2,0:0:0:0:
152,0,2368,1,0,0:0:0:0:
184,72,2462,1,0,0:0:0:0:
216,0,2556,1,0,0:0:0:0:
256,72,2650,1,2,0:0:0:0:
280,0,2743,1,0,0:0:0:0:
320,72,2837,1,0,0:0:0:0:
344,0,2931,1,0,0:0:0:0:
376,72,3025,1,2,0:0:0:0:
408,0,3118,1,0,0:0:0:0:
440,72,3212,1,0,0:0:0:0:
472,0,3306,1,0,0:0:0:0:
479,337,3775,5,2,0:0:0:0:
455,265,3868,1,0,0:0:0:0:
415,337,3962,1,0,0:0:0:0:
391,265,4056,1,0,0:0:0:0:
359,337,4150,1,2,0:0:0:0:
327,265,4243,1,0,0:0:0:0:
295,337,4337,1,0,0:0:0:0:
263,265,4431,1,0,0:0:0:0:
223,337,4525,1,2,0:0:0:0:
199,265,4618,1,0,0:0:0:0:
159,337,4712,1,0,0:0:0:0:
135,265,4806,1,0,0:0:0:0:
103,337,4900,1,2,0:0:0:0:
71,265,4993,1,0,0:0:0:0:
39,337,5087,1,0,0:0:0:0:
7,265,5181,1,0,0:0:0:0:
0,72,5650,5,2,0:0:0:0:
24,0,5743,1,0,0:0:0:0:
64,72,5837,1,0,0:0:0:0:
88,0,5931,1,0,0:0:0:0:
120,72,6025,1,2,0:0:0:0:
152,0,6118,1,0,0:0:0:0:
184,72,6212,1,0,0:0:0:0:
216,0,6306,1,0,0:0:0:0:
256,72,6400,1,2,0:0:0:0:
280,0,6493,1,0,0:0:0:0:
320,72,6587,1,0,0:0:0:0:
344,0,6681,1,0,0:0:0:0:
376,72,6775,1,2,0:0:0:0:
408,0,6868,1,0,0:0:0:0:
440,72,6962,1,0,0:0:0:0:
472,0,7056,1,0,0:0:0:0:
479,337,7525,5,2,0:0:0:0:
455,265,7618,1,0,0:0:0:0:
415,337,7712,1,0,0:0:0:0:
391,265,7806,1,0,0:0:0:0:
359,337,7900,1,2,0:0:0:0:
327,265,7993,1,0,0:0:0:0:
295,337,8087,1,0,0:0:0:0:
263,265,8181,1,0,0:0:0:0:
223,337,8275,1,2,0:0:0:0:
199,265,8368,1,0,0:0:0:0:
159,337,8462,1,0,0:0:0:0:
135,265,8556,1,0,0:0:0:0:
103,337,8650,1,2,0:0:0:0:
71,265,8743,1,0,0:0:0:0:
39,337,8837,1,0,0:0:0:0:
7,265,8931,1,0,0:0:0:0:
0,72,9400,5,2,0:0:0:0:
24,0,9493,1,0,0:0:0:0:
64,72,9587,1,0,0:0:0:0:
88,0,9681,1,0,0:0:0:0:
120,72,9775,1,2,0:0:0:0:
152,0,9868,1,0,0:0:0:0:
184,72,9962,1,0,0:0:0:0:
216,0,10056,1,0,0:0:0:0:
256,72,10150,1,2,0:0:0:0:
280,0,10243,1,0,0:0:0:0:
320,72,10337,1,0,0:0:0:0:
344,0,10431,1,0,0:0:0:0:
376,72,10525,1,2,0:0:0:0:
408,0,10618,1,0,0:0:0:0:
440,72,10712,1,0,0:0:0:0:
472,0,10806,1,0,0:0:0:0:
479,337,11275,5,2,0:0:0:0:
455,265,11368,1,0,0:0:0:0:
415,337,11462,1,0,0:0:0:0:
391,265,11556,1,0,0:0:0:0:
359,337,11650,1,2,0:0:0:0:
327,265,11743,1,0,0:0:0:0:
295,337,11837,1,0,0:0:0:0:
263,265,11931,1,0,0:0:0:0:
223,337,12025,1,2,0:0:0:0:
199,265,12118,1,0,0:0:0:0:
159,337,12212,1,0,0:0:0:0:
135,265,12306,1,0,0:0:0:0:
103,337,12400,1,2,0:0:0:0:
71,265,12493,1,0,0:0:0:0:
39,337,12587,1,0,0:0:0:0:
7,265,12681,1,0,0:0:0:0:
0,72,13150,5,2,0:0:0:0:
24,0,13243,1,0,0:0:0:0:
64,72,13337,1,0,0:0:0:0:
88,0,13431,1,0,0:0:0:0:
120,72,13525,1,2,0:0:0:0:
152,0,13618,1,0,0:0:0:0:
184,72,13712,1,0,0:0:0:0:
216,0,13806,1,0,0:0:0:0:
256,72,13900,1,2,0:0:0:0:
280,0,13993,1,0,0:0:0:0:
320,72,14087,1,0,0:0:0:0:
344,0,14181,1,0,0:0:0:0:
376,72,14275,1,2,0:0:0:0:
408,0,14368,1,0,0:0:0:0:
440,72,14462,1,0,0:0:0:0:
472,0,14556,1,0,0:0:0:0:
479,337,15025,5,2,0:0:0:0:
455,265,15118,1,0,0:0:0:0:
415,337,15212,1,0,0:0:0:0:
391,265,15306,1,0,0:0:0:0:
359,337,15400,1,2,0:0:0:0:
327,265,15493,1,0,0:0:0:0:
295,337,15587,1,0,0:0:0:0:
263,265,15681,1,0,0:0:0:0:
223,337,15775,1,2,0:0:0:0:
199,265,15868,1,0,0:0:0:0:
159,337,15962,1,0,0:0:0:0:
135,265,16056,1,0,0:0:0:0:
103,337,16150,1,2,0:0:0:0:
71,265,16243,1,0,0:0:0:0:
39,337,16337,1,0,0:0:0:0:
7,265,16431,1,0,0:0:0:0:
0,72,16900,5,2,0:0:0:0:
24,0,16993,1,0,0:0:0:0:
64,72,17087,1,0,0:0:0:0:
88,0,17181,1,0,0:0:0:0:
120,72,17275,1,2,0:0:0:0:
152,0,17368,1,0,0:0:0:0:
184,72,17462,1,0,0:0:0:0:
216,0,17556,1,0,0:0:0:0:
256,72,17650,1,2,0:0:0:0:
280,0,17743,1,0,0:0:0:0:
320,72,17837,1,0,0:0:0:0:
344,0,17931,1,0,0:0:0:0:
376,72,18025,1,2,0:0:0:0:
408,0,18118,1,0,0:0:0:0:
440,72,18212,1,0,0:0:0:0:
472,0,18306,1,0,0:0:0:0:
479,337,18775,5,2,0:0:0:0:
455,265,18868,1,0,0:0:0:0:
415,337,18962,1,0,0:0:0:0:
391,265,19056,1,0,0:0:0:0:
359,337,19150,1,2,0:0:0:0:
327,265,19243,1,0,0:0:0:0:
295,337,19337,1,0,0:0:0:0:
263,265,19431,1,0,0:0:0:0:
223,337,19525,1,2,0:0:0:0:
199,265,19618,1,0,0:0:0:0:
159,337,19712,1,0,0:0:0:0:
135,265,19806,1,0,0:0:0:0:
103,337,19900,1,2,0:0:0:0:
71,265,19993,1,0,0:0:0:0:
39,337,20087,1,0,0:0:0:0:
7,265,20181,1,0,0:0:0:0:
0,72,21400,5,2,0:0:0:0:
24,0,21493,1,0,0:0:0:0:
64,72,21587,1,0,0:0:0:0:
88,0,21681,1,0,0:0:0:0:
120,72,21775,1,2,0:0:0:0:
152,0,21868,1,0,0:0:0:0:
184,72,21962,1,0,0:0:0:0:
216,0,22056,1,0,0:0:0:0:
256,72,22150,1,2,0:0:0:0:
280,0,22243,1,0,0:0:0:0:
320,72,22337,1,0,0:0:0:0:
344,0,22431,1,0,0:0:0:0:
376,72,22525,1,2,0:0:0:0:
408,0,22618,1,0,0:0:0:0:
440,72,22712,1,0,0:0:0:0:
472,0,22806,1,0,0:0:0:0:
479,337,23275,5,2,0:0:0:0:
455,265,23368,1,0,0:0:0:0:
415,337,23462,1,0,0:0:0:0:
391,265,23556,1,0,0:0:0:0:
359,337,23650,1,2,0:0:0:0:
327,265,23743,1,0,0:0:0:0:
295,337,23837,1,0,0:0:0:0:
263,265,23931,1,0,0:0:0:0:
223,337,24025,1,2,0:0:0:0:
199,265,24118,1,0,0:0:0:0:
159,337,24212,1,0,0:0:0:0:
135,265,24306,1,0,0:0:0:0:
103,337,24400,1,2,0:0:0:0:
71,265,24493,1,0,0:0:0:0:
39,337,24587,1,0,0:0:0:0:
7,265,24681,1,0,0:0:0:0:
0,72,25900,5,2,0:0:0:0:
24,0,25993,1,0,0:0:0:0:
64,72,26087,1,0,0:0:0:0:
88,0,26181,1,0,0:0:0:0:
120,72,26275,1,2,0:0:0:0:
152,0,26368,1,0,0:0:0:0:
184,72,26462,1,0,0:0:0:0:
216,0,26556,1,0,0:0:0:0:
256,72,26650,1,2,0:0:0:0:
280,0,26743,1,0,0:0:0:0:
320,72,26837,1,0,0:0:0:0:
344,0,26931,1,0,0:0:0:0:
376,72,27025,1,2,0:0:0:0:
408,0,27118,1,0,0:0:0:0:
440,72,27212,1,0,0:0:0:0:
472,0,27306,1,0,0:0:0:0:
479,337,27775,5,2,0:0:0:0:
455,265,27868,1,0,0:0:0:0:
415,337,27962,1,0,0:0:0:0:
391,265,28056,1,0,0:0:0:0:
359,337,28150,1,2,0:0:0:0:
327,265,28243,1,0,0:0:0:0:
295,337,28337,1,0,0:0:0:0:
263,265,28431,1,0,0:0:0:0:
223,337,28525,1,2,0:0:0:0:
199,265,28618,1,0,0:0:0:0:
159,337,28712,1,0,0:0:0:0:
135,265,28806,1,0,0:0:0:0:
103,337,28900,1,2,0:0:0:0:
71,265,28993,1,0,0:0:0:0:
39,337,29087,1,0,0:0:0:0:
7,265,29181,1,0,0:0:0:0:
0,72,30400,5,2,0:0:0:0:
24,0,30493,1,0,0:0:0:0:
64,72,30587,1,0,0:0:0:0:
88,0,30681,1,0,0:0:0:0:
120,72,30775,1,2,0:0:0:0:
152,0,30868,1,0,0:0:0:0:
184,72,30962,1,0,0:0:0:0:
216,0,31056,1,0,0:0:0:0:
256,72,31150,1,2,0:0:0:0:
280,0,31243,1,0,0:0:0:0:
320,72,31337,1,0,0:0:0:0:
344,0,31431,1,0,0:0:0:0:
376,72,31525,1,2,0:0:0:0:
408,0,31618,1,0,0:0:0:0:
440,72,31712,1,0,0:0:0:0:
472,0,31806,1,0,0:0:0:0:
479,337,32275,5,2,0:0:0:0:
455,265,32368,1,0,0:0:0:0:
415,337,32462,1,0,0:0:0:0:
391,265,32556,1,0,0:0:0:0:
359,337,32650,1,2,0:0:0:0:
327,265,32743,1,0,0:0:0:0:
295,337,32837,1,0,0:0:0:0:
263,265,32931,1,0,0:0:0:0:
223,337,33025,1,2,0:0:0:0:
199,265,33118,1,0,0:0:0:0:
159,337,33212,1,0,0:0:0:0:
135,265,33306,1,0,0:0:0:0:
103,337,33400,1,2,0:0:0:0:
71,265,33493,1,0,0:0:0:0:
39,337,33587,1,0,0:0:0:0:
7,265,33681,1,0,0:0:0:0:
0,72,34900,5,2,0:0:0:0:
24,0,34993,1,0,0:0:0:0:
64,72,35087,1,0,0:0:0:0:
88,0,35181,1,0,0:0:0:0:
120,72,35275,1,2,0:0:0:0:
152,0,35368,1,0,0:0:0:0:
184,72,35462,1,0,0:0:0:0:
216,0,35556,1,0,0:0:0:0:
256,72,35650,1,2,0:0:0:0:
280,0,35743,1,0,0:0:0:0:
320,72,35837,1,0,0:0:0:0:
344,0,35931,1,0,0:0:0:0:
376,72,36025,1,2,0:0:0:0:
408,0,36118,1,0,0:0:0:0:
440,72,36212,1,0,0:0:0:0:
472,0,36306,1,0,0:0:0:0:
479,337,36775,5,2,0:0:0:0:
455,265,36868,1,0,0:0:0:0:
415,337,36962,1,0,0:0:0:0:
391,265,37056,1,0,0:0:0:0:
359,337,37150,1,2,0:0:0:0:
327,265,37243,1,0,0:0:0:0:
295,337,37337,1,0,0:0:0:0:
263,265,37431,1,0,0:0:0:0:
223,337,37525,1,2,0:0:0:0:
199,265,37618,1,0,0:0:0:0:
159,337,37712,1,0,0:0:0:0:
135,265,37806,1,0,0:0:0:0:
103,337,37900,1,2,0:0:0:0:
71,265,37993,1,0,0:0:0:0:
39,337,38087,1,0,0:0:0:0:
7,265,38181,1,0,0:0:0:0:
0,72,39400,5,2,0:0:0:0:
24,0,39493,1,0,0:0:0:0:
64,72,39587,1,0,0:0:0:0:
88,0,39681,1,0,0:0:0:0:
120,72,39775,1,2,0:0:0:0:
152,0,39868,1,0,0:0:0:0:
184,72,39962,1,0,0:0:0:0:
216,0,40056,1,0,0:0:0:0:
256,72,40150,1,2,0:0:0:0:
280,0,40243,1,0,0:0:0:0:
320,72,40337,1,0,0:0:0:0:
344,0,40431,1,0,0:0:0:0:
376,72,40525,1,2,0:0:0:0:
408,0,40618,1,0,0:0:0:0:
440,72,40712,1,0,0:0:0:0:
472,0,40806,1,0,0:0:0:0:
479,337,41275,5,2,0:0:0:0:
455,265,41368,1,0,0:0:0:0:
415,337,41462,1,0,0:0:0:0:
391,265,41556,1,0,0:0:0:0:
359,337,41650,1,2,0:0:0:0:
327,265,41743,1,0,0:0:0:0:
295,337,41837,1,0,0:0:0:0:
263,265,41931,1,0,0:0:0:0:
223,337,42025,1,2,0:0:0:0:
199,265,42118,1,0,0:0:0:0:
159,337,42212,1,0,0:0:0:0:
135,265,42306,1,0,0:0:0:0:
103,337,42400,1,2,0:0:0:0:
71,265,42493,1,0,0:0:0:0:
39,337,42587,1,0,0:0:0:0:
7,265,42681,1,0,0:0:0:0:
0,72,43900,5,2,0:0:0:0:
24,0,43993,1,0,0:0:0:0:
64,72,44087,1,0,0:0:0:0:
88,0,44181,1,0,0:0:0:0:
120,72,44275,1,2,0:0:0:0:
152,0,44368,1,0,0:0:0:0:
184,72,44462,1,0,0:0:0:0:
216,0,44556,1,0,0:0:0:0:
256,72,44650,1,2,0:0:0:0:
280,0,44743,1,0,0:0:0:0:
320,72,44837,1,0,0:0:0:0:
344,0,44931,1,0,0:0:0:0:
376,72,45025,1,2,0:0:0:0:
408,0,45118,1,0,0:0:0:0:
440,72,45212,1,0,0:0:0:0:
472,0,45306,1,0,0:0:0:0:
479,337,45775,5,2,0:0:0:0:
455,265,45868,1,0,0:0:0:0:
415,337,45962,1,0,0:0:0:0:
391,265,46056,1,0,0:0:0:0:
359,337,46150,1,2,0:0:0:0:
327,265,46243,1,0,0:0:0:0:
295,337,46337,1,0,0:0:0:0:
263,265,46431,1,0,0:0:0:0:
223,337,46525,1,2,0:0:0:0:
199,265,46618,1,0,0:0:0:0:
159,337,46712,1,0,0:0:0:0:
135,265,46806,1,0,0:0:0:0:
103,337,46900,1,2,0:0:0:0:
71,265,46993,1,0,0:0:0:0:
39,337,47087,1,0,0:0:0:0:
7,265,47181,1,0,0:0:0:0:
0,72,48400,5,2,0:0:0:0:
24,0,48493,1,0,0:0:0:0:
64,72,48587,1,0,0:0:0:0:
88,0,48681,1,0,0:0:0:0:
120,72,48775,1,2,0:0:0:0:
152,0,48868,1,0,0:0:0:0:
184,72,48962,1,0,0:0:0:0:
216,0,49056,1,0,0:0:0:0:
256,72,49150,1,2,0:0:0:0:
280,0,49243,1,0,0:0:0:0:
320,72,49337,1,0,0:0:0:0:
344,0,49431,1,0,0:0:0:0:
376,72,49525,1,2,0:0:0:0:
408,0,49618,1,0,0:0:0:0:
440,72,49712,1,0,0:0:0:0:
472,0,49806,1,0,0:0:0:0:
479,337,50275,5,2,0:0:0:0:
455,265,50368,1,0,0:0:0:0:
415,337,50462,1,0,0:0:0:0:
391,265,50556,1,0,0:0:0:0:
359,337,50650,1,2,0:0:0:0:
327,265,50743,1,0,0:0:0:0:
295,337,50837,1,0,0:0:0:0:
263,265,50931,1,0,0:0:0:0:
223,337,51025,1,2,0:0:0:0:
199,265,51118,1,0,0:0:0:0:
159,337,51212,1,0,0:0:0:0:
135,265,51306,1,0,0:0:0:0:
103,337,51400,1,2,0:0:0:0:
71,265,51493,1,0,0:0:0:0:
39,337,51587,1,0,0:0:0:0:
7,265,51681,1,0,0:0:0:0:
0,72,52150,5,2,0:0:0:0:
24,0,52243,1,0,0:0:0:0:
64,72,52337,1,0,0:0:0:0:
88,0,52431,1,0,0:0:0:0:
120,72,52525,1,2,0:0:0:0:
152,0,52618,1,0,0:0:0:0:
184,72,52712,1,0,0:0:0:0:
216,0,52806,1,0,0:0:0:0:
256,72,52900,1,2,0:0:0:0:
280,0,52993,1,0,0:0:0:0:
320,72,53087,1,0,0:0:0:0:
344,0,53181,1,0,0:0:0:0:
376,72,53275,1,2,0:0:0:0:
408,0,53368,1,0,0:0:0:0:
440,72,53462,1,0,0:0:0:0:
472,0,53556,1,0,0:0:0:0:
479,337,54025,5,2,0:0:0:0:
455,265,54118,1,0,0:0:0:0:
415,337,54212,1,0,0:0:0:0:
391,265,54306,1,0,0:0:0:0:
359,337,54400,1,2,0:0:0:0:
327,265,54493,1,0,0:0:0:0:
295,337,54587,1,0,0:0:0:0:
263,265,54681,1,0,0:0:0:0:
223,337,54775,1,2,0:0:0:0:
199,265,54868,1,0,0:0:0:0:
159,337,54962,1,0,0:0:0:0:
135,265,55056,1,0,0:0:0:0:
103,337,55150,1,2,0:0:0:0:
71,265,55243,1,0,0:0:0:0:
39,337,55337,1,0,0:0:0:0:
7,265,55431,1,0,0:0:0:0:
0,72,55900,5,2,0:0:0:0:
24,0,55993,1,0,0:0:0:0:
64,72,56087,1,0,0:0:0:0:
88,0,56181,1,0,0:0:0:0:
120,72,56275,1,2,0:0:0:0:
152,0,56368,1,0,0:0:0:0:
184,72,56462,1,0,0:0:0:0:
216,0,56556,1,0,0:0:0:0:
256,72,56650,1,2,0:0:0:0:
280,0,56743,1,0,0:0:0:0:
320,72,56837,1,0,0:0:0:0:
344,0,56931,1,0,0:0:0:0:
376,72,57025,1,2,0:0:0:0:
408,0,57118,1,0,0:0:0:0:
440,72,57212,1,0,0:0:0:0:
472,0,57306,1,0,0:0:0:0:
479,337,57775,5,2,0:0:0:0:
455,265,57868,1,0,0:0:0:0:
415,337,57962,1,0,0:0:0:0:
391,265,58056,1,0,0:0:0:0:
359,337,58150,1,2,0:0:0:0:
327,265,58243,1,0,0:0:0:0:
295,337,58337,1,0,0:0:0:0:
263,265,58431,1,0,0:0:0:0:
223,337,58525,1,2,0:0:0:0:
199,265,58618,1,0,0:0:0:0:
159,337,58712,1,0,0:0:0:0:
135,265,58806,1,0,0:0:0:0:
103,337,58900,1,2,0:0:0:0:
71,265,58993,1,0,0:0:0:0:
39,337,59087,1,0,0:0:0:0:
7,265,59181,1,0,0:0:0:0:
0,72,59650,5,2,0:0:0:0:
24,0,59743,1,0,0:0:0:0:
64,72,59837,1,0,0:0:0:0:
88,0,59931,1,0,0:0:0:0:
120,72,60025,1,2,0:0:0:0:
152,0,60118,1,0,0:0:0:0:
184,72,60212,1,0,0:0:0:0:
216,0,60306,1,0,0:0:0:0:
256,72,60400,1,2,0:0:0:0:
280,0,60493,1,0,0:0:0:0:
320,72,60587,1,0,0:0:0:0:
344,0,60681,1,0,0:0:0:0:
376,72,60775,1,2,0:0:0:0:
408,0,60868,1,0,0:0:0:0:
440,72,60962,1,0,0:0:0:0:
472,0,61056,1,0,0:0:0:0:
479,337,61525,5,2,0:0:0:0:
455,265,61618,1,0,0:0:0:0:
415,337,61712,1,0,0:0:0:0:
391,265,61806,1,0,0:0:0:0:
359,337,61900,1,2,0:0:0:0:
327,265,61993,1,0,0:0:0:0:
295,337,62087,1,0,0:0:0:0:
263,265,62181,1,0,0:0:0:0:
223,337,62275,1,2,0:0:0:0:
199,265,62368,1,0,0:0:0:0:
159,337,62462,1,0,0:0:0:0:
135,265,62556,1,0,0:0:0:0:
103,337,62650,1,2,0:0:0:0:
71,265,62743,1,0,0:0:0:0:
39,337,62837,1,0,0:0:0:0:
7,265,62931,1,0,0:0:0:0:
0,72,63400,5,2,0:0:0:0:
24,0,63493,1,0,0:0:0:0:
64,72,63587,1,0,0:0:0:0:
88,0,63681,1,0,0:0:0:0:
120,72,63775,1,2,0:0:0:0:
152,0,63868,1,0,0:0:0:0:
184,72,63962,1,0,0:0:0:0:
216,0,64056,1,0,0:0:0:0:
256,72,64150,1,2,0:0:0:0:
280,0,64243,1,0,0:0:0:0:
320,72,64337,1,0,0:0:0:0:
344,0,64431,1,0,0:0:0:0:
376,72,64525,1,2,0:0:0:0:
408,0,64618,1,0,0:0:0:0:
440,72,64712,1,0,0:0:0:0:
472,0,64806,1,0,0:0:0:0:
479,337,65275,5,2,0:0:0:0:
455,265,65368,1,0,0:0:0:0:
415,337,65462,1,0,0:0:0:0:
391,265,65556,1,0,0:0:0:0:
359,337,65650,1,2,0:0:0:0:
327,265,65743,1,0,0:0:0:0:
295,337,65837,1,0,0:0:0:0:
263,265,65931,1,0,0:0:0:0:
223,337,66025,1,2,0:0:0:0:
199,265,66118,1,0,0:0:0:0:
159,337,66212,1,0,0:0:0:0:
135,265,66306,1,0,0:0:0:0:
103,337,66400,1,2,0:0:0:0:
71,265,66493,1,0,0:0:0:0:
39,337,66587,1,0,0:0:0:0:
7,265,66681,1,0,0:0:0:0:
0,72,67900,5,2,0:0:0:0:
24,0,67993,1,0,0:0:0:0:
64,72,68087,1,0,0:0:0:0:
88,0,68181,1,0,0:0:0:0:
120,72,68275,1,2,0:0:0:0:
152,0,68368,1,0,0:0:0:0:
184,72,68462,1,0,0:0:0:0:
216,0,68556,1,0,0:0:0:0:
256,72,68650,1,2,0:0:0:0:
280,0,68743,1,0,0:0:0:0:
320,72,68837,1,0,0:0:0:0:
344,0,68931,1,0,0:0:0:0:
376,72,69025,1,2,0:0:0:0:
408,0,69118,1,0,0:0:0:0:
440,72,69212,1,0,0:0:0:0:
472,0,69306,1,0,0:0:0:0:
479,337,69775,5,2,0:0:0:0:
455,265,69868,1,0,0:0:0:0:
415,337,69962,1,0,0:0:0:0:
391,265,70056,1,0,0:0:0:0:
359,337,70150,1,2,0:0:0:0:
327,265,70243,1,0,0:0:0:0:
295,337,70337,1,0,0:0:0:0:
263,265,70431,1,0,0:0:0:0:
223,337,70525,1,2,0:0:0:0:
199,265,70618,1,0,0:0:0:0:
159,337,70712,1,0,0:0:0:0:
135,265,70806,1,0,0:0:0:0:
103,337,70900,1,2,0:0:0:0:
71,265,70993,1,0,0:0:0:0:
39,337,71087,1,0,0:0:0:0:
7,265,71181,1,0,0:0:0:0:
0,72,72400,5,2,0:0:0:0:
24,0,72493,1,0,0:0:0:0:
64,72,72587,1,0,0:0:0:0:
88,0,72681,1,0,0:0:0:0:
120,72,72775,1,2,0:0:0:0:
152,0,72868,1,0,0:0:0:0:
184,72,72962,1,0,0:0:0:0:
216,0,73056,1,0,0:0:0:0:
256,72,73150,1,2,0:0:0:0:
280,0,73243,1,0,0:0:0:0:
320,72,73337,1,0,0:0:0:0:
344,0,73431,1,0,0:0:0:0:
376,72,73525,1,2,0:0:0:0:
408,0,73618,1,0,0:0:0:0:
440,72,73712,1,0,0:0:0:0:
472,0,73806,1,0,0:0:0:0:
479,337,74275,5,2,0:0:0:0:
455,265,74368,1,0,0:0:0:0:
415,337,74462,1,0,0:0:0:0:
391,265,74556,1,0,0:0:0:0:
359,337,74650,1,2,0:0:0:0:
327,265,74743,1,0,0:0:0:0:
295,337,74837,1,0,0:0:0:0:
263,265,74931,1,0,0:0:0:0:
223,337,75025,1,2,0:0:0:0:
199,265,75118,1,0,0:0:0:0:
159,337,75212,1,0,0:0:0:0:
135,265,75306,1,0,0:0:0:0:
103,337,75400,1,2,0:0:0:0:
71,265,75493,1,0,0:0:0:0:
39,337,75587,1,0,0:0:0:0:
7,265,75681,1,0,0:0:0:0:
0,72,76900,5,2,0:0:0:0:
24,0,76993,1,0,0:0:0:0:
64,72,77087,1,0,0:0:0:0:
88,0,77181,1,0,0:0:0:0:
120,72,77275,1,2,0:0:0:0:
152,0,77368,1,0,0:0:0:0:
184,72,77462,1,0,0:0:0:0:
216,0,77556,1,0,0:0:0:0:
256,72,77650,1,2,0:0:0:0:
280,0,77743,1,0,0:0:0:0:
320,72,77837,1,0,0:0:0:0:
344,0,77931,1,0,0:0:0:0:
376,72,78025,1,2,0:0:0:0:
408,0,78118,1,0,0:0:0:0:
440,72,78212,1,0,0:0:0:0:
472,0,78306,1,0,0:0:0:0:
479,337,78775,5,2,0:0:0:0:
455,265,78868,1,0,0:0:0:0:
415,337,78962,1,0,0:0:0:0:
391,265,79056,1,0,0:0:0:0:
359,337,79150,1,2,0:0:0:0:
327,265,79243,1,0,0:0:0:0:
295,337,79337,1,0,0:0:0:0:
263,265,79431,1,0,0:0:0:0:
223,337,79525,1,2,0:0:0:0:
199,265,79618,1,0,0:0:0:0:
159,337,79712,1,0,0:0:0:0:
135,265,79806,1,0,0:0:0:0:
103,337,79900,1,2,0:0:0:0:
71,265,79993,1,0,0:0:0:0:
39,337,80087,1,0,0:0:0:0:
7,265,80181,1,0,0:0:0:0:
0,72,81400,5,2,0:0:0:0:
24,0,81493,1,0,0:0:0:0:
64,72,81587,1,0,0:0:0:0:
88,0,81681,1,0,0:0:0:0:
120,72,81775,1,2,0:0:0:0:
152,0,81868,1,0,0:0:0:0:
184,72,81962,1,0,0:0:0:0:
216,0,82056,1,0,0:0:0:0:
256,72,82150,1,2,0:0:0:0:
280,0,82243,1,0,0:0:0:0:
320,72,82337,1,0,0:0:0:0:
344,0,82431,1,0,0:0:0:0:
376,72,82525,1,2,0:0:0:0:
408,0,82618,1,0,0:0:0:0:
440,72,82712,1,0,0:0:0:0:
472,0,82806,1,0,0:0:0:0:
479,337,83275,5,2,0:0:0:0:
455,265,83368,1,0,0:0:0:0:
415,337,83462,1,0,0:0:0:0:
391,265,83556,1,0,0:0:0:0:
359,337,83650,1,2,0:0:0:0:
327,265,83743,1,0,0:0:0:0:
295,337,83837,1,0,0:0:0:0:
263,265,83931,1,0,0:0:0:0:
223,337,84025,1,2,0:0:0:0:
199,265,84118,1,0,0:0:0:0:
159,337,84212,1,0,0:0:0:0:
135,265,84306,1,0,0:0:0:0:
103,337,84400,1,2,0:0:0:0:
71,265,84493,1,0,0:0:0:0:
39,337,84587,1,0,0:0:0:0:
7,265,84681,1,0,0:0:0:0:
0,72,85900,5,2,0:0:0:0:
24,0,85993,1,0,0:0:0:0:
64,72,86087,1,0,0:0:0:0:
88,0,86181,1,0,0:0:0:0:
120,72,86275,1,2,0:0:0:0:
152,0,86368,1,0,0:0:0:0:
184,72,86462,1,0,0:0:0:0:
216,0,86556,1,0,0:0:0:0:
256,72,86650,1,2,0:0:0:0:
280,0,86743,1,0,0:0:0:0:
320,72,86837,1,0,0:0:0:0:
344,0,86931,1,0,0:0:0:0:
376,72,87025,1,2,0:0:0:0:
408,0,87118,1,0,0:0:0:0:
440,72,87212,1,0,0:0:0:0:
472,0,87306,1,0,0:0:0:0:
479,337,87775,5,2,0:0:0:0:
455,265,87868,1,0,0:0:0:0:
415,337,87962,1,0,0:0:0:0:
391,265,88056,1,0,0:0:0:0:
359,337,88150,1,2,0:0:0:0:
327,265,88243,1,0,0:0:0:0:
295,337,88337,1,0,0:0:0:0:
263,265,88431,1,0,0:0:0:0:
223,337,88525,1,2,0:0:0:0:
199,265,88618,1,0,0:0:0:0:
159,337,88712,1,0,0:0:0:0:
135,265,88806,1,0,0:0:0:0:
103,337,88900,1,2,0:0:0:0:
71,265,88993,1,0,0:0:0:0:
39,337,89087,1,0,0:0:0:0:
7,265,89181,1,0,0:0:0:0:
0,72,90400,5,2,0:0:0:0:
24,0,90493,1,0,0:0:0:0:
64,72,90587,1,0,0:0:0:0:
88,0,90681,1,0,0:0:0:0:
120,72,90775,1,2,0:0:0:0:
152,0,90868,1,0,0:0:0:0:
184,72,90962,1,0,0:0:0:0:
216,0,91056,1,0,0:0:0:0:
256,72,91150,1,2,0:0:0:0:
280,0,91243,1,0,0:0:0:0:
320,72,91337,1,0,0:0:0:0:
344,0,91431,1,0,0:0:0:0:
376,72,91525,1,2,0:0:0:0:
408,0,91618,1,0,0:0:0:0:
440,72,91712,1,0,0:0:0:0:
472,0,91806,1,0,0:0:0:0:
479,337,92275,5,2,0:0:0:0:
455,265,92368,1,0,0:0:0:0:
415,337,92462,1,0,0:0:0:0:
391,265,92556,1,0,0:0:0:0:
359,337,92650,1,2,0:0:0:0:
327,265,92743,1,0,0:0:0:0:
295,337,92837,1,0,0:0:0:0:
263,265,92931,1,0,0:0:0:0:
223,337,93025,1,2,0:0:0:0:
199,265,93118,1,0,0:0:0:0:
159,337,93212,1,0,0:0:0:0:
135,265,93306,1,0,0:0:0:0:
103,337,93400,1,2,0:0:0:0:
71,265,93493,1,0,0:0:0:0:
39,337,93587,1,0,0:0:0:0:
7,265,93681,1,0,0:0:0:0:
0,72,94900,5,2,0:0:0:0:
24,0,94993,1,0,0:0:0:0:
64,72,95087,1,0,0:0:0:0:
88,0,95181,1,0,0:0:0:0:
120,72,95275,1,2,0:0:0:0:
152,0,95368,1,0,0:0:0:0:
184,72,95462,1,0,0:0:0:0:
216,0,95556,1,0,0:0:0:0:
256,72,95650,1,2,0:0:0:0:
280,0,95743,1,0,0:0:0:0:
320,72,95837,1,0,0:0:0:0:
344,0,95931,1,0,0:0:0:0:
376,72,96025,1,2,0:0:0:0:
408,0,96118,1,0,0:0:0:0:
440,72,96212,1,0,0:0:0:0:
472,0,96306,1,0,0:0:0:0:
479,337,96775,5,2,0:0:0:0:
455,265,96868,1,0,0:0:0:0:
415,337,96962,1,0,0:0:0:0:
391,265,97056,1,0,0:0:0:0:
359,337,97150,1,2,0:0:0:0:
327,265,97243,1,0,0:0:0:0:
295,337,97337,1,0,0:0:0:0:
263,265,97431,1,0,0:0:0:0:
223,337,97525,1,2,0:0:0:0:
199,265,97618,1,0,0:0:0:0:
159,337,97712,1,0,0:0:0:0:
135,265,97806,1,0,0:0:0:0:
103,337,97900,1,2,0:0:0:0:
71,265,97993,1,0,0:0:0:0:
39,337,98087,1,0,0:0:0:0:
7,265,98181,1,0,0:0:0:0:
0,72,98650,5,2,0:0:0:0:
24,0,98743,1,0,0:0:0:0:
64,72,98837,1,0,0:0:0:0:
88,0,98931,1,0,0:0:0:0:
120,72,99025,1,2,0:0:0:0:
152,0,99118,1,0,0:0:0:0:
184,72,99212,1,0,0:0:0:0:
216,0,99306,1,0,0:0:0:0:
256,72,99400,1,2,0:0:0:0:
280,0,99493,1,0,0:0:0:0:
320,72,99587,1,0,0:0:0:0:
344,0,99681,1,0,0:0:0:0:
376,72,99775,1,2,0:0:0:0:
408,0,99868,1,0,0:0:0:0:
440,72,99962,1,0,0:0:0:0:
472,0,100056,1,0,0:0:0:0:
479,337,100525,5,2,0:0:0:0:
455,265,100618,1,0,0:0:0:0:
415,337,100712,1,0,0:0:0:0:
391,265,100806,1,0,0:0:0:0:
359,337,100900,1,2,0:0:0:0:
327,265,100993,1,0,0:0:0:0:
295,337,101087,1,0,0:0:0:0:
263,265,101181,1,0,0:0:0:0:
223,337,101275,1,2,0:0:0:0:
199,265,101368,1,0,0:0:0:0:
159,337,101462,1,0,0:0:0:0:
135,265,101556,1,0,0:0:0:0:
103,337,101650,1,2,0:0:0:0:
71,265,101743,1,0,0:0:0:0:
39,337,101837,1,0,0:0:0:0:
7,265,101931,1,0,0:0:0:0:
0,72,102400,5,2,0:0:0:0:
24,0,102493,1,0,0:0:0:0:
64,72,102587,1,0,0:0:0:0:
88,0,102681,1,0,0:0:0:0:
120,72,102775,1,2,0:0:0:0:
152,0,102868,1,0,0:0:0:0:
184,72,102962,1,0,0:0:0:0:
216,0,103056,1,0,0:0:0:0:
256,72,103150,1,2,0:0:0:0:
280,0,103243,1,0,0:0:0:0:
320,72,103337,1,0,0:0:0:0:
344,0,103431,1,0,0:0:0:0:
376,72,103525,1,2,0:0:0:0:
408,0,103618,1,0,0:0:0:0:
440,72,103712,1,0,0:0:0:0:
472,0,103806,1,0,0:0:0:0:
479,337,104275,5,2,0:0:0:0:
455,265,104368,1,0,0:0:0:0:
415,337,104462,1,0,0:0:0:0:
391,265,104556,1,0,0:0:0:0:
359,337,104650,1,2,0:0:0:0:
327,265,104743,1,0,0:0:0:0:
295,337,104837,1,0,0:0:0:0:
263,265,104931,1,0,0:0:0:0:
223,337,105025,1,2,0:0:0:0:
199,265,105118,1,0,0:0:0:0:
159,337,105212,1,0,0:0:0:0:
135,265,105306,1,0,0:0:0:0:
103,337,105400,1,2,0:0:0:0:
71,265,105493,1,0,0:0:0:0:
39,337,105587,1,0,0:0:0:0:
7,265,105681,1,0,0:0:0:0:
0,72,106150,5,2,0:0:0:0:
24,0,106243,1,0,0:0:0:0:
64,72,106337,1,0,0:0:0:0:
88,0,106431,1,0,0:0:0:0:
120,72,106525,1,2,0:0:0:0:
152,0,106618,1,0,0:0:0:0:
184,72,106712,1,0,0:0:0:0:
216,0,106806,1,0,0:0:0:0:
256,72,106900,1,2,0:0:0:0:
280,0,106993,1,0,0:0:0:0:
320,72,107087,1,0,0:0:0:0:
344,0,107181,1,0,0:0:0:0:
376,72,107275,1,2,0:0:0:0:
408,0,107368,1,0,0:0:0:0:
440,72,107462,1,0,0:0:0:0:
472,0,107556,1,0,0:0:0:0:
479,337,108025,5,2,0:0:0:0:
455,265,108118,1,0,0:0:0:0:
415,337,108212,1,0,0:0:0:0:
391,265,108306,1,0,0:0:0:0:
359,337,108400,1,2,0:0:0:0:
327,265,108493,1,0,0:0:0:0:
295,337,108587,1,0,0:0:0:0:
263,265,108681,1,0,0:0:0:0:
223,337,108775,1,2,0:0:0:0:
199,265,108868,1,0,0:0:0:0:
159,337,108962,1,0,0:0:0:0:
135,265,109056,1,0,0:0:0:0:
103,337,109150,1,2,0:0:0:0:
71,265,109243,1,0,0:0:0:0:
39,337,109337,1,0,0:0:0:0:
7,265,109431,1,0,0:0:0:0:
0,72,109900,5,2,0:0:0:0:
24,0,109993,1,0,0:0:0:0:
64,72,110087,1,0,0:0:0:0:
88,0,110181,1,0,0:0:0:0:
120,72,110275,1,2,0:0:0:0:
152,0,110368,1,0,0:0:0:0:
184,72,110462,1,0,0:0:0:0:
216,0,110556,1,0,0:0:0:0:
256,72,110650,1,2,0:0:0:0:
280,0,110743,1,0,0:0:0:0:
320,72,110837,1,0,0:0:0:0:
344,0,110931,1,0,0:0:0:0:
376,72,111025,1,2,0:0:0:0:
408,0,111118,1,0,0:0:0:0:
440,72,111212,1,0,0:0:0:0:
472,0,111306,1,0,0:0:0:0:
479,337,111775,5,2,0:0:0:0:
455,265,111868,1,0,0:0:0:0:
415,337,111962,1,0,0:0:0:0:
391,265,112056,1,0,0:0:0:0:
359,337,112150,1,2,0:0:0:0:
327,265,112243,1,0,0:0:0:0:
295,337,112337,1,0,0:0:0:0:
263,265,112431,1,0,0:0:0:0:
223,337,112525,1,2,0:0:0:0:
199,265,112618,1,0,0:0:0:0:
159,337,112712,1,0,0:0:0:0:
135,265,112806,1,0,0:0:0:0:
103,337,112900,1,2,0:0:0:0:
71,265,112993,1,0,0:0:0:0:
39,337,113087,1,0,0:0:0:0:
7,265,113181,1,0,0:0:0:0:
0,72,114400,5,2,0:0:0:0:
24,0,114493,1,0,0:0:0:0:
64,72,114587,1,0,0:0:0:0:
88,0,114681,1,0,0:0:0:0:
120,72,114775,1,2,0:0:0:0:
152,0,114868,1,0,0:0:0:0:
184,72,114962,1,0,0:0:0:0:
216,0,115056,1,0,0:0:0:0:
256,72,115150,1,2,0:0:0:0:
280,0,115243,1,0,0:0:0:0:
320,72,115337,1,0,0:0:0:0:
344,0,115431,1,0,0:0:0:0:
376,72,115525,1,2,0:0:0:0:
408,0,115618,1,0,0:0:0:0:
440,72,115712,1,0,0:0:0:0:
472,0,115806,1,0,0:0:0:0:
479,337,116275,5,2,0:0:0:0:
455,265,116368,1,0,0:0:0:0:
415,337,116462,1,0,0:0:0:0:
391,265,116556,1,0,0:0:0:0:
359,337,116650,1,2,0:0:0:0:
327,265,116743,1,0,0:0:0:0:
295,337,116837,1,0,0:0:0:0:
263,265,116931,1,0,0:0:0:0:
223,337,117025,1,2,0:0:0:0:
199,265,117118,1,0,0:0:0:0:
159,337,117212,1,0,0:0:0:0:
135,265,117306,1,0,0:0:0:0:
103,337,117400,1,2,0:0:0:0:
71,265,117493,1,0,0:0:0:0:
39,337,117587,1,0,0:0:0:0:
7,265,117681,1,0,0:0:0:0:
0,72,118900,5,2,0:0:0:0:
24,0,118993,1,0,0:0:0:0:
64,72,119087,1,0,0:0:0:0:
88,0,119181,1,0,0:0:0:0:
120,72,119275,1,2,0:0:0:0:
152,0,119368,1,0,0:0:0:0:
184,72,119462,1,0,0:0:0:0:
216,0,119556,1,0,0:0:0:0:
256,72,119650,1,2,0:0:0:0:
280,0,119743,1,0,0:0:0:0:
320,72,119837,1,0,0:0:0:0:
344,0,119931,1,0,0:0:0:0:
376,72,120025,1,2,0:0:0:0:
408,0,120118,1,0,0:0:0:0:
440,72,120212,1,0,0:0:0:0:
472,0,120306,1,0,0:0:0:0:
479,337,120775,5,2,0:0:0:0:
455,265,120868,1,0,0:0:0:0:
415,337,120962,1,0,0:0:0:0:
391,265,121056,1,0,0:0:0:0:
359,337,121150,1,2,0:0:0:0:
327,265,121243,1,0,0:0:0:0:
295,337,121337,1,0,0:0:0:0:
263,265,121431,1,0,0:0:0:0:
223,337,121525,1,2,0:0:0:0:
199,265,121618,1,0,0:0:0:0:
159,337,121712,1,0,0:0:0:0:
135,265,121806,1,0,0:0:0:0:
103,337,121900,1,2,0:0:0:0:
71,265,121993,1,0,0:0:0:0:
39,337,122087,1,0,0:0:0:0:
7,265,122181,1,0,0:0:0:0:
0,72,123400,5,2,0:0:0:0:
24,0,123493,1,0,0:0:0:0:
64,72,123587,1,0,0:0:0:0:
88,0,123681,1,0,0:0:0:0:
120,72,123775,1,2,0:0:0:0:
152,0,123868,1,0,0:0:0:0:
184,72,123962,1,0,0:0:0:0:
216,0,124056,1,0,0:0:0:0:
256,72,124150,1,2,0:0:0:0:
280,0,124243,1,0,0:0:0:0:
320,72,124337,1,0,0:0:0:0:
344,0,124431,1,0,0:0:0:0:
376,72,124525,1,2,0:0:0:0:
408,0,124618,1,0,0:0:0:0:
440,72,124712,1,0,0:0:0:0:
472,0,124806,1,0,0:0:0:0:
479,337,125275,5,2,0:0:0:0:
455,265,125368,1,0,0:0:0:0:
415,337,125462,1,0,0:0:0:0:
391,265,125556,1,0,0:0:0:0:
359,337,125650,1,2,0:0:0:0:
327,265,125743,1,0,0:0:0:0:
295,337,125837,1,0,0:0:0:0:
263,265,125931,1,0,0:0:0:0:
223,337,126025,1,2,0:0:0:0:
199,265,126118,1,0,0:0:0:0:
159,337,126212,1,0,0:0:0:0:
135,265,126306,1,0,0:0:0:0:
103,337,126400,1,2,0:0:0:0:
71,265,126493,1,0,0:0:0:0:
39,337,126587,1,0,0:0:0:0:
7,265,126681,1,0,0:0:0:0:
0,72,127900,5,2,0:0:0:0:
24,0,127993,1,0,0:0:0:0:
64,72,128087,1,0,0:0:0:0:
88,0,128181,1,0,0:0:0:0:
120,72,128275,1,2,0:0:0:0:
152,0,128368,1,0,0:0:0:0:
184,72,128462,1,0,0:0:0:0:
216,0,128556,1,0,0:0:0:0:
256,72,128650,1,2,0:0:0:0:
280,0,128743,1,0,0:0:0:0:
320,72,128837,1,0,0:0:0:0:
344,0,128931,1,0,0:0:0:0:
376,72,129025,1,2,0:0:0:0:
408,0,129118,1,0,0:0:0:0:
440,72,129212,1,0,0:0:0:0:
472,0,129306,1,0,0:0:0:0:
479,337,129775,5,2,0:0:0:0:
455,265,129868,1,0,0:0:0:0:
415,337,129962,1,0,0:0:0:0:
391,265,130056,1,0,0:0:0:0:
359,337,130150,1,2,0:0:0:0:
327,265,130243,1,0,0:0:0:0:
295,337,130337,1,0,0:0:0:0:
263,265,130431,1,0,0:0:0:0:
223,337,130525,1,2,0:0:0:0:
199,265,130618,1,0,0:0:0:0:
159,337,130712,1,0,0:0:0:0:
135,265,130806,1,0,0:0:0:0:
103,337,130900,1,2,0:0:0:0:
71,265,130993,1,0,0:0:0:0:
39,337,131087,1,0,0:0:0:0:
7,265,131181,1,0,0:0:0:0:
0,72,132400,5,2,0:0:0:0:
24,0,132493,1,0,0:0:0:0:
64,72,132587,1,0,0:0:0:0:
88,0,132681,1,0,0:0:0:0:
120,72,132775,1,2,0:0:0:0:
152,0,132868,1,0,0:0:0:0:
184,72,132962,1,0,0:0:0:0:
216,0,133056,1,0,0:0:0:0:
256,72,133150,1,2,0:0:0:0:
280,0,133243,1,0,0:0:0:0:
320,72,133337,1,0,0:0:0:0:
344,0,133431,1,0,0:0:0:0:
376,72,133525,1,2,0:0:0:0:
408,0,133618,1,0,0:0:0:0:
440,72,133712,1,0,0:0:0:0:
472,0,133806,1,0,0:0:0:0:
479,337,134275,5,2,0:0:0:0:
455,265,134368,1,0,0:0:0:0:
415,337,134462,1,0,0:0:0:0:
391,265,134556,1,0,0:0:0:0:
359,337,134650,1,2,0:0:0:0:
327,265,134743,1,0,0:0:0:0:
295,337,134837,1,0,0:0:0:0:
263,265,134931,1,0,0:0:0:0:
223,337,135025,1,2,0:0:0:0:
199,265,135118,1,0,0:0:0:0:
159,337,135212,1,0,0:0:0:0:
135,265,135306,1,0,0:0:0:0:
103,337,135400,1,2,0:0:0:0:
