osu file format v14

[General]
AudioFilename: xi - ANiMA.mp3
AudioLeadIn: 0
PreviewTime: 98671
Countdown: 0
SampleSet: Soft
StackLeniency: 0.7
Mode: 3
LetterboxInBreaks: 0
SpecialStyle: 0
WidescreenStoryboard: 1

[Editor]
DistanceSpacing: 1
BeatDivisor: 4
GridSize: 32
TimelineZoom: 1.9

[Metadata]
Title:[Full LN] training
TitleUnicode:[Full LN] training
Artist:Various Artist
ArtistUnicode:Various Artist
Creator:Allezard
Version:xi - ANiMA Lv. 2
Source:Deemo
Tags:Full LN Training Various Artist Collection 4k NOODLE BMS Deemo Cytus SOUND VOLTEX II -infinite infection- beatmania IIDX
BeatmapID:819061
BeatmapSetID:368373

[Difficulty]
HPDrainRate:5
CircleSize:4
OverallDifficulty:1
ApproachRate:5
SliderMultiplier:1.60000000596046
SliderTickRate:1

[Events]
//Background and Video events
0,0,"xi - ANiMA.jpg",0,0
//Break Periods
//Storyboard Layer 0 (Background)
//Storyboard Layer 1 (Fail)
//Storyboard Layer 2 (Pass)
//Storyboard Layer 3 (Foreground)
//Storyboard Sound Samples

[TimingPoints]
1315,326.975476839237,4,2,0,15,1,0
23549,-100,4,2,0,15,0,1
28780,-100,4,2,0,15,0,0
99407,-100,4,2,0,15,0,1
111178,-100,4,2,0,15,0,0

[HitObjects]
320,192,1315,128,0,5810:0:0:0:0:
64,192,2622,128,0,6464:0:0:0:0:
192,192,3930,128,0,6137:0:0:0:0:
448,192,5565,128,0,10715:0:0:0:0:
320,192,5892,128,0,9080:0:0:0:0:
192,192,6219,128,0,7772:0:0:0:0:
64,192,6546,128,0,8426:0:0:0:0:
192,192,7854,128,0,11369:0:0:0:0:
64,192,8508,128,0,11696:0:0:0:0:
320,192,9162,128,0,11042:0:0:0:0:
448,192,10797,128,0,11696:0:0:0:0:
320,192,11124,128,0,14312:0:0:0:0:
192,192,11451,128,0,14312:0:0:0:0:
64,192,11778,128,0,15620:0:0:0:0:
448,192,11778,128,0,16274:0:0:0:0:
320,192,14394,128,0,15620:0:0:0:0:
192,192,14394,128,0,16274:0:0:0:0:
320,192,15701,128,0,16928:0:0:0:0:
64,192,15701,128,0,16928:0:0:0:0:
448,192,16355,128,0,18235:0:0:0:0:
192,192,16355,128,0,18072:0:0:0:0:
320,192,17009,128,0,19380:0:0:0:0:
64,192,17009,128,0,18235:0:0:0:0:
192,192,18154,128,0,19543:0:0:0:0:
64,192,18317,128,0,20197:0:0:0:0:
448,192,18317,128,0,19543:0:0:0:0:
320,192,19462,128,0,20034:0:0:0:0:
192,192,19625,128,0,20688:0:0:0:0:
448,192,19625,128,0,20197:0:0:0:0:
320,192,20116,128,0,20851:0:0:0:0:
64,192,20279,128,0,20851:0:0:0:0:
448,192,20279,128,0,21178:0:0:0:0:
192,192,20770,128,0,21505:0:0:0:0:
320,192,20933,128,0,21669:0:0:0:0:
64,192,20933,128,0,21832:0:0:0:0:
448,192,21260,128,0,21996:0:0:0:0:
192,192,21587,128,0,22159:0:0:0:0:
320,192,21750,128,0,24448:0:0:0:0:
64,192,21914,128,0,23467:0:0:0:0:
448,192,22077,128,0,23467:0:0:0:0:
192,192,22241,128,0,23794:0:0:0:0:
448,192,23549,128,0,24775:0:0:0:0:
64,192,23549,128,0,24121:0:0:0:0:
192,192,23876,128,0,25102:0:0:0:0:
64,192,24203,128,0,25429:0:0:0:0:
320,192,24530,128,0,25756:0:0:0:0:
448,192,24857,128,0,26083:0:0:0:0:
192,192,25184,128,0,26410:0:0:0:0:
64,192,25511,128,0,27064:0:0:0:0:
320,192,25838,128,0,26737:0:0:0:0:
448,192,26165,128,0,28045:0:0:0:0:
192,192,26492,128,0,27391:0:0:0:0:
320,192,26819,128,0,27718:0:0:0:0:
64,192,27146,128,0,28372:0:0:0:0:
192,192,27473,128,0,28372:0:0:0:0:
320,192,27800,128,0,28699:0:0:0:0:
448,192,28126,128,0,28699:0:0:0:0:
192,192,28453,128,0,29026:0:0:0:0:
64,192,28453,128,0,29353:0:0:0:0:
448,192,28780,128,0,30007:0:0:0:0:
320,192,28780,128,0,29680:0:0:0:0:
192,192,29107,128,0,30334:0:0:0:0:
64,192,29434,128,0,30661:0:0:0:0:
320,192,29761,128,0,30988:0:0:0:0:
448,192,30088,128,0,31314:0:0:0:0:
192,192,30415,128,0,31314:0:0:0:0:
64,192,30742,128,0,31805:0:0:0:0:
320,192,31069,128,0,32295:0:0:0:0:
448,192,31396,128,0,32295:0:0:0:0:
192,192,31396,128,0,31805:0:0:0:0:
64,192,31887,128,0,32622:0:0:0:0:
192,192,31887,128,0,32622:0:0:0:0:
448,192,32377,128,0,32949:0:0:0:0:
320,192,32377,128,0,33276:0:0:0:0:
64,192,32704,128,0,33930:0:0:0:0:
192,192,32704,128,0,33276:0:0:0:0:
448,192,33031,128,0,33930:0:0:0:0:
320,192,33358,128,0,34584:0:0:0:0:
192,192,33358,128,0,35238:0:0:0:0:
64,192,34012,128,0,35565:0:0:0:0:
448,192,34012,128,0,36546:0:0:0:0:
320,192,34666,128,0,35892:0:0:0:0:
192,192,35320,128,0,37527:0:0:0:0:
64,192,35647,128,0,37200:0:0:0:0:
320,192,35974,128,0,37854:0:0:0:0:
448,192,36628,128,0,38181:0:0:0:0:
64,192,37282,128,0,38508:0:0:0:0:
192,192,37609,128,0,38671:0:0:0:0:
320,192,37936,128,0,38835:0:0:0:0:
448,192,38263,128,0,39162:0:0:0:0:
64,192,38590,128,0,39162:0:0:0:0:
192,192,38753,128,0,39489:0:0:0:0:
320,192,38917,128,0,39489:0:0:0:0:
448,192,39244,128,0,39816:0:0:0:0:
64,192,39244,128,0,39816:0:0:0:0:
320,192,39571,128,0,40797:0:0:0:0:
192,192,39571,128,0,40470:0:0:0:0:
448,192,39898,128,0,40797:0:0:0:0:
64,192,39898,128,0,40470:0:0:0:0:
192,192,40552,128,0,41124:0:0:0:0:
64,192,40552,128,0,41124:0:0:0:0:
320,192,40879,128,0,43086:0:0:0:0:
448,192,40879,128,0,41778:0:0:0:0:
64,192,41206,128,0,41778:0:0:0:0:
192,192,41206,128,0,42432:0:0:0:0:
448,192,41859,128,0,42432:0:0:0:0:
64,192,41859,128,0,43086:0:0:0:0:
448,192,42513,128,0,43413:0:0:0:0:
192,192,42513,128,0,44067:0:0:0:0:
64,192,43167,128,0,43740:0:0:0:0:
320,192,43167,128,0,43740:0:0:0:0:
448,192,43494,128,0,44394:0:0:0:0:
64,192,43821,128,0,44394:0:0:0:0:
320,192,43821,128,0,45374:0:0:0:0:
192,192,44148,128,0,44720:0:0:0:0:
448,192,44475,128,0,45047:0:0:0:0:
64,192,44475,128,0,45701:0:0:0:0:
192,192,44802,128,0,46028:0:0:0:0:
448,192,45129,128,0,46682:0:0:0:0:
320,192,45456,128,0,46355:0:0:0:0:
64,192,45783,128,0,47336:0:0:0:0:
192,192,46110,128,0,47009:0:0:0:0:
320,192,46437,128,0,47663:0:0:0:0:
448,192,46764,128,0,47990:0:0:0:0:
192,192,47091,128,0,48317:0:0:0:0:
64,192,47418,128,0,48971:0:0:0:0:
320,192,47745,128,0,48644:0:0:0:0:
448,192,48072,128,0,49298:0:0:0:0:
192,192,48399,128,0,49952:0:0:0:0:
320,192,48726,128,0,49625:0:0:0:0:
64,192,49053,128,0,49625:0:0:0:0:
448,192,49380,128,0,50279:0:0:0:0:
320,192,49707,128,0,51260:0:0:0:0:
64,192,49707,128,0,50606:0:0:0:0:
192,192,50034,128,0,50933:0:0:0:0:
448,192,50361,128,0,51587:0:0:0:0:
64,192,50688,128,0,52241:0:0:0:0:
192,192,51015,128,0,51914:0:0:0:0:
320,192,51342,128,0,52568:0:0:0:0:
448,192,51669,128,0,52241:0:0:0:0:
192,192,51996,128,0,52895:0:0:0:0:
448,192,52323,128,0,52895:0:0:0:0:
64,192,52323,128,0,53222:0:0:0:0:
320,192,52650,128,0,53549:0:0:0:0:
192,192,52977,128,0,53876:0:0:0:0:
448,192,52977,128,0,53549:0:0:0:0:
64,192,53304,128,0,53876:0:0:0:0:
448,192,53631,128,0,54203:0:0:0:0:
320,192,53631,128,0,54203:0:0:0:0:
192,192,53958,128,0,54530:0:0:0:0:
64,192,53958,128,0,54530:0:0:0:0:
320,192,54285,128,0,54857:0:0:0:0:
448,192,54285,128,0,54857:0:0:0:0:
64,192,54612,128,0,55511:0:0:0:0:
192,192,54612,128,0,55184:0:0:0:0:
320,192,54938,128,0,55838:0:0:0:0:
448,192,54938,128,0,56165:0:0:0:0:
192,192,55265,128,0,56492:0:0:0:0:
64,192,55592,128,0,56165:0:0:0:0:
320,192,55919,128,0,57146:0:0:0:0:
448,192,56246,128,0,56819:0:0:0:0:
64,192,56246,128,0,56819:0:0:0:0:
192,192,56573,128,0,57473:0:0:0:0:
64,192,56900,128,0,57473:0:0:0:0:
448,192,56900,128,0,58126:0:0:0:0:
320,192,57227,128,0,57800:0:0:0:0:
64,192,57554,128,0,58780:0:0:0:0:
192,192,57554,128,0,58453:0:0:0:0:
320,192,57881,128,0,58780:0:0:0:0:
448,192,58208,128,0,59107:0:0:0:0:
192,192,58535,128,0,59761:0:0:0:0:
320,192,58862,128,0,59434:0:0:0:0:
64,192,58862,128,0,59434:0:0:0:0:
448,192,59189,128,0,60088:0:0:0:0:
320,192,59516,128,0,60415:0:0:0:0:
64,192,59516,128,0,60088:0:0:0:0:
192,192,59843,128,0,60742:0:0:0:0:
64,192,60170,128,0,61396:0:0:0:0:
448,192,60170,128,0,61069:0:0:0:0:
320,192,60497,128,0,61723:0:0:0:0:
192,192,60824,128,0,61396:0:0:0:0:
448,192,61151,128,0,62050:0:0:0:0:
192,192,61478,128,0,62377:0:0:0:0:
64,192,61478,128,0,62050:0:0:0:0:
320,192,61805,128,0,62704:0:0:0:0:
64,192,62132,128,0,62704:0:0:0:0:
448,192,62132,128,0,63031:0:0:0:0:
192,192,62459,128,0,63358:0:0:0:0:
64,192,62786,128,0,63685:0:0:0:0:
320,192,62786,128,0,63358:0:0:0:0:
448,192,63113,128,0,64012:0:0:0:0:
192,192,63440,128,0,64012:0:0:0:0:
320,192,63440,128,0,64339:0:0:0:0:
64,192,63767,128,0,64666:0:0:0:0:
448,192,64094,128,0,64666:0:0:0:0:
192,192,64094,128,0,64993:0:0:0:0:
320,192,64421,128,0,65647:0:0:0:0:
64,192,64748,128,0,65320:0:0:0:0:
448,192,64748,128,0,65320:0:0:0:0:
192,192,65075,128,0,65974:0:0:0:0:
448,192,65402,128,0,66301:0:0:0:0:
64,192,65402,128,0,66628:0:0:0:0:
320,192,65729,128,0,67609:0:0:0:0:
192,192,66056,128,0,66955:0:0:0:0:
448,192,66383,128,0,67282:0:0:0:0:
64,192,66710,128,0,67936:0:0:0:0:
192,192,67037,128,0,67936:0:0:0:0:
448,192,67364,128,0,68590:0:0:0:0:
320,192,67691,128,0,68263:0:0:0:0:
64,192,68017,128,0,68590:0:0:0:0:
192,192,68017,128,0,68917:0:0:0:0:
320,192,68344,128,0,69244:0:0:0:0:
448,192,68671,128,0,69244:0:0:0:0:
64,192,68671,128,0,69571:0:0:0:0:
192,192,68998,128,0,69898:0:0:0:0:
448,192,69325,128,0,69898:0:0:0:0:
320,192,69325,128,0,70225:0:0:0:0:
64,192,69652,128,0,70552:0:0:0:0:
192,192,69979,128,0,77745:0:0:0:0:
448,192,69979,128,0,70552:0:0:0:0:
320,192,70306,128,0,76437:0:0:0:0:
64,192,70633,128,0,73167:0:0:0:0:
448,192,70633,128,0,73167:0:0:0:0:
64,192,73249,128,0,79707:0:0:0:0:
448,192,73249,128,0,80034:0:0:0:0:
320,192,76519,128,0,79380:0:0:0:0:
192,192,77827,128,0,79053:0:0:0:0:
192,192,79135,128,0,80688:0:0:0:0:
320,192,79462,128,0,80361:0:0:0:0:
64,192,79789,128,0,81015:0:0:0:0:
448,192,80116,128,0,81015:0:0:0:0:
320,192,80443,128,0,83467:0:0:0:0:
192,192,80770,128,0,85756:0:0:0:0:
448,192,81097,128,0,83631:0:0:0:0:
64,192,81097,128,0,83631:0:0:0:0:
320,192,83549,128,0,86246:0:0:0:0:
448,192,83712,128,0,85919:0:0:0:0:
64,192,83712,128,0,86246:0:0:0:0:
192,192,85838,128,0,86573:0:0:0:0:
448,192,86001,128,0,86900:0:0:0:0:
64,192,86328,128,0,86900:0:0:0:0:
320,192,86328,128,0,87227:0:0:0:0:
192,192,86655,128,0,87554:0:0:0:0:
448,192,86982,128,0,88208:0:0:0:0:
64,192,86982,128,0,87881:0:0:0:0:
320,192,87309,128,0,88208:0:0:0:0:
192,192,87636,128,0,88862:0:0:0:0:
64,192,87963,128,0,88535:0:0:0:0:
448,192,88290,128,0,89516:0:0:0:0:
320,192,88290,128,0,89189:0:0:0:0:
64,192,88617,128,0,89516:0:0:0:0:
192,192,88944,128,0,89843:0:0:0:0:
320,192,89271,128,0,90170:0:0:0:0:
448,192,89598,128,0,90170:0:0:0:0:
64,192,89598,128,0,90824:0:0:0:0:
192,192,89925,128,0,90497:0:0:0:0:
448,192,90252,128,0,90824:0:0:0:0:
320,192,90252,128,0,91151:0:0:0:0:
192,192,90579,128,0,91478:0:0:0:0:
448,192,90906,128,0,92295:0:0:0:0:
64,192,90906,128,0,91478:0:0:0:0:
320,192,91233,128,0,92132:0:0:0:0:
192,192,91560,128,0,92786:0:0:0:0:
64,192,91560,128,0,92949:0:0:0:0:
320,192,92214,128,0,93767:0:0:0:0:
448,192,92377,128,0,93440:0:0:0:0:
192,192,92868,128,0,93440:0:0:0:0:
64,192,93031,128,0,93767:0:0:0:0:
448,192,93522,128,0,94094:0:0:0:0:
192,192,93522,128,0,94094:0:0:0:0:
64,192,93849,128,0,94911:0:0:0:0:
320,192,93849,128,0,94748:0:0:0:0:
448,192,94176,128,0,95565:0:0:0:0:
192,192,94176,128,0,95402:0:0:0:0:
320,192,94829,128,0,96056:0:0:0:0:
64,192,94993,128,0,96056:0:0:0:0:
192,192,95483,128,0,96383:0:0:0:0:
448,192,95647,128,0,96383:0:0:0:0:
64,192,96137,128,0,96710:0:0:0:0:
320,192,96137,128,0,96710:0:0:0:0:
192,192,96464,128,0,99652:0:0:0:0:
448,192,96464,128,0,99325:0:0:0:0:
320,192,96791,128,0,99325:0:0:0:0:
64,192,96791,128,0,99979:0:0:0:0:
320,192,99407,128,0,100306:0:0:0:0:
448,192,99407,128,0,100633:0:0:0:0:
192,192,99734,128,0,100960:0:0:0:0:
64,192,100061,128,0,101287:0:0:0:0:
320,192,100388,128,0,101614:0:0:0:0:
448,192,100715,128,0,102268:0:0:0:0:
192,192,101042,128,0,101941:0:0:0:0:
64,192,101369,128,0,102595:0:0:0:0:
320,192,101696,128,0,102922:0:0:0:0:
192,192,102023,128,0,103249:0:0:0:0:
448,192,102350,128,0,103249:0:0:0:0:
64,192,102677,128,0,103576:0:0:0:0:
320,192,103004,128,0,103903:0:0:0:0:
192,192,103331,128,0,103903:0:0:0:0:
448,192,103331,128,0,104230:0:0:0:0:
64,192,103658,128,0,104230:0:0:0:0:
192,192,103985,128,0,104557:0:0:0:0:
320,192,103985,128,0,104557:0:0:0:0:
64,192,104312,128,0,105538:0:0:0:0:
448,192,104312,128,0,104884:0:0:0:0:
192,192,104639,128,0,105211:0:0:0:0:
320,192,104639,128,0,105865:0:0:0:0:
448,192,104966,128,0,106192:0:0:0:0:
192,192,105293,128,0,106519:0:0:0:0:
64,192,105620,128,0,106846:0:0:0:0:
320,192,105947,128,0,107173:0:0:0:0:
448,192,106274,128,0,107173:0:0:0:0:
192,192,106601,128,0,107500:0:0:0:0:
64,192,106928,128,0,107827:0:0:0:0:
320,192,107255,128,0,108154:0:0:0:0:
448,192,107255,128,0,107827:0:0:0:0:
192,192,107582,128,0,108481:0:0:0:0:
64,192,107909,128,0,108481:0:0:0:0:
448,192,107909,128,0,109135:0:0:0:0:
320,192,108235,128,0,108808:0:0:0:0:
64,192,108562,128,0,109135:0:0:0:0:
192,192,108562,128,0,109462:0:0:0:0:
320,192,108889,128,0,109789:0:0:0:0:
64,192,109216,128,0,110443:0:0:0:0:
448,192,109216,128,0,109789:0:0:0:0:
192,192,109543,128,0,110443:0:0:0:0:
448,192,109870,128,0,111097:0:0:0:0:
320,192,109870,128,0,111097:0:0:0:0:
64,192,110524,128,0,111097:0:0:0:0:
192,192,110524,128,0,111097:0:0:0:0:
448,192,111178,128,0,113794:0:0:0:0:
64,192,111178,128,0,113794:0:0:0:0:
