osu file format v14

[General]
AudioFilename: wa. vs ETIA. - Akasagarbha.mp3
AudioLeadIn: 0
PreviewTime: 84909
Countdown: 0
SampleSet: Soft
StackLeniency: 0.7
Mode: 3
LetterboxInBreaks: 0
SpecialStyle: 0
WidescreenStoryboard: 0

[Editor]
DistanceSpacing: 0.7
BeatDivisor: 4
GridSize: 4
TimelineZoom: 2.1

[Metadata]
Title:[Full LN] training
TitleUnicode:[Full LN] training
Artist:Various Artist
ArtistUnicode:Various Artist
Creator:Allezard
Version:wa. vs ETIA. - Akasagarbha Lv. 4.5
Source:BMS
Tags:Full LN Training Various Artist Collection 4k NOODLE BMS Deemo Cytus SOUND VOLTEX II -infinite infection- beatmania IIDX
BeatmapID:819060
BeatmapSetID:368373

[Difficulty]
HPDrainRate:7
CircleSize:4
OverallDifficulty:1
ApproachRate:5
SliderMultiplier:1.4
SliderTickRate:1

[Events]
//Background and Video events
0,0,"wa. vs ETIA. - Akasagarbha.png",0,0
//Break Periods
//Storyboard Layer 0 (Background)
//Storyboard Layer 1 (Fail)
//Storyboard Layer 2 (Pass)
//Storyboard Layer 3 (Foreground)
//Storyboard Sound Samples

[TimingPoints]
222,312.5,4,2,0,40,1,0
10222,-100,4,2,1,40,0,0
85222,-100,4,2,1,40,0,1
105222,-100,4,2,1,40,0,0

[HitObjects]
64,192,222,128,0,2331:0:0:0:0:
192,192,1472,128,0,1706:0:0:0:0:
320,192,1628,128,0,1862:0:0:0:0:
192,192,1784,128,0,3425:0:0:0:0:
320,192,1940,128,0,2643:0:0:0:0:
448,192,2097,128,0,3581:0:0:0:0:
64,192,2409,128,0,3268:0:0:0:0:
320,192,2722,128,0,3737:0:0:0:0:
64,192,3347,128,0,4518:0:0:0:0:
192,192,3503,128,0,3893:0:0:0:0:
448,192,3659,128,0,5612:0:0:0:0:
320,192,3815,128,0,5143:0:0:0:0:
192,192,3972,128,0,4831:0:0:0:0:
64,192,4597,128,0,6393:0:0:0:0:
192,192,4909,128,0,5300:0:0:0:0:
320,192,5222,128,0,6862:0:0:0:0:
192,192,5378,128,0,6550:0:0:0:0:
448,192,5690,128,0,7331:0:0:0:0:
64,192,6472,128,0,8893:0:0:0:0:
192,192,6628,128,0,7956:0:0:0:0:
320,192,6940,128,0,7643:0:0:0:0:
448,192,7409,128,0,9362:0:0:0:0:
320,192,7722,128,0,8112:0:0:0:0:
192,192,8034,128,0,9050:0:0:0:0:
320,192,8190,128,0,9206:0:0:0:0:
64,192,8972,128,0,9518:0:0:0:0:
192,192,9128,128,0,9831:0:0:0:0:
320,192,9284,128,0,9675:0:0:0:0:
448,192,9440,128,0,9987:0:0:0:0:
64,192,9597,128,0,10143:0:0:0:0:
320,192,9753,128,0,10143:0:0:0:0:
192,192,9909,128,0,10612:0:0:0:0:
448,192,10065,128,0,10612:0:0:0:0:
64,192,10222,128,0,11081:0:0:0:0:
320,192,10222,128,0,11081:0:0:0:0:
192,192,10690,128,0,11706:0:0:0:0:
448,192,10690,128,0,11393:0:0:0:0:
64,192,11159,128,0,11862:0:0:0:0:
320,192,11159,128,0,11550:0:0:0:0:
448,192,11472,128,0,11706:0:0:0:0:
320,192,11628,128,0,12331:0:0:0:0:
192,192,11784,128,0,12018:0:0:0:0:
448,192,11784,128,0,12643:0:0:0:0:
64,192,11940,128,0,12331:0:0:0:0:
192,192,12097,128,0,12956:0:0:0:0:
64,192,12409,128,0,13268:0:0:0:0:
320,192,12409,128,0,12956:0:0:0:0:
448,192,12722,128,0,13737:0:0:0:0:
192,192,13034,128,0,13425:0:0:0:0:
320,192,13034,128,0,13581:0:0:0:0:
64,192,13347,128,0,13581:0:0:0:0:
192,192,13503,128,0,14206:0:0:0:0:
64,192,13659,128,0,14206:0:0:0:0:
320,192,13659,128,0,13893:0:0:0:0:
448,192,13815,128,0,14518:0:0:0:0:
320,192,13972,128,0,14831:0:0:0:0:
64,192,14284,128,0,15143:0:0:0:0:
192,192,14284,128,0,14831:0:0:0:0:
448,192,14597,128,0,15612:0:0:0:0:
320,192,14909,128,0,15456:0:0:0:0:
192,192,14909,128,0,15300:0:0:0:0:
64,192,15222,128,0,15456:0:0:0:0:
192,192,15378,128,0,15925:0:0:0:0:
64,192,15534,128,0,16081:0:0:0:0:
320,192,15534,128,0,16081:0:0:0:0:
448,192,15690,128,0,16237:0:0:0:0:
192,192,16003,128,0,16550:0:0:0:0:
64,192,16159,128,0,16706:0:0:0:0:
320,192,16159,128,0,16393:0:0:0:0:
448,192,16315,128,0,16706:0:0:0:0:
320,192,16472,128,0,17175:0:0:0:0:
192,192,16628,128,0,16862:0:0:0:0:
64,192,16784,128,0,17487:0:0:0:0:
448,192,16784,128,0,17331:0:0:0:0:
192,192,16940,128,0,17331:0:0:0:0:
320,192,17253,128,0,18112:0:0:0:0:
192,192,17409,128,0,17643:0:0:0:0:
448,192,17409,128,0,17800:0:0:0:0:
64,192,17565,128,0,17956:0:0:0:0:
192,192,17722,128,0,17956:0:0:0:0:
448,192,17878,128,0,18893:0:0:0:0:
192,192,18034,128,0,18425:0:0:0:0:
64,192,18034,128,0,18581:0:0:0:0:
320,192,18190,128,0,18581:0:0:0:0:
192,192,18503,128,0,19206:0:0:0:0:
320,192,18659,128,0,19206:0:0:0:0:
64,192,18659,128,0,19518:0:0:0:0:
448,192,18972,128,0,19831:0:0:0:0:
320,192,19284,128,0,19831:0:0:0:0:
192,192,19284,128,0,20143:0:0:0:0:
64,192,19597,128,0,20768:0:0:0:0:
320,192,19909,128,0,21862:0:0:0:0:
448,192,19909,128,0,20143:0:0:0:0:
448,192,20222,128,0,22331:0:0:0:0:
192,192,20222,128,0,21393:0:0:0:0:
64,192,20847,128,0,22643:0:0:0:0:
192,192,21472,128,0,22800:0:0:0:0:
320,192,21940,128,0,22956:0:0:0:0:
448,192,22409,128,0,23112:0:0:0:0:
64,192,22722,128,0,23893:0:0:0:0:
192,192,22878,128,0,23425:0:0:0:0:
320,192,23034,128,0,23581:0:0:0:0:
448,192,23190,128,0,24362:0:0:0:0:
192,192,23503,128,0,23893:0:0:0:0:
320,192,23659,128,0,24362:0:0:0:0:
64,192,23972,128,0,24831:0:0:0:0:
192,192,23972,128,0,24909:0:0:0:0:
320,192,24440,128,0,24987:0:0:0:0:
448,192,24440,128,0,25065:0:0:0:0:
64,192,24909,128,0,25143:0:0:0:0:
192,192,24987,128,0,25143:0:0:0:0:
320,192,25065,128,0,25300:0:0:0:0:
448,192,25143,128,0,25456:0:0:0:0:
192,192,25222,128,0,25768:0:0:0:0:
64,192,25222,128,0,25456:0:0:0:0:
320,192,25378,128,0,25612:0:0:0:0:
448,192,25534,128,0,25768:0:0:0:0:
64,192,25534,128,0,25925:0:0:0:0:
320,192,25690,128,0,26081:0:0:0:0:
448,192,25847,128,0,26237:0:0:0:0:
192,192,25847,128,0,26081:0:0:0:0:
64,192,26003,128,0,26393:0:0:0:0:
192,192,26159,128,0,26550:0:0:0:0:
320,192,26159,128,0,26393:0:0:0:0:
448,192,26315,128,0,26706:0:0:0:0:
320,192,26472,128,0,26862:0:0:0:0:
64,192,26472,128,0,26706:0:0:0:0:
192,192,26628,128,0,27018:0:0:0:0:
448,192,26784,128,0,27018:0:0:0:0:
64,192,26784,128,0,27331:0:0:0:0:
320,192,26940,128,0,27175:0:0:0:0:
448,192,27097,128,0,27643:0:0:0:0:
192,192,27097,128,0,27331:0:0:0:0:
320,192,27253,128,0,27487:0:0:0:0:
64,192,27409,128,0,27643:0:0:0:0:
192,192,27409,128,0,27800:0:0:0:0:
320,192,27565,128,0,27956:0:0:0:0:
64,192,27722,128,0,28268:0:0:0:0:
448,192,27722,128,0,27956:0:0:0:0:
192,192,27878,128,0,28112:0:0:0:0:
448,192,28034,128,0,28268:0:0:0:0:
320,192,28034,128,0,28425:0:0:0:0:
192,192,28190,128,0,28581:0:0:0:0:
64,192,28347,128,0,28581:0:0:0:0:
448,192,28347,128,0,28893:0:0:0:0:
320,192,28503,128,0,28737:0:0:0:0:
64,192,28659,128,0,28893:0:0:0:0:
192,192,28659,128,0,29050:0:0:0:0:
320,192,28815,128,0,29206:0:0:0:0:
64,192,28972,128,0,29206:0:0:0:0:
448,192,28972,128,0,29362:0:0:0:0:
192,192,29128,128,0,29675:0:0:0:0:
64,192,29284,128,0,29518:0:0:0:0:
320,192,29284,128,0,29518:0:0:0:0:
448,192,29440,128,0,29831:0:0:0:0:
64,192,29597,128,0,29831:0:0:0:0:
320,192,29597,128,0,29987:0:0:0:0:
192,192,29753,128,0,29987:0:0:0:0:
64,192,29909,128,0,30143:0:0:0:0:
448,192,29909,128,0,30143:0:0:0:0:
192,192,30065,128,0,30300:0:0:0:0:
320,192,30065,128,0,30456:0:0:0:0:
64,192,30222,128,0,30768:0:0:0:0:
448,192,30222,128,0,30456:0:0:0:0:
192,192,30378,128,0,30612:0:0:0:0:
448,192,30534,128,0,30768:0:0:0:0:
320,192,30534,128,0,30925:0:0:0:0:
192,192,30690,128,0,31081:0:0:0:0:
448,192,30847,128,0,31081:0:0:0:0:
64,192,30847,128,0,31237:0:0:0:0:
320,192,31003,128,0,31550:0:0:0:0:
192,192,31159,128,0,31393:0:0:0:0:
448,192,31159,128,0,31393:0:0:0:0:
64,192,31315,128,0,31862:0:0:0:0:
192,192,31472,128,0,31706:0:0:0:0:
448,192,31472,128,0,31706:0:0:0:0:
320,192,31628,128,0,32018:0:0:0:0:
192,192,31784,128,0,32175:0:0:0:0:
448,192,31784,128,0,32018:0:0:0:0:
64,192,31940,128,0,32643:0:0:0:0:
320,192,32097,128,0,32331:0:0:0:0:
448,192,32097,128,0,32331:0:0:0:0:
192,192,32253,128,0,32487:0:0:0:0:
448,192,32409,128,0,32800:0:0:0:0:
320,192,32409,128,0,32643:0:0:0:0:
192,192,32565,128,0,32956:0:0:0:0:
320,192,32722,128,0,33112:0:0:0:0:
64,192,32722,128,0,32956:0:0:0:0:
448,192,32878,128,0,33268:0:0:0:0:
192,192,33034,128,0,33268:0:0:0:0:
64,192,33034,128,0,33425:0:0:0:0:
320,192,33190,128,0,33581:0:0:0:0:
192,192,33347,128,0,33737:0:0:0:0:
448,192,33347,128,0,33581:0:0:0:0:
64,192,33503,128,0,33893:0:0:0:0:
320,192,33659,128,0,34050:0:0:0:0:
448,192,33659,128,0,33893:0:0:0:0:
192,192,33815,128,0,34362:0:0:0:0:
64,192,33972,128,0,34206:0:0:0:0:
448,192,33972,128,0,34206:0:0:0:0:
320,192,34128,128,0,34518:0:0:0:0:
64,192,34284,128,0,34675:0:0:0:0:
448,192,34284,128,0,34518:0:0:0:0:
192,192,34440,128,0,34753:0:0:0:0:
320,192,34597,128,0,34831:0:0:0:0:
448,192,34597,128,0,34831:0:0:0:0:
64,192,34753,128,0,34987:0:0:0:0:
192,192,34831,128,0,34987:0:0:0:0:
448,192,34909,128,0,35143:0:0:0:0:
320,192,34909,128,0,35143:0:0:0:0:
192,192,35065,128,0,35456:0:0:0:0:
64,192,35065,128,0,35300:0:0:0:0:
448,192,35222,128,0,35456:0:0:0:0:
320,192,35222,128,0,35612:0:0:0:0:
64,192,35378,128,0,35925:0:0:0:0:
448,192,35534,128,0,35768:0:0:0:0:
192,192,35534,128,0,35768:0:0:0:0:
320,192,35690,128,0,36081:0:0:0:0:
448,192,35847,128,0,36237:0:0:0:0:
192,192,35847,128,0,36081:0:0:0:0:
64,192,36003,128,0,36393:0:0:0:0:
320,192,36159,128,0,36393:0:0:0:0:
192,192,36159,128,0,36550:0:0:0:0:
448,192,36315,128,0,36862:0:0:0:0:
64,192,36472,128,0,36706:0:0:0:0:
320,192,36472,128,0,36706:0:0:0:0:
192,192,36628,128,0,37175:0:0:0:0:
320,192,36784,128,0,37018:0:0:0:0:
64,192,36784,128,0,37018:0:0:0:0:
448,192,36940,128,0,37331:0:0:0:0:
64,192,37097,128,0,37643:0:0:0:0:
320,192,37097,128,0,37331:0:0:0:0:
192,192,37253,128,0,37487:0:0:0:0:
448,192,37409,128,0,37643:0:0:0:0:
320,192,37409,128,0,37800:0:0:0:0:
192,192,37565,128,0,37956:0:0:0:0:
64,192,37722,128,0,37956:0:0:0:0:
448,192,37722,128,0,38268:0:0:0:0:
320,192,37878,128,0,38112:0:0:0:0:
64,192,38034,128,0,38268:0:0:0:0:
192,192,38034,128,0,38425:0:0:0:0:
320,192,38190,128,0,38581:0:0:0:0:
64,192,38347,128,0,38893:0:0:0:0:
448,192,38347,128,0,38581:0:0:0:0:
192,192,38503,128,0,38737:0:0:0:0:
448,192,38659,128,0,39050:0:0:0:0:
320,192,38659,128,0,38893:0:0:0:0:
192,192,38815,128,0,39206:0:0:0:0:
64,192,38972,128,0,39362:0:0:0:0:
320,192,38972,128,0,39206:0:0:0:0:
448,192,39128,128,0,39518:0:0:0:0:
192,192,39284,128,0,39675:0:0:0:0:
320,192,39284,128,0,39518:0:0:0:0:
64,192,39440,128,0,39831:0:0:0:0:
320,192,39597,128,0,39831:0:0:0:0:
448,192,39597,128,0,39987:0:0:0:0:
192,192,39753,128,0,39987:0:0:0:0:
64,192,39909,128,0,40143:0:0:0:0:
320,192,39909,128,0,40143:0:0:0:0:
192,192,40065,128,0,40300:0:0:0:0:
448,192,40065,128,0,40456:0:0:0:0:
64,192,40222,128,0,40456:0:0:0:0:
320,192,40222,128,0,40612:0:0:0:0:
192,192,40378,128,0,40768:0:0:0:0:
448,192,40534,128,0,40768:0:0:0:0:
64,192,40534,128,0,40925:0:0:0:0:
320,192,40690,128,0,41081:0:0:0:0:
191,192,40847,128,0,41081:0:0:0:0:
448,192,40847,128,0,41237:0:0:0:0:
64,192,41003,128,0,41393:0:0:0:0:
192,192,41159,128,0,41550:0:0:0:0:
320,192,41159,128,0,41393:0:0:0:0:
448,192,41315,128,0,41706:0:0:0:0:
320,192,41472,128,0,42018:0:0:0:0:
64,192,41472,128,0,41706:0:0:0:0:
192,192,41628,128,0,41862:0:0:0:0:
64,192,41784,128,0,42018:0:0:0:0:
448,192,41784,128,0,42175:0:0:0:0:
192,192,41940,128,0,42331:0:0:0:0:
320,192,42097,128,0,42331:0:0:0:0:
64,192,42097,128,0,42487:0:0:0:0:
448,192,42253,128,0,42643:0:0:0:0:
320,192,42409,128,0,42800:0:0:0:0:
192,192,42409,128,0,42643:0:0:0:0:
64,192,42565,128,0,42956:0:0:0:0:
192,192,42722,128,0,43112:0:0:0:0:
448,192,42722,128,0,42956:0:0:0:0:
320,192,42878,128,0,43268:0:0:0:0:
64,192,43034,128,0,43268:0:0:0:0:
448,192,43034,128,0,43425:0:0:0:0:
192,192,43190,128,0,43581:0:0:0:0:
320,192,43347,128,0,43737:0:0:0:0:
64,192,43347,128,0,43581:0:0:0:0:
448,192,43503,128,0,43893:0:0:0:0:
64,192,43659,128,0,44050:0:0:0:0:
192,192,43659,128,0,43893:0:0:0:0:
320,192,43815,128,0,44675:0:0:0:0:
448,192,43972,128,0,44206:0:0:0:0:
192,192,43972,128,0,44206:0:0:0:0:
64,192,44128,128,0,44362:0:0:0:0:
192,192,44284,128,0,44753:0:0:0:0:
448,192,44284,128,0,44831:0:0:0:0:
64,192,44440,128,0,44987:0:0:0:0:
320,192,44753,128,0,44831:0:0:0:0:
192,192,44831,128,0,44987:0:0:0:0:
320,192,44909,128,0,45143:0:0:0:0:
448,192,44909,128,0,45143:0:0:0:0:
192,192,45065,128,0,45300:0:0:0:0:
64,192,45065,128,0,45456:0:0:0:0:
448,192,45222,128,0,45612:0:0:0:0:
320,192,45222,128,0,45456:0:0:0:0:
192,192,45378,128,0,45768:0:0:0:0:
64,192,45534,128,0,45768:0:0:0:0:
320,192,45534,128,0,45925:0:0:0:0:
448,192,45690,128,0,46393:0:0:0:0:
64,192,45847,128,0,46081:0:0:0:0:
192,192,45847,128,0,46081:0:0:0:0:
320,192,46003,128,0,46237:0:0:0:0:
64,192,46159,128,0,46393:0:0:0:0:
192,192,46159,128,0,46550:0:0:0:0:
320,192,46315,128,0,46706:0:0:0:0:
448,192,46472,128,0,46706:0:0:0:0:
64,192,46472,128,0,47018:0:0:0:0:
192,192,46628,128,0,46862:0:0:0:0:
448,192,46784,128,0,47175:0:0:0:0:
320,192,46784,128,0,47018:0:0:0:0:
192,192,46940,128,0,47331:0:0:0:0:
64,192,47097,128,0,47331:0:0:0:0:
320,192,47097,128,0,47487:0:0:0:0:
448,192,47253,128,0,47643:0:0:0:0:
192,192,47409,128,0,47643:0:0:0:0:
64,192,47409,128,0,47956:0:0:0:0:
320,192,47565,128,0,47800:0:0:0:0:
448,192,47722,128,0,48268:0:0:0:0:
192,192,47722,128,0,47956:0:0:0:0:
320,192,47878,128,0,48112:0:0:0:0:
192,192,48034,128,0,48581:0:0:0:0:
64,192,48034,128,0,48268:0:0:0:0:
320,192,48190,128,0,48425:0:0:0:0:
64,192,48347,128,0,48737:0:0:0:0:
448,192,48347,128,0,48581:0:0:0:0:
320,192,48503,128,0,49050:0:0:0:0:
448,192,48659,128,0,48893:0:0:0:0:
192,192,48659,128,0,48893:0:0:0:0:
64,192,48815,128,0,49206:0:0:0:0:
192,192,48972,128,0,49362:0:0:0:0:
448,192,48972,128,0,49206:0:0:0:0:
320,192,49128,128,0,49518:0:0:0:0:
64,192,49284,128,0,49518:0:0:0:0:
448,192,49284,128,0,49675:0:0:0:0:
192,192,49440,128,0,49831:0:0:0:0:
64,192,49597,128,0,49987:0:0:0:0:
320,192,49597,128,0,49831:0:0:0:0:
448,192,49753,128,0,49987:0:0:0:0:
192,192,49909,128,0,50143:0:0:0:0:
320,192,49909,128,0,50143:0:0:0:0:
64,192,50065,128,0,50456:0:0:0:0:
448,192,50065,128,0,50300:0:0:0:0:
192,192,50222,128,0,50612:0:0:0:0:
320,192,50222,128,0,50456:0:0:0:0:
448,192,50378,128,0,50768:0:0:0:0:
64,192,50534,128,0,50925:0:0:0:0:
320,192,50534,128,0,50768:0:0:0:0:
192,192,50690,128,0,51237:0:0:0:0:
320,192,50847,128,0,51081:0:0:0:0:
448,192,50847,128,0,51081:0:0:0:0:
64,192,51003,128,0,51393:0:0:0:0:
320,192,51159,128,0,51550:0:0:0:0:
448,192,51159,128,0,51393:0:0:0:0:
192,192,51315,128,0,51706:0:0:0:0:
64,192,51472,128,0,51706:0:0:0:0:
448,192,51472,128,0,52018:0:0:0:0:
320,192,51628,128,0,51862:0:0:0:0:
64,192,51784,128,0,52018:0:0:0:0:
192,192,51784,128,0,52331:0:0:0:0:
320,192,51940,128,0,52175:0:0:0:0:
448,192,52097,128,0,52643:0:0:0:0:
64,192,52097,128,0,52331:0:0:0:0:
320,192,52253,128,0,52487:0:0:0:0:
64,192,52409,128,0,52800:0:0:0:0:
192,192,52409,128,0,52643:0:0:0:0:
320,192,52565,128,0,52956:0:0:0:0:
448,192,52722,128,0,53112:0:0:0:0:
192,192,52722,128,0,52956:0:0:0:0:
64,192,52878,128,0,53268:0:0:0:0:
320,192,53034,128,0,53268:0:0:0:0:
192,192,53034,128,0,53425:0:0:0:0:
448,192,53190,128,0,53581:0:0:0:0:
64,192,53347,128,0,53581:0:0:0:0:
320,192,53347,128,0,53737:0:0:0:0:
192,192,53503,128,0,53893:0:0:0:0:
448,192,53659,128,0,54206:0:0:0:0:
64,192,53659,128,0,53893:0:0:0:0:
320,192,53815,128,0,54050:0:0:0:0:
64,192,53972,128,0,54206:0:0:0:0:
192,192,53972,128,0,54362:0:0:0:0:
320,192,54128,128,0,54518:0:0:0:0:
64,192,54284,128,0,54518:0:0:0:0:
448,192,54284,128,0,54831:0:0:0:0:
192,192,54440,128,0,54675:0:0:0:0:
320,192,54597,128,0,54753:0:0:0:0:
64,192,54597,128,0,54831:0:0:0:0:
192,192,54753,128,0,54987:0:0:0:0:
320,192,54831,128,0,54987:0:0:0:0:
64,192,54909,128,0,55143:0:0:0:0:
448,192,54909,128,0,55143:0:0:0:0:
320,192,55065,128,0,55300:0:0:0:0:
192,192,55065,128,0,55456:0:0:0:0:
64,192,55222,128,0,55612:0:0:0:0:
448,192,55222,128,0,55456:0:0:0:0:
320,192,55378,128,0,55768:0:0:0:0:
192,192,55534,128,0,55925:0:0:0:0:
448,192,55534,128,0,55768:0:0:0:0:
64,192,55690,128,0,56393:0:0:0:0:
320,192,55847,128,0,56081:0:0:0:0:
448,192,55847,128,0,56081:0:0:0:0:
192,192,56003,128,0,56237:0:0:0:0:
320,192,56159,128,0,56550:0:0:0:0:
448,192,56159,128,0,56393:0:0:0:0:
192,192,56315,128,0,56706:0:0:0:0:
64,192,56472,128,0,56862:0:0:0:0:
448,192,56472,128,0,56706:0:0:0:0:
320,192,56628,128,0,57018:0:0:0:0:
192,192,56784,128,0,57018:0:0:0:0:
448,192,56784,128,0,57175:0:0:0:0:
64,192,56940,128,0,57487:0:0:0:0:
320,192,57097,128,0,57331:0:0:0:0:
192,192,57097,128,0,57331:0:0:0:0:
448,192,57253,128,0,57643:0:0:0:0:
192,192,57409,128,0,57643:0:0:0:0:
320,192,57409,128,0,57800:0:0:0:0:
64,192,57565,128,0,57956:0:0:0:0:
192,192,57722,128,0,57956:0:0:0:0:
448,192,57722,128,0,58268:0:0:0:0:
320,192,57878,128,0,58112:0:0:0:0:
192,192,58034,128,0,58268:0:0:0:0:
64,192,58034,128,0,58581:0:0:0:0:
320,192,58190,128,0,58425:0:0:0:0:
192,192,58347,128,0,58581:0:0:0:0:
448,192,58347,128,0,58893:0:0:0:0:
320,192,58503,128,0,58737:0:0:0:0:
192,192,58659,128,0,58893:0:0:0:0:
64,192,58659,128,0,59050:0:0:0:0:
320,192,58815,128,0,59206:0:0:0:0:
192,192,58972,128,0,59206:0:0:0:0:
448,192,58972,128,0,59362:0:0:0:0:
64,192,59128,128,0,59518:0:0:0:0:
320,192,59284,128,0,59518:0:0:0:0:
192,192,59284,128,0,59675:0:0:0:0:
448,192,59440,128,0,59831:0:0:0:0:
64,192,59597,128,0,60143:0:0:0:0:
320,192,59597,128,0,59831:0:0:0:0:
192,192,59753,128,0,59987:0:0:0:0:
448,192,59909,128,0,60300:0:0:0:0:
320,192,59909,128,0,60143:0:0:0:0:
192,192,60065,128,0,60456:0:0:0:0:
64,192,60222,128,0,60612:0:0:0:0:
320,192,60222,128,0,60456:0:0:0:0:
448,192,60378,128,0,60768:0:0:0:0:
192,192,60534,128,0,60768:0:0:0:0:
320,192,60534,128,0,60925:0:0:0:0:
64,192,60690,128,0,61081:0:0:0:0:
192,192,60847,128,0,61237:0:0:0:0:
448,192,60847,128,0,61081:0:0:0:0:
320,192,61003,128,0,61393:0:0:0:0:
64,192,61159,128,0,61393:0:0:0:0:
448,192,61159,128,0,61550:0:0:0:0:
192,192,61315,128,0,61706:0:0:0:0:
64,192,61472,128,0,61862:0:0:0:0:
320,192,61472,128,0,61706:0:0:0:0:
448,192,61628,128,0,62018:0:0:0:0:
192,192,61784,128,0,62018:0:0:0:0:
320,192,61784,128,0,62175:0:0:0:0:
64,192,61940,128,0,62331:0:0:0:0:
448,192,62097,128,0,62331:0:0:0:0:
192,192,62097,128,0,62487:0:0:0:0:
320,192,62253,128,0,62643:0:0:0:0:
64,192,62409,128,0,62956:0:0:0:0:
448,192,62409,128,0,62643:0:0:0:0:
192,192,62565,128,0,62800:0:0:0:0:
320,192,62722,128,0,62956:0:0:0:0:
448,192,62722,128,0,63112:0:0:0:0:
192,192,62878,128,0,63425:0:0:0:0:
64,192,63034,128,0,63268:0:0:0:0:
320,192,63034,128,0,63268:0:0:0:0:
448,192,63190,128,0,63581:0:0:0:0:
320,192,63347,128,0,63893:0:0:0:0:
64,192,63347,128,0,63581:0:0:0:0:
192,192,63503,128,0,63737:0:0:0:0:
64,192,63659,128,0,63893:0:0:0:0:
448,192,63659,128,0,64050:0:0:0:0:
192,192,63815,128,0,64362:0:0:0:0:
320,192,63972,128,0,64206:0:0:0:0:
64,192,63972,128,0,65143:0:0:0:0:
448,192,64128,128,0,64675:0:0:0:0:
320,192,64284,128,0,64831:0:0:0:0:
192,192,64440,128,0,64987:0:0:0:0:
448,192,64753,128,0,65143:0:0:0:0:
320,192,64909,128,0,65300:0:0:0:0:
192,192,65065,128,0,65768:0:0:0:0:
64,192,65222,128,0,66393:0:0:0:0:
448,192,65222,128,0,67331:0:0:0:0:
320,192,65378,128,0,66784:0:0:0:0:
192,192,65847,128,0,66628:0:0:0:0:
64,192,66472,128,0,67018:0:0:0:0:
192,192,66706,128,0,66940:0:0:0:0:
320,192,66862,128,0,67487:0:0:0:0:
192,192,67018,128,0,67175:0:0:0:0:
64,192,67097,128,0,67409:0:0:0:0:
192,192,67253,128,0,67565:0:0:0:0:
448,192,67409,128,0,68581:0:0:0:0:
64,192,67487,128,0,67643:0:0:0:0:
320,192,67565,128,0,68425:0:0:0:0:
192,192,67643,128,0,68112:0:0:0:0:
64,192,67722,128,0,69362:0:0:0:0:
192,192,68190,128,0,68893:0:0:0:0:
320,192,68503,128,0,68737:0:0:0:0:
448,192,68659,128,0,69597:0:0:0:0:
320,192,68815,128,0,69518:0:0:0:0:
192,192,68972,128,0,69440:0:0:0:0:
64,192,69440,128,0,69675:0:0:0:0:
192,192,69518,128,0,69753:0:0:0:0:
320,192,69597,128,0,69831:0:0:0:0:
448,192,69675,128,0,69909:0:0:0:0:
64,192,69753,128,0,70143:0:0:0:0:
192,192,69831,128,0,70065:0:0:0:0:
320,192,69909,128,0,69987:0:0:0:0:
448,192,69987,128,0,71081:0:0:0:0:
320,192,70065,128,0,70925:0:0:0:0:
192,192,70143,128,0,70612:0:0:0:0:
64,192,70222,128,0,71393:0:0:0:0:
192,192,70690,128,0,71472:0:0:0:0:
320,192,71003,128,0,71237:0:0:0:0:
448,192,71159,128,0,71940:0:0:0:0:
320,192,71315,128,0,71628:0:0:0:0:
64,192,71472,128,0,72331:0:0:0:0:
192,192,71550,128,0,71706:0:0:0:0:
320,192,71706,128,0,71784:0:0:0:0:
192,192,71784,128,0,72175:0:0:0:0:
320,192,71862,128,0,72018:0:0:0:0:
448,192,72018,128,0,72643:0:0:0:0:
320,192,72097,128,0,73112:0:0:0:0:
192,192,72253,128,0,72487:0:0:0:0:
64,192,72409,128,0,74050:0:0:0:0:
192,192,72565,128,0,73425:0:0:0:0:
448,192,72722,128,0,73737:0:0:0:0:
320,192,73190,128,0,74284:0:0:0:0:
192,192,73503,128,0,74440:0:0:0:0:
448,192,73815,128,0,74206:0:0:0:0:
64,192,74128,128,0,74518:0:0:0:0:
448,192,74284,128,0,74831:0:0:0:0:
320,192,74362,128,0,74675:0:0:0:0:
192,192,74518,128,0,74597:0:0:0:0:
64,192,74597,128,0,75065:0:0:0:0:
192,192,74675,128,0,74987:0:0:0:0:
320,192,74831,128,0,74909:0:0:0:0:
448,192,74909,128,0,75534:0:0:0:0:
320,192,74987,128,0,75143:0:0:0:0:
192,192,75065,128,0,75143:0:0:0:0:
64,192,75143,128,0,75300:0:0:0:0:
192,192,75222,128,0,75378:0:0:0:0:
320,192,75222,128,0,75456:0:0:0:0:
64,192,75378,128,0,75925:0:0:0:0:
192,192,75456,128,0,75612:0:0:0:0:
320,192,75534,128,0,75612:0:0:0:0:
448,192,75612,128,0,76081:0:0:0:0:
192,192,75690,128,0,76003:0:0:0:0:
320,192,75690,128,0,76159:0:0:0:0:
64,192,76003,128,0,76237:0:0:0:0:
192,192,76081,128,0,76315:0:0:0:0:
448,192,76159,128,0,76393:0:0:0:0:
320,192,76237,128,0,76472:0:0:0:0:
64,192,76315,128,0,76628:0:0:0:0:
192,192,76393,128,0,76550:0:0:0:0:
448,192,76472,128,0,76940:0:0:0:0:
320,192,76550,128,0,76862:0:0:0:0:
192,192,76628,128,0,76706:0:0:0:0:
64,192,76706,128,0,77175:0:0:0:0:
192,192,76784,128,0,77097:0:0:0:0:
320,192,76940,128,0,77018:0:0:0:0:
448,192,77018,128,0,77487:0:0:0:0:
320,192,77097,128,0,77331:0:0:0:0:
192,192,77175,128,0,77253:0:0:0:0:
64,192,77253,128,0,77565:0:0:0:0:
192,192,77331,128,0,77409:0:0:0:0:
320,192,77409,128,0,77643:0:0:0:0:
192,192,77487,128,0,77722:0:0:0:0:
448,192,77565,128,0,77643:0:0:0:0:
64,192,77643,128,0,77800:0:0:0:0:
448,192,77722,128,0,78268:0:0:0:0:
320,192,77722,128,0,77878:0:0:0:0:
192,192,77800,128,0,77956:0:0:0:0:
64,192,77878,128,0,78034:0:0:0:0:
320,192,77956,128,0,78190:0:0:0:0:
192,192,78034,128,0,78112:0:0:0:0:
64,192,78112,128,0,78425:0:0:0:0:
192,192,78190,128,0,78503:0:0:0:0:
320,192,78268,128,0,78347:0:0:0:0:
448,192,78347,128,0,78659:0:0:0:0:
320,192,78425,128,0,78581:0:0:0:0:
64,192,78503,128,0,78737:0:0:0:0:
192,192,78581,128,0,78815:0:0:0:0:
320,192,78659,128,0,78893:0:0:0:0:
448,192,78737,128,0,78893:0:0:0:0:
64,192,78815,128,0,79128:0:0:0:0:
192,192,78893,128,0,79128:0:0:0:0:
448,192,78972,128,0,79284:0:0:0:0:
320,192,78972,128,0,79284:0:0:0:0:
192,192,79206,128,0,79518:0:0:0:0:
64,192,79206,128,0,79753:0:0:0:0:
448,192,79362,128,0,79675:0:0:0:0:
320,192,79362,128,0,79518:0:0:0:0:
320,192,79597,128,0,79909:0:0:0:0:
192,192,79597,128,0,79909:0:0:0:0:
64,192,79831,128,0,80143:0:0:0:0:
448,192,79831,128,0,80378:0:0:0:0:
320,192,79987,128,0,80300:0:0:0:0:
192,192,79987,128,0,80222:0:0:0:0:
64,192,80222,128,0,80456:0:0:0:0:
192,192,80300,128,0,80456:0:0:0:0:
320,192,80378,128,0,80690:0:0:0:0:
448,192,80456,128,0,80612:0:0:0:0:
192,192,80534,128,0,80768:0:0:0:0:
64,192,80534,128,0,80847:0:0:0:0:
448,192,80690,128,0,80925:0:0:0:0:
320,192,80768,128,0,80925:0:0:0:0:
192,192,80847,128,0,81159:0:0:0:0:
64,192,80925,128,0,81081:0:0:0:0:
448,192,81003,128,0,81237:0:0:0:0:
320,192,81003,128,0,81237:0:0:0:0:
64,192,81159,128,0,81393:0:0:0:0:
192,192,81237,128,0,81315:0:0:0:0:
320,192,81315,128,0,81628:0:0:0:0:
448,192,81315,128,0,81706:0:0:0:0:
192,192,81393,128,0,81472:0:0:0:0:
64,192,81472,128,0,82018:0:0:0:0:
192,192,81550,128,0,81862:0:0:0:0:
320,192,81706,128,0,81784:0:0:0:0:
448,192,81784,128,0,82331:0:0:0:0:
320,192,81862,128,0,82097:0:0:0:0:
192,192,82018,128,0,82409:0:0:0:0:
64,192,82097,128,0,82253:0:0:0:0:
320,192,82175,128,0,82800:0:0:0:0:
64,192,82331,128,0,82643:0:0:0:0:
448,192,82409,128,0,82565:0:0:0:0:
192,192,82487,128,0,82722:0:0:0:0:
448,192,82643,128,0,82878:0:0:0:0:
64,192,82722,128,0,82956:0:0:0:0:
192,192,82800,128,0,83034:0:0:0:0:
320,192,82878,128,0,83112:0:0:0:0:
448,192,82956,128,0,83190:0:0:0:0:
64,192,83034,128,0,83268:0:0:0:0:
192,192,83112,128,0,83347:0:0:0:0:
320,192,83190,128,0,83503:0:0:0:0:
448,192,83268,128,0,83581:0:0:0:0:
64,192,83347,128,0,83893:0:0:0:0:
192,192,83425,128,0,83737:0:0:0:0:
320,192,83581,128,0,83659:0:0:0:0:
448,192,83659,128,0,83893:0:0:0:0:
320,192,83737,128,0,84753:0:0:0:0:
192,192,83893,128,0,84675:0:0:0:0:
64,192,83972,128,0,85143:0:0:0:0:
448,192,83972,128,0,84831:0:0:0:0:
192,192,84753,128,0,85378:0:0:0:0:
320,192,84831,128,0,85300:0:0:0:0:
448,192,84909,128,0,85534:0:0:0:0:
64,192,85222,128,0,85768:0:0:0:0:
320,192,85378,128,0,85612:0:0:0:0:
192,192,85456,128,0,85847:0:0:0:0:
448,192,85612,128,0,86003:0:0:0:0:
320,192,85690,128,0,86081:0:0:0:0:
64,192,85847,128,0,86237:0:0:0:0:
192,192,85925,128,0,86159:0:0:0:0:
448,192,86081,128,0,87331:0:0:0:0:
320,192,86159,128,0,86550:0:0:0:0:
192,192,86237,128,0,86393:0:0:0:0:
64,192,86315,128,0,87018:0:0:0:0:
192,192,86472,128,0,86628:0:0:0:0:
320,192,86628,128,0,86784:0:0:0:0:
192,192,86706,128,0,86862:0:0:0:0:
320,192,86862,128,0,87253:0:0:0:0:
192,192,86940,128,0,87097:0:0:0:0:
64,192,87097,128,0,87643:0:0:0:0:
192,192,87175,128,0,87487:0:0:0:0:
320,192,87331,128,0,87409:0:0:0:0:
448,192,87409,128,0,88268:0:0:0:0:
320,192,87487,128,0,87878:0:0:0:0:
192,192,87565,128,0,87800:0:0:0:0:
64,192,87722,128,0,88503:0:0:0:0:
192,192,87878,128,0,88034:0:0:0:0:
320,192,87956,128,0,88112:0:0:0:0:
192,192,88112,128,0,88347:0:0:0:0:
320,192,88190,128,0,88659:0:0:0:0:
448,192,88347,128,0,88737:0:0:0:0:
192,192,88425,128,0,88581:0:0:0:0:
64,192,88581,128,0,88893:0:0:0:0:
192,192,88659,128,0,89128:0:0:0:0:
320,192,88737,128,0,89050:0:0:0:0:
448,192,88815,128,0,89284:0:0:0:0:
64,192,88972,128,0,89362:0:0:0:0:
320,192,89128,128,0,89518:0:0:0:0:
192,192,89206,128,0,89753:0:0:0:0:
448,192,89362,128,0,89987:0:0:0:0:
64,192,89440,128,0,89675:0:0:0:0:
320,192,89597,128,0,89909:0:0:0:0:
64,192,89753,128,0,90378:0:0:0:0:
192,192,89831,128,0,90300:0:0:0:0:
320,192,89987,128,0,90143:0:0:0:0:
448,192,90065,128,0,90534:0:0:0:0:
320,192,90222,128,0,90612:0:0:0:0:
192,192,90378,128,0,90847:0:0:0:0:
64,192,90456,128,0,90768:0:0:0:0:
448,192,90612,128,0,91081:0:0:0:0:
320,192,90690,128,0,91003:0:0:0:0:
64,192,90847,128,0,91237:0:0:0:0:
192,192,90925,128,0,91159:0:0:0:0:
320,192,91081,128,0,91550:0:0:0:0:
448,192,91159,128,0,91628:0:0:0:0:
192,192,91237,128,0,91393:0:0:0:0:
64,192,91315,128,0,92018:0:0:0:0:
192,192,91472,128,0,91784:0:0:0:0:
320,192,91628,128,0,91862:0:0:0:0:
448,192,91706,128,0,92175:0:0:0:0:
192,192,91862,128,0,92409:0:0:0:0:
320,192,91940,128,0,92253:0:0:0:0:
64,192,92097,128,0,92487:0:0:0:0:
448,192,92253,128,0,92643:0:0:0:0:
320,192,92331,128,0,92722:0:0:0:0:
192,192,92487,128,0,92800:0:0:0:0:
64,192,92565,128,0,92878:0:0:0:0:
448,192,92722,128,0,93347:0:0:0:0:
320,192,92800,128,0,93268:0:0:0:0:
192,192,92878,128,0,92956:0:0:0:0:
64,192,92956,128,0,93112:0:0:0:0:
192,192,93034,128,0,93190:0:0:0:0:
64,192,93190,128,0,93737:0:0:0:0:
192,192,93268,128,0,93581:0:0:0:0:
320,192,93347,128,0,93425:0:0:0:0:
448,192,93425,128,0,93815:0:0:0:0:
320,192,93503,128,0,93659:0:0:0:0:
192,192,93659,128,0,93972:0:0:0:0:
320,192,93737,128,0,94128:0:0:0:0:
64,192,93815,128,0,93893:0:0:0:0:
448,192,93893,128,0,94050:0:0:0:0:
64,192,93972,128,0,94284:0:0:0:0:
192,192,94050,128,0,94206:0:0:0:0:
448,192,94128,128,0,94440:0:0:0:0:
320,192,94206,128,0,94362:0:0:0:0:
192,192,94284,128,0,94675:0:0:0:0:
64,192,94362,128,0,94518:0:0:0:0:
320,192,94440,128,0,94753:0:0:0:0:
448,192,94518,128,0,94909:0:0:0:0:
64,192,94597,128,0,95143:0:0:0:0:
192,192,94753,128,0,95143:0:0:0:0:
320,192,94831,128,0,94987:0:0:0:0:
448,192,94987,128,0,95612:0:0:0:0:
320,192,95065,128,0,95300:0:0:0:0:
192,192,95222,128,0,95456:0:0:0:0:
64,192,95222,128,0,96081:0:0:0:0:
320,192,95378,128,0,95612:0:0:0:0:
192,192,95534,128,0,95925:0:0:0:0:
448,192,95690,128,0,96315:0:0:0:0:
320,192,95690,128,0,96237:0:0:0:0:
192,192,96003,128,0,96159:0:0:0:0:
64,192,96159,128,0,96628:0:0:0:0:
192,192,96237,128,0,96550:0:0:0:0:
320,192,96315,128,0,96393:0:0:0:0:
448,192,96393,128,0,97253:0:0:0:0:
320,192,96472,128,0,96784:0:0:0:0:
192,192,96628,128,0,96706:0:0:0:0:
64,192,96706,128,0,97018:0:0:0:0:
192,192,96784,128,0,96862:0:0:0:0:
320,192,96862,128,0,97097:0:0:0:0:
192,192,96940,128,0,97175:0:0:0:0:
64,192,97097,128,0,97331:0:0:0:0:
320,192,97175,128,0,97409:0:0:0:0:
192,192,97253,128,0,97487:0:0:0:0:
448,192,97331,128,0,97565:0:0:0:0:
64,192,97409,128,0,97878:0:0:0:0:
320,192,97487,128,0,97643:0:0:0:0:
192,192,97565,128,0,97722:0:0:0:0:
448,192,97643,128,0,97800:0:0:0:0:
320,192,97722,128,0,97956:0:0:0:0:
192,192,97800,128,0,98268:0:0:0:0:
448,192,97878,128,0,98112:0:0:0:0:
64,192,97956,128,0,98347:0:0:0:0:
320,192,98034,128,0,98190:0:0:0:0:
448,192,98190,128,0,98581:0:0:0:0:
320,192,98268,128,0,98503:0:0:0:0:
192,192,98347,128,0,98425:0:0:0:0:
64,192,98425,128,0,98815:0:0:0:0:
192,192,98503,128,0,98737:0:0:0:0:
320,192,98581,128,0,98659:0:0:0:0:
448,192,98659,128,0,98893:0:0:0:0:
320,192,98737,128,0,99050:0:0:0:0:
192,192,98815,128,0,98972:0:0:0:0:
64,192,98893,128,0,99128:0:0:0:0:
448,192,98972,128,0,99206:0:0:0:0:
192,192,99050,128,0,99284:0:0:0:0:
320,192,99128,128,0,99362:0:0:0:0:
64,192,99206,128,0,99440:0:0:0:0:
448,192,99284,128,0,99518:0:0:0:0:
192,192,99362,128,0,99753:0:0:0:0:
320,192,99440,128,0,99909:0:0:0:0:
64,192,99518,128,0,99675:0:0:0:0:
448,192,99597,128,0,99987:0:0:0:0:
64,192,99753,128,0,100143:0:0:0:0:
192,192,99831,128,0,100143:0:0:0:0:
320,192,99987,128,0,100065:0:0:0:0:
448,192,100065,128,0,100768:0:0:0:0:
320,192,100143,128,0,100300:0:0:0:0:
192,192,100222,128,0,100378:0:0:0:0:
64,192,100222,128,0,101003:0:0:0:0:
320,192,100378,128,0,100534:0:0:0:0:
192,192,100456,128,0,100612:0:0:0:0:
320,192,100612,128,0,100768:0:0:0:0:
192,192,100690,128,0,100925:0:0:0:0:
448,192,100847,128,0,101237:0:0:0:0:
320,192,100847,128,0,101003:0:0:0:0:
192,192,101003,128,0,101159:0:0:0:0:
64,192,101081,128,0,101237:0:0:0:0:
320,192,101081,128,0,101393:0:0:0:0:
192,192,101237,128,0,101393:0:0:0:0:
64,192,101315,128,0,101784:0:0:0:0:
448,192,101315,128,0,101550:0:0:0:0:
320,192,101472,128,0,101628:0:0:0:0:
192,192,101472,128,0,101862:0:0:0:0:
448,192,101628,128,0,102487:0:0:0:0:
320,192,101706,128,0,102018:0:0:0:0:
64,192,101862,128,0,102175:0:0:0:0:
192,192,101940,128,0,102175:0:0:0:0:
320,192,102097,128,0,102253:0:0:0:0:
64,192,102253,128,0,102643:0:0:0:0:
192,192,102253,128,0,102409:0:0:0:0:
320,192,102331,128,0,102487:0:0:0:0:
192,192,102487,128,0,102643:0:0:0:0:
448,192,102565,128,0,103034:0:0:0:0:
320,192,102565,128,0,102800:0:0:0:0:
64,192,102722,128,0,103347:0:0:0:0:
192,192,102722,128,0,102878:0:0:0:0:
320,192,102878,128,0,103112:0:0:0:0:
192,192,102956,128,0,103268:0:0:0:0:
448,192,103112,128,0,103268:0:0:0:0:
320,192,103190,128,0,103581:0:0:0:0:
192,192,103347,128,0,103503:0:0:0:0:
448,192,103347,128,0,103737:0:0:0:0:
64,192,103425,128,0,103659:0:0:0:0:
192,192,103581,128,0,103815:0:0:0:0:
320,192,103659,128,0,104128:0:0:0:0:
64,192,103737,128,0,103893:0:0:0:0:
448,192,103815,128,0,103893:0:0:0:0:
192,192,103893,128,0,104050:0:0:0:0:
448,192,103972,128,0,104206:0:0:0:0:
64,192,103972,128,0,104206:0:0:0:0:
192,192,104128,128,0,104518:0:0:0:0:
320,192,104206,128,0,104362:0:0:0:0:
64,192,104284,128,0,104518:0:0:0:0:
448,192,104284,128,0,105143:0:0:0:0:
320,192,104440,128,0,105143:0:0:0:0:
192,192,104597,128,0,104753:0:0:0:0:
64,192,104597,128,0,104753:0:0:0:0:
64,192,104831,128,0,104987:0:0:0:0:
192,192,104831,128,0,104987:0:0:0:0:
64,192,105065,128,0,106393:0:0:0:0:
192,192,105065,128,0,105768:0:0:0:0:
320,192,105222,128,0,106862:0:0:0:0:
448,192,105222,128,0,107331:0:0:0:0:
192,192,105847,128,0,107800:0:0:0:0:
64,192,106472,128,0,107643:0:0:0:0:
320,192,106940,128,0,108112:0:0:0:0:
448,192,107409,128,0,107956:0:0:0:0:
64,192,107722,128,0,108581:0:0:0:0:
192,192,107878,128,0,108425:0:0:0:0:
448,192,108034,128,0,109831:0:0:0:0:
320,192,108190,128,0,108893:0:0:0:0:
192,192,108503,128,0,108893:0:0:0:0:
64,192,108659,128,0,109831:0:0:0:0:
320,192,108972,128,0,109362:0:0:0:0:
192,192,108972,128,0,109362:0:0:0:0:
320,192,109440,128,0,110222:0:0:0:0:
192,192,109440,128,0,110222:0:0:0:0:
64,192,109909,128,0,110222:0:0:0:0:
448,192,109909,128,0,110222:0:0:0:0:
