osu file format v14

[General]
AudioFilename: wa. vs ETIA. - Akasagarbha.mp3
AudioLeadIn: 0
PreviewTime: 84909
Countdown: 0
SampleSet: Soft
StackLeniency: 0.7
Mode: 3
LetterboxInBreaks: 0
SpecialStyle: 0
WidescreenStoryboard: 0

[Editor]
DistanceSpacing: 0.7
BeatDivisor: 4
GridSize: 4
TimelineZoom: 2.6

[Metadata]
Title:[Full LN] training
TitleUnicode:[Full LN] training
Artist:Various Artist
ArtistUnicode:Various Artist
Creator:Allezard
Version:wa. vs ETIA. - Akasagarbha Lv. 3
Source:BMS
Tags:Full LN Training Various Artist Collection 4k NOODLE BMS Deemo Cytus SOUND VOLTEX II -infinite infection- beatmania IIDX
BeatmapID:819059
BeatmapSetID:368373

[Difficulty]
HPDrainRate:6
CircleSize:4
OverallDifficulty:1
ApproachRate:5
SliderMultiplier:1.4
SliderTickRate:1

[Events]
//Background and Video events
0,0,"wa. vs ETIA. - Akasagarbha.png",0,0
//Break Periods
//Storyboard Layer 0 (Background)
//Storyboard Layer 1 (Fail)
//Storyboard Layer 2 (Pass)
//Storyboard Layer 3 (Foreground)
//Storyboard Sound Samples

[TimingPoints]
222,312.5,4,2,0,40,1,0
10222,-100,4,2,1,40,0,0
85222,-100,4,2,1,40,0,1
105222,-100,4,2,1,40,0,0

[HitObjects]
64,192,222,128,0,1862:0:0:0:0:
448,192,1472,128,0,2643:0:0:0:0:
320,192,1628,128,0,2331:0:0:0:0:
192,192,1784,128,0,2018:0:0:0:0:
64,192,1940,128,0,3268:0:0:0:0:
192,192,2097,128,0,3425:0:0:0:0:
320,192,2409,128,0,3581:0:0:0:0:
448,192,2722,128,0,3737:0:0:0:0:
64,192,3347,128,0,4831:0:0:0:0:
192,192,3503,128,0,4518:0:0:0:0:
320,192,3659,128,0,3893:0:0:0:0:
448,192,3815,128,0,5612:0:0:0:0:
320,192,3972,128,0,5300:0:0:0:0:
192,192,4597,128,0,5143:0:0:0:0:
64,192,4909,128,0,6862:0:0:0:0:
192,192,5222,128,0,6550:0:0:0:0:
320,192,5378,128,0,6393:0:0:0:0:
448,192,5690,128,0,7956:0:0:0:0:
320,192,6472,128,0,7643:0:0:0:0:
192,192,6628,128,0,7331:0:0:0:0:
64,192,6940,128,0,8893:0:0:0:0:
192,192,7409,128,0,9050:0:0:0:0:
320,192,7722,128,0,8112:0:0:0:0:
448,192,8034,128,0,9362:0:0:0:0:
320,192,8190,128,0,9206:0:0:0:0:
64,192,8972,128,0,9518:0:0:0:0:
192,192,9128,128,0,9831:0:0:0:0:
320,192,9284,128,0,9675:0:0:0:0:
448,192,9440,128,0,9987:0:0:0:0:
64,192,9597,128,0,10143:0:0:0:0:
320,192,9753,128,0,10143:0:0:0:0:
192,192,9909,128,0,12643:0:0:0:0:
448,192,10065,128,0,12018:0:0:0:0:
320,192,10222,128,0,10612:0:0:0:0:
64,192,10222,128,0,10612:0:0:0:0:
320,192,10690,128,0,11550:0:0:0:0:
64,192,10690,128,0,11393:0:0:0:0:
64,192,11472,128,0,11706:0:0:0:0:
320,192,11628,128,0,11862:0:0:0:0:
64,192,11784,128,0,13268:0:0:0:0:
320,192,11940,128,0,12331:0:0:0:0:
448,192,12097,128,0,13737:0:0:0:0:
320,192,12409,128,0,13581:0:0:0:0:
192,192,12722,128,0,13425:0:0:0:0:
64,192,13347,128,0,14518:0:0:0:0:
192,192,13503,128,0,15143:0:0:0:0:
320,192,13659,128,0,13893:0:0:0:0:
448,192,13815,128,0,15612:0:0:0:0:
320,192,13972,128,0,15300:0:0:0:0:
64,192,14597,128,0,15456:0:0:0:0:
192,192,15222,128,0,16081:0:0:0:0:
320,192,15378,128,0,15925:0:0:0:0:
64,192,15534,128,0,16393:0:0:0:0:
448,192,15690,128,0,16237:0:0:0:0:
320,192,16003,128,0,16706:0:0:0:0:
192,192,16159,128,0,16550:0:0:0:0:
448,192,16315,128,0,16862:0:0:0:0:
64,192,16472,128,0,17175:0:0:0:0:
192,192,16628,128,0,17487:0:0:0:0:
320,192,16784,128,0,17331:0:0:0:0:
448,192,16940,128,0,17643:0:0:0:0:
64,192,17253,128,0,18112:0:0:0:0:
320,192,17409,128,0,17800:0:0:0:0:
192,192,17565,128,0,17956:0:0:0:0:
448,192,17722,128,0,18581:0:0:0:0:
320,192,17878,128,0,18425:0:0:0:0:
192,192,18034,128,0,19518:0:0:0:0:
64,192,18190,128,0,19831:0:0:0:0:
320,192,18503,128,0,18893:0:0:0:0:
448,192,18659,128,0,20768:0:0:0:0:
320,192,18972,128,0,20143:0:0:0:0:
192,192,19597,128,0,20143:0:0:0:0:
64,192,19909,128,0,21393:0:0:0:0:
192,192,20222,128,0,21862:0:0:0:0:
320,192,20222,128,0,22331:0:0:0:0:
448,192,20847,128,0,22643:0:0:0:0:
64,192,21472,128,0,23112:0:0:0:0:
192,192,21940,128,0,22956:0:0:0:0:
320,192,22409,128,0,22800:0:0:0:0:
448,192,22722,128,0,24362:0:0:0:0:
320,192,22878,128,0,23581:0:0:0:0:
192,192,23034,128,0,23425:0:0:0:0:
64,192,23190,128,0,23893:0:0:0:0:
192,192,23503,128,0,23893:0:0:0:0:
320,192,23659,128,0,24362:0:0:0:0:
64,192,23972,128,0,25612:0:0:0:0:
192,192,23972,128,0,24909:0:0:0:0:
320,192,24440,128,0,25143:0:0:0:0:
448,192,24440,128,0,25143:0:0:0:0:
320,192,25222,128,0,26081:0:0:0:0:
448,192,25222,128,0,26393:0:0:0:0:
192,192,25222,128,0,25925:0:0:0:0:
64,192,25690,128,0,27643:0:0:0:0:
192,192,26003,128,0,26237:0:0:0:0:
320,192,26159,128,0,26862:0:0:0:0:
192,192,26315,128,0,27331:0:0:0:0:
448,192,26472,128,0,28893:0:0:0:0:
320,192,26940,128,0,28112:0:0:0:0:
192,192,27409,128,0,28581:0:0:0:0:
64,192,27722,128,0,29831:0:0:0:0:
320,192,28190,128,0,28737:0:0:0:0:
192,192,28659,128,0,29518:0:0:0:0:
320,192,28815,128,0,30925:0:0:0:0:
448,192,28972,128,0,31237:0:0:0:0:
192,192,29597,128,0,30143:0:0:0:0:
64,192,29909,128,0,31862:0:0:0:0:
192,192,30222,128,0,31081:0:0:0:0:
320,192,31003,128,0,31393:0:0:0:0:
192,192,31159,128,0,31706:0:0:0:0:
448,192,31315,128,0,32643:0:0:0:0:
320,192,31472,128,0,32175:0:0:0:0:
192,192,31784,128,0,34831:0:0:0:0:
64,192,31940,128,0,32956:0:0:0:0:
320,192,32253,128,0,33112:0:0:0:0:
448,192,32722,128,0,34518:0:0:0:0:
64,192,33034,128,0,34987:0:0:0:0:
320,192,33190,128,0,34675:0:0:0:0:
448,192,34597,128,0,35612:0:0:0:0:
320,192,34753,128,0,35143:0:0:0:0:
192,192,34909,128,0,35925:0:0:0:0:
64,192,35065,128,0,36081:0:0:0:0:
320,192,35222,128,0,36237:0:0:0:0:
448,192,35690,128,0,36393:0:0:0:0:
192,192,36003,128,0,37331:0:0:0:0:
64,192,36159,128,0,38112:0:0:0:0:
320,192,36315,128,0,36862:0:0:0:0:
448,192,36472,128,0,38581:0:0:0:0:
320,192,36940,128,0,37643:0:0:0:0:
192,192,37409,128,0,39831:0:0:0:0:
320,192,37722,128,0,39518:0:0:0:0:
64,192,38190,128,0,40143:0:0:0:0:
448,192,38659,128,0,41393:0:0:0:0:
320,192,39597,128,0,39987:0:0:0:0:
192,192,39909,128,0,42331:0:0:0:0:
320,192,40065,128,0,40768:0:0:0:0:
64,192,40222,128,0,42643:0:0:0:0:
320,192,40847,128,0,41862:0:0:0:0:
448,192,41472,128,0,43737:0:0:0:0:
320,192,41940,128,0,42956:0:0:0:0:
192,192,42409,128,0,43112:0:0:0:0:
64,192,42722,128,0,46472:0:0:0:0:
320,192,43034,128,0,43425:0:0:0:0:
192,192,43190,128,0,43893:0:0:0:0:
320,192,43503,128,0,45222:0:0:0:0:
448,192,43815,128,0,49050:0:0:0:0:
192,192,43972,128,0,47097:0:0:0:0:
320,192,46472,128,0,47643:0:0:0:0:
64,192,47097,128,0,47800:0:0:0:0:
192,192,47722,128,0,47956:0:0:0:0:
320,192,47722,128,0,48112:0:0:0:0:
64,192,47878,128,0,48425:0:0:0:0:
192,192,48034,128,0,48581:0:0:0:0:
320,192,48190,128,0,48737:0:0:0:0:
64,192,48503,128,0,50222:0:0:0:0:
192,192,48659,128,0,49362:0:0:0:0:
320,192,48815,128,0,49206:0:0:0:0:
448,192,49128,128,0,49675:0:0:0:0:
320,192,49284,128,0,49831:0:0:0:0:
192,192,49440,128,0,49987:0:0:0:0:
448,192,49753,128,0,51472:0:0:0:0:
320,192,49909,128,0,52097:0:0:0:0:
192,192,50065,128,0,52643:0:0:0:0:
64,192,51472,128,0,54050:0:0:0:0:
448,192,52097,128,0,52800:0:0:0:0:
320,192,52722,128,0,52956:0:0:0:0:
192,192,52722,128,0,53112:0:0:0:0:
448,192,52878,128,0,53425:0:0:0:0:
320,192,53034,128,0,53581:0:0:0:0:
192,192,53190,128,0,53737:0:0:0:0:
448,192,53503,128,0,55222:0:0:0:0:
320,192,53659,128,0,54362:0:0:0:0:
192,192,53815,128,0,54206:0:0:0:0:
64,192,54128,128,0,54675:0:0:0:0:
192,192,54284,128,0,54831:0:0:0:0:
320,192,54440,128,0,54987:0:0:0:0:
64,192,54753,128,0,57643:0:0:0:0:
192,192,54909,128,0,57097:0:0:0:0:
320,192,55065,128,0,56472:0:0:0:0:
448,192,56472,128,0,57800:0:0:0:0:
320,192,57097,128,0,57956:0:0:0:0:
64,192,57722,128,0,59050:0:0:0:0:
192,192,57722,128,0,58112:0:0:0:0:
448,192,57878,128,0,58425:0:0:0:0:
320,192,58034,128,0,58581:0:0:0:0:
192,192,58190,128,0,58737:0:0:0:0:
448,192,58503,128,0,59987:0:0:0:0:
320,192,58659,128,0,59362:0:0:0:0:
192,192,58815,128,0,59206:0:0:0:0:
64,192,59128,128,0,60222:0:0:0:0:
192,192,59284,128,0,59675:0:0:0:0:
320,192,59440,128,0,59831:0:0:0:0:
192,192,59753,128,0,61472:0:0:0:0:
320,192,59909,128,0,62097:0:0:0:0:
448,192,60065,128,0,62643:0:0:0:0:
64,192,61472,128,0,62800:0:0:0:0:
192,192,62097,128,0,62956:0:0:0:0:
448,192,62722,128,0,64050:0:0:0:0:
320,192,62722,128,0,63112:0:0:0:0:
64,192,62878,128,0,63425:0:0:0:0:
192,192,63034,128,0,63581:0:0:0:0:
320,192,63190,128,0,63737:0:0:0:0:
64,192,63503,128,0,65768:0:0:0:0:
192,192,63659,128,0,64362:0:0:0:0:
320,192,63815,128,0,64206:0:0:0:0:
448,192,64128,128,0,64675:0:0:0:0:
320,192,64284,128,0,64831:0:0:0:0:
192,192,64440,128,0,64987:0:0:0:0:
448,192,64753,128,0,65300:0:0:0:0:
320,192,64909,128,0,65143:0:0:0:0:
192,192,65065,128,0,66393:0:0:0:0:
320,192,65222,128,0,66628:0:0:0:0:
448,192,65378,128,0,66784:0:0:0:0:
64,192,65847,128,0,67487:0:0:0:0:
192,192,66472,128,0,67175:0:0:0:0:
320,192,66706,128,0,67018:0:0:0:0:
448,192,66862,128,0,67331:0:0:0:0:
320,192,67097,128,0,67643:0:0:0:0:
192,192,67253,128,0,68425:0:0:0:0:
448,192,67409,128,0,68737:0:0:0:0:
64,192,67565,128,0,68112:0:0:0:0:
320,192,67722,128,0,68581:0:0:0:0:
64,192,68190,128,0,69518:0:0:0:0:
192,192,68503,128,0,69362:0:0:0:0:
320,192,68659,128,0,68893:0:0:0:0:
448,192,68815,128,0,70143:0:0:0:0:
320,192,68972,128,0,69675:0:0:0:0:
192,192,69440,128,0,69831:0:0:0:0:
64,192,69597,128,0,70925:0:0:0:0:
320,192,69753,128,0,69987:0:0:0:0:
192,192,69909,128,0,70612:0:0:0:0:
320,192,70065,128,0,71081:0:0:0:0:
448,192,70222,128,0,71393:0:0:0:0:
192,192,70690,128,0,71237:0:0:0:0:
64,192,71003,128,0,72175:0:0:0:0:
320,192,71159,128,0,71706:0:0:0:0:
192,192,71315,128,0,72018:0:0:0:0:
448,192,71472,128,0,72487:0:0:0:0:
320,192,71784,128,0,72331:0:0:0:0:
192,192,72097,128,0,73112:0:0:0:0:
64,192,72253,128,0,73425:0:0:0:0:
320,192,72409,128,0,72643:0:0:0:0:
448,192,72565,128,0,74206:0:0:0:0:
320,192,72722,128,0,74050:0:0:0:0:
192,192,73190,128,0,73737:0:0:0:0:
64,192,73503,128,0,74831:0:0:0:0:
192,192,73815,128,0,74675:0:0:0:0:
320,192,74128,128,0,74518:0:0:0:0:
448,192,74284,128,0,75612:0:0:0:0:
320,192,74597,128,0,75143:0:0:0:0:
192,192,74753,128,0,74987:0:0:0:0:
64,192,74909,128,0,76862:0:0:0:0:
192,192,75065,128,0,76237:0:0:0:0:
320,192,75222,128,0,75925:0:0:0:0:
448,192,75690,128,0,76550:0:0:0:0:
320,192,76003,128,0,77487:0:0:0:0:
192,192,76315,128,0,77175:0:0:0:0:
448,192,76628,128,0,78425:0:0:0:0:
64,192,76940,128,0,77800:0:0:0:0:
192,192,77253,128,0,78112:0:0:0:0:
320,192,77565,128,0,78737:0:0:0:0:
64,192,77878,128,0,79675:0:0:0:0:
192,192,78190,128,0,79050:0:0:0:0:
448,192,78503,128,0,79362:0:0:0:0:
320,192,78815,128,0,79987:0:0:0:0:
192,192,79128,128,0,80612:0:0:0:0:
448,192,79440,128,0,80300:0:0:0:0:
64,192,79753,128,0,80925:0:0:0:0:
320,192,80065,128,0,81237:0:0:0:0:
448,192,80378,128,0,82487:0:0:0:0:
192,192,80690,128,0,81550:0:0:0:0:
64,192,81003,128,0,82175:0:0:0:0:
320,192,81315,128,0,81862:0:0:0:0:
192,192,81628,128,0,83112:0:0:0:0:
320,192,81940,128,0,83425:0:0:0:0:
64,192,82253,128,0,82800:0:0:0:0:
448,192,82565,128,0,83268:0:0:0:0:
64,192,82878,128,0,83893:0:0:0:0:
192,192,83190,128,0,83581:0:0:0:0:
448,192,83347,128,0,83737:0:0:0:0:
320,192,83503,128,0,84753:0:0:0:0:
192,192,83659,128,0,84675:0:0:0:0:
448,192,83815,128,0,84831:0:0:0:0:
64,192,83972,128,0,85143:0:0:0:0:
192,192,84753,128,0,85143:0:0:0:0:
320,192,84831,128,0,85456:0:0:0:0:
448,192,84909,128,0,86393:0:0:0:0:
192,192,85222,128,0,86706:0:0:0:0:
64,192,85222,128,0,85768:0:0:0:0:
320,192,85534,128,0,86081:0:0:0:0:
64,192,85847,128,0,88893:0:0:0:0:
320,192,86159,128,0,87643:0:0:0:0:
448,192,86472,128,0,87018:0:0:0:0:
192,192,86784,128,0,87331:0:0:0:0:
448,192,87097,128,0,90143:0:0:0:0:
192,192,87409,128,0,87956:0:0:0:0:
320,192,87722,128,0,88268:0:0:0:0:
192,192,88034,128,0,88581:0:0:0:0:
320,192,88347,128,0,89206:0:0:0:0:
192,192,88659,128,0,89831:0:0:0:0:
64,192,88972,128,0,89518:0:0:0:0:
320,192,89284,128,0,89987:0:0:0:0:
64,192,89597,128,0,91081:0:0:0:0:
192,192,89909,128,0,90456:0:0:0:0:
320,192,90065,128,0,90768:0:0:0:0:
448,192,90222,128,0,91706:0:0:0:0:
192,192,90534,128,0,91393:0:0:0:0:
320,192,90847,128,0,92331:0:0:0:0:
64,192,91159,128,0,92018:0:0:0:0:
192,192,91472,128,0,92956:0:0:0:0:
448,192,91784,128,0,92643:0:0:0:0:
64,192,92097,128,0,93893:0:0:0:0:
320,192,92409,128,0,94206:0:0:0:0:
448,192,92722,128,0,93268:0:0:0:0:
192,192,93034,128,0,93581:0:0:0:0:
448,192,93347,128,0,95143:0:0:0:0:
192,192,93659,128,0,94831:0:0:0:0:
64,192,93972,128,0,94518:0:0:0:0:
320,192,94284,128,0,94987:0:0:0:0:
64,192,94597,128,0,95143:0:0:0:0:
192,192,94909,128,0,96237:0:0:0:0:
320,192,95065,128,0,96081:0:0:0:0:
448,192,95222,128,0,95612:0:0:0:0:
64,192,95222,128,0,95612:0:0:0:0:
448,192,95690,128,0,97018:0:0:0:0:
64,192,95690,128,0,96393:0:0:0:0:
320,192,96159,128,0,97331:0:0:0:0:
192,192,96315,128,0,96706:0:0:0:0:
64,192,96472,128,0,97956:0:0:0:0:
192,192,96784,128,0,97643:0:0:0:0:
448,192,97097,128,0,98268:0:0:0:0:
320,192,97409,128,0,98581:0:0:0:0:
192,192,97722,128,0,99206:0:0:0:0:
64,192,98034,128,0,98893:0:0:0:0:
448,192,98347,128,0,99831:0:0:0:0:
320,192,98659,128,0,99518:0:0:0:0:
64,192,98972,128,0,100768:0:0:0:0:
192,192,99284,128,0,100143:0:0:0:0:
320,192,99597,128,0,99987:0:0:0:0:
448,192,99909,128,0,100143:0:0:0:0:
320,192,100065,128,0,100456:0:0:0:0:
192,192,100222,128,0,100768:0:0:0:0:
448,192,100222,128,0,101003:0:0:0:0:
320,192,100534,128,0,101003:0:0:0:0:
192,192,100847,128,0,101237:0:0:0:0:
64,192,100847,128,0,101237:0:0:0:0:
448,192,101081,128,0,101393:0:0:0:0:
320,192,101081,128,0,101393:0:0:0:0:
192,192,101315,128,0,101706:0:0:0:0:
64,192,101315,128,0,102487:0:0:0:0:
320,192,101472,128,0,102018:0:0:0:0:
448,192,101472,128,0,102175:0:0:0:0:
192,192,101784,128,0,102175:0:0:0:0:
320,192,102097,128,0,102643:0:0:0:0:
192,192,102253,128,0,102487:0:0:0:0:
448,192,102253,128,0,102643:0:0:0:0:
192,192,102565,128,0,102800:0:0:0:0:
64,192,102565,128,0,103268:0:0:0:0:
320,192,102722,128,0,103268:0:0:0:0:
448,192,102722,128,0,102956:0:0:0:0:
192,192,102878,128,0,103112:0:0:0:0:
448,192,103034,128,0,103737:0:0:0:0:
192,192,103190,128,0,103425:0:0:0:0:
320,192,103347,128,0,103581:0:0:0:0:
64,192,103347,128,0,103893:0:0:0:0:
192,192,103503,128,0,104206:0:0:0:0:
320,192,103659,128,0,103893:0:0:0:0:
448,192,103815,128,0,104518:0:0:0:0:
64,192,103972,128,0,104753:0:0:0:0:
320,192,103972,128,0,104518:0:0:0:0:
192,192,104284,128,0,104753:0:0:0:0:
448,192,104597,128,0,104987:0:0:0:0:
320,192,104597,128,0,104987:0:0:0:0:
192,192,104831,128,0,105143:0:0:0:0:
64,192,104831,128,0,106393:0:0:0:0:
448,192,105065,128,0,107643:0:0:0:0:
320,192,105065,128,0,105768:0:0:0:0:
192,192,105222,128,0,107331:0:0:0:0:
320,192,105847,128,0,106862:0:0:0:0:
64,192,106472,128,0,107956:0:0:0:0:
320,192,106940,128,0,107800:0:0:0:0:
192,192,107409,128,0,108112:0:0:0:0:
448,192,107722,128,0,109831:0:0:0:0:
320,192,107878,128,0,108425:0:0:0:0:
64,192,108034,128,0,108893:0:0:0:0:
192,192,108190,128,0,108581:0:0:0:0:
320,192,108503,128,0,108893:0:0:0:0:
192,192,108659,128,0,109831:0:0:0:0:
64,192,108972,128,0,109362:0:0:0:0:
320,192,108972,128,0,109362:0:0:0:0:
320,192,109440,128,0,110222:0:0:0:0:
64,192,109440,128,0,110222:0:0:0:0:
192,192,109909,128,0,110222:0:0:0:0:
448,192,109909,128,0,110222:0:0:0:0:
