osu file format v14

[General]
AudioFilename: Seiryu - Waxing and Wanding.mp3
AudioLeadIn: 0
PreviewTime: 72994
Countdown: 0
SampleSet: Soft
StackLeniency: 0.7
Mode: 3
LetterboxInBreaks: 0
SpecialStyle: 0
WidescreenStoryboard: 1

[Editor]
DistanceSpacing: 1.5
BeatDivisor: 4
GridSize: 8
TimelineZoom: 2.799999

[Metadata]
Title:[Full LN] training
TitleUnicode:[Full LN] training
Artist:Various Artist
ArtistUnicode:Various Artist
Creator:Allezard
Version:Seiryu - Waxing and Wanding Lv. 2.5
Source:beatmania IIDX
Tags:Full LN Training Various Artist Collection 4k NOODLE BMS Deemo Cytus SOUND VOLTEX II -infinite infection- beatmania IIDX
BeatmapID:819042
BeatmapSetID:368373

[Difficulty]
HPDrainRate:5
CircleSize:4
OverallDifficulty:1
ApproachRate:5
SliderMultiplier:1.4
SliderTickRate:1

[Events]
//Background and Video events
0,0,"Seiryu - Waxing and Wanding.jpg",0,0
//Break Periods
//Storyboard Layer 0 (Background)
//Storyboard Layer 1 (Fail)
//Storyboard Layer 2 (Pass)
//Storyboard Layer 3 (Foreground)
//Storyboard Sound Samples

[TimingPoints]
429,314.13612565445,4,2,1,50,1,0
73308,-100,4,2,1,40,0,1
93413,-100,4,2,1,40,0,0

[HitObjects]
64,192,429,128,0,1607:0:0:0:0:
448,192,429,128,0,1057:0:0:0:0:
192,192,586,128,0,1764:0:0:0:0:
320,192,900,128,0,1921:0:0:0:0:
448,192,1528,128,0,2078:0:0:0:0:
64,192,1685,128,0,2235:0:0:0:0:
192,192,1842,128,0,2392:0:0:0:0:
320,192,1999,128,0,2549:0:0:0:0:
448,192,2156,128,0,2706:0:0:0:0:
64,192,2313,128,0,4120:0:0:0:0:
192,192,2470,128,0,3020:0:0:0:0:
320,192,2627,128,0,3334:0:0:0:0:
448,192,2785,128,0,3570:0:0:0:0:
192,192,3099,128,0,4748:0:0:0:0:
320,192,3413,128,0,4434:0:0:0:0:
448,192,4041,128,0,4434:0:0:0:0:
64,192,4198,128,0,4748:0:0:0:0:
448,192,4512,128,0,5062:0:0:0:0:
320,192,4512,128,0,5062:0:0:0:0:
64,192,4826,128,0,5376:0:0:0:0:
192,192,4826,128,0,5533:0:0:0:0:
448,192,5141,128,0,5376:0:0:0:0:
320,192,5141,128,0,6083:0:0:0:0:
64,192,5455,128,0,6633:0:0:0:0:
448,192,5455,128,0,5847:0:0:0:0:
192,192,5612,128,0,6790:0:0:0:0:
448,192,5926,128,0,7104:0:0:0:0:
320,192,6554,128,0,6947:0:0:0:0:
64,192,6711,128,0,7261:0:0:0:0:
192,192,6868,128,0,7418:0:0:0:0:
320,192,7025,128,0,7575:0:0:0:0:
448,192,7182,128,0,7732:0:0:0:0:
64,192,7339,128,0,7889:0:0:0:0:
192,192,7497,128,0,7889:0:0:0:0:
320,192,7654,128,0,8518:0:0:0:0:
448,192,7811,128,0,8518:0:0:0:0:
192,192,7968,128,0,9146:0:0:0:0:
64,192,7968,128,0,9146:0:0:0:0:
320,192,8596,128,0,9460:0:0:0:0:
448,192,8596,128,0,9460:0:0:0:0:
192,192,9224,128,0,9774:0:0:0:0:
64,192,9224,128,0,9774:0:0:0:0:
320,192,9538,128,0,10088:0:0:0:0:
448,192,9538,128,0,10088:0:0:0:0:
192,192,9853,128,0,10716:0:0:0:0:
64,192,9853,128,0,10402:0:0:0:0:
320,192,10167,128,0,10402:0:0:0:0:
448,192,10167,128,0,10716:0:0:0:0:
64,192,10481,128,0,11031:0:0:0:0:
320,192,10481,128,0,11031:0:0:0:0:
192,192,10795,128,0,11188:0:0:0:0:
448,192,10795,128,0,11423:0:0:0:0:
320,192,11109,128,0,11659:0:0:0:0:
64,192,11109,128,0,11659:0:0:0:0:
192,192,11266,128,0,13151:0:0:0:0:
320,192,11737,128,0,13622:0:0:0:0:
64,192,11737,128,0,12915:0:0:0:0:
448,192,11737,128,0,13387:0:0:0:0:
64,192,12994,128,0,14172:0:0:0:0:
192,192,13465,128,0,14329:0:0:0:0:
448,192,13465,128,0,14486:0:0:0:0:
320,192,14093,128,0,14643:0:0:0:0:
64,192,14250,128,0,14800:0:0:0:0:
192,192,14408,128,0,14957:0:0:0:0:
448,192,14565,128,0,15114:0:0:0:0:
320,192,14722,128,0,15271:0:0:0:0:
64,192,14879,128,0,15428:0:0:0:0:
192,192,15036,128,0,15664:0:0:0:0:
448,192,15193,128,0,15900:0:0:0:0:
320,192,15350,128,0,16135:0:0:0:0:
64,192,15507,128,0,16685:0:0:0:0:
448,192,15978,128,0,16842:0:0:0:0:
192,192,15978,128,0,17392:0:0:0:0:
320,192,16607,128,0,17078:0:0:0:0:
64,192,16764,128,0,17942:0:0:0:0:
448,192,16921,128,0,18413:0:0:0:0:
320,192,17392,128,0,17706:0:0:0:0:
192,192,17706,128,0,18177:0:0:0:0:
320,192,18020,128,0,18648:0:0:0:0:
64,192,18020,128,0,19198:0:0:0:0:
448,192,18491,128,0,19512:0:0:0:0:
192,192,18491,128,0,19355:0:0:0:0:
320,192,19120,128,0,19669:0:0:0:0:
64,192,19277,128,0,19826:0:0:0:0:
192,192,19434,128,0,19983:0:0:0:0:
448,192,19591,128,0,20141:0:0:0:0:
320,192,19748,128,0,20298:0:0:0:0:
64,192,19905,128,0,20455:0:0:0:0:
192,192,20062,128,0,20690:0:0:0:0:
448,192,20219,128,0,20926:0:0:0:0:
320,192,20376,128,0,21161:0:0:0:0:
64,192,20533,128,0,21711:0:0:0:0:
448,192,21004,128,0,21868:0:0:0:0:
192,192,21004,128,0,22418:0:0:0:0:
320,192,21633,128,0,22104:0:0:0:0:
64,192,21790,128,0,22811:0:0:0:0:
448,192,21947,128,0,22968:0:0:0:0:
320,192,22418,128,0,22732:0:0:0:0:
192,192,22732,128,0,23282:0:0:0:0:
64,192,22889,128,0,23439:0:0:0:0:
448,192,23046,128,0,23596:0:0:0:0:
320,192,23046,128,0,23125:0:0:0:0:
320,192,23203,128,0,23753:0:0:0:0:
192,192,23360,128,0,23910:0:0:0:0:
64,192,23518,128,0,24067:0:0:0:0:
448,192,23675,128,0,24224:0:0:0:0:
320,192,23832,128,0,24538:0:0:0:0:
192,192,23989,128,0,24381:0:0:0:0:
64,192,24146,128,0,24696:0:0:0:0:
448,192,24303,128,0,24853:0:0:0:0:
192,192,24460,128,0,25010:0:0:0:0:
320,192,24617,128,0,25167:0:0:0:0:
64,192,24774,128,0,25481:0:0:0:0:
448,192,24931,128,0,25952:0:0:0:0:
192,192,25088,128,0,25716:0:0:0:0:
320,192,25245,128,0,26188:0:0:0:0:
64,192,25559,128,0,26737:0:0:0:0:
192,192,26031,128,0,27444:0:0:0:0:
448,192,26031,128,0,26894:0:0:0:0:
320,192,26659,128,0,27130:0:0:0:0:
64,192,26816,128,0,27837:0:0:0:0:
448,192,26973,128,0,27994:0:0:0:0:
320,192,27444,128,0,27758:0:0:0:0:
192,192,27758,128,0,28465:0:0:0:0:
64,192,27915,128,0,28308:0:0:0:0:
448,192,28072,128,0,28622:0:0:0:0:
320,192,28072,128,0,28151:0:0:0:0:
320,192,28230,128,0,28779:0:0:0:0:
64,192,28387,128,0,28936:0:0:0:0:
192,192,28544,128,0,29093:0:0:0:0:
448,192,28701,128,0,29250:0:0:0:0:
320,192,28858,128,0,29565:0:0:0:0:
64,192,29015,128,0,29722:0:0:0:0:
192,192,29172,128,0,29408:0:0:0:0:
448,192,29329,128,0,29879:0:0:0:0:
192,192,29486,128,0,30036:0:0:0:0:
320,192,29643,128,0,30193:0:0:0:0:
64,192,29800,128,0,30507:0:0:0:0:
448,192,29957,128,0,30978:0:0:0:0:
192,192,30114,128,0,30743:0:0:0:0:
320,192,30271,128,0,31214:0:0:0:0:
64,192,30586,128,0,31764:0:0:0:0:
448,192,31057,128,0,31921:0:0:0:0:
192,192,31057,128,0,32470:0:0:0:0:
320,192,31685,128,0,32156:0:0:0:0:
64,192,31842,128,0,33020:0:0:0:0:
448,192,31999,128,0,33963:0:0:0:0:
320,192,32470,128,0,32785:0:0:0:0:
192,192,32785,128,0,33334:0:0:0:0:
64,192,33099,128,0,34277:0:0:0:0:
320,192,33099,128,0,33648:0:0:0:0:
192,192,33413,128,0,34905:0:0:0:0:
320,192,33727,128,0,34591:0:0:0:0:
448,192,34041,128,0,35219:0:0:0:0:
64,192,34355,128,0,35533:0:0:0:0:
320,192,34669,128,0,36161:0:0:0:0:
192,192,34983,128,0,35847:0:0:0:0:
448,192,35298,128,0,36476:0:0:0:0:
64,192,35612,128,0,36790:0:0:0:0:
192,192,35926,128,0,36947:0:0:0:0:
320,192,36240,128,0,37261:0:0:0:0:
448,192,36554,128,0,37104:0:0:0:0:
64,192,36868,128,0,37418:0:0:0:0:
192,192,37025,128,0,37575:0:0:0:0:
448,192,37182,128,0,37732:0:0:0:0:
320,192,37339,128,0,37889:0:0:0:0:
64,192,37497,128,0,38989:0:0:0:0:
192,192,37654,128,0,38675:0:0:0:0:
448,192,37811,128,0,38046:0:0:0:0:
320,192,37968,128,0,38360:0:0:0:0:
448,192,38125,128,0,39303:0:0:0:0:
320,192,38439,128,0,39931:0:0:0:0:
192,192,38753,128,0,39617:0:0:0:0:
64,192,39067,128,0,40245:0:0:0:0:
448,192,39381,128,0,40559:0:0:0:0:
192,192,39696,128,0,41188:0:0:0:0:
320,192,40010,128,0,40874:0:0:0:0:
64,192,40324,128,0,41502:0:0:0:0:
448,192,40638,128,0,41816:0:0:0:0:
320,192,40952,128,0,41973:0:0:0:0:
192,192,41266,128,0,42287:0:0:0:0:
64,192,41580,128,0,42130:0:0:0:0:
448,192,41894,128,0,42444:0:0:0:0:
320,192,42052,128,0,42601:0:0:0:0:
64,192,42209,128,0,42758:0:0:0:0:
192,192,42366,128,0,42915:0:0:0:0:
448,192,42523,128,0,43072:0:0:0:0:
320,192,42680,128,0,43230:0:0:0:0:
64,192,42837,128,0,43544:0:0:0:0:
192,192,42994,128,0,43387:0:0:0:0:
448,192,43151,128,0,43701:0:0:0:0:
320,192,43308,128,0,43858:0:0:0:0:
192,192,43465,128,0,44015:0:0:0:0:
64,192,43622,128,0,44172:0:0:0:0:
448,192,43779,128,0,44643:0:0:0:0:
320,192,43936,128,0,44329:0:0:0:0:
192,192,44093,128,0,44800:0:0:0:0:
64,192,44250,128,0,44486:0:0:0:0:
320,192,44408,128,0,44957:0:0:0:0:
64,192,44565,128,0,45114:0:0:0:0:
448,192,44722,128,0,45271:0:0:0:0:
192,192,44879,128,0,45428:0:0:0:0:
320,192,45036,128,0,45743:0:0:0:0:
64,192,45193,128,0,46057:0:0:0:0:
448,192,45350,128,0,45586:0:0:0:0:
192,192,45507,128,0,45900:0:0:0:0:
448,192,45664,128,0,46214:0:0:0:0:
320,192,45821,128,0,46371:0:0:0:0:
192,192,45978,128,0,46528:0:0:0:0:
64,192,46135,128,0,46685:0:0:0:0:
448,192,46292,128,0,46842:0:0:0:0:
320,192,46449,128,0,47156:0:0:0:0:
192,192,46607,128,0,46999:0:0:0:0:
64,192,46764,128,0,47313:0:0:0:0:
448,192,46921,128,0,47470:0:0:0:0:
192,192,47078,128,0,48570:0:0:0:0:
320,192,47235,128,0,47785:0:0:0:0:
64,192,47392,128,0,47942:0:0:0:0:
448,192,47549,128,0,48099:0:0:0:0:
320,192,47863,128,0,48256:0:0:0:0:
64,192,48020,128,0,48413:0:0:0:0:
448,192,48177,128,0,48727:0:0:0:0:
320,192,48334,128,0,48884:0:0:0:0:
64,192,48491,128,0,49041:0:0:0:0:
192,192,48648,128,0,49198:0:0:0:0:
448,192,48805,128,0,49355:0:0:0:0:
320,192,48963,128,0,49669:0:0:0:0:
64,192,49120,128,0,49512:0:0:0:0:
192,192,49277,128,0,49826:0:0:0:0:
448,192,49434,128,0,49983:0:0:0:0:
64,192,49591,128,0,50141:0:0:0:0:
320,192,49748,128,0,50298:0:0:0:0:
192,192,49905,128,0,50455:0:0:0:0:
448,192,50062,128,0,50612:0:0:0:0:
64,192,50219,128,0,51083:0:0:0:0:
320,192,50376,128,0,50926:0:0:0:0:
192,192,50533,128,0,50769:0:0:0:0:
448,192,50690,128,0,51240:0:0:0:0:
192,192,50847,128,0,51397:0:0:0:0:
320,192,51004,128,0,51554:0:0:0:0:
64,192,51161,128,0,51711:0:0:0:0:
448,192,51319,128,0,51868:0:0:0:0:
192,192,51476,128,0,52339:0:0:0:0:
320,192,51633,128,0,52025:0:0:0:0:
64,192,51790,128,0,52182:0:0:0:0:
448,192,51947,128,0,52497:0:0:0:0:
320,192,52104,128,0,54460:0:0:0:0:
64,192,52261,128,0,53203:0:0:0:0:
192,192,52418,128,0,53832:0:0:0:0:
448,192,52575,128,0,53125:0:0:0:0:
448,192,53203,128,0,55088:0:0:0:0:
64,192,53832,128,0,55716:0:0:0:0:
192,192,54460,128,0,56345:0:0:0:0:
320,192,55088,128,0,56973:0:0:0:0:
448,192,55716,128,0,60114:0:0:0:0:
64,192,56345,128,0,58230:0:0:0:0:
192,192,56973,128,0,58858:0:0:0:0:
320,192,58230,128,0,59486:0:0:0:0:
64,192,58858,128,0,60743:0:0:0:0:
192,192,59486,128,0,61371:0:0:0:0:
320,192,60114,128,0,61999:0:0:0:0:
448,192,60743,128,0,63177:0:0:0:0:
64,192,61371,128,0,62863:0:0:0:0:
192,192,61999,128,0,63020:0:0:0:0:
64,192,62942,128,0,63648:0:0:0:0:
192,192,63099,128,0,63491:0:0:0:0:
448,192,63256,128,0,63805:0:0:0:0:
320,192,63256,128,0,63334:0:0:0:0:
320,192,63413,128,0,63963:0:0:0:0:
192,192,63570,128,0,64120:0:0:0:0:
64,192,63727,128,0,64277:0:0:0:0:
448,192,63884,128,0,64434:0:0:0:0:
320,192,64041,128,0,64591:0:0:0:0:
192,192,64198,128,0,64905:0:0:0:0:
64,192,64355,128,0,64748:0:0:0:0:
448,192,64512,128,0,65062:0:0:0:0:
320,192,64669,128,0,65219:0:0:0:0:
64,192,64826,128,0,65376:0:0:0:0:
192,192,64983,128,0,65533:0:0:0:0:
448,192,65141,128,0,65690:0:0:0:0:
320,192,65298,128,0,66004:0:0:0:0:
64,192,65455,128,0,66161:0:0:0:0:
192,192,65612,128,0,65847:0:0:0:0:
448,192,65769,128,0,66319:0:0:0:0:
192,192,65926,128,0,66476:0:0:0:0:
320,192,66083,128,0,66633:0:0:0:0:
64,192,66240,128,0,66790:0:0:0:0:
448,192,66397,128,0,66947:0:0:0:0:
192,192,66554,128,0,67261:0:0:0:0:
320,192,66711,128,0,67104:0:0:0:0:
64,192,66868,128,0,67418:0:0:0:0:
448,192,67025,128,0,67575:0:0:0:0:
320,192,67182,128,0,68675:0:0:0:0:
192,192,67339,128,0,67889:0:0:0:0:
64,192,67497,128,0,68046:0:0:0:0:
448,192,67654,128,0,68360:0:0:0:0:
192,192,67968,128,0,68203:0:0:0:0:
64,192,68125,128,0,68518:0:0:0:0:
192,192,68282,128,0,68832:0:0:0:0:
448,192,68439,128,0,68989:0:0:0:0:
64,192,68596,128,0,69146:0:0:0:0:
320,192,68753,128,0,69303:0:0:0:0:
192,192,68910,128,0,69617:0:0:0:0:
448,192,69067,128,0,69931:0:0:0:0:
64,192,69224,128,0,69460:0:0:0:0:
320,192,69381,128,0,69774:0:0:0:0:
64,192,69538,128,0,70088:0:0:0:0:
192,192,69696,128,0,70245:0:0:0:0:
320,192,69853,128,0,70402:0:0:0:0:
448,192,70010,128,0,70559:0:0:0:0:
64,192,70167,128,0,70716:0:0:0:0:
192,192,70324,128,0,70874:0:0:0:0:
320,192,70481,128,0,71188:0:0:0:0:
448,192,70638,128,0,71031:0:0:0:0:
64,192,70795,128,0,71345:0:0:0:0:
192,192,70952,128,0,71502:0:0:0:0:
448,192,71109,128,0,71659:0:0:0:0:
320,192,71266,128,0,71816:0:0:0:0:
64,192,71423,128,0,71973:0:0:0:0:
192,192,71580,128,0,72130:0:0:0:0:
448,192,71737,128,0,72444:0:0:0:0:
320,192,71894,128,0,72287:0:0:0:0:
64,192,72052,128,0,72601:0:0:0:0:
192,192,72209,128,0,73230:0:0:0:0:
320,192,72366,128,0,72915:0:0:0:0:
448,192,72523,128,0,73072:0:0:0:0:
64,192,72680,128,0,73230:0:0:0:0:
320,192,72994,128,0,73701:0:0:0:0:
448,192,73151,128,0,73387:0:0:0:0:
64,192,73308,128,0,73858:0:0:0:0:
192,192,73308,128,0,73544:0:0:0:0:
448,192,73465,128,0,74015:0:0:0:0:
192,192,73622,128,0,74172:0:0:0:0:
320,192,73779,128,0,74329:0:0:0:0:
64,192,73936,128,0,74486:0:0:0:0:
448,192,74093,128,0,74957:0:0:0:0:
192,192,74250,128,0,74643:0:0:0:0:
320,192,74408,128,0,74800:0:0:0:0:
64,192,74565,128,0,75114:0:0:0:0:
192,192,74722,128,0,75271:0:0:0:0:
320,192,74879,128,0,75428:0:0:0:0:
448,192,75036,128,0,75586:0:0:0:0:
64,192,75193,128,0,75743:0:0:0:0:
192,192,75350,128,0,76057:0:0:0:0:
320,192,75507,128,0,75900:0:0:0:0:
448,192,75664,128,0,76214:0:0:0:0:
64,192,75821,128,0,76371:0:0:0:0:
320,192,75978,128,0,76528:0:0:0:0:
192,192,76135,128,0,76685:0:0:0:0:
448,192,76292,128,0,76842:0:0:0:0:
64,192,76449,128,0,76999:0:0:0:0:
320,192,76607,128,0,77470:0:0:0:0:
192,192,76764,128,0,77156:0:0:0:0:
448,192,76921,128,0,77313:0:0:0:0:
64,192,77078,128,0,77627:0:0:0:0:
192,192,77235,128,0,78727:0:0:0:0:
448,192,77392,128,0,77942:0:0:0:0:
320,192,77549,128,0,78099:0:0:0:0:
64,192,77706,128,0,78256:0:0:0:0:
448,192,78020,128,0,78570:0:0:0:0:
320,192,78177,128,0,78413:0:0:0:0:
64,192,78334,128,0,78884:0:0:0:0:
320,192,78491,128,0,79041:0:0:0:0:
448,192,78648,128,0,79198:0:0:0:0:
192,192,78805,128,0,79355:0:0:0:0:
64,192,78963,128,0,79512:0:0:0:0:
320,192,79120,128,0,79669:0:0:0:0:
448,192,79277,128,0,79826:0:0:0:0:
192,192,79434,128,0,79983:0:0:0:0:
64,192,79591,128,0,80141:0:0:0:0:
320,192,79748,128,0,80298:0:0:0:0:
448,192,79905,128,0,80455:0:0:0:0:
192,192,80062,128,0,80612:0:0:0:0:
64,192,80219,128,0,80769:0:0:0:0:
320,192,80376,128,0,80769:0:0:0:0:
448,192,80533,128,0,81397:0:0:0:0:
192,192,80690,128,0,81397:0:0:0:0:
320,192,80847,128,0,82025:0:0:0:0:
64,192,80847,128,0,82025:0:0:0:0:
192,192,81476,128,0,82339:0:0:0:0:
448,192,81476,128,0,82339:0:0:0:0:
320,192,82104,128,0,82654:0:0:0:0:
64,192,82104,128,0,82654:0:0:0:0:
448,192,82418,128,0,83125:0:0:0:0:
192,192,82418,128,0,82968:0:0:0:0:
64,192,82732,128,0,83282:0:0:0:0:
320,192,82732,128,0,83439:0:0:0:0:
192,192,83046,128,0,83596:0:0:0:0:
448,192,83203,128,0,83753:0:0:0:0:
64,192,83360,128,0,83910:0:0:0:0:
320,192,83518,128,0,84067:0:0:0:0:
192,192,83675,128,0,84224:0:0:0:0:
448,192,83832,128,0,84381:0:0:0:0:
64,192,83989,128,0,84538:0:0:0:0:
320,192,84146,128,0,85010:0:0:0:0:
192,192,84303,128,0,84696:0:0:0:0:
448,192,84460,128,0,84853:0:0:0:0:
64,192,84617,128,0,85167:0:0:0:0:
192,192,84774,128,0,85324:0:0:0:0:
448,192,84931,128,0,85481:0:0:0:0:
320,192,85088,128,0,85638:0:0:0:0:
64,192,85245,128,0,85795:0:0:0:0:
192,192,85402,128,0,86109:0:0:0:0:
448,192,85559,128,0,85952:0:0:0:0:
320,192,85716,128,0,86266:0:0:0:0:
64,192,85874,128,0,86423:0:0:0:0:
448,192,86031,128,0,86580:0:0:0:0:
192,192,86188,128,0,86737:0:0:0:0:
320,192,86345,128,0,86894:0:0:0:0:
64,192,86502,128,0,87052:0:0:0:0:
448,192,86659,128,0,87523:0:0:0:0:
192,192,86816,128,0,87209:0:0:0:0:
320,192,86973,128,0,87366:0:0:0:0:
64,192,87130,128,0,87680:0:0:0:0:
192,192,87287,128,0,88779:0:0:0:0:
320,192,87444,128,0,87994:0:0:0:0:
448,192,87601,128,0,88151:0:0:0:0:
64,192,87758,128,0,88308:0:0:0:0:
320,192,88072,128,0,88465:0:0:0:0:
448,192,88230,128,0,88622:0:0:0:0:
64,192,88387,128,0,88936:0:0:0:0:
320,192,88544,128,0,89093:0:0:0:0:
448,192,88701,128,0,89250:0:0:0:0:
192,192,88858,128,0,89408:0:0:0:0:
64,192,89015,128,0,89565:0:0:0:0:
320,192,89172,128,0,89879:0:0:0:0:
448,192,89329,128,0,90036:0:0:0:0:
192,192,89486,128,0,89722:0:0:0:0:
64,192,89643,128,0,90193:0:0:0:0:
192,192,89800,128,0,90350:0:0:0:0:
320,192,89957,128,0,90507:0:0:0:0:
448,192,90114,128,0,90664:0:0:0:0:
64,192,90271,128,0,90821:0:0:0:0:
192,192,90428,128,0,90821:0:0:0:0:
320,192,90586,128,0,91449:0:0:0:0:
448,192,90743,128,0,91449:0:0:0:0:
64,192,90900,128,0,92078:0:0:0:0:
192,192,90900,128,0,92078:0:0:0:0:
320,192,91528,128,0,92392:0:0:0:0:
448,192,91528,128,0,92392:0:0:0:0:
64,192,92156,128,0,92706:0:0:0:0:
192,192,92156,128,0,92706:0:0:0:0:
320,192,92470,128,0,94041:0:0:0:0:
448,192,92470,128,0,93805:0:0:0:0:
192,192,92785,128,0,93570:0:0:0:0:
64,192,92785,128,0,93334:0:0:0:0:
64,192,93413,128,0,94591:0:0:0:0:
192,192,93884,128,0,94748:0:0:0:0:
448,192,93884,128,0,95062:0:0:0:0:
320,192,94512,128,0,94905:0:0:0:0:
64,192,94669,128,0,95219:0:0:0:0:
192,192,94826,128,0,95376:0:0:0:0:
320,192,94983,128,0,95533:0:0:0:0:
448,192,95141,128,0,95690:0:0:0:0:
64,192,95298,128,0,95847:0:0:0:0:
192,192,95455,128,0,96083:0:0:0:0:
320,192,95612,128,0,96554:0:0:0:0:
448,192,95769,128,0,96319:0:0:0:0:
64,192,95926,128,0,97104:0:0:0:0:
192,192,96397,128,0,97811:0:0:0:0:
448,192,96397,128,0,97261:0:0:0:0:
320,192,97025,128,0,97497:0:0:0:0:
64,192,97182,128,0,98360:0:0:0:0:
448,192,97339,128,0,98832:0:0:0:0:
320,192,97811,128,0,98125:0:0:0:0:
192,192,98125,128,0,98596:0:0:0:0:
320,192,98439,128,0,99067:0:0:0:0:
64,192,98439,128,0,99617:0:0:0:0:
192,192,98910,128,0,99774:0:0:0:0:
448,192,98910,128,0,100088:0:0:0:0:
320,192,99538,128,0,99931:0:0:0:0:
64,192,99696,128,0,100245:0:0:0:0:
192,192,99853,128,0,100402:0:0:0:0:
320,192,100010,128,0,100559:0:0:0:0:
448,192,100167,128,0,100716:0:0:0:0:
64,192,100324,128,0,100874:0:0:0:0:
192,192,100481,128,0,101109:0:0:0:0:
320,192,100638,128,0,101580:0:0:0:0:
448,192,100795,128,0,101345:0:0:0:0:
64,192,100952,128,0,102130:0:0:0:0:
192,192,101423,128,0,102837:0:0:0:0:
448,192,101423,128,0,102287:0:0:0:0:
320,192,102052,128,0,102523:0:0:0:0:
64,192,102209,128,0,103387:0:0:0:0:
448,192,102366,128,0,103701:0:0:0:0:
320,192,102837,128,0,103151:0:0:0:0:
192,192,103151,128,0,103544:0:0:0:0:
64,192,103465,128,0,104015:0:0:0:0:
320,192,103465,128,0,103858:0:0:0:0:
192,192,103622,128,0,104172:0:0:0:0:
448,192,103779,128,0,104329:0:0:0:0:
320,192,103936,128,0,104486:0:0:0:0:
64,192,104093,128,0,104643:0:0:0:0:
192,192,104250,128,0,104957:0:0:0:0:
448,192,104408,128,0,105114:0:0:0:0:
320,192,104565,128,0,104800:0:0:0:0:
64,192,104722,128,0,105271:0:0:0:0:
320,192,104879,128,0,105428:0:0:0:0:
192,192,105036,128,0,105586:0:0:0:0:
448,192,105193,128,0,105743:0:0:0:0:
64,192,105350,128,0,105900:0:0:0:0:
320,192,105507,128,0,106371:0:0:0:0:
192,192,105664,128,0,106057:0:0:0:0:
448,192,105821,128,0,106214:0:0:0:0:
64,192,105978,128,0,106528:0:0:0:0:
192,192,106135,128,0,106685:0:0:0:0:
448,192,106292,128,0,106842:0:0:0:0:
320,192,106449,128,0,106999:0:0:0:0:
64,192,106607,128,0,107156:0:0:0:0:
192,192,106764,128,0,107863:0:0:0:0:
448,192,106921,128,0,107313:0:0:0:0:
320,192,107078,128,0,107549:0:0:0:0:
64,192,107235,128,0,107627:0:0:0:0:
448,192,107392,128,0,107942:0:0:0:0:
64,192,107706,128,0,108256:0:0:0:0:
320,192,107863,128,0,108177:0:0:0:0:
448,192,108020,128,0,108413:0:0:0:0:
192,192,108177,128,0,108727:0:0:0:0:
64,192,108334,128,0,108570:0:0:0:0:
448,192,108491,128,0,109041:0:0:0:0:
320,192,108491,128,0,108884:0:0:0:0:
64,192,108648,128,0,109198:0:0:0:0:
192,192,108805,128,0,109355:0:0:0:0:
320,192,108963,128,0,109512:0:0:0:0:
448,192,109120,128,0,109983:0:0:0:0:
64,192,109277,128,0,109669:0:0:0:0:
192,192,109434,128,0,110141:0:0:0:0:
320,192,109591,128,0,109826:0:0:0:0:
64,192,109748,128,0,110298:0:0:0:0:
320,192,109905,128,0,110455:0:0:0:0:
448,192,110062,128,0,110612:0:0:0:0:
192,192,110219,128,0,110769:0:0:0:0:
64,192,110376,128,0,110926:0:0:0:0:
320,192,110533,128,0,110926:0:0:0:0:
448,192,110690,128,0,111554:0:0:0:0:
192,192,110847,128,0,111554:0:0:0:0:
64,192,111004,128,0,112182:0:0:0:0:
320,192,111004,128,0,112182:0:0:0:0:
192,192,111633,128,0,112497:0:0:0:0:
448,192,111633,128,0,112497:0:0:0:0:
64,192,112261,128,0,112811:0:0:0:0:
320,192,112261,128,0,112811:0:0:0:0:
192,192,112575,128,0,113203:0:0:0:0:
448,192,112575,128,0,113203:0:0:0:0:
320,192,112889,128,0,113203:0:0:0:0:
64,192,112889,128,0,113203:0:0:0:0:
