osu file format v14

[General]
AudioFilename: Seiryu - Waxing and Wanding.mp3
AudioLeadIn: 0
PreviewTime: 72994
Countdown: 0
SampleSet: Soft
StackLeniency: 0.7
Mode: 3
LetterboxInBreaks: 0
SpecialStyle: 0
WidescreenStoryboard: 1

[Editor]
DistanceSpacing: 1.5
BeatDivisor: 4
GridSize: 8
TimelineZoom: 3.199999

[Metadata]
Title:[Full LN] training
TitleUnicode:[Full LN] training
Artist:Various Artist
ArtistUnicode:Various Artist
Creator:Allezard
Version:Seiryu - Waxing and Wanding Lv. 2
Source:beatmania IIDX
Tags:Full LN Training Various Artist Collection 4k NOODLE BMS Deemo Cytus SOUND VOLTEX II -infinite infection- beatmania IIDX
BeatmapID:819043
BeatmapSetID:368373

[Difficulty]
HPDrainRate:5
CircleSize:4
OverallDifficulty:1
ApproachRate:5
SliderMultiplier:1.4
SliderTickRate:1

[Events]
//Background and Video events
0,0,"Seiryu - Waxing and Wanding.jpg",0,0
//Break Periods
//Storyboard Layer 0 (Background)
//Storyboard Layer 1 (Fail)
//Storyboard Layer 2 (Pass)
//Storyboard Layer 3 (Foreground)
//Storyboard Sound Samples

[TimingPoints]
429,314.13612565445,4,2,1,50,1,0
73308,-100,4,2,1,40,0,1
93413,-100,4,2,1,40,0,0

[HitObjects]
64,192,429,128,0,2549:0:0:0:0:
192,192,429,128,0,2235:0:0:0:0:
448,192,1685,128,0,2942:0:0:0:0:
320,192,1999,128,0,4748:0:0:0:0:
192,192,2313,128,0,5062:0:0:0:0:
64,192,2627,128,0,4120:0:0:0:0:
64,192,4198,128,0,5455:0:0:0:0:
448,192,4198,128,0,4434:0:0:0:0:
448,192,4512,128,0,5376:0:0:0:0:
320,192,4826,128,0,6947:0:0:0:0:
192,192,5141,128,0,7261:0:0:0:0:
448,192,5455,128,0,6633:0:0:0:0:
64,192,6711,128,0,7575:0:0:0:0:
448,192,6711,128,0,7889:0:0:0:0:
320,192,7025,128,0,8518:0:0:0:0:
192,192,7339,128,0,9460:0:0:0:0:
64,192,7654,128,0,9146:0:0:0:0:
448,192,7968,128,0,9774:0:0:0:0:
320,192,8596,128,0,10088:0:0:0:0:
64,192,9224,128,0,10402:0:0:0:0:
192,192,9538,128,0,10716:0:0:0:0:
448,192,9853,128,0,11031:0:0:0:0:
320,192,10167,128,0,11188:0:0:0:0:
64,192,10481,128,0,11423:0:0:0:0:
192,192,10795,128,0,11659:0:0:0:0:
448,192,11109,128,0,13230:0:0:0:0:
320,192,11266,128,0,13544:0:0:0:0:
64,192,11737,128,0,12915:0:0:0:0:
192,192,11737,128,0,12915:0:0:0:0:
64,192,12994,128,0,14250:0:0:0:0:
192,192,12994,128,0,13858:0:0:0:0:
448,192,13308,128,0,14879:0:0:0:0:
320,192,13622,128,0,15193:0:0:0:0:
192,192,13936,128,0,14565:0:0:0:0:
64,192,14565,128,0,15428:0:0:0:0:
192,192,14879,128,0,16371:0:0:0:0:
448,192,15193,128,0,15743:0:0:0:0:
64,192,15507,128,0,17078:0:0:0:0:
320,192,15507,128,0,16057:0:0:0:0:
448,192,15821,128,0,16685:0:0:0:0:
320,192,16135,128,0,17706:0:0:0:0:
192,192,16449,128,0,17392:0:0:0:0:
448,192,16764,128,0,18256:0:0:0:0:
64,192,17392,128,0,17942:0:0:0:0:
192,192,17706,128,0,18884:0:0:0:0:
64,192,18020,128,0,19277:0:0:0:0:
320,192,18020,128,0,18570:0:0:0:0:
448,192,18334,128,0,19905:0:0:0:0:
320,192,18648,128,0,20219:0:0:0:0:
192,192,18963,128,0,19591:0:0:0:0:
64,192,19591,128,0,20455:0:0:0:0:
192,192,19905,128,0,21397:0:0:0:0:
448,192,20219,128,0,20769:0:0:0:0:
64,192,20533,128,0,22104:0:0:0:0:
320,192,20533,128,0,21083:0:0:0:0:
448,192,20847,128,0,21711:0:0:0:0:
320,192,21161,128,0,22732:0:0:0:0:
192,192,21476,128,0,22418:0:0:0:0:
448,192,21790,128,0,22968:0:0:0:0:
64,192,22418,128,0,22968:0:0:0:0:
192,192,22732,128,0,23282:0:0:0:0:
448,192,23046,128,0,23596:0:0:0:0:
320,192,23046,128,0,23910:0:0:0:0:
64,192,23046,128,0,24224:0:0:0:0:
192,192,23360,128,0,25167:0:0:0:0:
448,192,23675,128,0,24853:0:0:0:0:
320,192,23989,128,0,24538:0:0:0:0:
64,192,24303,128,0,25795:0:0:0:0:
320,192,24617,128,0,26423:0:0:0:0:
448,192,24931,128,0,25481:0:0:0:0:
192,192,25245,128,0,26109:0:0:0:0:
448,192,25559,128,0,27130:0:0:0:0:
64,192,25874,128,0,26737:0:0:0:0:
192,192,26188,128,0,27758:0:0:0:0:
320,192,26502,128,0,27444:0:0:0:0:
64,192,26816,128,0,27994:0:0:0:0:
448,192,27444,128,0,28622:0:0:0:0:
320,192,27758,128,0,28936:0:0:0:0:
192,192,28072,128,0,28308:0:0:0:0:
64,192,28072,128,0,29250:0:0:0:0:
192,192,28387,128,0,29879:0:0:0:0:
448,192,28701,128,0,29565:0:0:0:0:
320,192,29015,128,0,30193:0:0:0:0:
64,192,29329,128,0,30821:0:0:0:0:
448,192,29643,128,0,30507:0:0:0:0:
192,192,29957,128,0,31135:0:0:0:0:
320,192,30271,128,0,31449:0:0:0:0:
448,192,30586,128,0,32156:0:0:0:0:
64,192,30900,128,0,31764:0:0:0:0:
192,192,31214,128,0,32785:0:0:0:0:
320,192,31528,128,0,32470:0:0:0:0:
64,192,31842,128,0,33020:0:0:0:0:
448,192,32470,128,0,33020:0:0:0:0:
320,192,32785,128,0,33648:0:0:0:0:
64,192,33099,128,0,34277:0:0:0:0:
448,192,33099,128,0,33963:0:0:0:0:
192,192,33099,128,0,33334:0:0:0:0:
192,192,33413,128,0,34591:0:0:0:0:
320,192,33727,128,0,35219:0:0:0:0:
448,192,34041,128,0,34905:0:0:0:0:
64,192,34355,128,0,36476:0:0:0:0:
192,192,34669,128,0,35847:0:0:0:0:
448,192,34983,128,0,35533:0:0:0:0:
320,192,35298,128,0,36161:0:0:0:0:
448,192,35612,128,0,36868:0:0:0:0:
192,192,35926,128,0,37811:0:0:0:0:
320,192,36240,128,0,37182:0:0:0:0:
64,192,36554,128,0,37497:0:0:0:0:
448,192,37182,128,0,38046:0:0:0:0:
320,192,37497,128,0,38675:0:0:0:0:
64,192,37811,128,0,38989:0:0:0:0:
192,192,38125,128,0,38360:0:0:0:0:
448,192,38125,128,0,39303:0:0:0:0:
192,192,38439,128,0,40245:0:0:0:0:
320,192,38753,128,0,39617:0:0:0:0:
64,192,39067,128,0,39931:0:0:0:0:
448,192,39381,128,0,40559:0:0:0:0:
320,192,39696,128,0,40874:0:0:0:0:
64,192,40010,128,0,41502:0:0:0:0:
192,192,40324,128,0,41188:0:0:0:0:
448,192,40638,128,0,41894:0:0:0:0:
320,192,40952,128,0,42209:0:0:0:0:
192,192,41266,128,0,42837:0:0:0:0:
64,192,41580,128,0,42523:0:0:0:0:
448,192,42209,128,0,43072:0:0:0:0:
320,192,42523,128,0,43387:0:0:0:0:
64,192,42837,128,0,43072:0:0:0:0:
64,192,43151,128,0,43701:0:0:0:0:
192,192,43151,128,0,44015:0:0:0:0:
448,192,43151,128,0,44329:0:0:0:0:
320,192,43465,128,0,44643:0:0:0:0:
64,192,43779,128,0,45271:0:0:0:0:
192,192,44093,128,0,44957:0:0:0:0:
448,192,44408,128,0,45586:0:0:0:0:
320,192,44722,128,0,46214:0:0:0:0:
192,192,45036,128,0,45900:0:0:0:0:
64,192,45350,128,0,46528:0:0:0:0:
448,192,45664,128,0,46842:0:0:0:0:
192,192,45978,128,0,47470:0:0:0:0:
320,192,46292,128,0,47785:0:0:0:0:
64,192,46607,128,0,47156:0:0:0:0:
448,192,46921,128,0,48099:0:0:0:0:
64,192,47235,128,0,48727:0:0:0:0:
192,192,47549,128,0,49041:0:0:0:0:
320,192,47863,128,0,48413:0:0:0:0:
448,192,48177,128,0,49355:0:0:0:0:
320,192,48491,128,0,50298:0:0:0:0:
64,192,48805,128,0,49983:0:0:0:0:
192,192,49120,128,0,49669:0:0:0:0:
448,192,49434,128,0,50612:0:0:0:0:
192,192,49748,128,0,51240:0:0:0:0:
64,192,50062,128,0,51554:0:0:0:0:
320,192,50376,128,0,50926:0:0:0:0:
448,192,50690,128,0,51868:0:0:0:0:
320,192,51004,128,0,52497:0:0:0:0:
192,192,51319,128,0,52182:0:0:0:0:
64,192,51633,128,0,52811:0:0:0:0:
448,192,51947,128,0,53203:0:0:0:0:
192,192,52261,128,0,55088:0:0:0:0:
320,192,52575,128,0,53832:0:0:0:0:
64,192,52889,128,0,54460:0:0:0:0:
448,192,53832,128,0,55716:0:0:0:0:
320,192,54460,128,0,56345:0:0:0:0:
64,192,55088,128,0,56973:0:0:0:0:
192,192,55716,128,0,60114:0:0:0:0:
448,192,56345,128,0,58230:0:0:0:0:
320,192,56973,128,0,58858:0:0:0:0:
64,192,58230,128,0,59486:0:0:0:0:
448,192,58858,128,0,60743:0:0:0:0:
320,192,59486,128,0,61371:0:0:0:0:
64,192,60114,128,0,61999:0:0:0:0:
192,192,60743,128,0,64512:0:0:0:0:
448,192,61371,128,0,63256:0:0:0:0:
320,192,61999,128,0,63884:0:0:0:0:
64,192,63256,128,0,65141:0:0:0:0:
448,192,63884,128,0,65769:0:0:0:0:
320,192,64512,128,0,66397:0:0:0:0:
192,192,65141,128,0,67025:0:0:0:0:
64,192,65769,128,0,70167:0:0:0:0:
448,192,66397,128,0,68282:0:0:0:0:
320,192,67025,128,0,68910:0:0:0:0:
192,192,68282,128,0,69538:0:0:0:0:
448,192,68910,128,0,70795:0:0:0:0:
320,192,69538,128,0,71423:0:0:0:0:
192,192,70167,128,0,72052:0:0:0:0:
64,192,70795,128,0,73230:0:0:0:0:
448,192,71423,128,0,73230:0:0:0:0:
320,192,72052,128,0,72915:0:0:0:0:
320,192,72994,128,0,74172:0:0:0:0:
192,192,72994,128,0,73544:0:0:0:0:
64,192,73308,128,0,74486:0:0:0:0:
448,192,73308,128,0,73858:0:0:0:0:
192,192,73622,128,0,75114:0:0:0:0:
448,192,73936,128,0,74800:0:0:0:0:
320,192,74250,128,0,75428:0:0:0:0:
64,192,74565,128,0,75743:0:0:0:0:
448,192,74879,128,0,76371:0:0:0:0:
192,192,75193,128,0,76057:0:0:0:0:
320,192,75507,128,0,76685:0:0:0:0:
64,192,75821,128,0,76999:0:0:0:0:
192,192,76135,128,0,77313:0:0:0:0:
448,192,76449,128,0,77942:0:0:0:0:
320,192,76764,128,0,77627:0:0:0:0:
64,192,77078,128,0,78256:0:0:0:0:
192,192,77392,128,0,79198:0:0:0:0:
320,192,77706,128,0,78884:0:0:0:0:
448,192,78020,128,0,78570:0:0:0:0:
64,192,78334,128,0,79512:0:0:0:0:
448,192,78648,128,0,80455:0:0:0:0:
320,192,78963,128,0,79826:0:0:0:0:
192,192,79277,128,0,80141:0:0:0:0:
64,192,79591,128,0,80769:0:0:0:0:
320,192,79905,128,0,82339:0:0:0:0:
192,192,80219,128,0,81397:0:0:0:0:
448,192,80533,128,0,82025:0:0:0:0:
64,192,80847,128,0,82654:0:0:0:0:
192,192,81476,128,0,82654:0:0:0:0:
448,192,82104,128,0,83282:0:0:0:0:
320,192,82418,128,0,83910:0:0:0:0:
64,192,82732,128,0,83282:0:0:0:0:
192,192,82732,128,0,83596:0:0:0:0:
448,192,83360,128,0,84224:0:0:0:0:
64,192,83360,128,0,84538:0:0:0:0:
192,192,83675,128,0,85167:0:0:0:0:
320,192,83989,128,0,85481:0:0:0:0:
448,192,84303,128,0,84853:0:0:0:0:
64,192,84617,128,0,85795:0:0:0:0:
448,192,84931,128,0,86423:0:0:0:0:
192,192,85245,128,0,86737:0:0:0:0:
320,192,85559,128,0,86109:0:0:0:0:
64,192,85874,128,0,87680:0:0:0:0:
320,192,86188,128,0,87366:0:0:0:0:
448,192,86502,128,0,87052:0:0:0:0:
192,192,86816,128,0,87994:0:0:0:0:
448,192,87130,128,0,88308:0:0:0:0:
320,192,87444,128,0,88936:0:0:0:0:
64,192,87758,128,0,89250:0:0:0:0:
192,192,88072,128,0,88622:0:0:0:0:
448,192,88387,128,0,90507:0:0:0:0:
192,192,88701,128,0,89565:0:0:0:0:
320,192,89015,128,0,89879:0:0:0:0:
64,192,89329,128,0,90193:0:0:0:0:
192,192,89643,128,0,91449:0:0:0:0:
320,192,89957,128,0,92392:0:0:0:0:
64,192,90271,128,0,90821:0:0:0:0:
448,192,90586,128,0,92078:0:0:0:0:
64,192,90900,128,0,92706:0:0:0:0:
192,192,91528,128,0,92706:0:0:0:0:
448,192,92156,128,0,93648:0:0:0:0:
320,192,92470,128,0,93963:0:0:0:0:
192,192,92785,128,0,93334:0:0:0:0:
64,192,92785,128,0,93334:0:0:0:0:
192,192,93413,128,0,94277:0:0:0:0:
64,192,93413,128,0,94669:0:0:0:0:
448,192,93727,128,0,95298:0:0:0:0:
320,192,94041,128,0,95533:0:0:0:0:
192,192,94355,128,0,94983:0:0:0:0:
64,192,94983,128,0,95847:0:0:0:0:
192,192,95298,128,0,96790:0:0:0:0:
448,192,95612,128,0,96161:0:0:0:0:
320,192,95612,128,0,96476:0:0:0:0:
64,192,95926,128,0,97497:0:0:0:0:
448,192,96240,128,0,97104:0:0:0:0:
320,192,96554,128,0,98125:0:0:0:0:
192,192,96868,128,0,97811:0:0:0:0:
448,192,97182,128,0,98675:0:0:0:0:
64,192,97811,128,0,98360:0:0:0:0:
192,192,98125,128,0,99303:0:0:0:0:
64,192,98439,128,0,99696:0:0:0:0:
320,192,98439,128,0,98989:0:0:0:0:
448,192,98753,128,0,100324:0:0:0:0:
320,192,99067,128,0,100559:0:0:0:0:
192,192,99381,128,0,100010:0:0:0:0:
64,192,100010,128,0,100874:0:0:0:0:
192,192,100324,128,0,101816:0:0:0:0:
448,192,100638,128,0,101188:0:0:0:0:
320,192,100638,128,0,101502:0:0:0:0:
64,192,100952,128,0,102523:0:0:0:0:
448,192,101266,128,0,102130:0:0:0:0:
320,192,101580,128,0,103151:0:0:0:0:
192,192,101894,128,0,102837:0:0:0:0:
448,192,102209,128,0,103387:0:0:0:0:
64,192,102837,128,0,103387:0:0:0:0:
192,192,103151,128,0,103701:0:0:0:0:
448,192,103465,128,0,104329:0:0:0:0:
64,192,103465,128,0,104643:0:0:0:0:
320,192,103465,128,0,104015:0:0:0:0:
192,192,103779,128,0,105271:0:0:0:0:
320,192,104093,128,0,104957:0:0:0:0:
448,192,104408,128,0,105586:0:0:0:0:
64,192,104722,128,0,105900:0:0:0:0:
320,192,105036,128,0,106528:0:0:0:0:
192,192,105350,128,0,106842:0:0:0:0:
448,192,105664,128,0,106214:0:0:0:0:
64,192,105978,128,0,107156:0:0:0:0:
448,192,106292,128,0,107549:0:0:0:0:
320,192,106607,128,0,107863:0:0:0:0:
192,192,106921,128,0,108177:0:0:0:0:
64,192,107235,128,0,108413:0:0:0:0:
448,192,107863,128,0,108727:0:0:0:0:
320,192,108177,128,0,109355:0:0:0:0:
64,192,108491,128,0,109669:0:0:0:0:
192,192,108491,128,0,109041:0:0:0:0:
448,192,108805,128,0,109983:0:0:0:0:
192,192,109120,128,0,110612:0:0:0:0:
320,192,109434,128,0,110298:0:0:0:0:
64,192,109748,128,0,110926:0:0:0:0:
448,192,110062,128,0,112182:0:0:0:0:
320,192,110376,128,0,112497:0:0:0:0:
192,192,110690,128,0,111554:0:0:0:0:
64,192,111004,128,0,112811:0:0:0:0:
192,192,111633,128,0,112811:0:0:0:0:
448,192,112261,128,0,113203:0:0:0:0:
320,192,112575,128,0,113203:0:0:0:0:
64,192,112889,128,0,113203:0:0:0:0:
192,192,112889,128,0,113203:0:0:0:0:
