osu file format v14

[General]
AudioFilename: S3RL - MTC (Nightcore Remix).mp3
AudioLeadIn: 0
PreviewTime: 66169
Countdown: 0
SampleSet: Normal
StackLeniency: 0.7
Mode: 3
LetterboxInBreaks: 0
SpecialStyle: 0
WidescreenStoryboard: 1

[Editor]
DistanceSpacing: 1
BeatDivisor: 4
GridSize: 8
TimelineZoom: 2.899999

[Metadata]
Title:[Full LN] training
TitleUnicode:[Full LN] training
Artist:Various Artist
ArtistUnicode:Various Artist
Creator:Allezard
Version:S3RL - MTC (Nightcore Remix) Lv. 2.5
Source:
Tags:Full LN Training Various Artist Collection 4k NOODLE BMS Deemo Cytus SOUND VOLTEX II -infinite infection- beatmania IIDX
BeatmapID:819052
BeatmapSetID:368373

[Difficulty]
HPDrainRate:5
CircleSize:4
OverallDifficulty:1
ApproachRate:5
SliderMultiplier:1.4
SliderTickRate:1

[Events]
//Background and Video events
0,0,"S3RL - MTC (Nightcore Remix).jpg",0,0
//Break Periods
//Storyboard Layer 0 (Background)
//Storyboard Layer 1 (Fail)
//Storyboard Layer 2 (Pass)
//Storyboard Layer 3 (Foreground)
//Storyboard Sound Samples

[TimingPoints]
5575,312.744331508991,4,1,0,50,1,0
85637,-100,4,1,0,50,0,1
104402,-100,4,1,0,50,0,0
215739,-100,4,1,0,50,0,1
233565,-100,4,1,0,50,0,0

[HitObjects]
192,192,5574,128,0,6435:0:0:0:0:
448,192,6200,128,0,7764:0:0:0:0:
320,192,6356,128,0,8937:0:0:0:0:
192,192,6513,128,0,6825:0:0:0:0:
192,192,7138,128,0,8076:0:0:0:0:
64,192,7451,128,0,8624:0:0:0:0:
448,192,8076,128,0,9875:0:0:0:0:
192,192,8389,128,0,8780:0:0:0:0:
64,192,8702,128,0,9327:0:0:0:0:
192,192,8858,128,0,9093:0:0:0:0:
320,192,9015,128,0,10031:0:0:0:0:
192,192,9171,128,0,11438:0:0:0:0:
64,192,9640,128,0,10578:0:0:0:0:
448,192,9953,128,0,10187:0:0:0:0:
320,192,10109,128,0,10344:0:0:0:0:
448,192,10266,128,0,11282:0:0:0:0:
320,192,10422,128,0,11829:0:0:0:0:
64,192,10891,128,0,11126:0:0:0:0:
64,192,11204,128,0,12377:0:0:0:0:
448,192,11360,128,0,11595:0:0:0:0:
192,192,11517,128,0,13080:0:0:0:0:
448,192,11673,128,0,12689:0:0:0:0:
320,192,12142,128,0,12533:0:0:0:0:
64,192,12455,128,0,12846:0:0:0:0:
320,192,12611,128,0,13940:0:0:0:0:
448,192,12768,128,0,13784:0:0:0:0:
64,192,12924,128,0,14097:0:0:0:0:
192,192,13393,128,0,13628:0:0:0:0:
192,192,13706,128,0,14331:0:0:0:0:
448,192,13862,128,0,15035:0:0:0:0:
320,192,14019,128,0,14879:0:0:0:0:
64,192,14175,128,0,15582:0:0:0:0:
192,192,14644,128,0,15191:0:0:0:0:
320,192,14957,128,0,15348:0:0:0:0:
448,192,15113,128,0,16130:0:0:0:0:
192,192,15270,128,0,16442:0:0:0:0:
320,192,15426,128,0,16286:0:0:0:0:
64,192,15895,128,0,17693:0:0:0:0:
448,192,16208,128,0,16599:0:0:0:0:
320,192,16364,128,0,16833:0:0:0:0:
192,192,16521,128,0,17537:0:0:0:0:
448,192,16677,128,0,17381:0:0:0:0:
320,192,17146,128,0,18084:0:0:0:0:
448,192,17459,128,0,17850:0:0:0:0:
192,192,17615,128,0,18944:0:0:0:0:
64,192,17772,128,0,19335:0:0:0:0:
448,192,17928,128,0,18632:0:0:0:0:
320,192,18397,128,0,18788:0:0:0:0:
448,192,18710,128,0,19570:0:0:0:0:
320,192,18866,128,0,19101:0:0:0:0:
192,192,19023,128,0,20273:0:0:0:0:
320,192,19179,128,0,19883:0:0:0:0:
64,192,19648,128,0,23088:0:0:0:0:
448,192,19648,128,0,20586:0:0:0:0:
320,192,19961,128,0,21134:0:0:0:0:
192,192,20586,128,0,21524:0:0:0:0:
448,192,21134,128,0,22775:0:0:0:0:
320,192,21524,128,0,21837:0:0:0:0:
192,192,21837,128,0,22306:0:0:0:0:
320,192,22306,128,0,24026:0:0:0:0:
192,192,22775,128,0,24965:0:0:0:0:
448,192,23088,128,0,24339:0:0:0:0:
64,192,23714,128,0,25277:0:0:0:0:
320,192,24339,128,0,24652:0:0:0:0:
448,192,24652,128,0,25512:0:0:0:0:
320,192,24965,128,0,26137:0:0:0:0:
192,192,25277,128,0,26450:0:0:0:0:
64,192,25590,128,0,25825:0:0:0:0:
448,192,25590,128,0,26763:0:0:0:0:
64,192,25903,128,0,27701:0:0:0:0:
320,192,26216,128,0,27076:0:0:0:0:
192,192,26528,128,0,27388:0:0:0:0:
448,192,26841,128,0,28327:0:0:0:0:
320,192,27154,128,0,28014:0:0:0:0:
192,192,27467,128,0,29265:0:0:0:0:
64,192,27779,128,0,28952:0:0:0:0:
320,192,28092,128,0,28639:0:0:0:0:
448,192,28405,128,0,29890:0:0:0:0:
320,192,28718,128,0,29578:0:0:0:0:
64,192,29030,128,0,30203:0:0:0:0:
192,192,29343,128,0,30829:0:0:0:0:
320,192,29656,128,0,31141:0:0:0:0:
448,192,29969,128,0,30516:0:0:0:0:
64,192,30281,128,0,31454:0:0:0:0:
448,192,30594,128,0,32080:0:0:0:0:
192,192,30907,128,0,31767:0:0:0:0:
320,192,31220,128,0,32392:0:0:0:0:
64,192,31532,128,0,32705:0:0:0:0:
192,192,31845,128,0,33018:0:0:0:0:
448,192,32158,128,0,33643:0:0:0:0:
320,192,32471,128,0,33331:0:0:0:0:
64,192,32783,128,0,33956:0:0:0:0:
192,192,33096,128,0,34582:0:0:0:0:
320,192,33409,128,0,34269:0:0:0:0:
448,192,33721,128,0,35207:0:0:0:0:
64,192,34034,128,0,34894:0:0:0:0:
320,192,34347,128,0,35833:0:0:0:0:
192,192,34660,128,0,35520:0:0:0:0:
64,192,34972,128,0,36458:0:0:0:0:
448,192,35285,128,0,35520:0:0:0:0:
192,192,35598,128,0,36771:0:0:0:0:
448,192,35598,128,0,36145:0:0:0:0:
320,192,35911,128,0,37083:0:0:0:0:
448,192,36223,128,0,38022:0:0:0:0:
64,192,36536,128,0,37709:0:0:0:0:
192,192,36849,128,0,37396:0:0:0:0:
320,192,37162,128,0,38334:0:0:0:0:
192,192,37474,128,0,38647:0:0:0:0:
64,192,37787,128,0,39273:0:0:0:0:
448,192,38100,128,0,39898:0:0:0:0:
320,192,38413,128,0,38960:0:0:0:0:
192,192,38725,128,0,41149:0:0:0:0:
320,192,39038,128,0,39585:0:0:0:0:
64,192,39351,128,0,41462:0:0:0:0:
320,192,39664,128,0,40211:0:0:0:0:
448,192,39976,128,0,40524:0:0:0:0:
320,192,40289,128,0,40836:0:0:0:0:
448,192,40602,128,0,43338:0:0:0:0:
320,192,40915,128,0,41775:0:0:0:0:
192,192,41227,128,0,42087:0:0:0:0:
64,192,41540,128,0,42400:0:0:0:0:
320,192,41853,128,0,43964:0:0:0:0:
192,192,42166,128,0,42713:0:0:0:0:
64,192,42478,128,0,43026:0:0:0:0:
192,192,42791,128,0,43651:0:0:0:0:
64,192,43104,128,0,44277:0:0:0:0:
448,192,43417,128,0,44355:0:0:0:0:
192,192,43729,128,0,44980:0:0:0:0:
320,192,44042,128,0,44668:0:0:0:0:
64,192,44355,128,0,45293:0:0:0:0:
448,192,44668,128,0,46153:0:0:0:0:
320,192,44980,128,0,46388:0:0:0:0:
192,192,45293,128,0,45606:0:0:0:0:
64,192,45606,128,0,47248:0:0:0:0:
192,192,46231,128,0,46622:0:0:0:0:
448,192,46231,128,0,46779:0:0:0:0:
320,192,46466,128,0,47013:0:0:0:0:
192,192,46700,128,0,48108:0:0:0:0:
448,192,46857,128,0,47404:0:0:0:0:
320,192,47091,128,0,47639:0:0:0:0:
64,192,47326,128,0,47873:0:0:0:0:
448,192,47482,128,0,48655:0:0:0:0:
320,192,47717,128,0,48890:0:0:0:0:
64,192,47951,128,0,49124:0:0:0:0:
192,192,48733,128,0,49515:0:0:0:0:
448,192,48733,128,0,50375:0:0:0:0:
320,192,48968,128,0,49281:0:0:0:0:
64,192,49202,128,0,49750:0:0:0:0:
320,192,49359,128,0,50141:0:0:0:0:
192,192,49593,128,0,49906:0:0:0:0:
64,192,49828,128,0,51392:0:0:0:0:
192,192,49984,128,0,50610:0:0:0:0:
320,192,50219,128,0,51157:0:0:0:0:
448,192,50453,128,0,51782:0:0:0:0:
320,192,51235,128,0,51626:0:0:0:0:
192,192,51235,128,0,52252:0:0:0:0:
64,192,51470,128,0,52877:0:0:0:0:
320,192,51704,128,0,52017:0:0:0:0:
448,192,51861,128,0,52408:0:0:0:0:
320,192,52095,128,0,52643:0:0:0:0:
192,192,52330,128,0,53893:0:0:0:0:
448,192,52486,128,0,53112:0:0:0:0:
320,192,52721,128,0,53659:0:0:0:0:
64,192,52955,128,0,54128:0:0:0:0:
448,192,53737,128,0,54284:0:0:0:0:
320,192,53737,128,0,54519:0:0:0:0:
192,192,53972,128,0,56395:0:0:0:0:
64,192,54206,128,0,54754:0:0:0:0:
448,192,54363,128,0,54910:0:0:0:0:
320,192,54597,128,0,55144:0:0:0:0:
64,192,54832,128,0,55379:0:0:0:0:
448,192,54988,128,0,55614:0:0:0:0:
320,192,55223,128,0,56161:0:0:0:0:
64,192,55457,128,0,57256:0:0:0:0:
448,192,56239,128,0,56630:0:0:0:0:
320,192,56239,128,0,56786:0:0:0:0:
192,192,56474,128,0,57021:0:0:0:0:
448,192,56708,128,0,58663:0:0:0:0:
320,192,56865,128,0,57412:0:0:0:0:
192,192,57099,128,0,57646:0:0:0:0:
64,192,57334,128,0,57881:0:0:0:0:
320,192,57490,128,0,58116:0:0:0:0:
192,192,57725,128,0,59132:0:0:0:0:
64,192,57959,128,0,59757:0:0:0:0:
320,192,58741,128,0,58897:0:0:0:0:
448,192,58741,128,0,59288:0:0:0:0:
320,192,58976,128,0,59523:0:0:0:0:
192,192,59210,128,0,60618:0:0:0:0:
448,192,59367,128,0,59914:0:0:0:0:
320,192,59601,128,0,60383:0:0:0:0:
64,192,59836,128,0,60148:0:0:0:0:
448,192,59992,128,0,61165:0:0:0:0:
64,192,60227,128,0,62259:0:0:0:0:
320,192,60461,128,0,61399:0:0:0:0:
448,192,61243,128,0,61790:0:0:0:0:
192,192,61243,128,0,61634:0:0:0:0:
320,192,61478,128,0,62025:0:0:0:0:
192,192,61712,128,0,63901:0:0:0:0:
448,192,61868,128,0,62416:0:0:0:0:
320,192,62103,128,0,62650:0:0:0:0:
64,192,62338,128,0,62885:0:0:0:0:
448,192,62494,128,0,63119:0:0:0:0:
320,192,62729,128,0,63667:0:0:0:0:
64,192,62963,128,0,64136:0:0:0:0:
448,192,63745,128,0,64292:0:0:0:0:
320,192,63745,128,0,64292:0:0:0:0:
192,192,63980,128,0,64918:0:0:0:0:
64,192,64214,128,0,64918:0:0:0:0:
320,192,64370,128,0,65543:0:0:0:0:
448,192,64370,128,0,65856:0:0:0:0:
64,192,64996,128,0,65543:0:0:0:0:
192,192,64996,128,0,66169:0:0:0:0:
64,192,65621,128,0,66638:0:0:0:0:
320,192,65621,128,0,66403:0:0:0:0:
448,192,65934,128,0,66794:0:0:0:0:
192,192,66247,128,0,67654:0:0:0:0:
320,192,66481,128,0,67029:0:0:0:0:
64,192,66716,128,0,67263:0:0:0:0:
448,192,66872,128,0,67420:0:0:0:0:
320,192,67107,128,0,67889:0:0:0:0:
64,192,67342,128,0,68045:0:0:0:0:
448,192,67498,128,0,68358:0:0:0:0:
192,192,67732,128,0,69140:0:0:0:0:
320,192,67967,128,0,69296:0:0:0:0:
64,192,68123,128,0,68671:0:0:0:0:
448,192,68436,128,0,68905:0:0:0:0:
64,192,68749,128,0,69765:0:0:0:0:
448,192,68983,128,0,71173:0:0:0:0:
192,192,69218,128,0,69531:0:0:0:0:
320,192,69374,128,0,69922:0:0:0:0:
192,192,69609,128,0,70156:0:0:0:0:
64,192,69843,128,0,70391:0:0:0:0:
320,192,70000,128,0,70547:0:0:0:0:
192,192,70234,128,0,74144:0:0:0:0:
64,192,70469,128,0,70860:0:0:0:0:
320,192,70625,128,0,71642:0:0:0:0:
64,192,70938,128,0,71407:0:0:0:0:
448,192,71251,128,0,71798:0:0:0:0:
64,192,71485,128,0,72267:0:0:0:0:
320,192,71720,128,0,72033:0:0:0:0:
448,192,71876,128,0,72424:0:0:0:0:
320,192,72111,128,0,72658:0:0:0:0:
64,192,72345,128,0,72893:0:0:0:0:
448,192,72502,128,0,73049:0:0:0:0:
320,192,72736,128,0,73909:0:0:0:0:
64,192,72971,128,0,73362:0:0:0:0:
448,192,73127,128,0,73675:0:0:0:0:
64,192,73440,128,0,75551:0:0:0:0:
448,192,73753,128,0,74300:0:0:0:0:
320,192,73987,128,0,74535:0:0:0:0:
192,192,74222,128,0,74769:0:0:0:0:
448,192,74378,128,0,74926:0:0:0:0:
320,192,74613,128,0,75160:0:0:0:0:
192,192,74847,128,0,75395:0:0:0:0:
448,192,75004,128,0,75864:0:0:0:0:
320,192,75238,128,0,76646:0:0:0:0:
192,192,75473,128,0,78053:0:0:0:0:
64,192,75629,128,0,76177:0:0:0:0:
448,192,75942,128,0,76411:0:0:0:0:
64,192,76255,128,0,77271:0:0:0:0:
448,192,76489,128,0,76802:0:0:0:0:
320,192,76724,128,0,77037:0:0:0:0:
448,192,76880,128,0,77428:0:0:0:0:
320,192,77115,128,0,77662:0:0:0:0:
64,192,77349,128,0,77897:0:0:0:0:
448,192,77506,128,0,78366:0:0:0:0:
320,192,77740,128,0,79148:0:0:0:0:
64,192,77975,128,0,78678:0:0:0:0:
192,192,78131,128,0,81650:0:0:0:0:
448,192,78444,128,0,78913:0:0:0:0:
64,192,78757,128,0,79304:0:0:0:0:
448,192,78991,128,0,79539:0:0:0:0:
320,192,79226,128,0,79773:0:0:0:0:
64,192,79382,128,0,79929:0:0:0:0:
448,192,79617,128,0,80164:0:0:0:0:
320,192,79851,128,0,80399:0:0:0:0:
64,192,80008,128,0,80555:0:0:0:0:
448,192,80242,128,0,81180:0:0:0:0:
320,192,80477,128,0,80868:0:0:0:0:
64,192,80633,128,0,81806:0:0:0:0:
320,192,80946,128,0,81415:0:0:0:0:
448,192,81259,128,0,82040:0:0:0:0:
320,192,81493,128,0,82666:0:0:0:0:
192,192,81728,128,0,82275:0:0:0:0:
64,192,81884,128,0,83370:0:0:0:0:
448,192,82119,128,0,82431:0:0:0:0:
192,192,82353,128,0,82901:0:0:0:0:
448,192,82510,128,0,83057:0:0:0:0:
320,192,82744,128,0,83682:0:0:0:0:
192,192,82979,128,0,85012:0:0:0:0:
448,192,83135,128,0,83917:0:0:0:0:
64,192,83448,128,0,85324:0:0:0:0:
320,192,83761,128,0,84152:0:0:0:0:
448,192,83995,128,0,84386:0:0:0:0:
320,192,84230,128,0,84699:0:0:0:0:
448,192,84699,128,0,85872:0:0:0:0:
320,192,85012,128,0,85559:0:0:0:0:
192,192,85324,128,0,86184:0:0:0:0:
64,192,85637,128,0,86184:0:0:0:0:
320,192,85637,128,0,85872:0:0:0:0:
448,192,85950,128,0,86810:0:0:0:0:
320,192,85950,128,0,86497:0:0:0:0:
64,192,86263,128,0,86810:0:0:0:0:
192,192,86263,128,0,86497:0:0:0:0:
192,192,86575,128,0,87123:0:0:0:0:
320,192,86575,128,0,87123:0:0:0:0:
64,192,86888,128,0,87748:0:0:0:0:
448,192,86888,128,0,87435:0:0:0:0:
192,192,87201,128,0,87435:0:0:0:0:
320,192,87201,128,0,87748:0:0:0:0:
192,192,87514,128,0,88374:0:0:0:0:
448,192,87514,128,0,88061:0:0:0:0:
320,192,87826,128,0,88061:0:0:0:0:
64,192,87826,128,0,88686:0:0:0:0:
320,192,88139,128,0,88374:0:0:0:0:
448,192,88139,128,0,89625:0:0:0:0:
192,192,88452,128,0,88686:0:0:0:0:
320,192,88452,128,0,88999:0:0:0:0:
192,192,88764,128,0,88999:0:0:0:0:
64,192,88764,128,0,89312:0:0:0:0:
320,192,89077,128,0,89312:0:0:0:0:
192,192,89077,128,0,89625:0:0:0:0:
320,192,89390,128,0,90250:0:0:0:0:
64,192,89390,128,0,89937:0:0:0:0:
448,192,89703,128,0,89937:0:0:0:0:
192,192,89703,128,0,90250:0:0:0:0:
448,192,90015,128,0,90563:0:0:0:0:
64,192,90015,128,0,90876:0:0:0:0:
320,192,90328,128,0,90563:0:0:0:0:
192,192,90328,128,0,90876:0:0:0:0:
448,192,90641,128,0,91501:0:0:0:0:
320,192,90641,128,0,91188:0:0:0:0:
64,192,90954,128,0,91501:0:0:0:0:
192,192,90954,128,0,91188:0:0:0:0:
192,192,91266,128,0,92126:0:0:0:0:
320,192,91266,128,0,91814:0:0:0:0:
448,192,91579,128,0,92126:0:0:0:0:
64,192,91579,128,0,91814:0:0:0:0:
64,192,91892,128,0,92439:0:0:0:0:
320,192,91892,128,0,92439:0:0:0:0:
192,192,92205,128,0,93065:0:0:0:0:
448,192,92205,128,0,92752:0:0:0:0:
64,192,92517,128,0,93065:0:0:0:0:
320,192,92517,128,0,92752:0:0:0:0:
448,192,92830,128,0,93690:0:0:0:0:
320,192,92830,128,0,93377:0:0:0:0:
192,192,93143,128,0,93377:0:0:0:0:
64,192,93143,128,0,94003:0:0:0:0:
320,192,93456,128,0,93690:0:0:0:0:
192,192,93456,128,0,94003:0:0:0:0:
320,192,93768,128,0,94316:0:0:0:0:
448,192,93768,128,0,94628:0:0:0:0:
64,192,94081,128,0,94941:0:0:0:0:
192,192,94081,128,0,94316:0:0:0:0:
320,192,94394,128,0,94628:0:0:0:0:
192,192,94394,128,0,94941:0:0:0:0:
320,192,94707,128,0,95567:0:0:0:0:
448,192,94707,128,0,95254:0:0:0:0:
64,192,95019,128,0,95254:0:0:0:0:
192,192,95019,128,0,95567:0:0:0:0:
64,192,95332,128,0,96192:0:0:0:0:
448,192,95332,128,0,95879:0:0:0:0:
320,192,95645,128,0,95879:0:0:0:0:
192,192,95645,128,0,96192:0:0:0:0:
448,192,95958,128,0,96505:0:0:0:0:
320,192,95958,128,0,96505:0:0:0:0:
192,192,96270,128,0,96818:0:0:0:0:
64,192,96270,128,0,97130:0:0:0:0:
320,192,96583,128,0,96818:0:0:0:0:
448,192,96583,128,0,97130:0:0:0:0:
192,192,96896,128,0,97443:0:0:0:0:
320,192,96896,128,0,97443:0:0:0:0:
64,192,97209,128,0,98069:0:0:0:0:
448,192,97209,128,0,97756:0:0:0:0:
192,192,97521,128,0,98069:0:0:0:0:
320,192,97521,128,0,97756:0:0:0:0:
448,192,97834,128,0,98381:0:0:0:0:
320,192,97834,128,0,98381:0:0:0:0:
64,192,98147,128,0,98694:0:0:0:0:
192,192,98147,128,0,98694:0:0:0:0:
320,192,98460,128,0,99007:0:0:0:0:
448,192,98460,128,0,99007:0:0:0:0:
64,192,98772,128,0,99320:0:0:0:0:
192,192,98772,128,0,99320:0:0:0:0:
320,192,99085,128,0,99632:0:0:0:0:
448,192,99085,128,0,99945:0:0:0:0:
64,192,99398,128,0,100258:0:0:0:0:
192,192,99398,128,0,99632:0:0:0:0:
320,192,99711,128,0,99945:0:0:0:0:
192,192,99711,128,0,100571:0:0:0:0:
320,192,100023,128,0,100571:0:0:0:0:
448,192,100023,128,0,100258:0:0:0:0:
448,192,100336,128,0,100883:0:0:0:0:
64,192,100336,128,0,101196:0:0:0:0:
320,192,100649,128,0,101509:0:0:0:0:
192,192,100649,128,0,100883:0:0:0:0:
448,192,100962,128,0,101196:0:0:0:0:
192,192,100962,128,0,102134:0:0:0:0:
64,192,101274,128,0,101509:0:0:0:0:
448,192,101274,128,0,101822:0:0:0:0:
320,192,101587,128,0,102134:0:0:0:0:
64,192,101587,128,0,101822:0:0:0:0:
448,192,101900,128,0,102447:0:0:0:0:
64,192,101900,128,0,102760:0:0:0:0:
320,192,102212,128,0,102447:0:0:0:0:
192,192,102212,128,0,102760:0:0:0:0:
320,192,102525,128,0,103385:0:0:0:0:
448,192,102525,128,0,103073:0:0:0:0:
64,192,102838,128,0,103073:0:0:0:0:
192,192,102838,128,0,103385:0:0:0:0:
448,192,103151,128,0,103698:0:0:0:0:
64,192,103151,128,0,103698:0:0:0:0:
320,192,103463,128,0,104011:0:0:0:0:
192,192,103463,128,0,104011:0:0:0:0:
64,192,103776,128,0,104324:0:0:0:0:
448,192,103776,128,0,104324:0:0:0:0:
192,192,104089,128,0,106122:0:0:0:0:
320,192,104089,128,0,106356:0:0:0:0:
448,192,104402,128,0,105887:0:0:0:0:
64,192,104402,128,0,105574:0:0:0:0:
64,192,105653,128,0,106825:0:0:0:0:
448,192,105965,128,0,106513:0:0:0:0:
192,192,106200,128,0,106669:0:0:0:0:
320,192,106435,128,0,107373:0:0:0:0:
448,192,106591,128,0,107607:0:0:0:0:
192,192,106747,128,0,107138:0:0:0:0:
64,192,106904,128,0,108076:0:0:0:0:
192,192,107216,128,0,107920:0:0:0:0:
320,192,107451,128,0,107764:0:0:0:0:
448,192,107686,128,0,108389:0:0:0:0:
320,192,107842,128,0,108858:0:0:0:0:
192,192,107998,128,0,108624:0:0:0:0:
64,192,108155,128,0,110109:0:0:0:0:
448,192,108467,128,0,109171:0:0:0:0:
192,192,108702,128,0,109015:0:0:0:0:
320,192,108937,128,0,109327:0:0:0:0:
192,192,109093,128,0,109640:0:0:0:0:
448,192,109249,128,0,111517:0:0:0:0:
320,192,109406,128,0,109875:0:0:0:0:
192,192,109718,128,0,110578:0:0:0:0:
320,192,109953,128,0,110266:0:0:0:0:
64,192,110187,128,0,110422:0:0:0:0:
320,192,110344,128,0,111829:0:0:0:0:
64,192,110500,128,0,111673:0:0:0:0:
192,192,110657,128,0,110891:0:0:0:0:
192,192,110969,128,0,111126:0:0:0:0:
192,192,111204,128,0,111360:0:0:0:0:
192,192,111438,128,0,113080:0:0:0:0:
448,192,111595,128,0,112768:0:0:0:0:
64,192,111751,128,0,112924:0:0:0:0:
320,192,111908,128,0,112142:0:0:0:0:
320,192,112220,128,0,112377:0:0:0:0:
320,192,112455,128,0,112611:0:0:0:0:
320,192,112689,128,0,114488:0:0:0:0:
448,192,112846,128,0,114019:0:0:0:0:
64,192,113002,128,0,114175:0:0:0:0:
192,192,113159,128,0,113393:0:0:0:0:
192,192,113471,128,0,113628:0:0:0:0:
192,192,113706,128,0,113862:0:0:0:0:
192,192,113940,128,0,115113:0:0:0:0:
448,192,114097,128,0,114331:0:0:0:0:
64,192,114253,128,0,114957:0:0:0:0:
448,192,114410,128,0,114644:0:0:0:0:
320,192,114566,128,0,116833:0:0:0:0:
448,192,114722,128,0,115582:0:0:0:0:
64,192,115035,128,0,115270:0:0:0:0:
192,192,115191,128,0,116130:0:0:0:0:
64,192,115348,128,0,115582:0:0:0:0:
448,192,115661,128,0,115895:0:0:0:0:
64,192,115661,128,0,116364:0:0:0:0:
448,192,115973,128,0,116521:0:0:0:0:
192,192,116208,128,0,117381:0:0:0:0:
64,192,116442,128,0,116677:0:0:0:0:
448,192,116599,128,0,117146:0:0:0:0:
64,192,116755,128,0,117772:0:0:0:0:
320,192,116911,128,0,117615:0:0:0:0:
448,192,117224,128,0,117928:0:0:0:0:
192,192,117459,128,0,118084:0:0:0:0:
320,192,117693,128,0,119648:0:0:0:0:
64,192,117850,128,0,118397:0:0:0:0:
448,192,118006,128,0,118866:0:0:0:0:
192,192,118162,128,0,118632:0:0:0:0:
64,192,118475,128,0,119023:0:0:0:0:
192,192,118710,128,0,120899:0:0:0:0:
448,192,118944,128,0,119179:0:0:0:0:
64,192,119101,128,0,119335:0:0:0:0:
448,192,119257,128,0,120117:0:0:0:0:
64,192,119413,128,0,119883:0:0:0:0:
320,192,119726,128,0,120586:0:0:0:0:
64,192,119961,128,0,120352:0:0:0:0:
448,192,120195,128,0,121524:0:0:0:0:
320,192,120664,128,0,122932:0:0:0:0:
64,192,120664,128,0,121134:0:0:0:0:
192,192,120977,128,0,121368:0:0:0:0:
64,192,121212,128,0,121681:0:0:0:0:
192,192,121446,128,0,121837:0:0:0:0:
448,192,121603,128,0,122150:0:0:0:0:
64,192,121759,128,0,122775:0:0:0:0:
192,192,121915,128,0,122385:0:0:0:0:
448,192,122228,128,0,122619:0:0:0:0:
192,192,122463,128,0,123401:0:0:0:0:
448,192,122697,128,0,123870:0:0:0:0:
64,192,122854,128,0,123088:0:0:0:0:
320,192,123010,128,0,123635:0:0:0:0:
64,192,123166,128,0,124339:0:0:0:0:
192,192,123479,128,0,124026:0:0:0:0:
320,192,123714,128,0,124183:0:0:0:0:
448,192,123948,128,0,124652:0:0:0:0:
192,192,124105,128,0,124886:0:0:0:0:
320,192,124261,128,0,125121:0:0:0:0:
64,192,124417,128,0,125356:0:0:0:0:
448,192,124730,128,0,126137:0:0:0:0:
192,192,124965,128,0,125590:0:0:0:0:
320,192,125199,128,0,125903:0:0:0:0:
64,192,125668,128,0,125903:0:0:0:0:
192,192,125668,128,0,127154:0:0:0:0:
64,192,125981,128,0,126528:0:0:0:0:
320,192,125981,128,0,126372:0:0:0:0:
448,192,126216,128,0,126841:0:0:0:0:
320,192,126450,128,0,126685:0:0:0:0:
64,192,126607,128,0,127388:0:0:0:0:
320,192,126763,128,0,127623:0:0:0:0:
448,192,126919,128,0,127779:0:0:0:0:
192,192,127232,128,0,128639:0:0:0:0:
64,192,127467,128,0,127936:0:0:0:0:
320,192,127701,128,0,128092:0:0:0:0:
448,192,127858,128,0,128874:0:0:0:0:
64,192,128014,128,0,128405:0:0:0:0:
320,192,128170,128,0,129890:0:0:0:0:
64,192,128483,128,0,129030:0:0:0:0:
192,192,128718,128,0,129343:0:0:0:0:
448,192,128952,128,0,129187:0:0:0:0:
64,192,129109,128,0,129656:0:0:0:0:
448,192,129265,128,0,130125:0:0:0:0:
192,192,129421,128,0,130594:0:0:0:0:
64,192,129734,128,0,130359:0:0:0:0:
320,192,129969,128,0,130907:0:0:0:0:
448,192,130203,128,0,131532:0:0:0:0:
192,192,130672,128,0,131141:0:0:0:0:
64,192,130672,128,0,131689:0:0:0:0:
320,192,130985,128,0,131376:0:0:0:0:
192,192,131220,128,0,132392:0:0:0:0:
320,192,131454,128,0,131845:0:0:0:0:
448,192,131610,128,0,132783:0:0:0:0:
64,192,131767,128,0,132158:0:0:0:0:
320,192,131923,128,0,132627:0:0:0:0:
64,192,132236,128,0,132940:0:0:0:0:
192,192,132471,128,0,133409:0:0:0:0:
320,192,132705,128,0,133878:0:0:0:0:
448,192,132861,128,0,133096:0:0:0:0:
64,192,133018,128,0,133643:0:0:0:0:
448,192,133174,128,0,134972:0:0:0:0:
192,192,133487,128,0,134738:0:0:0:0:
64,192,133721,128,0,134034:0:0:0:0:
320,192,133956,128,0,134191:0:0:0:0:
64,192,134112,128,0,134425:0:0:0:0:
320,192,134269,128,0,135129:0:0:0:0:
64,192,134738,128,0,135598:0:0:0:0:
448,192,135051,128,0,135911:0:0:0:0:
192,192,135051,128,0,135285:0:0:0:0:
320,192,135207,128,0,135442:0:0:0:0:
192,192,135363,128,0,136223:0:0:0:0:
320,192,135520,128,0,137162:0:0:0:0:
64,192,135676,128,0,137474:0:0:0:0:
448,192,135989,128,0,136536:0:0:0:0:
192,192,136302,128,0,136849:0:0:0:0:
448,192,136614,128,0,137787:0:0:0:0:
192,192,136927,128,0,138413:0:0:0:0:
320,192,137240,128,0,138100:0:0:0:0:
64,192,137553,128,0,139038:0:0:0:0:
448,192,137865,128,0,138725:0:0:0:0:
320,192,138178,128,0,140289:0:0:0:0:
192,192,138491,128,0,139351:0:0:0:0:
448,192,138804,128,0,139976:0:0:0:0:
64,192,139116,128,0,139664:0:0:0:0:
192,192,139429,128,0,141227:0:0:0:0:
64,192,139742,128,0,140602:0:0:0:0:
448,192,140055,128,0,141540:0:0:0:0:
320,192,140367,128,0,140915:0:0:0:0:
64,192,140680,128,0,142166:0:0:0:0:
320,192,140993,128,0,141853:0:0:0:0:
192,192,141306,128,0,142791:0:0:0:0:
448,192,141618,128,0,142478:0:0:0:0:
320,192,141931,128,0,143104:0:0:0:0:
64,192,142244,128,0,144355:0:0:0:0:
448,192,142557,128,0,143417:0:0:0:0:
192,192,142869,128,0,143729:0:0:0:0:
320,192,143182,128,0,144042:0:0:0:0:
448,192,143495,128,0,144668:0:0:0:0:
192,192,143807,128,0,145293:0:0:0:0:
320,192,144120,128,0,144980:0:0:0:0:
64,192,144433,128,0,145606:0:0:0:0:
448,192,144746,128,0,145919:0:0:0:0:
320,192,145058,128,0,145919:0:0:0:0:
192,192,145371,128,0,146231:0:0:0:0:
64,192,145684,128,0,146544:0:0:0:0:
448,192,145997,128,0,147169:0:0:0:0:
320,192,145997,128,0,146544:0:0:0:0:
192,192,146309,128,0,146857:0:0:0:0:
320,192,146622,128,0,147482:0:0:0:0:
64,192,146622,128,0,147169:0:0:0:0:
192,192,146935,128,0,147795:0:0:0:0:
448,192,147248,128,0,147795:0:0:0:0:
64,192,147248,128,0,148108:0:0:0:0:
320,192,147560,128,0,148733:0:0:0:0:
448,192,147873,128,0,148420:0:0:0:0:
192,192,147873,128,0,148420:0:0:0:0:
64,192,148186,128,0,149046:0:0:0:0:
448,192,148499,128,0,149046:0:0:0:0:
192,192,148499,128,0,149671:0:0:0:0:
320,192,148811,128,0,149359:0:0:0:0:
448,192,149124,128,0,149984:0:0:0:0:
64,192,149124,128,0,149671:0:0:0:0:
320,192,149437,128,0,149984:0:0:0:0:
192,192,149750,128,0,151235:0:0:0:0:
64,192,149750,128,0,150297:0:0:0:0:
448,192,150062,128,0,150610:0:0:0:0:
320,192,150062,128,0,150922:0:0:0:0:
64,192,150375,128,0,151861:0:0:0:0:
448,192,150688,128,0,151548:0:0:0:0:
320,192,151001,128,0,152486:0:0:0:0:
192,192,151313,128,0,152173:0:0:0:0:
448,192,151626,128,0,152799:0:0:0:0:
64,192,151939,128,0,154050:0:0:0:0:
192,192,152252,128,0,153112:0:0:0:0:
320,192,152564,128,0,153424:0:0:0:0:
448,192,152877,128,0,153737:0:0:0:0:
192,192,153190,128,0,155066:0:0:0:0:
320,192,153503,128,0,154754:0:0:0:0:
448,192,153815,128,0,154441:0:0:0:0:
64,192,154128,128,0,155692:0:0:0:0:
448,192,154754,128,0,156943:0:0:0:0:
320,192,155066,128,0,155379:0:0:0:0:
192,192,155379,128,0,156161:0:0:0:0:
320,192,155692,128,0,156630:0:0:0:0:
64,192,156005,128,0,159132:0:0:0:0:
192,192,156474,128,0,157412:0:0:0:0:
320,192,156943,128,0,158194:0:0:0:0:
448,192,157256,128,0,157881:0:0:0:0:
192,192,157725,128,0,159445:0:0:0:0:
448,192,158194,128,0,161947:0:0:0:0:
320,192,158506,128,0,158663:0:0:0:0:
320,192,158976,128,0,161634:0:0:0:0:
64,192,159445,128,0,160383:0:0:0:0:
192,192,159992,128,0,160696:0:0:0:0:
64,192,160696,128,0,162416:0:0:0:0:
192,192,161008,128,0,161165:0:0:0:0:
192,192,161478,128,0,164136:0:0:0:0:
320,192,161947,128,0,163198:0:0:0:0:
448,192,162259,128,0,162885:0:0:0:0:
64,192,162729,128,0,165387:0:0:0:0:
448,192,163198,128,0,163667:0:0:0:0:
320,192,163667,128,0,164761:0:0:0:0:
448,192,164136,128,0,164449:0:0:0:0:
192,192,164449,128,0,164918:0:0:0:0:
448,192,164761,128,0,166951:0:0:0:0:
320,192,164918,128,0,166638:0:0:0:0:
192,192,165230,128,0,165700:0:0:0:0:
64,192,165700,128,0,167420:0:0:0:0:
192,192,166012,128,0,166169:0:0:0:0:
192,192,166481,128,0,169140:0:0:0:0:
320,192,166951,128,0,167889:0:0:0:0:
448,192,167263,128,0,168202:0:0:0:0:
64,192,167889,128,0,169453:0:0:0:0:
320,192,168202,128,0,168671:0:0:0:0:
448,192,168514,128,0,169687:0:0:0:0:
320,192,168983,128,0,170391:0:0:0:0:
192,192,169453,128,0,170078:0:0:0:0:
64,192,169609,128,0,171642:0:0:0:0:
448,192,169765,128,0,170704:0:0:0:0:
192,192,170391,128,0,173753:0:0:0:0:
320,192,170704,128,0,171173:0:0:0:0:
448,192,171016,128,0,171954:0:0:0:0:
320,192,171485,128,0,172893:0:0:0:0:
64,192,171954,128,0,172424:0:0:0:0:
448,192,172267,128,0,174456:0:0:0:0:
64,192,172736,128,0,173205:0:0:0:0:
320,192,173205,128,0,174769:0:0:0:0:
64,192,173831,128,0,175395:0:0:0:0:
192,192,173831,128,0,174144:0:0:0:0:
192,192,174456,128,0,174926:0:0:0:0:
448,192,174769,128,0,176255:0:0:0:0:
320,192,174926,128,0,176489:0:0:0:0:
192,192,175395,128,0,175707:0:0:0:0:
64,192,175707,128,0,176724:0:0:0:0:
448,192,176333,128,0,177975:0:0:0:0:
192,192,176333,128,0,177115:0:0:0:0:
320,192,176567,128,0,176880:0:0:0:0:
64,192,176802,128,0,177349:0:0:0:0:
320,192,176958,128,0,177740:0:0:0:0:
192,192,177193,128,0,177506:0:0:0:0:
64,192,177428,128,0,179851:0:0:0:0:
192,192,177584,128,0,178209:0:0:0:0:
320,192,177818,128,0,178991:0:0:0:0:
448,192,178053,128,0,178757:0:0:0:0:
448,192,178835,128,0,179382:0:0:0:0:
192,192,178835,128,0,179226:0:0:0:0:
320,192,179069,128,0,179617:0:0:0:0:
192,192,179304,128,0,180711:0:0:0:0:
448,192,179460,128,0,180008:0:0:0:0:
320,192,179695,128,0,180242:0:0:0:0:
64,192,179929,128,0,180477:0:0:0:0:
448,192,180086,128,0,181493:0:0:0:0:
320,192,180320,128,0,182119:0:0:0:0:
64,192,180555,128,0,181259:0:0:0:0:
192,192,181337,128,0,181884:0:0:0:0:
64,192,181337,128,0,181728:0:0:0:0:
448,192,181571,128,0,182353:0:0:0:0:
64,192,181806,128,0,184230:0:0:0:0:
192,192,181962,128,0,182510:0:0:0:0:
320,192,182197,128,0,182744:0:0:0:0:
448,192,182431,128,0,182979:0:0:0:0:
192,192,182588,128,0,183761:0:0:0:0:
320,192,182822,128,0,183213:0:0:0:0:
448,192,183057,128,0,184621:0:0:0:0:
192,192,183839,128,0,184386:0:0:0:0:
320,192,183839,128,0,183995:0:0:0:0:
320,192,184073,128,0,185481:0:0:0:0:
64,192,184308,128,0,184855:0:0:0:0:
192,192,184464,128,0,187123:0:0:0:0:
448,192,184699,128,0,185012:0:0:0:0:
64,192,184933,128,0,185246:0:0:0:0:
448,192,185090,128,0,186263:0:0:0:0:
64,192,185324,128,0,186888:0:0:0:0:
320,192,185559,128,0,185715:0:0:0:0:
448,192,186341,128,0,186732:0:0:0:0:
320,192,186341,128,0,186497:0:0:0:0:
320,192,186575,128,0,187514:0:0:0:0:
448,192,186810,128,0,188764:0:0:0:0:
64,192,186966,128,0,187357:0:0:0:0:
192,192,187201,128,0,187748:0:0:0:0:
64,192,187435,128,0,189234:0:0:0:0:
320,192,187592,128,0,187983:0:0:0:0:
192,192,187826,128,0,188217:0:0:0:0:
320,192,188061,128,0,188999:0:0:0:0:
448,192,188843,128,0,189625:0:0:0:0:
192,192,188843,128,0,190719:0:0:0:0:
320,192,189077,128,0,189390:0:0:0:0:
64,192,189312,128,0,189859:0:0:0:0:
320,192,189468,128,0,190250:0:0:0:0:
448,192,189703,128,0,190015:0:0:0:0:
64,192,189937,128,0,190485:0:0:0:0:
448,192,190094,128,0,191892:0:0:0:0:
320,192,190328,128,0,191266:0:0:0:0:
64,192,190563,128,0,191501:0:0:0:0:
192,192,191345,128,0,192126:0:0:0:0:
320,192,191345,128,0,191736:0:0:0:0:
64,192,191579,128,0,192361:0:0:0:0:
320,192,191814,128,0,193768:0:0:0:0:
448,192,191970,128,0,192517:0:0:0:0:
192,192,192205,128,0,192752:0:0:0:0:
64,192,192439,128,0,192987:0:0:0:0:
448,192,192596,128,0,193221:0:0:0:0:
192,192,192830,128,0,194238:0:0:0:0:
64,192,193065,128,0,194003:0:0:0:0:
448,192,193847,128,0,194394:0:0:0:0:
320,192,193847,128,0,194394:0:0:0:0:
64,192,194081,128,0,195019:0:0:0:0:
192,192,194316,128,0,195019:0:0:0:0:
320,192,194472,128,0,196739:0:0:0:0:
448,192,194472,128,0,195645:0:0:0:0:
192,192,195098,128,0,199241:0:0:0:0:
64,192,195098,128,0,195645:0:0:0:0:
448,192,195723,128,0,196270:0:0:0:0:
64,192,195723,128,0,195958:0:0:0:0:
64,192,196036,128,0,196505:0:0:0:0:
448,192,196349,128,0,196896:0:0:0:0:
64,192,196583,128,0,197365:0:0:0:0:
320,192,196818,128,0,197130:0:0:0:0:
448,192,196974,128,0,197521:0:0:0:0:
320,192,197209,128,0,197756:0:0:0:0:
64,192,197443,128,0,197990:0:0:0:0:
448,192,197600,128,0,198772:0:0:0:0:
320,192,197834,128,0,198147:0:0:0:0:
64,192,198069,128,0,198460:0:0:0:0:
320,192,198225,128,0,199398:0:0:0:0:
64,192,198538,128,0,199007:0:0:0:0:
448,192,198850,128,0,199632:0:0:0:0:
64,192,199085,128,0,199867:0:0:0:0:
192,192,199320,128,0,200649:0:0:0:0:
320,192,199476,128,0,200023:0:0:0:0:
448,192,199711,128,0,200258:0:0:0:0:
64,192,199945,128,0,200492:0:0:0:0:
320,192,200101,128,0,200962:0:0:0:0:
448,192,200336,128,0,201274:0:0:0:0:
64,192,200571,128,0,201509:0:0:0:0:
192,192,200727,128,0,202134:0:0:0:0:
320,192,201040,128,0,201743:0:0:0:0:
448,192,201352,128,0,203151:0:0:0:0:
64,192,201587,128,0,201900:0:0:0:0:
320,192,201822,128,0,202369:0:0:0:0:
64,192,201978,128,0,202525:0:0:0:0:
192,192,202212,128,0,202760:0:0:0:0:
320,192,202447,128,0,202994:0:0:0:0:
64,192,202603,128,0,203463:0:0:0:0:
192,192,202838,128,0,204011:0:0:0:0:
320,192,203073,128,0,203776:0:0:0:0:
448,192,203229,128,0,204402:0:0:0:0:
64,192,203542,128,0,204245:0:0:0:0:
320,192,203854,128,0,204636:0:0:0:0:
192,192,204089,128,0,206278:0:0:0:0:
64,192,204324,128,0,204871:0:0:0:0:
448,192,204480,128,0,205027:0:0:0:0:
320,192,204714,128,0,205262:0:0:0:0:
64,192,204949,128,0,205496:0:0:0:0:
448,192,205105,128,0,205653:0:0:0:0:
320,192,205340,128,0,207138:0:0:0:0:
64,192,205574,128,0,205965:0:0:0:0:
448,192,205731,128,0,206747:0:0:0:0:
64,192,206044,128,0,206513:0:0:0:0:
192,192,206356,128,0,206904:0:0:0:0:
64,192,206591,128,0,207373:0:0:0:0:
448,192,206825,128,0,208155:0:0:0:0:
192,192,206982,128,0,207529:0:0:0:0:
320,192,207216,128,0,207764:0:0:0:0:
64,192,207451,128,0,207998:0:0:0:0:
192,192,207607,128,0,208467:0:0:0:0:
320,192,207842,128,0,208780:0:0:0:0:
64,192,208076,128,0,209015:0:0:0:0:
448,192,208233,128,0,209406:0:0:0:0:
192,192,208546,128,0,209875:0:0:0:0:
320,192,208858,128,0,209249:0:0:0:0:
64,192,209093,128,0,210969:0:0:0:0:
320,192,209327,128,0,209640:0:0:0:0:
448,192,209484,128,0,210031:0:0:0:0:
320,192,209718,128,0,210266:0:0:0:0:
192,192,209953,128,0,210500:0:0:0:0:
448,192,210109,128,0,210657:0:0:0:0:
320,192,210344,128,0,211282:0:0:0:0:
192,192,210578,128,0,211517:0:0:0:0:
448,192,210735,128,0,211908:0:0:0:0:
64,192,211048,128,0,212142:0:0:0:0:
320,192,211360,128,0,211751:0:0:0:0:
192,192,211595,128,0,212377:0:0:0:0:
320,192,211829,128,0,214722:0:0:0:0:
448,192,211986,128,0,212533:0:0:0:0:
64,192,212220,128,0,213002:0:0:0:0:
192,192,212455,128,0,212768:0:0:0:0:
448,192,212611,128,0,213159:0:0:0:0:
192,192,212846,128,0,214253:0:0:0:0:
64,192,213080,128,0,213471:0:0:0:0:
448,192,213237,128,0,213784:0:0:0:0:
64,192,213549,128,0,214019:0:0:0:0:
448,192,213862,128,0,214410:0:0:0:0:
64,192,214097,128,0,215348:0:0:0:0:
192,192,214331,128,0,215035:0:0:0:0:
448,192,214488,128,0,215661:0:0:0:0:
320,192,214800,128,0,215661:0:0:0:0:
192,192,215113,128,0,215973:0:0:0:0:
64,192,215426,128,0,215973:0:0:0:0:
448,192,215739,128,0,216286:0:0:0:0:
320,192,215739,128,0,216599:0:0:0:0:
192,192,216051,128,0,216286:0:0:0:0:
64,192,216051,128,0,216599:0:0:0:0:
192,192,216364,128,0,217224:0:0:0:0:
448,192,216364,128,0,216911:0:0:0:0:
320,192,216677,128,0,217224:0:0:0:0:
64,192,216677,128,0,216911:0:0:0:0:
64,192,216990,128,0,217850:0:0:0:0:
448,192,216990,128,0,217537:0:0:0:0:
192,192,217302,128,0,217850:0:0:0:0:
320,192,217302,128,0,217537:0:0:0:0:
448,192,217615,128,0,218475:0:0:0:0:
320,192,217615,128,0,218162:0:0:0:0:
192,192,217928,128,0,218162:0:0:0:0:
64,192,217928,128,0,218475:0:0:0:0:
192,192,218241,128,0,218788:0:0:0:0:
320,192,218241,128,0,218788:0:0:0:0:
64,192,218553,128,0,219413:0:0:0:0:
448,192,218553,128,0,219101:0:0:0:0:
320,192,218866,128,0,219101:0:0:0:0:
192,192,218866,128,0,219413:0:0:0:0:
320,192,219179,128,0,219726:0:0:0:0:
448,192,219179,128,0,220039:0:0:0:0:
64,192,219492,128,0,220039:0:0:0:0:
192,192,219492,128,0,219726:0:0:0:0:
320,192,219804,128,0,220352:0:0:0:0:
192,192,219804,128,0,220664:0:0:0:0:
64,192,220117,128,0,220352:0:0:0:0:
448,192,220117,128,0,220664:0:0:0:0:
320,192,220430,128,0,220977:0:0:0:0:
64,192,220430,128,0,221290:0:0:0:0:
192,192,220743,128,0,220977:0:0:0:0:
448,192,220743,128,0,221603:0:0:0:0:
320,192,221055,128,0,221915:0:0:0:0:
192,192,221055,128,0,221290:0:0:0:0:
192,192,221368,128,0,221915:0:0:0:0:
64,192,221368,128,0,221603:0:0:0:0:
64,192,221681,128,0,222541:0:0:0:0:
448,192,221681,128,0,222228:0:0:0:0:
320,192,221994,128,0,222228:0:0:0:0:
192,192,221994,128,0,222541:0:0:0:0:
320,192,222306,128,0,222854:0:0:0:0:
448,192,222306,128,0,223166:0:0:0:0:
192,192,222619,128,0,222854:0:0:0:0:
64,192,222619,128,0,223166:0:0:0:0:
320,192,222932,128,0,223479:0:0:0:0:
192,192,222932,128,0,223479:0:0:0:0:
64,192,223245,128,0,224105:0:0:0:0:
448,192,223245,128,0,223792:0:0:0:0:
320,192,223557,128,0,223792:0:0:0:0:
192,192,223557,128,0,224105:0:0:0:0:
320,192,223870,128,0,224417:0:0:0:0:
448,192,223870,128,0,224730:0:0:0:0:
64,192,224183,128,0,225043:0:0:0:0:
192,192,224183,128,0,224417:0:0:0:0:
320,192,224496,128,0,224730:0:0:0:0:
192,192,224496,128,0,225043:0:0:0:0:
320,192,224808,128,0,225356:0:0:0:0:
448,192,224808,128,0,225668:0:0:0:0:
64,192,225121,128,0,225981:0:0:0:0:
192,192,225121,128,0,225356:0:0:0:0:
320,192,225434,128,0,225668:0:0:0:0:
192,192,225434,128,0,225981:0:0:0:0:
320,192,225747,128,0,226607:0:0:0:0:
448,192,225747,128,0,226294:0:0:0:0:
64,192,226059,128,0,226607:0:0:0:0:
192,192,226059,128,0,226294:0:0:0:0:
448,192,226372,128,0,226919:0:0:0:0:
192,192,226372,128,0,227232:0:0:0:0:
64,192,226685,128,0,226919:0:0:0:0:
320,192,226685,128,0,227232:0:0:0:0:
448,192,226997,128,0,227545:0:0:0:0:
64,192,226997,128,0,227858:0:0:0:0:
320,192,227310,128,0,227545:0:0:0:0:
192,192,227310,128,0,227858:0:0:0:0:
448,192,227623,128,0,228483:0:0:0:0:
320,192,227623,128,0,228170:0:0:0:0:
192,192,227936,128,0,228170:0:0:0:0:
64,192,227936,128,0,228796:0:0:0:0:
192,192,228248,128,0,228796:0:0:0:0:
320,192,228248,128,0,228483:0:0:0:0:
448,192,228561,128,0,229109:0:0:0:0:
320,192,228561,128,0,229109:0:0:0:0:
192,192,228874,128,0,229734:0:0:0:0:
64,192,228874,128,0,229421:0:0:0:0:
320,192,229187,128,0,229734:0:0:0:0:
448,192,229187,128,0,229421:0:0:0:0:
448,192,229499,128,0,230047:0:0:0:0:
64,192,229499,128,0,230359:0:0:0:0:
320,192,229812,128,0,230047:0:0:0:0:
192,192,229812,128,0,230359:0:0:0:0:
448,192,230125,128,0,230672:0:0:0:0:
320,192,230125,128,0,230985:0:0:0:0:
192,192,230438,128,0,230672:0:0:0:0:
64,192,230438,128,0,230985:0:0:0:0:
192,192,230750,128,0,231298:0:0:0:0:
448,192,230750,128,0,231610:0:0:0:0:
320,192,231063,128,0,231610:0:0:0:0:
64,192,231063,128,0,231298:0:0:0:0:
192,192,231376,128,0,231923:0:0:0:0:
64,192,231376,128,0,232549:0:0:0:0:
448,192,231689,128,0,232236:0:0:0:0:
320,192,231689,128,0,231923:0:0:0:0:
192,192,232001,128,0,232549:0:0:0:0:
320,192,232001,128,0,232236:0:0:0:0:
448,192,232314,128,0,233174:0:0:0:0:
320,192,232314,128,0,232861:0:0:0:0:
192,192,232627,128,0,232861:0:0:0:0:
64,192,232627,128,0,233174:0:0:0:0:
192,192,232940,128,0,234112:0:0:0:0:
320,192,232940,128,0,234112:0:0:0:0:
448,192,233252,128,0,233487:0:0:0:0:
64,192,233252,128,0,233487:0:0:0:0:
448,192,233565,128,0,233800:0:0:0:0:
64,192,233565,128,0,233800:0:0:0:0:
448,192,233878,128,0,234112:0:0:0:0:
64,192,233878,128,0,234112:0:0:0:0:
320,192,234191,128,0,234503:0:0:0:0:
192,192,234191,128,0,234503:0:0:0:0:
