osu file format v14

[General]
AudioFilename: Morimori Atsushi - PUPA.mp3
AudioLeadIn: 0
PreviewTime: 78395
Countdown: 0
SampleSet: Soft
StackLeniency: 0.7
Mode: 3
LetterboxInBreaks: 0
SpecialStyle: 0
WidescreenStoryboard: 0

[Editor]
DistanceSpacing: 1.7
BeatDivisor: 4
GridSize: 32
TimelineZoom: 2.2

[Metadata]
Title:[Full LN] training
TitleUnicode:[Full LN] training
Artist:Various Artist
ArtistUnicode:Various Artist
Creator:Allezard
Version:Morimori Atsushi - PUPA Lv. 3
Source:BMS
Tags:Full LN Training Various Artist Collection 4k NOODLE BMS Deemo Cytus SOUND VOLTEX II -infinite infection- beatmania IIDX
BeatmapID:819065
BeatmapSetID:368373

[Difficulty]
HPDrainRate:6
CircleSize:4
OverallDifficulty:1
ApproachRate:5
SliderMultiplier:1.4
SliderTickRate:1

[Events]
//Background and Video events
0,0,"Morimori Atsushi - PUPA.jpg",0,0
//Break Periods
//Storyboard Layer 0 (Background)
//Storyboard Layer 1 (Fail)
//Storyboard Layer 2 (Pass)
//Storyboard Layer 3 (Foreground)
//Storyboard Sound Samples

[TimingPoints]
2504,297.029702970297,4,2,1,50,1,0
78543,-100,4,2,1,50,0,1
86860,-100,4,2,1,50,0,0
88048,-100,4,2,1,50,0,1
97553,-100,4,2,1,50,0,0
107058,-100,4,2,1,50,0,1
116563,-100,4,2,1,50,0,0

[HitObjects]
256,192,2206,128,0,2875:0:0:0:0:
182,192,2504,128,0,2875:0:0:0:0:
64,192,2504,128,0,4583:0:0:0:0:
329,192,2949,128,0,3320:0:0:0:0:
182,192,2949,128,0,5251:0:0:0:0:
256,192,3395,128,0,4805:0:0:0:0:
402,192,3395,128,0,4805:0:0:0:0:
329,192,4880,128,0,5251:0:0:0:0:
109,192,4880,128,0,5697:0:0:0:0:
475,192,4880,128,0,7627:0:0:0:0:
320,192,5325,128,0,6959:0:0:0:0:
192,192,5325,128,0,5697:0:0:0:0:
182,192,5771,128,0,7182:0:0:0:0:
109,192,5771,128,0,7182:0:0:0:0:
320,192,7256,128,0,7627:0:0:0:0:
192,192,7256,128,0,8073:0:0:0:0:
36,192,7256,128,0,8073:0:0:0:0:
329,192,7702,128,0,9558:0:0:0:0:
448,192,7702,128,0,9335:0:0:0:0:
182,192,8147,128,0,9558:0:0:0:0:
109,192,8147,128,0,10004:0:0:0:0:
320,192,9632,128,0,10449:0:0:0:0:
192,192,9632,128,0,10523:0:0:0:0:
402,192,9632,128,0,10004:0:0:0:0:
64,192,10078,128,0,11934:0:0:0:0:
448,192,10078,128,0,11934:0:0:0:0:
320,192,10523,128,0,11711:0:0:0:0:
192,192,11711,128,0,12380:0:0:0:0:
402,192,12008,128,0,13568:0:0:0:0:
109,192,12008,128,0,13122:0:0:0:0:
329,192,12008,128,0,12380:0:0:0:0:
320,192,12454,128,0,13568:0:0:0:0:
192,192,12454,128,0,13122:0:0:0:0:
64,192,13197,128,0,14310:0:0:0:0:
192,192,13197,128,0,14756:0:0:0:0:
448,192,13642,128,0,14756:0:0:0:0:
320,192,13642,128,0,14310:0:0:0:0:
109,192,14385,128,0,15499:0:0:0:0:
320,192,14385,128,0,15647:0:0:0:0:
448,192,14830,128,0,15647:0:0:0:0:
192,192,14830,128,0,15499:0:0:0:0:
109,192,15573,128,0,16687:0:0:0:0:
192,192,15573,128,0,16687:0:0:0:0:
320,192,15721,128,0,15944:0:0:0:0:
402,192,15721,128,0,15944:0:0:0:0:
402,192,16018,128,0,17132:0:0:0:0:
320,192,16018,128,0,17132:0:0:0:0:
192,192,16761,128,0,18320:0:0:0:0:
64,192,16761,128,0,18320:0:0:0:0:
320,192,17206,128,0,17875:0:0:0:0:
448,192,17206,128,0,17875:0:0:0:0:
320,192,17949,128,0,19063:0:0:0:0:
448,192,17949,128,0,20177:0:0:0:0:
64,192,18395,128,0,19954:0:0:0:0:
192,192,18395,128,0,19137:0:0:0:0:
320,192,19137,128,0,20103:0:0:0:0:
109,192,20028,128,0,21736:0:0:0:0:
182,192,20028,128,0,20919:0:0:0:0:
256,192,20177,128,0,21439:0:0:0:0:
448,192,20919,128,0,21439:0:0:0:0:
329,192,21513,128,0,22033:0:0:0:0:
182,192,21513,128,0,22330:0:0:0:0:
448,192,21513,128,0,21736:0:0:0:0:
64,192,21810,128,0,22330:0:0:0:0:
402,192,21810,128,0,22627:0:0:0:0:
256,192,22107,128,0,22924:0:0:0:0:
64,192,22404,128,0,23221:0:0:0:0:
192,192,22404,128,0,22924:0:0:0:0:
448,192,22702,128,0,23518:0:0:0:0:
329,192,22999,128,0,23815:0:0:0:0:
182,192,22999,128,0,23518:0:0:0:0:
109,192,23296,128,0,24112:0:0:0:0:
192,192,23593,128,0,24112:0:0:0:0:
402,192,23593,128,0,24409:0:0:0:0:
320,192,23890,128,0,24706:0:0:0:0:
36,192,24187,128,0,25004:0:0:0:0:
182,192,24187,128,0,24706:0:0:0:0:
402,192,24484,128,0,25301:0:0:0:0:
192,192,24781,128,0,25301:0:0:0:0:
256,192,24781,128,0,25598:0:0:0:0:
109,192,25078,128,0,25895:0:0:0:0:
475,192,25375,128,0,26192:0:0:0:0:
192,192,25375,128,0,25895:0:0:0:0:
329,192,25672,128,0,26489:0:0:0:0:
64,192,25969,128,0,26489:0:0:0:0:
192,192,25969,128,0,26786:0:0:0:0:
448,192,26266,128,0,27083:0:0:0:0:
64,192,26563,128,0,27380:0:0:0:0:
256,192,26563,128,0,27083:0:0:0:0:
192,192,26860,128,0,27677:0:0:0:0:
256,192,27157,128,0,27974:0:0:0:0:
402,192,27157,128,0,27677:0:0:0:0:
64,192,27454,128,0,28271:0:0:0:0:
448,192,27751,128,0,28271:0:0:0:0:
182,192,27751,128,0,28568:0:0:0:0:
320,192,28048,128,0,28865:0:0:0:0:
448,192,28345,128,0,28865:0:0:0:0:
109,192,28345,128,0,29162:0:0:0:0:
192,192,28642,128,0,29756:0:0:0:0:
448,192,28939,128,0,29459:0:0:0:0:
256,192,28939,128,0,29459:0:0:0:0:
64,192,29236,128,0,30053:0:0:0:0:
402,192,29533,128,0,30350:0:0:0:0:
320,192,29533,128,0,30053:0:0:0:0:
192,192,29830,128,0,30647:0:0:0:0:
64,192,30127,128,0,30796:0:0:0:0:
320,192,30127,128,0,30944:0:0:0:0:
475,192,30424,128,0,30944:0:0:0:0:
182,192,30721,128,0,31538:0:0:0:0:
64,192,30870,128,0,31241:0:0:0:0:
320,192,31018,128,0,31835:0:0:0:0:
448,192,31018,128,0,31241:0:0:0:0:
64,192,31315,128,0,32429:0:0:0:0:
402,192,31315,128,0,31835:0:0:0:0:
192,192,31612,128,0,32132:0:0:0:0:
329,192,31909,128,0,32429:0:0:0:0:
448,192,31909,128,0,33023:0:0:0:0:
192,192,32206,128,0,32726:0:0:0:0:
320,192,32504,128,0,33023:0:0:0:0:
109,192,32504,128,0,33320:0:0:0:0:
192,192,32801,128,0,33617:0:0:0:0:
320,192,33098,128,0,33914:0:0:0:0:
448,192,33098,128,0,33617:0:0:0:0:
64,192,33395,128,0,34211:0:0:0:0:
192,192,33692,128,0,34211:0:0:0:0:
448,192,33692,128,0,34805:0:0:0:0:
256,192,33989,128,0,34508:0:0:0:0:
192,192,34286,128,0,35103:0:0:0:0:
109,192,34286,128,0,34805:0:0:0:0:
320,192,34583,128,0,35400:0:0:0:0:
64,192,34880,128,0,35771:0:0:0:0:
448,192,34880,128,0,35400:0:0:0:0:
182,192,35177,128,0,35994:0:0:0:0:
329,192,35474,128,0,35697:0:0:0:0:
402,192,35474,128,0,36291:0:0:0:0:
256,192,35771,128,0,36588:0:0:0:0:
192,192,36068,128,0,36885:0:0:0:0:
448,192,36365,128,0,37182:0:0:0:0:
329,192,36662,128,0,37479:0:0:0:0:
182,192,36959,128,0,37776:0:0:0:0:
402,192,37256,128,0,38073:0:0:0:0:
320,192,37553,128,0,38741:0:0:0:0:
192,192,37850,128,0,38667:0:0:0:0:
402,192,38147,128,0,38518:0:0:0:0:
109,192,38147,128,0,38370:0:0:0:0:
64,192,38444,128,0,39112:0:0:0:0:
448,192,38593,128,0,39261:0:0:0:0:
192,192,38741,128,0,38815:0:0:0:0:
329,192,38815,128,0,39261:0:0:0:0:
182,192,38890,128,0,39112:0:0:0:0:
182,192,39187,128,0,39855:0:0:0:0:
109,192,39187,128,0,40152:0:0:0:0:
256,192,39335,128,0,39558:0:0:0:0:
448,192,39335,128,0,42825:0:0:0:0:
329,192,39632,128,0,40598:0:0:0:0:
192,192,39929,128,0,40449:0:0:0:0:
36,192,40226,128,0,40449:0:0:0:0:
64,192,40523,128,0,41786:0:0:0:0:
182,192,40523,128,0,40895:0:0:0:0:
320,192,40672,128,0,41192:0:0:0:0:
182,192,40969,128,0,41489:0:0:0:0:
320,192,41266,128,0,42083:0:0:0:0:
192,192,41563,128,0,43568:0:0:0:0:
64,192,41860,128,0,42974:0:0:0:0:
329,192,42157,128,0,42825:0:0:0:0:
402,192,42900,128,0,43271:0:0:0:0:
320,192,42900,128,0,43865:0:0:0:0:
64,192,43048,128,0,44756:0:0:0:0:
402,192,43345,128,0,44162:0:0:0:0:
192,192,43642,128,0,44459:0:0:0:0:
320,192,43939,128,0,44607:0:0:0:0:
448,192,44236,128,0,44607:0:0:0:0:
192,192,44533,128,0,44756:0:0:0:0:
402,192,44682,128,0,45350:0:0:0:0:
320,192,44682,128,0,45944:0:0:0:0:
64,192,44830,128,0,45202:0:0:0:0:
182,192,44830,128,0,45202:0:0:0:0:
109,192,45276,128,0,45647:0:0:0:0:
192,192,45276,128,0,46241:0:0:0:0:
448,192,45424,128,0,46984:0:0:0:0:
109,192,45721,128,0,46538:0:0:0:0:
329,192,46018,128,0,47578:0:0:0:0:
192,192,46315,128,0,46835:0:0:0:0:
64,192,46612,128,0,46984:0:0:0:0:
182,192,46909,128,0,47726:0:0:0:0:
475,192,47058,128,0,48023:0:0:0:0:
64,192,47058,128,0,47578:0:0:0:0:
320,192,47652,128,0,48617:0:0:0:0:
109,192,47652,128,0,49508:0:0:0:0:
192,192,47801,128,0,48320:0:0:0:0:
475,192,48098,128,0,48914:0:0:0:0:
192,192,48395,128,0,49211:0:0:0:0:
329,192,48692,128,0,49360:0:0:0:0:
448,192,48989,128,0,49360:0:0:0:0:
192,192,49286,128,0,49508:0:0:0:0:
256,192,49434,128,0,50400:0:0:0:0:
448,192,49434,128,0,49954:0:0:0:0:
64,192,49583,128,0,49954:0:0:0:0:
192,192,49583,128,0,50400:0:0:0:0:
448,192,50028,128,0,50845:0:0:0:0:
64,192,50028,128,0,51736:0:0:0:0:
192,192,50474,128,0,51291:0:0:0:0:
329,192,50474,128,0,50845:0:0:0:0:
320,192,50919,128,0,51291:0:0:0:0:
475,192,50919,128,0,51736:0:0:0:0:
329,192,51365,128,0,52033:0:0:0:0:
192,192,51365,128,0,52033:0:0:0:0:
64,192,51810,128,0,52330:0:0:0:0:
448,192,51810,128,0,52330:0:0:0:0:
256,192,52107,128,0,52776:0:0:0:0:
192,192,52107,128,0,52776:0:0:0:0:
64,192,52404,128,0,53221:0:0:0:0:
402,192,52404,128,0,53667:0:0:0:0:
320,192,52850,128,0,53667:0:0:0:0:
192,192,52850,128,0,53221:0:0:0:0:
192,192,53296,128,0,54112:0:0:0:0:
64,192,53296,128,0,54112:0:0:0:0:
448,192,53741,128,0,54409:0:0:0:0:
256,192,53741,128,0,54409:0:0:0:0:
36,192,54187,128,0,54706:0:0:0:0:
192,192,54187,128,0,54706:0:0:0:0:
329,192,54484,128,0,55152:0:0:0:0:
402,192,54484,128,0,56043:0:0:0:0:
192,192,54781,128,0,55152:0:0:0:0:
109,192,54781,128,0,55598:0:0:0:0:
192,192,55226,128,0,55598:0:0:0:0:
320,192,55226,128,0,56043:0:0:0:0:
64,192,55672,128,0,56489:0:0:0:0:
182,192,55672,128,0,56489:0:0:0:0:
448,192,56117,128,0,57083:0:0:0:0:
320,192,56117,128,0,56860:0:0:0:0:
192,192,56563,128,0,57083:0:0:0:0:
109,192,56563,128,0,57380:0:0:0:0:
182,192,57157,128,0,57974:0:0:0:0:
320,192,57157,128,0,57677:0:0:0:0:
475,192,57157,128,0,58419:0:0:0:0:
36,192,57454,128,0,58865:0:0:0:0:
329,192,57751,128,0,58122:0:0:0:0:
182,192,58048,128,0,58716:0:0:0:0:
329,192,58197,128,0,58568:0:0:0:0:
448,192,58494,128,0,60647:0:0:0:0:
320,192,58642,128,0,59236:0:0:0:0:
192,192,58791,128,0,59904:0:0:0:0:
109,192,58939,128,0,59459:0:0:0:0:
64,192,59533,128,0,62281:0:0:0:0:
320,192,59533,128,0,60202:0:0:0:0:
192,192,59979,128,0,61390:0:0:0:0:
320,192,60276,128,0,61093:0:0:0:0:
448,192,60721,128,0,61835:0:0:0:0:
320,192,61167,128,0,62578:0:0:0:0:
192,192,61464,128,0,63617:0:0:0:0:
475,192,61909,128,0,63023:0:0:0:0:
64,192,62355,128,0,63914:0:0:0:0:
320,192,62652,128,0,63320:0:0:0:0:
448,192,63098,128,0,64211:0:0:0:0:
320,192,63395,128,0,64954:0:0:0:0:
192,192,63692,128,0,64657:0:0:0:0:
64,192,63989,128,0,66142:0:0:0:0:
448,192,64286,128,0,65400:0:0:0:0:
192,192,64731,128,0,65845:0:0:0:0:
320,192,65028,128,0,67033:0:0:0:0:
448,192,65474,128,0,66588:0:0:0:0:
192,192,65919,128,0,68370:0:0:0:0:
64,192,66216,128,0,67330:0:0:0:0:
402,192,66662,128,0,67776:0:0:0:0:
320,192,67107,128,0,68073:0:0:0:0:
64,192,67404,128,0,68667:0:0:0:0:
448,192,67850,128,0,69261:0:0:0:0:
256,192,68147,128,0,68964:0:0:0:0:
182,192,68444,128,0,68964:0:0:0:0:
64,192,68741,128,0,69558:0:0:0:0:
320,192,69038,128,0,70449:0:0:0:0:
192,192,69038,128,0,70152:0:0:0:0:
448,192,69335,128,0,69855:0:0:0:0:
64,192,69632,128,0,70746:0:0:0:0:
448,192,69929,128,0,71043:0:0:0:0:
182,192,70226,128,0,71340:0:0:0:0:
320,192,70523,128,0,72231:0:0:0:0:
109,192,70820,128,0,71340:0:0:0:0:
448,192,71117,128,0,71637:0:0:0:0:
64,192,71414,128,0,72528:0:0:0:0:
192,192,71414,128,0,71934:0:0:0:0:
448,192,71711,128,0,73419:0:0:0:0:
192,192,72008,128,0,73122:0:0:0:0:
320,192,72305,128,0,72825:0:0:0:0:
36,192,72603,128,0,73716:0:0:0:0:
320,192,72900,128,0,73716:0:0:0:0:
192,192,73197,128,0,74013:0:0:0:0:
448,192,73494,128,0,74310:0:0:0:0:
320,192,73791,128,0,74607:0:0:0:0:
64,192,73791,128,0,74904:0:0:0:0:
192,192,74088,128,0,74756:0:0:0:0:
402,192,74385,128,0,74904:0:0:0:0:
320,192,74682,128,0,74830:0:0:0:0:
192,192,74830,128,0,75202:0:0:0:0:
320,192,74904,128,0,75796:0:0:0:0:
448,192,74979,128,0,75499:0:0:0:0:
64,192,74979,128,0,76093:0:0:0:0:
192,192,75276,128,0,76093:0:0:0:0:
448,192,75573,128,0,75944:0:0:0:0:
320,192,75870,128,0,76018:0:0:0:0:
448,192,76018,128,0,76241:0:0:0:0:
320,192,76093,128,0,76538:0:0:0:0:
64,192,76167,128,0,76687:0:0:0:0:
192,192,76167,128,0,76390:0:0:0:0:
448,192,76315,128,0,76835:0:0:0:0:
192,192,76464,128,0,76984:0:0:0:0:
320,192,76612,128,0,77132:0:0:0:0:
64,192,76761,128,0,77355:0:0:0:0:
402,192,76909,128,0,77578:0:0:0:0:
182,192,77058,128,0,77875:0:0:0:0:
329,192,77206,128,0,78172:0:0:0:0:
448,192,77652,128,0,78766:0:0:0:0:
109,192,77652,128,0,78469:0:0:0:0:
192,192,77949,128,0,78469:0:0:0:0:
256,192,78246,128,0,78766:0:0:0:0:
109,192,78543,128,0,79063:0:0:0:0:
192,192,78543,128,0,79360:0:0:0:0:
448,192,78840,128,0,79657:0:0:0:0:
329,192,78840,128,0,79360:0:0:0:0:
109,192,79137,128,0,80548:0:0:0:0:
192,192,79434,128,0,79954:0:0:0:0:
320,192,79434,128,0,79954:0:0:0:0:
448,192,79731,128,0,80251:0:0:0:0:
182,192,80028,128,0,80845:0:0:0:0:
320,192,80028,128,0,80548:0:0:0:0:
402,192,80325,128,0,81142:0:0:0:0:
109,192,80622,128,0,81736:0:0:0:0:
320,192,80622,128,0,81142:0:0:0:0:
192,192,80919,128,0,81439:0:0:0:0:
402,192,81216,128,0,82330:0:0:0:0:
320,192,81216,128,0,81736:0:0:0:0:
192,192,81513,128,0,82033:0:0:0:0:
64,192,81810,128,0,82330:0:0:0:0:
329,192,81810,128,0,82776:0:0:0:0:
182,192,82107,128,0,82627:0:0:0:0:
36,192,82404,128,0,83221:0:0:0:0:
475,192,82404,128,0,83221:0:0:0:0:
182,192,82702,128,0,82924:0:0:0:0:
329,192,82850,128,0,83073:0:0:0:0:
182,192,82999,128,0,83518:0:0:0:0:
320,192,83147,128,0,83518:0:0:0:0:
448,192,83296,128,0,83815:0:0:0:0:
36,192,83296,128,0,84112:0:0:0:0:
320,192,83593,128,0,84112:0:0:0:0:
182,192,83593,128,0,84409:0:0:0:0:
448,192,83890,128,0,84706:0:0:0:0:
109,192,84187,128,0,84706:0:0:0:0:
329,192,84187,128,0,85004:0:0:0:0:
182,192,84484,128,0,85301:0:0:0:0:
64,192,84781,128,0,85598:0:0:0:0:
448,192,84781,128,0,85895:0:0:0:0:
256,192,85078,128,0,85449:0:0:0:0:
192,192,85375,128,0,85598:0:0:0:0:
256,192,85523,128,0,86192:0:0:0:0:
109,192,85672,128,0,86489:0:0:0:0:
192,192,85672,128,0,87008:0:0:0:0:
448,192,85969,128,0,86786:0:0:0:0:
320,192,86266,128,0,86786:0:0:0:0:
64,192,86563,128,0,87008:0:0:0:0:
320,192,86860,128,0,87231:0:0:0:0:
448,192,86860,128,0,87231:0:0:0:0:
64,192,87083,128,0,87380:0:0:0:0:
192,192,87083,128,0,87380:0:0:0:0:
320,192,87305,128,0,87751:0:0:0:0:
402,192,87305,128,0,88271:0:0:0:0:
64,192,87454,128,0,87974:0:0:0:0:
192,192,87454,128,0,87974:0:0:0:0:
109,192,88048,128,0,88568:0:0:0:0:
329,192,88048,128,0,88865:0:0:0:0:
192,192,88048,128,0,88271:0:0:0:0:
448,192,88345,128,0,88865:0:0:0:0:
182,192,88345,128,0,89162:0:0:0:0:
64,192,88642,128,0,89459:0:0:0:0:
402,192,88939,128,0,89459:0:0:0:0:
256,192,88939,128,0,90053:0:0:0:0:
192,192,89236,128,0,89756:0:0:0:0:
448,192,89533,128,0,90053:0:0:0:0:
64,192,89533,128,0,90647:0:0:0:0:
182,192,89830,128,0,90350:0:0:0:0:
448,192,90127,128,0,91241:0:0:0:0:
329,192,90127,128,0,90647:0:0:0:0:
192,192,90424,128,0,90944:0:0:0:0:
320,192,90721,128,0,91241:0:0:0:0:
109,192,90721,128,0,91538:0:0:0:0:
192,192,91018,128,0,91835:0:0:0:0:
320,192,91315,128,0,92132:0:0:0:0:
402,192,91315,128,0,91835:0:0:0:0:
64,192,91612,128,0,92429:0:0:0:0:
192,192,91909,128,0,92429:0:0:0:0:
448,192,91909,128,0,92726:0:0:0:0:
320,192,92206,128,0,92949:0:0:0:0:
64,192,92504,128,0,93023:0:0:0:0:
192,192,92504,128,0,92801:0:0:0:0:
448,192,92801,128,0,93098:0:0:0:0:
192,192,92875,128,0,93172:0:0:0:0:
320,192,93023,128,0,93320:0:0:0:0:
64,192,93098,128,0,93395:0:0:0:0:
448,192,93172,128,0,93469:0:0:0:0:
192,192,93320,128,0,93617:0:0:0:0:
320,192,93395,128,0,93692:0:0:0:0:
64,192,93469,128,0,93766:0:0:0:0:
448,192,93617,128,0,93914:0:0:0:0:
192,192,93692,128,0,93989:0:0:0:0:
320,192,93766,128,0,94063:0:0:0:0:
64,192,93914,128,0,94211:0:0:0:0:
448,192,93989,128,0,94286:0:0:0:0:
192,192,94063,128,0,94360:0:0:0:0:
329,192,94211,128,0,95325:0:0:0:0:
109,192,94286,128,0,94583:0:0:0:0:
448,192,94360,128,0,95103:0:0:0:0:
182,192,94508,128,0,95103:0:0:0:0:
402,192,95177,128,0,95845:0:0:0:0:
109,192,95177,128,0,96142:0:0:0:0:
182,192,95177,128,0,95548:0:0:0:0:
256,192,95400,128,0,95994:0:0:0:0:
182,192,95622,128,0,96885:0:0:0:0:
475,192,95919,128,0,96291:0:0:0:0:
329,192,96068,128,0,96513:0:0:0:0:
36,192,96216,128,0,96736:0:0:0:0:
448,192,96365,128,0,98370:0:0:0:0:
320,192,96588,128,0,97256:0:0:0:0:
109,192,96810,128,0,97479:0:0:0:0:
192,192,96959,128,0,97479:0:0:0:0:
320,192,97553,128,0,97924:0:0:0:0:
182,192,97553,128,0,97924:0:0:0:0:
109,192,97553,128,0,99855:0:0:0:0:
256,192,97999,128,0,98370:0:0:0:0:
192,192,97999,128,0,98815:0:0:0:0:
402,192,98444,128,0,99261:0:0:0:0:
320,192,98444,128,0,98815:0:0:0:0:
320,192,98890,128,0,99261:0:0:0:0:
192,192,98890,128,0,99558:0:0:0:0:
448,192,99335,128,0,100301:0:0:0:0:
256,192,99335,128,0,99558:0:0:0:0:
329,192,99632,128,0,100301:0:0:0:0:
192,192,99632,128,0,99855:0:0:0:0:
64,192,99929,128,0,100746:0:0:0:0:
182,192,99929,128,0,100746:0:0:0:0:
320,192,100375,128,0,101192:0:0:0:0:
402,192,100375,128,0,101192:0:0:0:0:
64,192,100820,128,0,101934:0:0:0:0:
192,192,100820,128,0,101637:0:0:0:0:
256,192,101266,128,0,101637:0:0:0:0:
448,192,101266,128,0,102231:0:0:0:0:
320,192,101711,128,0,102231:0:0:0:0:
182,192,101711,128,0,101934:0:0:0:0:
192,192,102008,128,0,102677:0:0:0:0:
64,192,102008,128,0,102677:0:0:0:0:
320,192,102305,128,0,103122:0:0:0:0:
448,192,102305,128,0,103122:0:0:0:0:
192,192,102751,128,0,103568:0:0:0:0:
36,192,102751,128,0,104013:0:0:0:0:
320,192,103197,128,0,103568:0:0:0:0:
448,192,103197,128,0,104607:0:0:0:0:
192,192,103642,128,0,104013:0:0:0:0:
320,192,103642,128,0,104310:0:0:0:0:
182,192,104088,128,0,104310:0:0:0:0:
64,192,104088,128,0,105053:0:0:0:0:
182,192,104385,128,0,105053:0:0:0:0:
329,192,104385,128,0,104607:0:0:0:0:
320,192,104682,128,0,105499:0:0:0:0:
402,192,104682,128,0,105499:0:0:0:0:
192,192,105127,128,0,106390:0:0:0:0:
64,192,105127,128,0,105870:0:0:0:0:
320,192,105573,128,0,106093:0:0:0:0:
402,192,105573,128,0,106687:0:0:0:0:
256,192,106167,128,0,106984:0:0:0:0:
109,192,106167,128,0,107578:0:0:0:0:
182,192,106464,128,0,106984:0:0:0:0:
402,192,106761,128,0,107281:0:0:0:0:
192,192,107058,128,0,107281:0:0:0:0:
329,192,107058,128,0,107875:0:0:0:0:
192,192,107355,128,0,108469:0:0:0:0:
448,192,107355,128,0,107875:0:0:0:0:
36,192,107652,128,0,108172:0:0:0:0:
256,192,107949,128,0,108469:0:0:0:0:
402,192,107949,128,0,108766:0:0:0:0:
109,192,108246,128,0,109063:0:0:0:0:
192,192,108543,128,0,109063:0:0:0:0:
256,192,108543,128,0,109360:0:0:0:0:
475,192,108840,128,0,109657:0:0:0:0:
64,192,109137,128,0,109657:0:0:0:0:
182,192,109137,128,0,109954:0:0:0:0:
329,192,109434,128,0,110251:0:0:0:0:
64,192,109731,128,0,110845:0:0:0:0:
448,192,109731,128,0,110251:0:0:0:0:
182,192,110028,128,0,110548:0:0:0:0:
402,192,110325,128,0,111439:0:0:0:0:
329,192,110325,128,0,110845:0:0:0:0:
192,192,110622,128,0,111142:0:0:0:0:
320,192,110919,128,0,111439:0:0:0:0:
36,192,110919,128,0,111736:0:0:0:0:
192,192,111216,128,0,111885:0:0:0:0:
320,192,111513,128,0,112033:0:0:0:0:
402,192,111513,128,0,112182:0:0:0:0:
64,192,111810,128,0,112776:0:0:0:0:
182,192,111959,128,0,112330:0:0:0:0:
329,192,112107,128,0,112479:0:0:0:0:
448,192,112256,128,0,113221:0:0:0:0:
192,192,112404,128,0,112627:0:0:0:0:
329,192,112553,128,0,113073:0:0:0:0:
192,192,112702,128,0,112924:0:0:0:0:
64,192,112850,128,0,113667:0:0:0:0:
182,192,112999,128,0,113518:0:0:0:0:
320,192,113147,128,0,113370:0:0:0:0:
448,192,113296,128,0,114112:0:0:0:0:
320,192,113444,128,0,113964:0:0:0:0:
192,192,113593,128,0,113815:0:0:0:0:
109,192,113741,128,0,115226:0:0:0:0:
182,192,113890,128,0,114409:0:0:0:0:
329,192,114038,128,0,114261:0:0:0:0:
402,192,114187,128,0,114929:0:0:0:0:
329,192,114335,128,0,114558:0:0:0:0:
182,192,114484,128,0,114706:0:0:0:0:
256,192,114632,128,0,115375:0:0:0:0:
182,192,114781,128,0,116489:0:0:0:0:
448,192,115078,128,0,117380:0:0:0:0:
109,192,115375,128,0,116489:0:0:0:0:
109,192,116563,128,0,118865:0:0:0:0:
256,192,116563,128,0,116934:0:0:0:0:
182,192,116563,128,0,116934:0:0:0:0:
182,192,117008,128,0,118865:0:0:0:0:
256,192,117008,128,0,117380:0:0:0:0:
320,192,117454,128,0,118642:0:0:0:0:
402,192,117454,128,0,119310:0:0:0:0:
36,192,118939,128,0,119756:0:0:0:0:
192,192,118939,128,0,119756:0:0:0:0:
329,192,118939,128,0,119310:0:0:0:0:
329,192,119385,128,0,121241:0:0:0:0:
402,192,119385,128,0,121241:0:0:0:0:
192,192,119830,128,0,121018:0:0:0:0:
36,192,119830,128,0,121687:0:0:0:0:
192,192,121315,128,0,121687:0:0:0:0:
256,192,121315,128,0,122132:0:0:0:0:
448,192,121315,128,0,122132:0:0:0:0:
36,192,121761,128,0,123617:0:0:0:0:
182,192,121761,128,0,123617:0:0:0:0:
320,192,122206,128,0,123395:0:0:0:0:
448,192,122206,128,0,124508:0:0:0:0:
256,192,123692,128,0,124063:0:0:0:0:
192,192,123692,128,0,124063:0:0:0:0:
64,192,123692,128,0,124063:0:0:0:0:
320,192,124137,128,0,124508:0:0:0:0:
192,192,124137,128,0,124508:0:0:0:0:
320,192,124583,128,0,124880:0:0:0:0:
448,192,124583,128,0,124880:0:0:0:0:
