osu file format v14

[General]
AudioFilename: Ice - Entrance.mp3
AudioLeadIn: 2000
PreviewTime: 75148
Countdown: 0
SampleSet: Normal
StackLeniency: 0.7
Mode: 3
LetterboxInBreaks: 0
EpilepsyWarning: 1
SpecialStyle: 0
WidescreenStoryboard: 0

[Editor]
DistanceSpacing: 1.6
BeatDivisor: 12
GridSize: 8
TimelineZoom: 2.799999

[Metadata]
Title:[Full LN] training
TitleUnicode:[Full LN] training
Artist:Various Artist
ArtistUnicode:Various Artist
Creator:Allezard
Version:Ice - Entrance Lv. 4.5
Source:Cytus
Tags:Full LN Training Various Artist Collection 4k NOODLE BMS Deemo Cytus SOUND VOLTEX II -infinite infection- beatmania IIDX
BeatmapID:819050
BeatmapSetID:368373

[Difficulty]
HPDrainRate:7
CircleSize:4
OverallDifficulty:1
ApproachRate:5
SliderMultiplier:1.4
SliderTickRate:1

[Events]
//Background and Video events
0,0,"Ice - Entrance.png",0,0
//Break Periods
//Storyboard Layer 0 (Background)
//Storyboard Layer 1 (Fail)
//Storyboard Layer 2 (Pass)
//Storyboard Layer 3 (Foreground)
//Storyboard Sound Samples

[TimingPoints]
593,333.3333,4,1,0,30,1,0
75259,-100,4,1,0,30,0,1
96592,-100,4,1,0,30,0,0

[HitObjects]
320,192,593,128,0,1176:0:0:0:0:
192,192,593,128,0,842:0:0:0:0:
448,192,593,128,0,1176:0:0:0:0:
64,192,926,128,0,1842:0:0:0:0:
192,192,926,128,0,1509:0:0:0:0:
320,192,1259,128,0,1509:0:0:0:0:
448,192,1259,128,0,2509:0:0:0:0:
320,192,1592,128,0,2176:0:0:0:0:
192,192,1592,128,0,1842:0:0:0:0:
192,192,1926,128,0,2176:0:0:0:0:
64,192,1926,128,0,3176:0:0:0:0:
320,192,2259,128,0,2509:0:0:0:0:
192,192,2259,128,0,2842:0:0:0:0:
320,192,2592,128,0,2842:0:0:0:0:
448,192,2592,128,0,3842:0:0:0:0:
320,192,2926,128,0,3509:0:0:0:0:
192,192,2926,128,0,3176:0:0:0:0:
64,192,3259,128,0,4509:0:0:0:0:
192,192,3259,128,0,3509:0:0:0:0:
320,192,3592,128,0,3842:0:0:0:0:
192,192,3592,128,0,4176:0:0:0:0:
448,192,3926,128,0,4842:0:0:0:0:
320,192,3926,128,0,4176:0:0:0:0:
192,192,4259,128,0,4509:0:0:0:0:
320,192,4259,128,0,4842:0:0:0:0:
192,192,4592,128,0,5176:0:0:0:0:
64,192,4592,128,0,5842:0:0:0:0:
448,192,4926,128,0,5620:0:0:0:0:
320,192,4926,128,0,5176:0:0:0:0:
192,192,5259,128,0,5509:0:0:0:0:
320,192,5259,128,0,5509:0:0:0:0:
192,192,5592,128,0,5842:0:0:0:0:
320,192,5592,128,0,5731:0:0:0:0:
448,192,5704,128,0,6509:0:0:0:0:
320,192,5815,128,0,6509:0:0:0:0:
192,192,5926,128,0,6176:0:0:0:0:
64,192,5926,128,0,6176:0:0:0:0:
64,192,6259,128,0,7509:0:0:0:0:
192,192,6259,128,0,7176:0:0:0:0:
320,192,6592,128,0,6842:0:0:0:0:
448,192,6592,128,0,6842:0:0:0:0:
320,192,6926,128,0,7176:0:0:0:0:
448,192,6926,128,0,8176:0:0:0:0:
320,192,7259,128,0,7842:0:0:0:0:
192,192,7259,128,0,7509:0:0:0:0:
64,192,7592,128,0,8842:0:0:0:0:
192,192,7592,128,0,7842:0:0:0:0:
320,192,7926,128,0,8176:0:0:0:0:
192,192,7926,128,0,8509:0:0:0:0:
320,192,8259,128,0,8509:0:0:0:0:
448,192,8259,128,0,11065:0:0:0:0:
320,192,8592,128,0,9176:0:0:0:0:
192,192,8592,128,0,8842:0:0:0:0:
192,192,8926,128,0,9176:0:0:0:0:
64,192,8926,128,0,10731:0:0:0:0:
320,192,9259,128,0,9592:0:0:0:0:
192,192,9259,128,0,9592:0:0:0:0:
320,192,9926,128,0,10509:0:0:0:0:
192,192,9926,128,0,10620:0:0:0:0:
320,192,10592,128,0,10954:0:0:0:0:
192,192,10704,128,0,10842:0:0:0:0:
64,192,10815,128,0,11509:0:0:0:0:
192,192,10926,128,0,11176:0:0:0:0:
320,192,11037,128,0,11176:0:0:0:0:
448,192,11148,128,0,11842:0:0:0:0:
320,192,11259,128,0,11842:0:0:0:0:
192,192,11259,128,0,11509:0:0:0:0:
192,192,11592,128,0,12176:0:0:0:0:
64,192,11592,128,0,12509:0:0:0:0:
320,192,11926,128,0,12176:0:0:0:0:
448,192,11926,128,0,12842:0:0:0:0:
192,192,12259,128,0,12509:0:0:0:0:
320,192,12259,128,0,12842:0:0:0:0:
192,192,12592,128,0,13176:0:0:0:0:
64,192,12592,128,0,13509:0:0:0:0:
448,192,12926,128,0,13842:0:0:0:0:
320,192,12926,128,0,13176:0:0:0:0:
192,192,13259,128,0,13509:0:0:0:0:
320,192,13259,128,0,13842:0:0:0:0:
192,192,13592,128,0,14176:0:0:0:0:
64,192,13592,128,0,14509:0:0:0:0:
448,192,13926,128,0,14842:0:0:0:0:
320,192,13926,128,0,14176:0:0:0:0:
192,192,14259,128,0,14509:0:0:0:0:
320,192,14259,128,0,14842:0:0:0:0:
64,192,14592,128,0,16259:0:0:0:0:
192,192,14592,128,0,15176:0:0:0:0:
448,192,14926,128,0,15509:0:0:0:0:
320,192,14926,128,0,15176:0:0:0:0:
320,192,15259,128,0,15509:0:0:0:0:
192,192,15259,128,0,15926:0:0:0:0:
448,192,15592,128,0,15842:0:0:0:0:
320,192,15592,128,0,15842:0:0:0:0:
448,192,15926,128,0,17842:0:0:0:0:
320,192,15926,128,0,16509:0:0:0:0:
192,192,16259,128,0,16509:0:0:0:0:
192,192,16592,128,0,16842:0:0:0:0:
64,192,16592,128,0,16842:0:0:0:0:
320,192,16592,128,0,17176:0:0:0:0:
192,192,16926,128,0,17176:0:0:0:0:
64,192,16926,128,0,17509:0:0:0:0:
320,192,17259,128,0,18176:0:0:0:0:
192,192,17259,128,0,17509:0:0:0:0:
64,192,17592,128,0,18509:0:0:0:0:
192,192,17592,128,0,17842:0:0:0:0:
448,192,17926,128,0,18176:0:0:0:0:
192,192,17926,128,0,18842:0:0:0:0:
320,192,18259,128,0,18509:0:0:0:0:
448,192,18259,128,0,19176:0:0:0:0:
320,192,18592,128,0,19509:0:0:0:0:
64,192,18592,128,0,18842:0:0:0:0:
64,192,18926,128,0,21176:0:0:0:0:
192,192,18926,128,0,19176:0:0:0:0:
192,192,19259,128,0,19842:0:0:0:0:
448,192,19259,128,0,19509:0:0:0:0:
320,192,19592,128,0,19842:0:0:0:0:
448,192,19592,128,0,20509:0:0:0:0:
320,192,19926,128,0,20176:0:0:0:0:
192,192,19926,128,0,20176:0:0:0:0:
320,192,20259,128,0,20592:0:0:0:0:
192,192,20259,128,0,21259:0:0:0:0:
448,192,20592,128,0,20842:0:0:0:0:
448,192,20926,128,0,21842:0:0:0:0:
320,192,21259,128,0,21926:0:0:0:0:
64,192,21259,128,0,21509:0:0:0:0:
64,192,21592,128,0,21842:0:0:0:0:
192,192,21926,128,0,22176:0:0:0:0:
448,192,21926,128,0,22509:0:0:0:0:
64,192,21926,128,0,22259:0:0:0:0:
320,192,22259,128,0,22926:0:0:0:0:
192,192,22259,128,0,22592:0:0:0:0:
448,192,22592,128,0,23259:0:0:0:0:
64,192,22592,128,0,22842:0:0:0:0:
64,192,22926,128,0,23842:0:0:0:0:
192,192,22926,128,0,23176:0:0:0:0:
320,192,23259,128,0,23509:0:0:0:0:
192,192,23259,128,0,23592:0:0:0:0:
320,192,23592,128,0,23926:0:0:0:0:
448,192,23592,128,0,24176:0:0:0:0:
192,192,23926,128,0,24259:0:0:0:0:
64,192,23926,128,0,24592:0:0:0:0:
320,192,24259,128,0,24509:0:0:0:0:
448,192,24259,128,0,25176:0:0:0:0:
320,192,24592,128,0,24926:0:0:0:0:
192,192,24592,128,0,24842:0:0:0:0:
64,192,24926,128,0,25842:0:0:0:0:
192,192,24926,128,0,25259:0:0:0:0:
320,192,25259,128,0,25509:0:0:0:0:
448,192,25259,128,0,25592:0:0:0:0:
320,192,25592,128,0,26259:0:0:0:0:
192,192,25592,128,0,25926:0:0:0:0:
448,192,25926,128,0,26176:0:0:0:0:
64,192,25926,128,0,26926:0:0:0:0:
448,192,26259,128,0,26509:0:0:0:0:
192,192,26259,128,0,26592:0:0:0:0:
320,192,26592,128,0,26842:0:0:0:0:
448,192,26592,128,0,26731:0:0:0:0:
448,192,26815,128,0,27065:0:0:0:0:
320,192,26926,128,0,27259:0:0:0:0:
192,192,26926,128,0,27176:0:0:0:0:
448,192,27148,128,0,27509:0:0:0:0:
64,192,27259,128,0,28592:0:0:0:0:
192,192,27259,128,0,27592:0:0:0:0:
448,192,27592,128,0,27926:0:0:0:0:
320,192,27592,128,0,27842:0:0:0:0:
320,192,27926,128,0,28259:0:0:0:0:
192,192,27926,128,0,28176:0:0:0:0:
448,192,28259,128,0,29176:0:0:0:0:
192,192,28259,128,0,28509:0:0:0:0:
320,192,28592,128,0,28842:0:0:0:0:
192,192,28592,128,0,28926:0:0:0:0:
64,192,28926,128,0,29259:0:0:0:0:
320,192,28926,128,0,29509:0:0:0:0:
448,192,29259,128,0,29592:0:0:0:0:
192,192,29259,128,0,29842:0:0:0:0:
64,192,29592,128,0,30176:0:0:0:0:
320,192,29592,128,0,29926:0:0:0:0:
448,192,29926,128,0,30259:0:0:0:0:
192,192,29926,128,0,30592:0:0:0:0:
64,192,30259,128,0,30842:0:0:0:0:
320,192,30259,128,0,30509:0:0:0:0:
448,192,30592,128,0,31176:0:0:0:0:
320,192,30592,128,0,30926:0:0:0:0:
192,192,30926,128,0,31259:0:0:0:0:
64,192,30926,128,0,31592:0:0:0:0:
448,192,31259,128,0,31926:0:0:0:0:
320,192,31259,128,0,31509:0:0:0:0:
192,192,31592,128,0,31926:0:0:0:0:
320,192,31592,128,0,32259:0:0:0:0:
64,192,31926,128,0,32176:0:0:0:0:
64,192,32259,128,0,32509:0:0:0:0:
192,192,32259,128,0,32592:0:0:0:0:
64,192,32592,128,0,33592:0:0:0:0:
448,192,32592,128,0,32926:0:0:0:0:
320,192,32592,128,0,32842:0:0:0:0:
192,192,32926,128,0,33259:0:0:0:0:
320,192,32926,128,0,33176:0:0:0:0:
320,192,33259,128,0,33509:0:0:0:0:
448,192,33259,128,0,34592:0:0:0:0:
320,192,33592,128,0,33926:0:0:0:0:
192,192,33592,128,0,33842:0:0:0:0:
64,192,33926,128,0,34259:0:0:0:0:
192,192,33926,128,0,34176:0:0:0:0:
320,192,34259,128,0,34842:0:0:0:0:
192,192,34259,128,0,34509:0:0:0:0:
64,192,34592,128,0,34926:0:0:0:0:
192,192,34592,128,0,35509:0:0:0:0:
320,192,34926,128,0,35176:0:0:0:0:
448,192,34926,128,0,35259:0:0:0:0:
64,192,35259,128,0,35926:0:0:0:0:
320,192,35259,128,0,35592:0:0:0:0:
448,192,35592,128,0,35842:0:0:0:0:
192,192,35592,128,0,36176:0:0:0:0:
320,192,35926,128,0,36259:0:0:0:0:
448,192,35926,128,0,36592:0:0:0:0:
64,192,36259,128,0,36926:0:0:0:0:
192,192,36259,128,0,36509:0:0:0:0:
320,192,36592,128,0,36842:0:0:0:0:
192,192,36592,128,0,37176:0:0:0:0:
320,192,36926,128,0,37259:0:0:0:0:
448,192,36926,128,0,37592:0:0:0:0:
192,192,37259,128,0,37509:0:0:0:0:
64,192,37259,128,0,37926:0:0:0:0:
320,192,37592,128,0,37842:0:0:0:0:
192,192,37592,128,0,38176:0:0:0:0:
448,192,37926,128,0,38592:0:0:0:0:
320,192,37926,128,0,38259:0:0:0:0:
192,192,38259,128,0,38509:0:0:0:0:
64,192,38259,128,0,39509:0:0:0:0:
192,192,38592,128,0,38926:0:0:0:0:
320,192,38592,128,0,38842:0:0:0:0:
448,192,38926,128,0,39176:0:0:0:0:
320,192,38926,128,0,39287:0:0:0:0:
448,192,39259,128,0,40176:0:0:0:0:
192,192,39259,128,0,39398:0:0:0:0:
320,192,39370,128,0,39731:0:0:0:0:
192,192,39481,128,0,39620:0:0:0:0:
64,192,39592,128,0,39842:0:0:0:0:
192,192,39704,128,0,40065:0:0:0:0:
320,192,39815,128,0,39954:0:0:0:0:
64,192,39926,128,0,40954:0:0:0:0:
320,192,40037,128,0,40398:0:0:0:0:
192,192,40148,128,0,40287:0:0:0:0:
448,192,40259,128,0,40731:0:0:0:0:
192,192,40370,128,0,40509:0:0:0:0:
320,192,40481,128,0,40620:0:0:0:0:
192,192,40592,128,0,40842:0:0:0:0:
320,192,40704,128,0,41065:0:0:0:0:
448,192,40815,128,0,41287:0:0:0:0:
192,192,40926,128,0,41176:0:0:0:0:
64,192,41037,128,0,41731:0:0:0:0:
320,192,41148,128,0,41398:0:0:0:0:
192,192,41259,128,0,41509:0:0:0:0:
448,192,41370,128,0,41842:0:0:0:0:
320,192,41481,128,0,41620:0:0:0:0:
192,192,41592,128,0,42065:0:0:0:0:
320,192,41704,128,0,41954:0:0:0:0:
64,192,41815,128,0,42842:0:0:0:0:
448,192,41926,128,0,42176:0:0:0:0:
320,192,42037,128,0,42398:0:0:0:0:
192,192,42148,128,0,42287:0:0:0:0:
448,192,42259,128,0,42509:0:0:0:0:
192,192,42370,128,0,42620:0:0:0:0:
320,192,42481,128,0,42731:0:0:0:0:
448,192,42592,128,0,43259:0:0:0:0:
192,192,42704,128,0,43176:0:0:0:0:
320,192,42815,128,0,42954:0:0:0:0:
64,192,42926,128,0,43065:0:0:0:0:
320,192,43037,128,0,44592:0:0:0:0:
64,192,43148,128,0,47259:0:0:0:0:
192,192,43259,128,0,45926:0:0:0:0:
448,192,44592,128,0,48509:0:0:0:0:
320,192,45926,128,0,47842:0:0:0:0:
192,192,47259,128,0,48176:0:0:0:0:
320,192,47926,128,0,48592:0:0:0:0:
192,192,48259,128,0,53731:0:0:0:0:
64,192,48592,128,0,49926:0:0:0:0:
448,192,48592,128,0,52592:0:0:0:0:
320,192,49926,128,0,51259:0:0:0:0:
64,192,51259,128,0,53176:0:0:0:0:
320,192,52592,128,0,53287:0:0:0:0:
64,192,53259,128,0,53398:0:0:0:0:
320,192,53370,128,0,53509:0:0:0:0:
64,192,53481,128,0,53620:0:0:0:0:
320,192,53592,128,0,53842:0:0:0:0:
64,192,53704,128,0,53842:0:0:0:0:
192,192,53815,128,0,54176:0:0:0:0:
64,192,53926,128,0,54509:0:0:0:0:
448,192,53926,128,0,54842:0:0:0:0:
320,192,53926,128,0,54176:0:0:0:0:
192,192,54259,128,0,54509:0:0:0:0:
320,192,54259,128,0,54842:0:0:0:0:
192,192,54592,128,0,55176:0:0:0:0:
64,192,54592,128,0,56176:0:0:0:0:
320,192,54926,128,0,55176:0:0:0:0:
448,192,54926,128,0,55509:0:0:0:0:
320,192,55259,128,0,55509:0:0:0:0:
192,192,55259,128,0,55842:0:0:0:0:
320,192,55592,128,0,55842:0:0:0:0:
448,192,55592,128,0,56509:0:0:0:0:
320,192,55926,128,0,56509:0:0:0:0:
192,192,55926,128,0,56176:0:0:0:0:
192,192,56259,128,0,56842:0:0:0:0:
64,192,56259,128,0,56842:0:0:0:0:
320,192,56592,128,0,57176:0:0:0:0:
448,192,56592,128,0,57176:0:0:0:0:
64,192,56926,128,0,57842:0:0:0:0:
192,192,56926,128,0,57509:0:0:0:0:
320,192,57259,128,0,57509:0:0:0:0:
448,192,57259,128,0,58176:0:0:0:0:
320,192,57592,128,0,58176:0:0:0:0:
192,192,57592,128,0,57842:0:0:0:0:
64,192,57926,128,0,58926:0:0:0:0:
192,192,57926,128,0,58926:0:0:0:0:
320,192,58259,128,0,58592:0:0:0:0:
448,192,58259,128,0,58592:0:0:0:0:
320,192,58926,128,0,59509:0:0:0:0:
448,192,58926,128,0,60176:0:0:0:0:
64,192,59259,128,0,59509:0:0:0:0:
192,192,59259,128,0,59842:0:0:0:0:
320,192,59592,128,0,60509:0:0:0:0:
64,192,59592,128,0,59842:0:0:0:0:
64,192,59926,128,0,61509:0:0:0:0:
192,192,59926,128,0,60176:0:0:0:0:
448,192,60259,128,0,60509:0:0:0:0:
192,192,60259,128,0,60842:0:0:0:0:
320,192,60592,128,0,61509:0:0:0:0:
448,192,60592,128,0,60842:0:0:0:0:
448,192,60926,128,0,61176:0:0:0:0:
192,192,60926,128,0,61176:0:0:0:0:
448,192,61259,128,0,61842:0:0:0:0:
192,192,61259,128,0,61842:0:0:0:0:
320,192,61592,128,0,62176:0:0:0:0:
64,192,61592,128,0,62842:0:0:0:0:
448,192,61926,128,0,62509:0:0:0:0:
192,192,61926,128,0,62176:0:0:0:0:
320,192,62259,128,0,62842:0:0:0:0:
192,192,62259,128,0,62509:0:0:0:0:
448,192,62592,128,0,63176:0:0:0:0:
192,192,62592,128,0,63176:0:0:0:0:
320,192,62926,128,0,63509:0:0:0:0:
64,192,62926,128,0,63842:0:0:0:0:
448,192,63259,128,0,63398:0:0:0:0:
192,192,63259,128,0,63509:0:0:0:0:
448,192,63481,128,0,64176:0:0:0:0:
320,192,63592,128,0,63842:0:0:0:0:
192,192,63592,128,0,63731:0:0:0:0:
192,192,63815,128,0,63954:0:0:0:0:
320,192,63926,128,0,64065:0:0:0:0:
64,192,63926,128,0,64842:0:0:0:0:
192,192,64037,128,0,64176:0:0:0:0:
320,192,64148,128,0,64592:0:0:0:0:
448,192,64259,128,0,64842:0:0:0:0:
192,192,64259,128,0,64592:0:0:0:0:
64,192,64926,128,0,65509:0:0:0:0:
448,192,64926,128,0,65259:0:0:0:0:
192,192,64926,128,0,65509:0:0:0:0:
320,192,64926,128,0,65259:0:0:0:0:
320,192,65592,128,0,65926:0:0:0:0:
64,192,65592,128,0,65842:0:0:0:0:
448,192,65592,128,0,65842:0:0:0:0:
192,192,65592,128,0,65926:0:0:0:0:
64,192,65926,128,0,66176:0:0:0:0:
448,192,65926,128,0,66176:0:0:0:0:
448,192,66259,128,0,66842:0:0:0:0:
320,192,66259,128,0,66842:0:0:0:0:
64,192,66259,128,0,66592:0:0:0:0:
192,192,66259,128,0,66592:0:0:0:0:
192,192,66926,128,0,67176:0:0:0:0:
448,192,66926,128,0,67509:0:0:0:0:
320,192,66926,128,0,67259:0:0:0:0:
64,192,66926,128,0,67259:0:0:0:0:
192,192,67259,128,0,67509:0:0:0:0:
64,192,67592,128,0,67759:0:0:0:0:
448,192,67592,128,0,67926:0:0:0:0:
192,192,67592,128,0,67926:0:0:0:0:
320,192,67592,128,0,67842:0:0:0:0:
64,192,67842,128,0,68092:0:0:0:0:
320,192,67926,128,0,68176:0:0:0:0:
64,192,68176,128,0,68509:0:0:0:0:
448,192,68259,128,0,68592:0:0:0:0:
320,192,68259,128,0,68592:0:0:0:0:
192,192,68259,128,0,68842:0:0:0:0:
64,192,68592,128,0,68842:0:0:0:0:
192,192,68926,128,0,69259:0:0:0:0:
64,192,68926,128,0,69259:0:0:0:0:
448,192,68926,128,0,69509:0:0:0:0:
320,192,68926,128,0,69176:0:0:0:0:
320,192,69259,128,0,69509:0:0:0:0:
448,192,69592,128,0,69759:0:0:0:0:
64,192,69592,128,0,70176:0:0:0:0:
192,192,69592,128,0,69926:0:0:0:0:
320,192,69592,128,0,69926:0:0:0:0:
448,192,69842,128,0,70176:0:0:0:0:
320,192,70259,128,0,70592:0:0:0:0:
64,192,70259,128,0,70509:0:0:0:0:
448,192,70259,128,0,70842:0:0:0:0:
192,192,70259,128,0,70592:0:0:0:0:
64,192,70592,128,0,70842:0:0:0:0:
320,192,70926,128,0,71259:0:0:0:0:
64,192,70926,128,0,71509:0:0:0:0:
448,192,70926,128,0,71176:0:0:0:0:
192,192,70926,128,0,71259:0:0:0:0:
448,192,71259,128,0,71509:0:0:0:0:
320,192,71592,128,0,71926:0:0:0:0:
64,192,71592,128,0,71842:0:0:0:0:
448,192,71592,128,0,72176:0:0:0:0:
192,192,71592,128,0,71926:0:0:0:0:
64,192,71926,128,0,72176:0:0:0:0:
320,192,72259,128,0,72592:0:0:0:0:
192,192,72259,128,0,72509:0:0:0:0:
448,192,72259,128,0,72676:0:0:0:0:
64,192,72259,128,0,72426:0:0:0:0:
64,192,72509,128,0,72759:0:0:0:0:
192,192,72592,128,0,72842:0:0:0:0:
320,192,72676,128,0,72926:0:0:0:0:
448,192,72759,128,0,73009:0:0:0:0:
64,192,72842,128,0,73092:0:0:0:0:
192,192,72926,128,0,73176:0:0:0:0:
320,192,73009,128,0,73231:0:0:0:0:
448,192,73092,128,0,73287:0:0:0:0:
64,192,73176,128,0,73342:0:0:0:0:
192,192,73259,128,0,73398:0:0:0:0:
320,192,73315,128,0,73454:0:0:0:0:
448,192,73370,128,0,73509:0:0:0:0:
64,192,73426,128,0,73565:0:0:0:0:
192,192,73481,128,0,73620:0:0:0:0:
320,192,73537,128,0,73676:0:0:0:0:
448,192,73592,128,0,73731:0:0:0:0:
64,192,73648,128,0,73787:0:0:0:0:
192,192,73704,128,0,73842:0:0:0:0:
320,192,73759,128,0,73898:0:0:0:0:
448,192,73815,128,0,73954:0:0:0:0:
64,192,73870,128,0,74009:0:0:0:0:
192,192,73926,128,0,74065:0:0:0:0:
320,192,73981,128,0,74120:0:0:0:0:
448,192,74037,128,0,74176:0:0:0:0:
64,192,74092,128,0,74231:0:0:0:0:
192,192,74148,128,0,74287:0:0:0:0:
320,192,74204,128,0,74342:0:0:0:0:
448,192,74259,128,0,74398:0:0:0:0:
64,192,74315,128,0,74454:0:0:0:0:
192,192,74370,128,0,74509:0:0:0:0:
320,192,74426,128,0,74509:0:0:0:0:
448,192,74481,128,0,75259:0:0:0:0:
64,192,74537,128,0,75509:0:0:0:0:
192,192,74592,128,0,75259:0:0:0:0:
320,192,74592,128,0,75176:0:0:0:0:
320,192,75259,128,0,75509:0:0:0:0:
192,192,75592,128,0,76176:0:0:0:0:
64,192,75592,128,0,75926:0:0:0:0:
320,192,75592,128,0,75926:0:0:0:0:
448,192,75592,128,0,76176:0:0:0:0:
64,192,76259,128,0,76842:0:0:0:0:
192,192,76259,128,0,76592:0:0:0:0:
320,192,76259,128,0,76842:0:0:0:0:
448,192,76259,128,0,76592:0:0:0:0:
64,192,76926,128,0,77259:0:0:0:0:
320,192,76926,128,0,77509:0:0:0:0:
192,192,76926,128,0,77259:0:0:0:0:
448,192,76926,128,0,77509:0:0:0:0:
448,192,77592,128,0,77731:0:0:0:0:
320,192,77592,128,0,77926:0:0:0:0:
192,192,77592,128,0,77926:0:0:0:0:
64,192,77592,128,0,77731:0:0:0:0:
448,192,77815,128,0,78176:0:0:0:0:
64,192,77815,128,0,78176:0:0:0:0:
320,192,78259,128,0,78592:0:0:0:0:
64,192,78259,128,0,78842:0:0:0:0:
448,192,78259,128,0,78592:0:0:0:0:
192,192,78259,128,0,78842:0:0:0:0:
192,192,78926,128,0,79259:0:0:0:0:
448,192,78926,128,0,79509:0:0:0:0:
64,192,78926,128,0,79509:0:0:0:0:
320,192,78926,128,0,79259:0:0:0:0:
192,192,79592,128,0,79926:0:0:0:0:
448,192,79592,128,0,79926:0:0:0:0:
64,192,79592,128,0,80176:0:0:0:0:
320,192,79592,128,0,80176:0:0:0:0:
448,192,80259,128,0,80509:0:0:0:0:
192,192,80259,128,0,80842:0:0:0:0:
320,192,80259,128,0,80592:0:0:0:0:
64,192,80259,128,0,80592:0:0:0:0:
448,192,80592,128,0,81259:0:0:0:0:
64,192,80926,128,0,82592:0:0:0:0:
320,192,80926,128,0,81259:0:0:0:0:
192,192,80926,128,0,81509:0:0:0:0:
448,192,81592,128,0,82176:0:0:0:0:
192,192,81592,128,0,81926:0:0:0:0:
320,192,81592,128,0,81926:0:0:0:0:
320,192,82259,128,0,82842:0:0:0:0:
448,192,82259,128,0,83259:0:0:0:0:
192,192,82259,128,0,82592:0:0:0:0:
64,192,82926,128,0,83065:0:0:0:0:
192,192,82926,128,0,83065:0:0:0:0:
320,192,82926,128,0,83259:0:0:0:0:
192,192,83148,128,0,83509:0:0:0:0:
64,192,83148,128,0,83926:0:0:0:0:
448,192,83592,128,0,83926:0:0:0:0:
320,192,83592,128,0,84842:0:0:0:0:
192,192,83592,128,0,84176:0:0:0:0:
448,192,84259,128,0,84592:0:0:0:0:
64,192,84259,128,0,84592:0:0:0:0:
192,192,84259,128,0,84842:0:0:0:0:
448,192,84926,128,0,85509:0:0:0:0:
64,192,84926,128,0,85842:0:0:0:0:
192,192,84926,128,0,85259:0:0:0:0:
320,192,84926,128,0,85259:0:0:0:0:
448,192,85592,128,0,85954:0:0:0:0:
320,192,85592,128,0,85842:0:0:0:0:
192,192,85592,128,0,85842:0:0:0:0:
192,192,85926,128,0,86065:0:0:0:0:
320,192,85926,128,0,86176:0:0:0:0:
64,192,85926,128,0,86842:0:0:0:0:
448,192,86037,128,0,86176:0:0:0:0:
192,192,86148,128,0,86509:0:0:0:0:
448,192,86259,128,0,86620:0:0:0:0:
320,192,86259,128,0,86509:0:0:0:0:
192,192,86592,128,0,86842:0:0:0:0:
320,192,86592,128,0,86731:0:0:0:0:
448,192,86704,128,0,87176:0:0:0:0:
320,192,86815,128,0,87176:0:0:0:0:
192,192,86926,128,0,87398:0:0:0:0:
64,192,86926,128,0,87287:0:0:0:0:
320,192,87259,128,0,87509:0:0:0:0:
448,192,87259,128,0,87509:0:0:0:0:
64,192,87370,128,0,87954:0:0:0:0:
192,192,87481,128,0,87842:0:0:0:0:
320,192,87592,128,0,87842:0:0:0:0:
448,192,87592,128,0,88176:0:0:0:0:
320,192,87926,128,0,88176:0:0:0:0:
192,192,87926,128,0,88065:0:0:0:0:
64,192,88037,128,0,88398:0:0:0:0:
192,192,88148,128,0,88287:0:0:0:0:
320,192,88259,128,0,88620:0:0:0:0:
448,192,88259,128,0,88509:0:0:0:0:
192,192,88370,128,0,88509:0:0:0:0:
64,192,88481,128,0,88842:0:0:0:0:
192,192,88592,128,0,88842:0:0:0:0:
448,192,88592,128,0,88731:0:0:0:0:
320,192,88704,128,0,88954:0:0:0:0:
448,192,88815,128,0,89065:0:0:0:0:
192,192,88926,128,0,89176:0:0:0:0:
64,192,88926,128,0,89287:0:0:0:0:
320,192,89037,128,0,89176:0:0:0:0:
448,192,89148,128,0,89509:0:0:0:0:
192,192,89259,128,0,89509:0:0:0:0:
320,192,89259,128,0,89398:0:0:0:0:
64,192,89370,128,0,89842:0:0:0:0:
320,192,89481,128,0,89620:0:0:0:0:
192,192,89592,128,0,89842:0:0:0:0:
448,192,89592,128,0,89731:0:0:0:0:
320,192,89704,128,0,90176:0:0:0:0:
448,192,89815,128,0,89954:0:0:0:0:
64,192,89926,128,0,90287:0:0:0:0:
192,192,89926,128,0,90065:0:0:0:0:
448,192,90037,128,0,90176:0:0:0:0:
192,192,90148,128,0,90398:0:0:0:0:
448,192,90259,128,0,90509:0:0:0:0:
320,192,90259,128,0,90509:0:0:0:0:
64,192,90370,128,0,90620:0:0:0:0:
192,192,90481,128,0,90842:0:0:0:0:
448,192,90592,128,0,90731:0:0:0:0:
320,192,90592,128,0,90842:0:0:0:0:
64,192,90704,128,0,91065:0:0:0:0:
448,192,90815,128,0,90954:0:0:0:0:
320,192,90926,128,0,91176:0:0:0:0:
192,192,90926,128,0,91176:0:0:0:0:
448,192,91037,128,0,91287:0:0:0:0:
64,192,91148,128,0,91509:0:0:0:0:
192,192,91259,128,0,91398:0:0:0:0:
320,192,91259,128,0,92065:0:0:0:0:
448,192,91370,128,0,91620:0:0:0:0:
192,192,91481,128,0,91731:0:0:0:0:
64,192,91592,128,0,91842:0:0:0:0:
448,192,91704,128,0,91954:0:0:0:0:
192,192,91815,128,0,92398:0:0:0:0:
64,192,91926,128,0,92176:0:0:0:0:
448,192,92037,128,0,92287:0:0:0:0:
320,192,92148,128,0,92620:0:0:0:0:
64,192,92259,128,0,92509:0:0:0:0:
448,192,92370,128,0,92731:0:0:0:0:
192,192,92481,128,0,93065:0:0:0:0:
64,192,92592,128,0,92842:0:0:0:0:
320,192,92704,128,0,92954:0:0:0:0:
448,192,92815,128,0,93287:0:0:0:0:
64,192,92926,128,0,93176:0:0:0:0:
320,192,93037,128,0,93926:0:0:0:0:
192,192,93148,128,0,93398:0:0:0:0:
64,192,93259,128,0,93509:0:0:0:0:
448,192,93370,128,0,93620:0:0:0:0:
192,192,93481,128,0,93731:0:0:0:0:
64,192,93592,128,0,95259:0:0:0:0:
448,192,93704,128,0,93926:0:0:0:0:
192,192,93815,128,0,95259:0:0:0:0:
448,192,95259,128,0,96592:0:0:0:0:
320,192,95259,128,0,96592:0:0:0:0:
