osu file format v14

[General]
AudioFilename: Ice - Entrance.mp3
AudioLeadIn: 2000
PreviewTime: 75148
Countdown: 0
SampleSet: Normal
StackLeniency: 0.7
Mode: 3
LetterboxInBreaks: 0
EpilepsyWarning: 1
SpecialStyle: 0
WidescreenStoryboard: 0

[Editor]
DistanceSpacing: 1.6
BeatDivisor: 4
GridSize: 8
TimelineZoom: 2.5

[Metadata]
Title:[Full LN] training
TitleUnicode:[Full LN] training
Artist:Various Artist
ArtistUnicode:Various Artist
Creator:Allezard
Version:Ice - Entrance Lv. 3
Source:Cytus
Tags:Full LN Training Various Artist Collection 4k NOODLE BMS Deemo Cytus SOUND VOLTEX II -infinite infection- beatmania IIDX
BeatmapID:819049
BeatmapSetID:368373

[Difficulty]
HPDrainRate:6
CircleSize:4
OverallDifficulty:1
ApproachRate:5
SliderMultiplier:1.4
SliderTickRate:1

[Events]
//Background and Video events
0,0,"Ice - Entrance.png",0,0
//Break Periods
//Storyboard Layer 0 (Background)
//Storyboard Layer 1 (Fail)
//Storyboard Layer 2 (Pass)
//Storyboard Layer 3 (Foreground)
//Storyboard Sound Samples

[TimingPoints]
593,333.3333,4,1,0,30,1,0
75259,-100,4,1,0,30,0,1
96592,-100,4,1,0,30,0,0

[HitObjects]
448,192,593,128,0,1176:0:0:0:0:
192,192,593,128,0,1842:0:0:0:0:
320,192,926,128,0,1509:0:0:0:0:
448,192,1259,128,0,3509:0:0:0:0:
320,192,1592,128,0,2176:0:0:0:0:
192,192,1926,128,0,3176:0:0:0:0:
320,192,2259,128,0,2842:0:0:0:0:
64,192,2592,128,0,4842:0:0:0:0:
320,192,2926,128,0,3842:0:0:0:0:
192,192,3259,128,0,4176:0:0:0:0:
448,192,3592,128,0,6176:0:0:0:0:
320,192,3926,128,0,4509:0:0:0:0:
192,192,4259,128,0,5592:0:0:0:0:
320,192,4592,128,0,5176:0:0:0:0:
64,192,4926,128,0,7176:0:0:0:0:
320,192,5259,128,0,5842:0:0:0:0:
192,192,5926,128,0,6509:0:0:0:0:
320,192,5926,128,0,6842:0:0:0:0:
448,192,6259,128,0,9176:0:0:0:0:
192,192,6592,128,0,7509:0:0:0:0:
320,192,6926,128,0,7842:0:0:0:0:
64,192,7259,128,0,8176:0:0:0:0:
192,192,7592,128,0,8842:0:0:0:0:
320,192,7926,128,0,8509:0:0:0:0:
64,192,8259,128,0,11176:0:0:0:0:
320,192,8592,128,0,9509:0:0:0:0:
192,192,8926,128,0,9926:0:0:0:0:
448,192,9259,128,0,13176:0:0:0:0:
320,192,9592,128,0,11176:0:0:0:0:
320,192,11259,128,0,11509:0:0:0:0:
192,192,11259,128,0,12176:0:0:0:0:
64,192,11259,128,0,13842:0:0:0:0:
320,192,11592,128,0,11842:0:0:0:0:
320,192,11926,128,0,12842:0:0:0:0:
192,192,12259,128,0,12509:0:0:0:0:
192,192,12592,128,0,14176:0:0:0:0:
320,192,12926,128,0,14842:0:0:0:0:
448,192,13259,128,0,13509:0:0:0:0:
448,192,13592,128,0,15926:0:0:0:0:
64,192,13926,128,0,15176:0:0:0:0:
192,192,14259,128,0,14509:0:0:0:0:
192,192,14592,128,0,16259:0:0:0:0:
320,192,14926,128,0,16509:0:0:0:0:
64,192,15259,128,0,15509:0:0:0:0:
64,192,15592,128,0,16842:0:0:0:0:
448,192,16259,128,0,17176:0:0:0:0:
320,192,16592,128,0,17842:0:0:0:0:
192,192,16592,128,0,18176:0:0:0:0:
64,192,16926,128,0,20176:0:0:0:0:
448,192,17259,128,0,17509:0:0:0:0:
448,192,17592,128,0,18842:0:0:0:0:
320,192,17926,128,0,19842:0:0:0:0:
192,192,18259,128,0,18509:0:0:0:0:
192,192,18592,128,0,19509:0:0:0:0:
448,192,18926,128,0,19176:0:0:0:0:
448,192,19259,128,0,21926:0:0:0:0:
192,192,19592,128,0,20592:0:0:0:0:
320,192,19926,128,0,21259:0:0:0:0:
64,192,20259,128,0,22926:0:0:0:0:
192,192,21259,128,0,22259:0:0:0:0:
320,192,21926,128,0,22592:0:0:0:0:
448,192,22259,128,0,24926:0:0:0:0:
192,192,22592,128,0,23259:0:0:0:0:
320,192,22926,128,0,24259:0:0:0:0:
64,192,23259,128,0,23592:0:0:0:0:
192,192,23592,128,0,23926:0:0:0:0:
64,192,23926,128,0,25592:0:0:0:0:
192,192,24259,128,0,24592:0:0:0:0:
320,192,24592,128,0,25259:0:0:0:0:
192,192,24926,128,0,26592:0:0:0:0:
448,192,25259,128,0,27926:0:0:0:0:
320,192,25592,128,0,25926:0:0:0:0:
64,192,25926,128,0,26259:0:0:0:0:
320,192,26259,128,0,26926:0:0:0:0:
64,192,26592,128,0,27259:0:0:0:0:
192,192,26926,128,0,27592:0:0:0:0:
320,192,27259,128,0,28259:0:0:0:0:
64,192,27592,128,0,29592:0:0:0:0:
192,192,27926,128,0,28926:0:0:0:0:
448,192,28259,128,0,28592:0:0:0:0:
320,192,28592,128,0,29259:0:0:0:0:
448,192,28926,128,0,29926:0:0:0:0:
192,192,29259,128,0,30259:0:0:0:0:
320,192,29592,128,0,30592:0:0:0:0:
64,192,29926,128,0,30926:0:0:0:0:
448,192,30259,128,0,31259:0:0:0:0:
192,192,30592,128,0,31926:0:0:0:0:
320,192,30926,128,0,31592:0:0:0:0:
64,192,31259,128,0,32509:0:0:0:0:
448,192,31592,128,0,32259:0:0:0:0:
320,192,31926,128,0,32592:0:0:0:0:
192,192,32259,128,0,32926:0:0:0:0:
448,192,32592,128,0,34926:0:0:0:0:
64,192,32592,128,0,33926:0:0:0:0:
320,192,32926,128,0,33259:0:0:0:0:
192,192,33259,128,0,33592:0:0:0:0:
320,192,33592,128,0,34592:0:0:0:0:
192,192,33926,128,0,34259:0:0:0:0:
64,192,34259,128,0,36592:0:0:0:0:
192,192,34592,128,0,35592:0:0:0:0:
320,192,34926,128,0,35259:0:0:0:0:
448,192,35259,128,0,35926:0:0:0:0:
320,192,35592,128,0,36259:0:0:0:0:
192,192,35926,128,0,36926:0:0:0:0:
448,192,36259,128,0,37259:0:0:0:0:
320,192,36592,128,0,37592:0:0:0:0:
64,192,36926,128,0,37259:0:0:0:0:
192,192,37259,128,0,37592:0:0:0:0:
448,192,37592,128,0,38926:0:0:0:0:
64,192,37592,128,0,37926:0:0:0:0:
320,192,37926,128,0,38592:0:0:0:0:
192,192,37926,128,0,38259:0:0:0:0:
64,192,38259,128,0,39259:0:0:0:0:
192,192,38592,128,0,39592:0:0:0:0:
320,192,38926,128,0,39926:0:0:0:0:
448,192,39259,128,0,40259:0:0:0:0:
64,192,39592,128,0,41259:0:0:0:0:
192,192,39926,128,0,40926:0:0:0:0:
320,192,40259,128,0,40592:0:0:0:0:
448,192,40592,128,0,42259:0:0:0:0:
320,192,40926,128,0,41926:0:0:0:0:
192,192,41259,128,0,41592:0:0:0:0:
64,192,41592,128,0,45926:0:0:0:0:
192,192,41926,128,0,42926:0:0:0:0:
320,192,42259,128,0,42592:0:0:0:0:
448,192,42592,128,0,43176:0:0:0:0:
320,192,42926,128,0,43259:0:0:0:0:
448,192,43259,128,0,53842:0:0:0:0:
192,192,43259,128,0,47259:0:0:0:0:
320,192,45926,128,0,48592:0:0:0:0:
64,192,47259,128,0,51259:0:0:0:0:
192,192,48592,128,0,52592:0:0:0:0:
320,192,51259,128,0,55176:0:0:0:0:
64,192,52592,128,0,57842:0:0:0:0:
448,192,53926,128,0,54176:0:0:0:0:
192,192,53926,128,0,56509:0:0:0:0:
448,192,54259,128,0,54509:0:0:0:0:
448,192,54592,128,0,54842:0:0:0:0:
448,192,54926,128,0,63842:0:0:0:0:
320,192,55259,128,0,55509:0:0:0:0:
320,192,55592,128,0,55842:0:0:0:0:
320,192,55926,128,0,56176:0:0:0:0:
320,192,56259,128,0,59509:0:0:0:0:
192,192,56592,128,0,56842:0:0:0:0:
192,192,56926,128,0,57176:0:0:0:0:
192,192,57259,128,0,57509:0:0:0:0:
192,192,57592,128,0,58926:0:0:0:0:
64,192,57926,128,0,58176:0:0:0:0:
64,192,58259,128,0,58592:0:0:0:0:
64,192,58926,128,0,61842:0:0:0:0:
192,192,59259,128,0,59842:0:0:0:0:
320,192,59592,128,0,60509:0:0:0:0:
192,192,59926,128,0,60176:0:0:0:0:
192,192,60259,128,0,61176:0:0:0:0:
320,192,60592,128,0,60842:0:0:0:0:
320,192,60926,128,0,63176:0:0:0:0:
192,192,61259,128,0,61509:0:0:0:0:
192,192,61592,128,0,62509:0:0:0:0:
64,192,61926,128,0,62176:0:0:0:0:
64,192,62259,128,0,64592:0:0:0:0:
192,192,62592,128,0,62842:0:0:0:0:
192,192,62926,128,0,64842:0:0:0:0:
320,192,63259,128,0,63509:0:0:0:0:
320,192,63592,128,0,64509:0:0:0:0:
448,192,63926,128,0,64176:0:0:0:0:
448,192,64259,128,0,65176:0:0:0:0:
320,192,64592,128,0,64926:0:0:0:0:
192,192,64926,128,0,65259:0:0:0:0:
64,192,64926,128,0,65842:0:0:0:0:
448,192,65259,128,0,65592:0:0:0:0:
320,192,65259,128,0,65509:0:0:0:0:
192,192,65592,128,0,66259:0:0:0:0:
320,192,65592,128,0,65926:0:0:0:0:
448,192,65926,128,0,66176:0:0:0:0:
64,192,65926,128,0,66509:0:0:0:0:
448,192,66259,128,0,66842:0:0:0:0:
320,192,66259,128,0,66592:0:0:0:0:
64,192,66592,128,0,67176:0:0:0:0:
192,192,66592,128,0,66926:0:0:0:0:
448,192,66926,128,0,67259:0:0:0:0:
320,192,66926,128,0,67592:0:0:0:0:
64,192,67259,128,0,67926:0:0:0:0:
192,192,67259,128,0,67509:0:0:0:0:
448,192,67592,128,0,68509:0:0:0:0:
192,192,67592,128,0,67842:0:0:0:0:
320,192,67926,128,0,68176:0:0:0:0:
192,192,67926,128,0,68259:0:0:0:0:
64,192,68259,128,0,69259:0:0:0:0:
320,192,68259,128,0,68592:0:0:0:0:
448,192,68592,128,0,68926:0:0:0:0:
192,192,68592,128,0,68842:0:0:0:0:
192,192,68926,128,0,69176:0:0:0:0:
320,192,68926,128,0,69842:0:0:0:0:
192,192,69259,128,0,69592:0:0:0:0:
448,192,69259,128,0,69509:0:0:0:0:
64,192,69592,128,0,72592:0:0:0:0:
448,192,69592,128,0,69926:0:0:0:0:
320,192,69926,128,0,71259:0:0:0:0:
192,192,69926,128,0,73259:0:0:0:0:
448,192,71259,128,0,72592:0:0:0:0:
320,192,72592,128,0,73259:0:0:0:0:
64,192,73259,128,0,73926:0:0:0:0:
448,192,73259,128,0,73926:0:0:0:0:
192,192,73926,128,0,74842:0:0:0:0:
320,192,73926,128,0,75176:0:0:0:0:
64,192,74592,128,0,74842:0:0:0:0:
448,192,74592,128,0,75842:0:0:0:0:
64,192,74926,128,0,75509:0:0:0:0:
192,192,74926,128,0,75176:0:0:0:0:
192,192,75259,128,0,75509:0:0:0:0:
320,192,75259,128,0,75842:0:0:0:0:
192,192,75592,128,0,76842:0:0:0:0:
64,192,75592,128,0,76509:0:0:0:0:
320,192,75926,128,0,76176:0:0:0:0:
448,192,75926,128,0,76176:0:0:0:0:
448,192,76259,128,0,76842:0:0:0:0:
320,192,76259,128,0,76509:0:0:0:0:
64,192,76592,128,0,77842:0:0:0:0:
320,192,76592,128,0,77176:0:0:0:0:
448,192,76926,128,0,77509:0:0:0:0:
192,192,76926,128,0,77176:0:0:0:0:
192,192,77259,128,0,77842:0:0:0:0:
320,192,77259,128,0,77509:0:0:0:0:
448,192,77592,128,0,78176:0:0:0:0:
320,192,77592,128,0,77759:0:0:0:0:
320,192,77842,128,0,78176:0:0:0:0:
64,192,77926,128,0,79509:0:0:0:0:
192,192,77926,128,0,78509:0:0:0:0:
448,192,78259,128,0,78842:0:0:0:0:
320,192,78259,128,0,78509:0:0:0:0:
320,192,78592,128,0,78842:0:0:0:0:
192,192,78592,128,0,79176:0:0:0:0:
448,192,78926,128,0,79842:0:0:0:0:
320,192,78926,128,0,79176:0:0:0:0:
192,192,79259,128,0,79509:0:0:0:0:
320,192,79259,128,0,79842:0:0:0:0:
192,192,79592,128,0,80509:0:0:0:0:
64,192,79592,128,0,80426:0:0:0:0:
448,192,79926,128,0,80176:0:0:0:0:
320,192,79926,128,0,80092:0:0:0:0:
320,192,80176,128,0,80842:0:0:0:0:
448,192,80259,128,0,80509:0:0:0:0:
64,192,80509,128,0,80842:0:0:0:0:
448,192,80592,128,0,81509:0:0:0:0:
192,192,80592,128,0,81176:0:0:0:0:
320,192,80926,128,0,81509:0:0:0:0:
64,192,80926,128,0,81176:0:0:0:0:
192,192,81259,128,0,81842:0:0:0:0:
64,192,81259,128,0,82176:0:0:0:0:
448,192,81592,128,0,83176:0:0:0:0:
320,192,81592,128,0,81842:0:0:0:0:
320,192,81926,128,0,82509:0:0:0:0:
192,192,81926,128,0,82176:0:0:0:0:
192,192,82259,128,0,82509:0:0:0:0:
64,192,82259,128,0,82842:0:0:0:0:
320,192,82592,128,0,83176:0:0:0:0:
192,192,82592,128,0,82842:0:0:0:0:
192,192,82926,128,0,83092:0:0:0:0:
64,192,82926,128,0,84509:0:0:0:0:
192,192,83176,128,0,83509:0:0:0:0:
448,192,83259,128,0,83842:0:0:0:0:
320,192,83259,128,0,83509:0:0:0:0:
192,192,83592,128,0,85509:0:0:0:0:
320,192,83592,128,0,83842:0:0:0:0:
320,192,83926,128,0,84176:0:0:0:0:
448,192,83926,128,0,84176:0:0:0:0:
320,192,84259,128,0,85509:0:0:0:0:
448,192,84259,128,0,84842:0:0:0:0:
64,192,84592,128,0,85176:0:0:0:0:
448,192,84926,128,0,85842:0:0:0:0:
64,192,85259,128,0,85842:0:0:0:0:
320,192,85592,128,0,86842:0:0:0:0:
192,192,85592,128,0,86842:0:0:0:0:
448,192,85926,128,0,86176:0:0:0:0:
64,192,85926,128,0,86176:0:0:0:0:
448,192,86259,128,0,86509:0:0:0:0:
64,192,86259,128,0,86509:0:0:0:0:
448,192,86592,128,0,87509:0:0:0:0:
64,192,86592,128,0,87176:0:0:0:0:
320,192,86926,128,0,87176:0:0:0:0:
192,192,86926,128,0,87509:0:0:0:0:
320,192,87259,128,0,87842:0:0:0:0:
64,192,87259,128,0,87842:0:0:0:0:
448,192,87592,128,0,88176:0:0:0:0:
192,192,87592,128,0,88176:0:0:0:0:
320,192,87926,128,0,88509:0:0:0:0:
64,192,87926,128,0,88509:0:0:0:0:
448,192,88259,128,0,88426:0:0:0:0:
192,192,88259,128,0,89176:0:0:0:0:
448,192,88509,128,0,88842:0:0:0:0:
320,192,88592,128,0,88842:0:0:0:0:
64,192,88592,128,0,89509:0:0:0:0:
448,192,88926,128,0,89176:0:0:0:0:
320,192,88926,128,0,89509:0:0:0:0:
448,192,89259,128,0,89842:0:0:0:0:
192,192,89259,128,0,89842:0:0:0:0:
320,192,89592,128,0,90176:0:0:0:0:
64,192,89592,128,0,90176:0:0:0:0:
192,192,89926,128,0,90509:0:0:0:0:
448,192,89926,128,0,90509:0:0:0:0:
320,192,90259,128,0,91426:0:0:0:0:
64,192,90259,128,0,90842:0:0:0:0:
448,192,90592,128,0,91176:0:0:0:0:
192,192,90592,128,0,91176:0:0:0:0:
64,192,90926,128,0,91509:0:0:0:0:
448,192,91259,128,0,92509:0:0:0:0:
192,192,91259,128,0,91509:0:0:0:0:
320,192,91509,128,0,91759:0:0:0:0:
192,192,91592,128,0,91842:0:0:0:0:
64,192,91592,128,0,91842:0:0:0:0:
320,192,91842,128,0,92092:0:0:0:0:
192,192,91926,128,0,92176:0:0:0:0:
64,192,91926,128,0,92176:0:0:0:0:
320,192,92176,128,0,92509:0:0:0:0:
192,192,92259,128,0,92426:0:0:0:0:
64,192,92259,128,0,93509:0:0:0:0:
192,192,92509,128,0,92759:0:0:0:0:
320,192,92592,128,0,92842:0:0:0:0:
448,192,92592,128,0,92842:0:0:0:0:
192,192,92842,128,0,93092:0:0:0:0:
320,192,92926,128,0,93176:0:0:0:0:
448,192,92926,128,0,93176:0:0:0:0:
192,192,93176,128,0,93509:0:0:0:0:
448,192,93259,128,0,93926:0:0:0:0:
320,192,93259,128,0,93426:0:0:0:0:
320,192,93509,128,0,93759:0:0:0:0:
192,192,93592,128,0,95259:0:0:0:0:
64,192,93592,128,0,93926:0:0:0:0:
320,192,93842,128,0,94592:0:0:0:0:
448,192,95259,128,0,96592:0:0:0:0:
320,192,95259,128,0,95926:0:0:0:0:
64,192,95259,128,0,96592:0:0:0:0:
